<?xml version="1.0" standalone="no"?>
<!DOCTYPE svg PUBLIC "-//W3C//DTD SVG 1.1//EN" "http://www.w3.org/Graphics/SVG/1.1/DTD/svg11.dtd" >
<svg xmlns="http://www.w3.org/2000/svg" xmlns:xlink="http://www.w3.org/1999/xlink" version="1.1">
<metadata></metadata>
<defs>
<font id="apex_newlight" horiz-adv-x="1232" >
<font-face units-per-em="2048" ascent="1536" descent="-512" />
<missing-glyph horiz-adv-x="348" />
<glyph unicode="&#xfb01;" horiz-adv-x="1269" d="M51 969v35l195 22v145q0 196 135.5 285.5t409.5 89.5q142 0 241 -24v-58q-111 27 -244 27q-481 0 -481 -305v-162h725v-881q0 -59 19.5 -81.5t74.5 -22.5v-49q-81 0 -118 36.5t-37 112.5v830h-664v-969h-61v969h-195z" />
<glyph unicode="&#xfb02;" horiz-adv-x="1269" d="M51 969v35l195 22v145q0 196 135.5 285.5t409.5 89.5q142 0 241 -24v-1379q0 -59 19.5 -81.5t74.5 -22.5v-49q-81 0 -118 36.5t-37 112.5v1338q-77 14 -183 14q-481 0 -481 -305v-162h350v-55h-350v-969h-61v969h-195z" />
<glyph unicode="&#xfb03;" horiz-adv-x="1966" d="M51 969v35l195 22v231q0 289 356 289q87 0 127 -8v-55q-50 8 -127 8q-295 0 -295 -234v-233h635v147q0 196 135.5 285.5t409.5 89.5q143 0 242 -24v-58q-111 27 -244 27q-481 0 -481 -305v-162h725v-881q0 -59 19.5 -81.5t74.5 -22.5v-49q-81 0 -118.5 36.5t-37.5 112.5 v830h-663v-969h-62v969h-635v-969h-61v969h-195z" />
<glyph unicode="&#xfb04;" horiz-adv-x="1966" d="M51 969v35l195 22v231q0 289 356 289q87 0 127 -8v-55q-50 8 -127 8q-295 0 -295 -234v-233h635v147q0 196 135.5 285.5t409.5 89.5q143 0 242 -24v-1379q0 -59 19.5 -81.5t74.5 -22.5v-49q-81 0 -118.5 36.5t-37.5 112.5v1338q-77 14 -182 14q-481 0 -481 -305v-162h350 v-55h-350v-969h-62v969h-635v-969h-61v969h-195z" />
<glyph horiz-adv-x="0" />
<glyph horiz-adv-x="682" />
<glyph unicode=" "  horiz-adv-x="348" />
<glyph unicode="&#x09;" horiz-adv-x="348" />
<glyph unicode="&#xa0;" horiz-adv-x="348" />
<glyph unicode="!" horiz-adv-x="389" d="M133 51q0 25 18 43.5t44 18.5q25 0 43 -18.5t18 -43.5q0 -26 -18 -43.5t-43 -17.5q-26 0 -44 17.5t-18 43.5zM150 1536h90l-29 -1106h-33z" />
<glyph unicode="&#x22;" horiz-adv-x="614" d="M133 1536h103l-33 -512h-37zM379 1536h102l-32 -512h-37z" />
<glyph unicode="#" d="M51 377l17 57h225l123 412h-226l17 57h227l113 377h67l-112 -377h387l112 377h68l-113 -377h226l-17 -57h-227l-123 -412h227l-16 -57h-227l-113 -377h-68l113 377h-387l-113 -377h-67l112 377h-225zM360 434h388l122 412h-387z" />
<glyph unicode="$" horiz-adv-x="1167" d="M115 874q0 152 119 220.5t374 68.5q26 0 84 -4l86 248h58l-93 -252q184 -16 281 -53v-55q-52 20 -177.5 40.5t-238.5 20.5q-231 0 -332.5 -50.5t-101.5 -183.5q0 -100 87 -140q66 -29 251 -43q19 -1 74 -5q77 -6 125 -10.5t103 -14t87 -21.5t65 -31.5t49.5 -45.5t27 -63 t10.5 -84q0 -150 -124 -223.5t-392 -73.5h-60l-84 -246h-57l92 250q-218 18 -307 57v56q52 -20 178 -41t238 -21q234 0 343 56.5t109 183.5q0 114 -81 159q-60 33 -228 50q-20 2 -92 8q-224 20 -293 36q-124 30 -160 105q-20 41 -20 102z" />
<glyph unicode="%" horiz-adv-x="2004" d="M113 903q0 202 81.5 294.5t260.5 92.5q177 0 258.5 -92.5t81.5 -294.5q0 -205 -81 -297t-259 -92q-179 0 -260.5 92t-81.5 297zM176 903q0 -179 68 -256.5t211 -77.5q141 0 208.5 77.5t67.5 256.5t-67 255.5t-209 76.5q-143 0 -211 -76.5t-68 -255.5zM512 0l905 1280h76 l-905 -1280h-76zM1210 377q0 205 81 297t259 92q179 0 260.5 -92t81.5 -297q0 -202 -81.5 -294.5t-260.5 -92.5q-177 0 -258.5 92.5t-81.5 294.5zM1274 377q0 -179 67 -255.5t209 -76.5q143 0 211 76.5t68 255.5t-68 256.5t-211 77.5q-141 0 -208.5 -77.5t-67.5 -256.5z" />
<glyph unicode="&#x26;" horiz-adv-x="1488" d="M70 391q0 76 17 137.5t43 104.5t71 81.5t87 63.5t105 56q-102 199 -102 389q0 48 10 92.5t34.5 87.5t61 74t93.5 50t128 19q88 0 154 -27.5t102.5 -74t54 -100.5t17.5 -115q0 -33 -7.5 -63.5t-17 -55t-30.5 -50t-37.5 -43t-48.5 -39t-52 -34.5t-60 -33.5t-61 -30.5 t-66.5 -31t-65.5 -30l-25 -12q66 -110 139 -197q178 -221 412 -370q131 129 201.5 329.5t70.5 454.5h64q0 -264 -73.5 -472.5t-207.5 -344.5q134 -80 349 -166l-19 -51q-235 96 -371 178q-205 -178 -497 -178q-96 0 -177.5 21.5t-149.5 66.5t-107 125t-39 188zM133 391 q0 -79 25.5 -141t66.5 -99.5t96.5 -62t109.5 -34t112 -9.5q253 0 442 156q-243 156 -412 368q-89 106 -151 213q-76 -37 -122.5 -67.5t-88 -75.5t-60 -105.5t-18.5 -142.5zM354 1229q0 -186 95 -371l28 14q24 11 72 32.5t74 33.5t66.5 33.5t63.5 38t51.5 41.5t43 50t25 58 t10.5 70q0 54 -13 98.5t-42 82.5t-82.5 59.5t-127.5 21.5q-142 0 -203 -73t-61 -189z" />
<glyph unicode="'" horiz-adv-x="368" d="M133 1536h103l-33 -512h-37z" />
<glyph unicode="(" horiz-adv-x="573" d="M143 614q0 176 22.5 342t60 294t76.5 222.5t81 165.5h70q-43 -68 -83 -163t-77.5 -223t-60.5 -294.5t-23 -343.5t23 -343.5t60.5 -294.5t77.5 -223t83 -163h-70q-42 71 -81 165.5t-76.5 222.5t-60 294t-22.5 342z" />
<glyph unicode=")" horiz-adv-x="573" d="M121 -410q43 68 83 163t77.5 223t60.5 294.5t23 343.5t-23 343.5t-60.5 294.5t-77.5 223t-83 163h69q42 -71 81 -165.5t76.5 -222.5t60 -294t22.5 -342t-22.5 -342t-60 -294t-76.5 -222.5t-81 -165.5h-69z" />
<glyph unicode="*" horiz-adv-x="727" d="M-2 1247l22 66l236 -105l-4 -14zM119 881l174 192l12 -8l-129 -225zM330 1536h69l-26 -258h-17zM426 1065l12 8l174 -192l-57 -41zM473 1208l238 107l20 -68l-254 -53z" />
<glyph unicode="+" horiz-adv-x="1228" d="M215 670v57h371v371h57v-371h371v-57h-371v-371h-57v371h-371z" />
<glyph unicode="," horiz-adv-x="389" d="M102 -256l48 358h92l-99 -358h-41z" />
<glyph unicode="-" horiz-adv-x="696" d="M113 670v57h471v-57h-471z" />
<glyph unicode="." horiz-adv-x="389" d="M133 51q0 25 18 43.5t44 18.5q25 0 43 -18.5t18 -43.5q0 -26 -18 -43.5t-43 -17.5q-26 0 -44 17.5t-18 43.5z" />
<glyph unicode="/" horiz-adv-x="774" d="M0 -410l707 2048h67l-706 -2048h-68z" />
<glyph unicode="0" horiz-adv-x="1228" d="M123 641q0 171 23 288t79 200.5t151 122t236 38.5q142 0 237.5 -38.5t152.5 -122t80.5 -200.5t23.5 -288q0 -136 -15 -236.5t-49.5 -181t-91 -131t-140.5 -76.5t-198 -26q-141 0 -236 39t-150.5 123t-79 201.5t-23.5 287.5zM186 641q0 -158 21 -266.5t70.5 -184.5 t131.5 -110.5t203 -34.5q238 0 334 140.5t96 455.5t-96 454.5t-334 139.5q-121 0 -203 -34.5t-131.5 -109.5t-70.5 -183.5t-21 -266.5z" />
<glyph unicode="1" horiz-adv-x="696" d="M59 1161v31l336 98h25v-1290h-62v1229z" />
<glyph unicode="2" horiz-adv-x="1060" d="M72 0v37q190 155 313.5 259.5t220.5 195t148.5 148.5t84.5 116t42.5 101.5t9.5 100.5q0 145 -87.5 211t-295.5 66q-175 0 -336 -53v57q140 53 334 53q105 0 185 -18.5t129.5 -49t80 -75t42 -91t11.5 -102.5q0 -70 -15.5 -124t-59.5 -123.5t-134.5 -158.5t-228.5 -207 t-354 -290h807v-53h-897z" />
<glyph unicode="3" horiz-adv-x="1015" d="M113 -158q149 -53 319 -53q104 0 181.5 20.5t124 53.5t74.5 83.5t38 101.5t10 116q0 187 -99 267.5t-315 80.5h-186v57h186q359 0 359 332q0 61 -8.5 107.5t-33 91t-66.5 72.5t-112.5 45.5t-166.5 17.5q-140 0 -305 -49v57q63 20 150 33.5t155 13.5q129 0 219 -28 t139.5 -82t70.5 -121.5t21 -157.5q0 -49 -8.5 -94.5t-29 -91t-52 -80t-81.5 -59t-113 -31.5q73 -2 131.5 -24.5t96.5 -58.5t64 -85.5t37 -102t11 -110.5q0 -75 -13 -136t-47 -117t-88.5 -94t-141.5 -60.5t-202 -22.5q-196 0 -319 53v55z" />
<glyph unicode="4" horiz-adv-x="1183" d="M92 256v37l754 997h35v-985h231v-49h-231v-512h-62v512h-727zM170 305h649v858z" />
<glyph unicode="5" horiz-adv-x="993" d="M92 -156q128 -55 287 -55q483 0 483 440q0 78 -14.5 138t-35 100t-60.5 67t-72 41t-90 21.5t-95 8.5t-104 1h-246v674h746v-49h-684v-572q126 7 235 7q61 0 109 -4t100 -15.5t91 -31t75 -52.5t59 -78t36.5 -110t13.5 -146q0 -495 -549 -495q-93 0 -156.5 13t-128.5 40v57 z" />
<glyph unicode="6" horiz-adv-x="1130" d="M123 729q0 162 14 283.5t49 225.5t93.5 169.5t149 102t214.5 36.5q114 0 183.5 -13.5t138.5 -39.5v-57q-84 31 -151 43t-171 12q-93 0 -166.5 -25t-123.5 -74t-85 -112.5t-54.5 -149t-27.5 -174t-8 -196.5v-78q62 293 408 293q110 0 190 -28.5t126 -73t73 -112.5 t35 -132.5t8 -147.5q0 -80 -10 -146t-39 -132.5t-76 -111.5t-125 -73t-182 -28q-114 0 -194 28t-132.5 82t-82.5 146.5t-42 206t-12 276.5zM195 479q0 -74 9.5 -133.5t35.5 -117.5t69 -97t113 -62.5t164 -23.5q87 0 152.5 23t106 61.5t65.5 95.5t34.5 118.5t9.5 137.5 q0 78 -7.5 137.5t-31 119t-63 97.5t-107 61.5t-159.5 23.5q-391 0 -391 -441z" />
<glyph unicode="7" horiz-adv-x="890" d="M31 1231v49h829v-53l-596 -1483h-63l608 1487h-778z" />
<glyph unicode="8" horiz-adv-x="1146" d="M88 403q0 182 84 285t229 115q-258 56 -258 354q0 90 22 159t71 122t133.5 80.5t203.5 27.5t203.5 -27.5t133.5 -80.5t71.5 -122t22.5 -159q0 -297 -259 -354q145 -12 229.5 -115t84.5 -285q0 -413 -486 -413q-485 0 -485 413zM152 403q0 -358 421 -358q422 0 422 358 q0 193 -102 280t-320 87q-217 0 -319 -87t-102 -280zM207 1157q0 -157 83.5 -244.5t282.5 -87.5t283 87.5t84 244.5q0 75 -16 131.5t-55 104.5t-113.5 73t-182.5 25q-87 0 -152.5 -17.5t-105.5 -46.5t-65 -72.5t-34 -90.5t-9 -107z" />
<glyph unicode="9" horiz-adv-x="1130" d="M113 799q0 80 10 146t39 132.5t76 111.5t125 73t182 28q114 0 194 -28t132.5 -82t82.5 -146.5t42 -206t12 -276.5q0 -114 -7 -207t-23.5 -179t-43 -151.5t-67 -119.5t-94.5 -88.5t-125.5 -53t-160.5 -18.5q-114 0 -183 13.5t-138 39.5v57q84 -31 150.5 -43t170.5 -12 q93 0 166.5 25t123.5 74t85 112.5t54.5 149t27.5 174t8 196.5v78q-62 -293 -407 -293q-110 0 -190 28.5t-126 73t-73 112.5t-35 132.5t-8 147.5zM176 799q0 -78 7.5 -137.5t31 -119t63.5 -97.5t107.5 -61.5t159.5 -23.5q391 0 391 441q0 74 -9.5 133.5t-35.5 117.5t-69 97 t-113 62.5t-164 23.5q-87 0 -152.5 -23t-106 -61.5t-66 -95.5t-35 -118.5t-9.5 -137.5z" />
<glyph unicode=":" horiz-adv-x="389" d="M133 51q0 25 18 43.5t44 18.5q25 0 43 -18.5t18 -43.5q0 -26 -18 -43.5t-43 -17.5q-26 0 -44 17.5t-18 43.5zM133 768q0 25 18 43t44 18q25 0 43 -18t18 -43q0 -26 -18 -43.5t-43 -17.5q-26 0 -44 17.5t-18 43.5z" />
<glyph unicode=";" horiz-adv-x="389" d="M102 -256l48 358h92l-99 -358h-41zM133 768q0 25 18 43t44 18q25 0 43 -18t18 -43q0 -26 -18 -43.5t-43 -17.5q-26 0 -44 17.5t-18 43.5z" />
<glyph unicode="&#x3c;" horiz-adv-x="1228" d="M215 678v41l799 448v-67l-727 -402l727 -401v-68z" />
<glyph unicode="=" horiz-adv-x="1228" d="M215 524v58h799v-58h-799zM215 815v57h799v-57h-799z" />
<glyph unicode="&#x3e;" horiz-adv-x="1228" d="M215 229v68l727 401l-727 402v67l799 -448v-41z" />
<glyph unicode="?" horiz-adv-x="962" d="M61 1446v55q48 18 138.5 31.5t158.5 13.5q105 0 187 -14.5t135.5 -42.5t90 -63t55.5 -82t26.5 -92t7.5 -101q0 -67 -9.5 -119t-30.5 -90t-45.5 -64.5t-64 -49t-76 -38.5t-91.5 -37q-41 -15 -62 -24q-64 -27 -100.5 -55t-51 -62t-17 -78.5t0.5 -103.5h-37q-10 50 -10 86 q0 107 47 168.5t168 106.5q17 7 49 18t49 17t44.5 18t42.5 21.5t36.5 25.5t33.5 32t26 39.5t20.5 50t11.5 61.5t5 75q0 61 -10 108.5t-39 93t-76.5 75t-127 47.5t-186.5 18q-134 0 -299 -45zM272 51q0 25 18 43.5t44 18.5q25 0 43 -18.5t18 -43.5q0 -26 -18 -43.5t-43 -17.5 q-26 0 -44 17.5t-18 43.5z" />
<glyph unicode="@" horiz-adv-x="1755" d="M92 512q0 391 195 584.5t616 193.5q270 0 439.5 -75.5t245 -218t75.5 -361.5q0 -204 -46 -323t-138 -169.5t-246 -50.5h-78l-25 80q-107 -90 -294 -90q-177 0 -270 106.5t-93 323.5t93 323.5t270 106.5q187 0 294 -90l25 80h33v-791h41q95 0 162.5 22.5t108.5 60.5 t64.5 103t31.5 135.5t8 172.5q0 148 -37 256t-118.5 186t-217 117t-328.5 39q-388 0 -567.5 -174.5t-179.5 -546.5t179.5 -546.5t567.5 -174.5q139 0 284.5 23.5t237.5 56.5l2 -61q-239 -76 -524 -76q-421 0 -616 193.5t-195 584.5zM537 512q0 -185 72.5 -280t246.5 -95 q85 0 146.5 20t123.5 66v578q-62 46 -123.5 66t-146.5 20q-174 0 -246.5 -95t-72.5 -280z" />
<glyph unicode="A" d="M51 0l543 1546h45l543 -1546h-76l-154 444h-673l-152 -444h-76zM297 502h637l-318 930z" />
<glyph unicode="B" horiz-adv-x="1206" d="M143 0v1536h467q126 0 217.5 -29.5t143.5 -83t76 -121t24 -151.5q0 -142 -79.5 -240t-217.5 -110q172 0 261 -107.5t89 -279.5q0 -91 -26 -163.5t-82.5 -130t-155 -89t-233.5 -31.5h-484zM209 59h432q99 0 174.5 20t121 52t73.5 79.5t38.5 96t10.5 107.5q0 190 -94 272 t-320 82h-436v-709zM209 825h436q102 0 175 27t112 75t56.5 103t17.5 121q0 55 -8 99t-32 88t-64.5 73t-110 47.5t-162.5 18.5h-420v-652z" />
<glyph unicode="C" horiz-adv-x="1196" d="M113 768q0 153 18 271.5t60.5 216t110.5 160t169.5 96.5t235.5 34q229 0 376 -59v-64q-95 35 -179.5 49.5t-196.5 14.5q-282 0 -405.5 -176t-123.5 -543t123.5 -543t405.5 -176q112 0 196.5 14.5t179.5 49.5v-64q-147 -59 -376 -59q-134 0 -235.5 34t-169.5 96.5 t-110.5 160t-60.5 216t-18 271.5z" />
<glyph unicode="D" horiz-adv-x="1290" d="M143 0v1536h445q103 0 185.5 -17.5t143.5 -50t106.5 -83.5t75 -112t47.5 -142.5t25 -168t7 -194.5t-7 -194.5t-25 -168t-47.5 -142.5t-75 -112t-106.5 -83.5t-143.5 -50t-185.5 -17.5h-445zM209 59h369q127 0 219 29t152.5 83t96 143t50 197t14.5 257t-14.5 257t-50 197 t-96 143t-152.5 83t-219 29h-369v-1418z" />
<glyph unicode="E" horiz-adv-x="1107" d="M143 0v1536h852v-59h-786v-652h711v-57h-711v-709h786v-59h-852z" />
<glyph unicode="F" horiz-adv-x="1056" d="M143 0v1536h832v-59h-766v-652h690v-57h-690v-768h-66z" />
<glyph unicode="G" horiz-adv-x="1302" d="M113 768q0 153 18 271.5t60.5 216t110.5 160t169.5 96.5t235.5 34q252 0 409 -73v-64q-191 78 -409 78q-282 0 -405.5 -176t-123.5 -543t123.5 -543t405.5 -176q245 0 387 68v594h-334v57h399v-698q-190 -80 -452 -80q-134 0 -235.5 34t-169.5 96.5t-110.5 160t-60.5 216 t-18 271.5z" />
<glyph unicode="H" horiz-adv-x="1298" d="M143 0v1536h66v-711h881v711h65v-1536h-65v768h-881v-768h-66z" />
<glyph unicode="I" horiz-adv-x="442" d="M188 0v1536h66v-1536h-66z" />
<glyph unicode="J" horiz-adv-x="718" d="M61 -4v55q36 -6 109 -6q135 0 207 49.5t72 171.5v1270h65v-1266q0 -280 -344 -280q-60 0 -109 6z" />
<glyph unicode="K" horiz-adv-x="1122" d="M143 0v1536h60v-858l741 858h76l-594 -682l666 -854h-80l-623 811l-186 -215v-596h-60z" />
<glyph unicode="L" horiz-adv-x="1001" d="M143 0v1536h64v-1477h743v-59h-807z" />
<glyph unicode="M" horiz-adv-x="1536" d="M143 0v1536h43l582 -1251l582 1251h43v-1536h-68l2 1331l-528 -1120h-62l-528 1120l2 -1331h-68z" />
<glyph unicode="N" horiz-adv-x="1318" d="M143 0v1536h41l928 -1393l-4 1393h68v-1536h-41l-928 1393l4 -1393h-68z" />
<glyph unicode="O" horiz-adv-x="1347" d="M113 768q0 83 3 150t11.5 136t22.5 123.5t36 107t52.5 91t72.5 72t95 54.5t120 32.5t148 11.5q104 0 186 -19.5t140.5 -52.5t101 -87.5t68 -115.5t40.5 -145.5t20 -167t5 -190.5t-5 -190.5t-20 -167t-40.5 -145.5t-68 -115.5t-101 -87.5t-140.5 -52.5t-186 -19.5 q-81 0 -148 11.5t-120 32.5t-95 54.5t-72.5 72t-52.5 91t-36 107t-22.5 123.5t-11.5 136t-3 150zM178 768q0 -107 5.5 -188.5t19 -159.5t37.5 -133.5t61.5 -102.5t89.5 -75.5t122.5 -44t160.5 -15.5t160.5 15.5t122.5 44t89 75.5t61 102.5t37.5 133.5t19 159.5t5.5 188.5 t-5.5 188.5t-19 159.5t-37.5 133.5t-61 102.5t-89 75.5t-122.5 44t-160.5 15.5t-160.5 -15.5t-122.5 -44t-89.5 -75.5t-61.5 -102.5t-37.5 -133.5t-19 -159.5t-5.5 -188.5z" />
<glyph unicode="P" horiz-adv-x="1153" d="M143 0v1536h480q469 0 469 -444q0 -443 -469 -443h-414v-649h-66zM209 707h424q98 0 171 24t114.5 60.5t66.5 90.5t33 102.5t8 107.5t-8 108t-33 102.5t-66.5 90t-114.5 60.5t-171 24h-424v-770z" />
<glyph unicode="Q" horiz-adv-x="1347" d="M113 768q0 83 3 150t11.5 136t22.5 123.5t36 107t52.5 91t72.5 72t95 54.5t120 32.5t148 11.5q104 0 186 -19.5t140.5 -52.5t101 -87.5t68 -115.5t40.5 -145.5t20 -167t5 -190.5q0 -103 -4.5 -182.5t-18 -161t-36.5 -141.5t-60.5 -114.5t-89 -89.5t-124 -58t-163.5 -29 v-2l703 -162v-72l-961 254q-69 18 -123 49t-92.5 70t-66 93t-44 110t-26.5 130.5t-13 144.5t-3 161zM178 768q0 -107 5.5 -188.5t19 -159.5t37.5 -133.5t61.5 -102.5t89.5 -75.5t122.5 -44t160.5 -15.5t160.5 15.5t122.5 44t89 75.5t61 102.5t37.5 133.5t19 159.5t5.5 188.5 t-5.5 188.5t-19 159.5t-37.5 133.5t-61 102.5t-89 75.5t-122.5 44t-160.5 15.5t-160.5 -15.5t-122.5 -44t-89.5 -75.5t-61.5 -102.5t-37.5 -133.5t-19 -159.5t-5.5 -188.5z" />
<glyph unicode="R" horiz-adv-x="1193" d="M143 0v1536h484q113 0 195.5 -18.5t134.5 -51.5t83 -86t42.5 -114t11.5 -144q0 -89 -14.5 -153.5t-50 -118.5t-100.5 -86.5t-161 -46.5l385 -717h-80l-371 711q-25 -2 -75 -2h-418v-709h-66zM209 768h448q68 0 122.5 9.5t93 26t66.5 42t45 54t27 66.5t13.5 74t3.5 82 q0 65 -7.5 113t-30.5 96t-62.5 78.5t-108 49t-162.5 18.5h-448v-709z" />
<glyph unicode="S" horiz-adv-x="1165" d="M100 59v62q193 -72 412 -72q487 0 487 375q0 68 -6 113.5t-25 83t-45.5 60t-76 40.5t-108 28.5t-148.5 20.5q-76 9 -130.5 18t-106.5 23t-86.5 33.5t-64.5 46.5t-46.5 64t-25.5 84.5t-9 109.5t12.5 115.5t47 107t89 91t144 60.5t207.5 23q229 0 376 -59v-64 q-95 35 -179.5 49.5t-196.5 14.5q-102 0 -179.5 -18t-126 -48.5t-78.5 -75t-41.5 -92t-11.5 -106.5q0 -47 4.5 -84t17 -67t28 -51.5t43 -39t56.5 -29t74 -21.5t89.5 -16.5t109.5 -13.5q64 -7 108 -13.5t92 -17t79.5 -25t64 -35.5t51.5 -49t35 -65.5t22.5 -86t6.5 -109.5 q0 -54 -10 -103t-33 -99.5t-65 -91t-101.5 -73t-147.5 -50t-198 -17.5q-99 0 -218 20t-192 49z" />
<glyph unicode="T" horiz-adv-x="1081" d="M61 1479v57h959v-57h-447v-1479h-65v1479h-447z" />
<glyph unicode="U" horiz-adv-x="1318" d="M133 498v1038h64v-1036q0 -131 29.5 -219.5t90.5 -139t143 -71.5t199 -21t199 21t143.5 71.5t91 139t29.5 219.5v1036h64v-1038q0 -103 -19 -184.5t-55 -136t-82 -92t-108 -58t-124.5 -29t-138.5 -8.5q-65 0 -119.5 6t-109.5 21t-98 39.5t-81.5 64t-63.5 91.5 t-39.5 124.5t-14.5 161.5z" />
<glyph unicode="V" d="M51 1536h72l493 -1434l494 1434h72l-543 -1546h-45z" />
<glyph unicode="W" horiz-adv-x="1654" d="M51 1536h68l311 -1423l369 1423h57l369 -1423l311 1423h68l-353 -1546h-53l-371 1417l-370 -1417h-54z" />
<glyph unicode="X" horiz-adv-x="1181" d="M41 0l512 778l-496 758h82l451 -709l452 709h82l-497 -758l514 -778h-86l-465 729l-463 -729h-86z" />
<glyph unicode="Y" horiz-adv-x="1265" d="M51 1536h80l502 -848l502 848h79l-548 -907v-629h-66v629z" />
<glyph unicode="Z" horiz-adv-x="1200" d="M72 0v45l948 1434h-905v57h983v-45l-948 -1434h978v-57h-1056z" />
<glyph unicode="[" horiz-adv-x="573" d="M188 -410v2048h277v-59h-213v-1929h213v-60h-277z" />
<glyph unicode="\" horiz-adv-x="774" d="M0 1638h68l706 -2048h-67z" />
<glyph unicode="]" horiz-adv-x="573" d="M109 -350h213v1929h-213v59h276v-2048h-276v60z" />
<glyph unicode="^" horiz-adv-x="1044" d="M141 1024l373 512h57l373 -512h-47l-354 457l-355 -457h-47z" />
<glyph unicode="_" horiz-adv-x="593" d="M0 -455h594v-57h-594v57z" />
<glyph unicode="`" horiz-adv-x="1167" d="M410 1536h71l123 -410h-41z" />
<glyph unicode="a" horiz-adv-x="1007" d="M113 303q0 63 16.5 113t55 93.5t111 70.5t175.5 34l338 21v74q0 76 -13.5 124.5t-48 82.5t-94.5 48.5t-153 14.5q-175 0 -295 -43v55q123 43 295 43q92 0 159 -15t108 -41.5t65.5 -69t33 -89.5t8.5 -112v-707h-30l-29 80q-60 -43 -160.5 -66.5t-185.5 -23.5 q-95 0 -166 25.5t-111.5 70t-59.5 99t-19 118.5zM176 303q0 -258 297 -258q182 0 336 94v443l-363 -25q-270 -18 -270 -254z" />
<glyph unicode="b" horiz-adv-x="1103" d="M143 0v1536h62v-588q64 41 162 63.5t190 22.5q99 0 174 -26.5t122 -71.5t76.5 -113t40.5 -142.5t11 -168.5t-11 -168.5t-40.5 -142.5t-76.5 -113t-122 -71.5t-174 -26.5q-93 0 -193 24t-165 66l-29 -80h-27zM205 131q139 -86 352 -86q88 0 154 27t105 70t62.5 106.5 t31.5 125.5t8 138t-8 138t-31.5 125.5t-62.5 106.5t-105 70t-154 27q-213 0 -352 -86v-762z" />
<glyph unicode="c" horiz-adv-x="933" d="M123 512q0 122 19 211.5t65 162.5t131 110.5t209 37.5q159 0 284 -41v-55q-53 14 -81 20.5t-85 13.5t-118 7q-89 0 -154.5 -26t-104.5 -68t-62.5 -105t-31.5 -126t-8 -142t8 -142t31.5 -126t62.5 -105t104.5 -68t154.5 -26q61 0 118 7t85 13.5t81 20.5v-55 q-125 -41 -284 -41q-124 0 -209 37.5t-131 110.5t-65 162.5t-19 211.5z" />
<glyph unicode="d" horiz-adv-x="1103" d="M123 512q0 94 11 168.5t40.5 142.5t76.5 113t122 71.5t174 26.5q92 0 190 -22.5t162 -63.5v588h62v-1536h-27l-29 80q-65 -42 -165 -66t-193 -24q-99 0 -174 26.5t-122 71.5t-76.5 113t-40.5 142.5t-11 168.5zM186 512q0 -76 8 -138t31.5 -125.5t62.5 -106.5t105 -70 t154 -27q213 0 352 86v762q-139 86 -352 86q-88 0 -154 -27t-105 -70t-62.5 -106.5t-31.5 -125.5t-8 -138z" />
<glyph unicode="e" horiz-adv-x="1046" d="M123 512q0 122 19 211.5t65 162.5t131 110.5t209 37.5q72 0 128 -13.5t95.5 -36.5t67.5 -61t44.5 -78.5t26 -98t12.5 -110.5t3 -124v-29h-738q1 -75 10.5 -135t34 -118.5t63.5 -97.5t103.5 -63t149.5 -24q170 0 325 51v-55q-59 -23 -150 -37t-175 -14q-124 0 -209 37.5 t-131 110.5t-65 162.5t-19 211.5zM186 541h676q0 55 -2 95t-9.5 88.5t-20.5 83t-36.5 69t-56 55.5t-81 34t-109.5 13q-85 0 -149.5 -24t-103.5 -63t-63.5 -97.5t-34 -118.5t-10.5 -135z" />
<glyph unicode="f" horiz-adv-x="757" d="M51 969v35l195 22v231q0 289 356 289q87 0 127 -8v-55q-50 8 -127 8q-295 0 -295 -234v-233h350v-55h-350v-969h-61v969h-195z" />
<glyph unicode="g" horiz-adv-x="1044" d="M25 -231q0 117 80 196.5t196 114.5q-125 20 -125 137q0 80 86 139q-143 80 -143 316q0 86 18.5 150t60.5 113t115.5 74t178.5 25q58 0 120 -10h353v-55l-224 4q123 -83 123 -301q0 -86 -18.5 -150.5t-60.5 -113.5t-115 -74t-178 -25q-108 0 -181 27q-75 -47 -75 -119 q0 -25 9.5 -42.5t27.5 -27t34.5 -13.5t38.5 -7l432 -59q133 -18 191.5 -80.5t58.5 -177.5q0 -86 -44.5 -151.5t-121.5 -104t-171.5 -57.5t-203.5 -19q-226 0 -344 67t-118 224zM88 -231q0 -131 97.5 -183.5t301.5 -52.5q96 0 179 15t151.5 46.5t108 87t39.5 128.5 q0 95 -43.5 142t-153.5 62l-381 52q-41 -12 -78.5 -27t-79.5 -41t-72 -57t-49.5 -75.5t-19.5 -96.5zM178 672q0 -53 7 -95t27.5 -83.5t54 -69.5t91 -45t134.5 -17t134.5 17t91 45t53.5 69.5t27 83.5t7 95q0 68 -12 118t-44 96t-96.5 70.5t-160.5 24.5q-77 0 -134.5 -17 t-91 -44.5t-54 -69t-27.5 -83.5t-7 -95z" />
<glyph unicode="h" horiz-adv-x="1032" d="M143 0v1536h62v-590q65 40 166.5 64t191.5 24q180 0 258 -66t78 -220v-748h-65v754q0 128 -67 176.5t-204 48.5q-222 0 -358 -84v-895h-62z" />
<glyph unicode="i" horiz-adv-x="491" d="M172 1331q0 25 17.5 43.5t43.5 18.5q25 0 43.5 -18.5t18.5 -43.5q0 -26 -18.5 -43.5t-43.5 -17.5q-26 0 -43.5 17.5t-17.5 43.5zM203 139v885h61v-881q0 -59 19.5 -81.5t74.5 -22.5v-49q-81 0 -118 36.5t-37 112.5z" />
<glyph unicode="j" horiz-adv-x="471" d="M-80 -467q283 0 283 207v1284h61v-1272q0 -274 -344 -274v55zM172 1331q0 25 17.5 43.5t43.5 18.5q25 0 43.5 -18.5t18.5 -43.5q0 -26 -18.5 -43.5t-43.5 -17.5q-26 0 -43.5 17.5t-17.5 43.5z" />
<glyph unicode="k" horiz-adv-x="958" d="M143 0v1536h62l-4 -1059l569 547h80l-428 -412l506 -612h-82l-463 573l-182 -170l4 -403h-62z" />
<glyph unicode="l" horiz-adv-x="491" d="M203 139v1397h61v-1393q0 -59 19.5 -81.5t74.5 -22.5v-49q-81 0 -118 36.5t-37 112.5z" />
<glyph unicode="m" horiz-adv-x="1574" d="M143 0v1024h31l29 -80q66 42 157 66t175 24q107 0 169 -26t91 -82q173 108 356 108q162 0 226.5 -62t64.5 -204v-768h-66v774q0 65 -12.5 106t-43 62.5t-69 29t-100.5 7.5q-182 0 -338 -100q12 -49 12 -111v-768h-65v774q0 65 -12.5 106t-43 62.5t-69 29t-100.5 7.5 q-190 0 -326 -84v-895h-66z" />
<glyph unicode="n" horiz-adv-x="1036" d="M143 0v1024h31l29 -80q65 41 168.5 65.5t195.5 24.5q180 0 258 -66t78 -220v-748h-65v754q0 128 -67 176.5t-204 48.5q-222 0 -358 -84v-895h-66z" />
<glyph unicode="o" horiz-adv-x="1089" d="M123 512q0 98 9.5 171t36.5 142t72.5 112.5t122 70t181.5 26.5t181.5 -26.5t122 -70t72.5 -112.5t36.5 -142t9.5 -171t-9.5 -171t-36.5 -142t-72.5 -112.5t-122 -70t-181.5 -26.5t-181.5 26.5t-122 70t-72.5 112.5t-36.5 142t-9.5 171zM186 512q0 -61 3 -107.5t12 -97.5 t25 -87.5t43 -71.5t64 -56t90.5 -34t121.5 -13q94 0 161 25t104.5 64t59 103.5t27.5 125.5t6 149t-6 149t-27.5 125.5t-59 103.5t-104.5 64t-161 25q-68 0 -121.5 -13t-90.5 -34t-64 -56t-43 -71.5t-25 -87.5t-12 -97.5t-3 -107.5z" />
<glyph unicode="p" horiz-adv-x="1103" d="M143 -512v1536h27l29 -80q65 42 165 66t193 24q99 0 174 -26.5t122 -71.5t76.5 -113t40.5 -142.5t11 -168.5t-11 -168.5t-40.5 -142.5t-76.5 -113t-122 -71.5t-174 -26.5q-92 0 -190 22.5t-162 63.5v-588h-62zM205 131q139 -86 352 -86q88 0 154 27t105 70t62.5 106.5 t31.5 125.5t8 138t-8 138t-31.5 125.5t-62.5 106.5t-105 70t-154 27q-213 0 -352 -86v-762z" />
<glyph unicode="q" horiz-adv-x="1103" d="M123 512q0 94 11 168.5t40.5 142.5t76.5 113t122 71.5t174 26.5q93 0 193 -24t165 -66l29 80h27v-1536h-62v588q-64 -41 -162 -63.5t-190 -22.5q-99 0 -174 26.5t-122 71.5t-76.5 113t-40.5 142.5t-11 168.5zM186 512q0 -76 8 -138t31.5 -125.5t62.5 -106.5t105 -70 t154 -27q213 0 352 86v762q-139 86 -352 86q-88 0 -154 -27t-105 -70t-62.5 -106.5t-31.5 -125.5t-8 -138z" />
<glyph unicode="r" horiz-adv-x="724" d="M143 0v1024h31l29 -80q65 41 168.5 65.5t195.5 24.5q53 0 97 -6v-55q-44 6 -97 6q-222 0 -358 -84v-895h-66z" />
<glyph unicode="s" horiz-adv-x="925" d="M127 31v55q52 -14 81 -20.5t86 -13.5t118 -7q340 0 340 229q0 79 -22 121.5t-83 68t-182 40.5q-102 13 -166 31t-101.5 49.5t-51 72t-13.5 103.5q0 274 371 274q159 0 284 -41v-55q-53 14 -81 20.5t-85 13.5t-118 7q-170 0 -239.5 -54.5t-69.5 -164.5q0 -106 57 -144 t227 -59q135 -17 206 -48.5t99.5 -85t28.5 -147.5q0 -59 -19.5 -107.5t-63 -90t-124.5 -65t-194 -23.5q-160 0 -285 41z" />
<glyph unicode="t" horiz-adv-x="757" d="M51 969v35l195 22v305l61 8v-315h350v-55h-350v-721q0 -209 283 -209h24v-49h-24q-344 0 -344 274v705h-195z" />
<glyph unicode="u" horiz-adv-x="1036" d="M133 276v748h66v-754q0 -128 66.5 -176.5t203.5 -48.5q222 0 358 84v895h66v-1024h-31l-28 80q-65 -41 -169 -65.5t-196 -24.5q-180 0 -258 66t-78 220z" />
<glyph unicode="v" horiz-adv-x="946" d="M51 1024h74l348 -926l350 926h72l-408 -1034h-28z" />
<glyph unicode="w" horiz-adv-x="1363" d="M51 1024h70l244 -928l280 928h74l280 -928l244 928h70l-289 -1034h-49l-293 954l-293 -954h-49z" />
<glyph unicode="x" horiz-adv-x="876" d="M31 0l375 528l-351 496h72l311 -451l312 451h71l-350 -496l375 -528h-74l-334 481l-334 -481h-73z" />
<glyph unicode="y" horiz-adv-x="946" d="M51 1024h74l348 -938l350 938h72l-600 -1536h-70l219 522z" />
<glyph unicode="z" horiz-adv-x="917" d="M72 0v39l682 936h-650v49h721v-39l-684 -936h705v-49h-774z" />
<glyph unicode="{" horiz-adv-x="573" d="M102 586v57h37q129 0 123 133l-37 668q-6 99 49.5 146.5t155.5 47.5h35v-57h-35q-73 0 -106.5 -32.5t-30.5 -100.5l37 -668q8 -135 -101 -166q109 -31 101 -165l-37 -668q-3 -68 30.5 -100.5t106.5 -32.5h35v-58h-35q-100 0 -155.5 48t-49.5 147l37 668q6 133 -123 133 h-37z" />
<glyph unicode="|" horiz-adv-x="442" d="M188 -410v2048h66v-2048h-66z" />
<glyph unicode="}" horiz-adv-x="573" d="M109 -352h34q73 0 107 32.5t31 100.5l-37 668q-8 134 100 165q-108 31 -100 166l37 668q3 68 -31 100.5t-107 32.5h-34v57h34q100 0 155.5 -47.5t49.5 -146.5l-37 -668q-6 -133 123 -133h37v-57h-37q-129 0 -123 -133l37 -668q6 -99 -49.5 -147t-155.5 -48h-34v58z" />
<glyph unicode="~" horiz-adv-x="1003" d="M102 670v61q30 29 82 49.5t117 20.5q58 0 104 -15.5t77 -37.5t60.5 -44t68.5 -37.5t87 -15.5q70 0 123.5 24t79.5 52v-61q-30 -29 -82 -49.5t-117 -20.5q-58 0 -104 15.5t-77 37t-60.5 43.5t-68.5 37.5t-87 15.5q-70 0 -123.5 -23.5t-79.5 -51.5z" />
<glyph unicode="&#xa1;" horiz-adv-x="389" d="M133 973q0 26 18 43.5t44 17.5q25 0 43 -17.5t18 -43.5q0 -25 -18 -43.5t-43 -18.5q-26 0 -44 18.5t-18 43.5zM150 -512l28 1106h33l29 -1106h-90z" />
<glyph unicode="&#xa2;" horiz-adv-x="1185" d="M104 641q0 255 143 388.5t460 133.5q31 0 47 -2l86 246h57l-92 -250q131 -11 248 -47v-53q-61 16 -92 23.5t-107 17.5t-152 10q-146 0 -250.5 -32.5t-166 -95.5t-89.5 -146t-28 -193t28 -193t89.5 -146t166 -95.5t250.5 -32.5q76 0 152 10t107 17.5t92 23.5v-53 q-65 -23 -160.5 -38t-185.5 -15q-81 0 -166 10l-86 -256h-58l97 264q-390 76 -390 504z" />
<glyph unicode="&#xa3;" horiz-adv-x="1112" d="M59 0v57h166v555h-166v58h166v245q0 91 21 157t69.5 116.5t133.5 76t208 25.5q79 0 169.5 -11.5t146.5 -31.5v-55q-138 43 -316 43q-193 0 -279.5 -75.5t-86.5 -241.5v-248h526v-58h-526v-555h727v-57h-959z" />
<glyph unicode="&#xa4;" horiz-adv-x="1310" d="M106 49l160 191q-135 129 -135 399q0 272 133 399l-158 191l54 45l159 -193q125 80 336 80q209 0 334 -80l162 193l53 -45l-160 -191q136 -127 136 -399q0 -266 -136 -399l160 -191l-53 -45l-164 193q-125 -80 -332 -80q-208 0 -333 80l-162 -193zM195 639 q0 -112 23.5 -195.5t63 -134.5t100 -82.5t125.5 -43t148 -11.5t148 11.5t126 43t100.5 82.5t63 134.5t23.5 195.5t-23.5 195.5t-63 134.5t-100.5 82.5t-126 43t-148 11.5t-148 -11.5t-125.5 -43t-100 -82.5t-63 -134.5t-23.5 -195.5z" />
<glyph unicode="&#xa5;" horiz-adv-x="1114" d="M51 1280h72l434 -729l434 729h72l-283 -465h228v-57h-263l-143 -234h406v-57h-420v-467h-62v467h-420v57h406l-143 234h-263v57h226z" />
<glyph unicode="&#xa6;" horiz-adv-x="442" d="M188 -410v973h66v-973h-66zM188 666v972h66v-972h-66z" />
<glyph unicode="&#xa7;" horiz-adv-x="1267" d="M80 578q0 241 190 335q-57 74 -57 236q0 62 12.5 115.5t47 107t89 91t144 60.5t207.5 23q230 0 377 -59v-64q-95 35 -180 49.5t-197 14.5q-102 0 -179.5 -18t-126 -48.5t-78.5 -75t-41.5 -92t-11.5 -106.5q0 -54 7.5 -94.5t20.5 -72t40 -54t56.5 -38t80.5 -27.5 t101.5 -19.5t128.5 -16.5q81 -9 135.5 -18t109 -23t88.5 -32.5t64 -45.5t46 -63.5t25 -85t9 -111.5q0 -238 -191 -337q58 -79 58 -234q0 -62 -12.5 -115.5t-47 -107t-89 -91t-144 -60.5t-207.5 -23q-230 0 -377 59v64q95 -35 180 -49.5t197 -14.5q127 0 215 26.5t135 75.5 t66.5 106.5t19.5 131.5q0 63 -8.5 108t-31.5 78.5t-52 54.5t-83.5 37t-111 25t-147.5 19q-81 9 -135.5 18t-109 23t-88.5 32.5t-64 45.5t-46 63.5t-25 85t-9 111.5zM143 575q0 -54 7.5 -94.5t20.5 -72t40 -53.5t56.5 -37.5t80.5 -27.5t101.5 -19.5t128.5 -16.5 q145 -17 233 -38.5t141 -61.5q172 77 172 295q0 54 -7.5 94.5t-20.5 72t-39.5 53.5t-56.5 37.5t-80.5 27.5t-101 19.5t-128.5 16.5q-149 17 -235.5 37.5t-139.5 60.5q-172 -76 -172 -293z" />
<glyph unicode="&#xa8;" horiz-adv-x="1167" d="M328 1331q0 25 17.5 43.5t43.5 18.5q25 0 43.5 -18.5t18.5 -43.5q0 -26 -18.5 -43.5t-43.5 -17.5q-26 0 -43.5 17.5t-17.5 43.5zM717 1331q0 25 17.5 43.5t43.5 18.5q25 0 43.5 -18.5t18.5 -43.5q0 -26 -18.5 -43.5t-43.5 -17.5q-26 0 -43.5 17.5t-17.5 43.5z" />
<glyph unicode="&#xa9;" horiz-adv-x="1585" d="M123 641q0 153 51.5 277t142 205t212.5 124t264 43t263.5 -43t212 -124t142 -205t51.5 -277t-51.5 -277t-142 -205t-212 -124t-263.5 -43t-264 43t-212.5 124t-142 205t-51.5 277zM182 641q0 -279 167 -435.5t444 -156.5t443.5 156.5t166.5 435.5t-166.5 435.5 t-443.5 156.5t-444 -156.5t-167 -435.5zM401 641q0 201 105 295t293 94q67 0 139 -13t111 -26v-55q-115 39 -250 39q-161 0 -247.5 -77t-86.5 -257t86.5 -257t247.5 -77q135 0 250 39v-55q-39 -13 -111 -26t-139 -13q-188 0 -293 94t-105 295z" />
<glyph unicode="&#xaa;" horiz-adv-x="757" d="M78 1001q0 119 68 170.5t202 59.5l240 18v62q0 103 -44.5 141.5t-170.5 38.5q-102 0 -230 -31v53q103 33 230 33q158 0 219 -58t61 -183v-525h-30l-25 70q-56 -41 -125 -61.5t-133 -20.5q-262 0 -262 233zM141 1001q0 -83 45 -130.5t158 -47.5q138 0 244 74v301l-250 -20 q-101 -7 -149 -50.5t-48 -126.5z" />
<glyph unicode="&#xab;" horiz-adv-x="952" d="M82 489v46l389 331v-61l-326 -293l326 -293v-63zM471 489v46l389 331v-61l-325 -293l325 -293v-63z" />
<glyph unicode="&#xac;" horiz-adv-x="1228" d="M215 967v57h799v-512h-58v455h-741z" />
<glyph unicode="&#xad;" horiz-adv-x="696" d="M113 670v57h471v-57h-471z" />
<glyph unicode="&#xae;" horiz-adv-x="1585" d="M123 641q0 153 51.5 277t142 205t212.5 124t264 43t263.5 -43t212 -124t142 -205t51.5 -277t-51.5 -277t-142 -205t-212 -124t-263.5 -43t-264 43t-212.5 124t-142 205t-51.5 277zM182 641q0 -279 167 -435.5t444 -156.5t443.5 156.5t166.5 435.5t-166.5 435.5 t-443.5 156.5t-444 -156.5t-167 -435.5zM532 256v768h304q63 0 108.5 -18t69.5 -50t34.5 -68.5t10.5 -80.5q0 -85 -39.5 -139t-104.5 -68l168 -344h-73l-156 334h-260v-334h-62zM594 649h258q84 0 113.5 38.5t29.5 119.5q0 162 -145 162h-256v-320z" />
<glyph unicode="&#xaf;" horiz-adv-x="1167" d="M303 1305v55h561v-55h-561z" />
<glyph unicode="&#xb0;" horiz-adv-x="688" d="M72 1280q0 75 23 129t63.5 83t86 41.5t99.5 12.5t99.5 -12.5t86 -41.5t63.5 -83t23 -129q0 -74 -23 -128t-63.5 -83t-86 -42t-99.5 -13t-99.5 13t-86 42t-63.5 83t-23 128zM135 1280q0 -113 52.5 -162t156.5 -49t156.5 49t52.5 162t-52.5 162t-156.5 49t-156.5 -49 t-52.5 -162z" />
<glyph unicode="&#xb1;" horiz-adv-x="1228" d="M215 242v57h799v-57h-799zM215 727v57h371v371h57v-371h371v-57h-371v-371h-57v371h-371z" />
<glyph unicode="&#xb2;" horiz-adv-x="858" d="M82 698v39q57 43 155 116q296 222 366.5 291.5t70.5 155.5q0 106 -67.5 147.5t-211.5 41.5q-114 0 -254 -41v53q52 19 123.5 31t128.5 12q183 0 263.5 -63t80.5 -183q0 -97 -76.5 -172t-370.5 -289q-73 -53 -114 -83h590v-56h-684z" />
<glyph unicode="&#xb3;" horiz-adv-x="835" d="M102 735v51q146 -41 283 -41q159 0 231 47t72 144q0 105 -67.5 151t-227.5 46h-149v51h137q151 0 214.5 33t63.5 120q0 84 -63.5 118t-210.5 32q-131 0 -266 -41v53q113 45 266 45q175 0 254.5 -49t79.5 -158q0 -73 -33 -115t-100 -61q87 -25 127.5 -79t40.5 -144 q0 -120 -87 -184t-282 -64q-173 0 -283 45z" />
<glyph unicode="&#xb4;" horiz-adv-x="1167" d="M563 1126l123 410h72l-154 -410h-41z" />
<glyph unicode="&#xb5;" horiz-adv-x="1036" d="M133 -512v1536h66v-754q0 -128 66.5 -176.5t203.5 -48.5q222 0 358 84v895h66v-1024h-31l-28 80q-65 -41 -169 -65.5t-196 -24.5q-195 0 -270 78v-580h-66z" />
<glyph unicode="&#xb6;" horiz-adv-x="1153" d="M145 1092q0 444 469 444h480v-1536h-66v649h-197v-649h-65v649h-152q-469 0 -469 443zM211 1092q0 -59 8 -107.5t33 -102.5t66.5 -90.5t114.5 -60.5t171 -24h162v770h-162q-98 0 -171 -24t-114.5 -60.5t-66.5 -90t-33 -102.5t-8 -108zM831 707h197v770h-197v-770z" />
<glyph unicode="&#xb7;" horiz-adv-x="389" d="M133 698q0 25 18 43.5t44 18.5q25 0 43 -18.5t18 -43.5q0 -26 -18 -43.5t-43 -17.5q-26 0 -44 17.5t-18 43.5z" />
<glyph unicode="&#xb8;" horiz-adv-x="1167" d="M428 -424q96 -33 154 -33q85 0 125.5 30.5t40.5 82.5q0 67 -50 104.5t-147 55.5l14 184h37l8 -147q78 -15 138.5 -67t60.5 -126q0 -78 -57.5 -125t-155.5 -47q-94 0 -168 33v55z" />
<glyph unicode="&#xb9;" horiz-adv-x="552" d="M78 1442v22l284 80h23v-846h-63v772z" />
<glyph unicode="&#xba;" horiz-adv-x="897" d="M113 1157q0 210 78.5 299.5t257.5 89.5t257 -89.5t78 -299.5t-78 -299.5t-257 -89.5t-257.5 89.5t-78.5 299.5zM176 1157q0 -185 63 -259.5t210 -74.5t209.5 74.5t62.5 259.5t-62.5 259.5t-209.5 74.5t-210 -74.5t-63 -259.5z" />
<glyph unicode="&#xbb;" horiz-adv-x="952" d="M92 156v63l326 293l-326 293v61l389 -331v-46zM481 156v63l326 293l-326 293v61l389 -331v-46z" />
<glyph unicode="&#xbc;" horiz-adv-x="1781" d="M78 1442v22l284 80h23v-846h-63v772zM287 0l1085 1536h76l-1086 -1536h-75zM1014 262v39l487 545h39v-531h191v-53h-191v-262h-59v262h-467zM1100 315h381v426z" />
<glyph unicode="&#xbd;" horiz-adv-x="1923" d="M78 1442v22l284 80h23v-846h-63v772zM287 0l1085 1536h76l-1086 -1536h-75zM1147 0v39q57 43 155 116q296 222 366.5 291.5t70.5 155.5q0 106 -67.5 147.5t-211.5 41.5q-114 0 -254 -41v53q52 19 123.5 31t128.5 12q183 0 263.5 -63t80.5 -183q0 -42 -12 -75.5 t-41.5 -70.5t-81 -80.5t-129.5 -102t-189 -138.5q-23 -16 -36 -25.5t-33.5 -24.5t-38.5 -28h590v-55h-684z" />
<glyph unicode="&#xbe;" horiz-adv-x="2007" d="M102 735v51q146 -41 283 -41q159 0 231 47t72 144q0 105 -67.5 151t-227.5 46h-149v51h137q151 0 214.5 33t63.5 120q0 84 -63.5 118t-210.5 32q-131 0 -266 -41v53q113 45 266 45q175 0 254.5 -49t79.5 -158q0 -73 -33 -115t-100 -61q87 -25 127.5 -79t40.5 -144 q0 -120 -87 -184t-282 -64q-173 0 -283 45zM512 0l1085 1536h76l-1085 -1536h-76zM1239 262v39l487 545h39v-531h191v-53h-191v-262h-59v262h-467zM1325 315h381v426z" />
<glyph unicode="&#xbf;" horiz-adv-x="962" d="M61 -127q0 67 9.5 119t30.5 90t45.5 64.5t64 49t76 38.5t91.5 37q41 15 62 24q64 27 100.5 55t51 62t17 78.5t-0.5 103.5h37q10 -50 10 -86q0 -107 -47 -168.5t-168 -106.5q-17 -6 -54.5 -19.5t-54 -20t-47.5 -20t-46 -25.5t-37.5 -31.5t-33.5 -41.5t-23 -51.5 t-16.5 -66.5t-4.5 -82q0 -77 17.5 -134t63 -106.5t135 -75.5t222.5 -26q134 0 299 45v-55q-48 -18 -138.5 -31.5t-158.5 -13.5q-105 0 -187 14.5t-135.5 42.5t-90 63t-55.5 82t-26.5 92t-7.5 101zM526 973q0 26 18.5 43.5t43.5 17.5q26 0 43.5 -17.5t17.5 -43.5 q0 -25 -17.5 -43.5t-43.5 -18.5q-25 0 -43.5 18.5t-18.5 43.5z" />
<glyph unicode="&#xc0;" d="M51 0l543 1546h45l543 -1546h-76l-154 444h-673l-152 -444h-76zM297 502h637l-318 930zM416 1843h104l123 -205h-53z" />
<glyph unicode="&#xc1;" d="M51 0l543 1546h45l543 -1546h-76l-154 444h-673l-152 -444h-76zM297 502h637l-318 930zM590 1638l123 205h104l-174 -205h-53z" />
<glyph unicode="&#xc2;" d="M51 0l543 1546h45l543 -1546h-76l-154 444h-673l-152 -444h-76zM297 502h637l-318 930zM319 1638l263 205h69l262 -205h-59l-238 156l-237 -156h-60z" />
<glyph unicode="&#xc3;" d="M51 0l543 1546h45l543 -1546h-76l-154 444h-673l-152 -444h-76zM293 1657q6 88 52.5 134t125.5 46q41 0 74.5 -14.5t57 -35.5t46 -41.5t50.5 -35t61 -14.5q117 0 123 129h57q-6 -88 -52.5 -134t-125.5 -46q-41 0 -74.5 14.5t-57 35.5t-46 41.5t-50.5 35t-61 14.5 q-117 0 -123 -129h-57zM297 502h637l-318 930z" />
<glyph unicode="&#xc4;" d="M51 0l543 1546h45l543 -1546h-76l-154 444h-673l-152 -444h-76zM297 502h637l-318 930zM360 1741q0 25 18 43t44 18q25 0 43 -18t18 -43q0 -26 -18 -44t-43 -18q-26 0 -44 18t-18 44zM750 1741q0 25 17.5 43t43.5 18q25 0 43 -18t18 -43q0 -26 -18 -44t-43 -18 q-26 0 -43.5 18t-17.5 44z" />
<glyph unicode="&#xc5;" d="M51 0l543 1546h45l543 -1546h-76l-154 444h-673l-152 -444h-76zM297 502h637l-318 930zM424 1741q0 145 192 145q193 0 193 -145q0 -146 -193 -146q-192 0 -192 146zM473 1741q0 -46 35.5 -72.5t107.5 -26.5q140 0 140 99q0 98 -140 98q-143 0 -143 -98z" />
<glyph unicode="&#xc6;" horiz-adv-x="1914" d="M53 0l772 1536h977v-59h-903l113 -652h714v-57h-704l125 -709h655v-59h-715l-75 444h-664l-219 -444h-76zM377 502h624l-159 936z" />
<glyph unicode="&#xc7;" horiz-adv-x="1196" d="M113 768q0 153 18 271.5t60.5 216t110.5 160t169.5 96.5t235.5 34q229 0 376 -59v-64q-95 35 -179.5 49.5t-196.5 14.5q-282 0 -405.5 -176t-123.5 -543t123.5 -543t405.5 -176q112 0 196.5 14.5t179.5 49.5v-64q-137 -56 -358 -59l8 -137q78 -15 138.5 -67t60.5 -126 q0 -78 -57.5 -125t-155.5 -47q-94 0 -168 33v55q96 -33 154 -33q165 0 165 113q0 67 -49.5 104.5t-146.5 55.5l12 176q-161 3 -273 55t-177.5 154t-94 239.5t-28.5 327.5z" />
<glyph unicode="&#xc8;" horiz-adv-x="1107" d="M143 0v1536h852v-59h-786v-652h711v-57h-711v-709h786v-59h-852zM383 1843h104l123 -205h-53z" />
<glyph unicode="&#xc9;" horiz-adv-x="1107" d="M143 0v1536h852v-59h-786v-652h711v-57h-711v-709h786v-59h-852zM557 1638l123 205h104l-174 -205h-53z" />
<glyph unicode="&#xca;" horiz-adv-x="1107" d="M143 0v1536h852v-59h-786v-652h711v-57h-711v-709h786v-59h-852zM287 1638l262 205h69l263 -205h-60l-237 156l-238 -156h-59z" />
<glyph unicode="&#xcb;" horiz-adv-x="1107" d="M143 0v1536h852v-59h-786v-652h711v-57h-711v-709h786v-59h-852zM328 1741q0 25 17.5 43t43.5 18q25 0 43.5 -18t18.5 -43q0 -26 -18.5 -44t-43.5 -18q-26 0 -43.5 18t-17.5 44zM717 1741q0 25 17.5 43t43.5 18q25 0 43.5 -18t18.5 -43q0 -26 -18.5 -44t-43.5 -18 q-26 0 -43.5 18t-17.5 44z" />
<glyph unicode="&#xcc;" horiz-adv-x="442" d="M20 1843h105l123 -205h-53zM188 0v1536h66v-1536h-66z" />
<glyph unicode="&#xcd;" horiz-adv-x="442" d="M188 0v1536h66v-1536h-66zM195 1638l122 205h105l-174 -205h-53z" />
<glyph unicode="&#xce;" horiz-adv-x="442" d="M-76 1638l262 205h70l262 -205h-59l-238 156l-237 -156h-60zM188 0v1536h66v-1536h-66z" />
<glyph unicode="&#xcf;" horiz-adv-x="442" d="M6 1741q0 25 18 43t44 18q25 0 43 -18t18 -43q0 -26 -18 -44t-43 -18q-26 0 -44 18t-18 44zM188 0v1536h66v-1536h-66zM313 1741q0 25 18 43t44 18q25 0 43 -18t18 -43q0 -26 -18 -44t-43 -18q-26 0 -44 18t-18 44z" />
<glyph unicode="&#xd0;" horiz-adv-x="1372" d="M41 741v58h184v737h445q103 0 185.5 -17.5t143.5 -50t106.5 -83.5t75 -112t47.5 -142.5t25 -168t7 -194.5t-7 -194.5t-25 -168t-47.5 -142.5t-75 -112t-106.5 -83.5t-143.5 -50t-185.5 -17.5h-445v741h-184zM291 59h368q127 0 219 29t152.5 83t96.5 143t50.5 197 t14.5 257t-14.5 257t-50.5 197t-96.5 143t-152.5 83t-219 29h-368v-678h366v-58h-366v-682z" />
<glyph unicode="&#xd1;" horiz-adv-x="1318" d="M143 0v1536h41l928 -1393l-4 1393h68v-1536h-41l-928 1393l4 -1393h-68zM336 1657q6 88 52.5 134t125.5 46q41 0 74.5 -14.5t57 -35.5t46 -41.5t50.5 -35t61 -14.5q117 0 123 129h57q-6 -88 -52.5 -134t-125.5 -46q-41 0 -74.5 14.5t-57 35.5t-46 41.5t-50.5 35t-61 14.5 q-117 0 -123 -129h-57z" />
<glyph unicode="&#xd2;" horiz-adv-x="1347" d="M113 768q0 83 3 150t11.5 136t22.5 123.5t36 107t52.5 91t72.5 72t95 54.5t120 32.5t148 11.5q104 0 186 -19.5t140.5 -52.5t101 -87.5t68 -115.5t40.5 -145.5t20 -167t5 -190.5t-5 -190.5t-20 -167t-40.5 -145.5t-68 -115.5t-101 -87.5t-140.5 -52.5t-186 -19.5 q-81 0 -148 11.5t-120 32.5t-95 54.5t-72.5 72t-52.5 91t-36 107t-22.5 123.5t-11.5 136t-3 150zM178 768q0 -107 5.5 -188.5t19 -159.5t37.5 -133.5t61.5 -102.5t89.5 -75.5t122.5 -44t160.5 -15.5t160.5 15.5t122.5 44t89 75.5t61 102.5t37.5 133.5t19 159.5t5.5 188.5 t-5.5 188.5t-19 159.5t-37.5 133.5t-61 102.5t-89 75.5t-122.5 44t-160.5 15.5t-160.5 -15.5t-122.5 -44t-89.5 -75.5t-61.5 -102.5t-37.5 -133.5t-19 -159.5t-5.5 -188.5zM473 1843h105l122 -205h-53z" />
<glyph unicode="&#xd3;" horiz-adv-x="1347" d="M113 768q0 83 3 150t11.5 136t22.5 123.5t36 107t52.5 91t72.5 72t95 54.5t120 32.5t148 11.5q104 0 186 -19.5t140.5 -52.5t101 -87.5t68 -115.5t40.5 -145.5t20 -167t5 -190.5t-5 -190.5t-20 -167t-40.5 -145.5t-68 -115.5t-101 -87.5t-140.5 -52.5t-186 -19.5 q-81 0 -148 11.5t-120 32.5t-95 54.5t-72.5 72t-52.5 91t-36 107t-22.5 123.5t-11.5 136t-3 150zM178 768q0 -107 5.5 -188.5t19 -159.5t37.5 -133.5t61.5 -102.5t89.5 -75.5t122.5 -44t160.5 -15.5t160.5 15.5t122.5 44t89 75.5t61 102.5t37.5 133.5t19 159.5t5.5 188.5 t-5.5 188.5t-19 159.5t-37.5 133.5t-61 102.5t-89 75.5t-122.5 44t-160.5 15.5t-160.5 -15.5t-122.5 -44t-89.5 -75.5t-61.5 -102.5t-37.5 -133.5t-19 -159.5t-5.5 -188.5zM647 1638l123 205h104l-174 -205h-53z" />
<glyph unicode="&#xd4;" horiz-adv-x="1347" d="M113 768q0 83 3 150t11.5 136t22.5 123.5t36 107t52.5 91t72.5 72t95 54.5t120 32.5t148 11.5q104 0 186 -19.5t140.5 -52.5t101 -87.5t68 -115.5t40.5 -145.5t20 -167t5 -190.5t-5 -190.5t-20 -167t-40.5 -145.5t-68 -115.5t-101 -87.5t-140.5 -52.5t-186 -19.5 q-81 0 -148 11.5t-120 32.5t-95 54.5t-72.5 72t-52.5 91t-36 107t-22.5 123.5t-11.5 136t-3 150zM178 768q0 -107 5.5 -188.5t19 -159.5t37.5 -133.5t61.5 -102.5t89.5 -75.5t122.5 -44t160.5 -15.5t160.5 15.5t122.5 44t89 75.5t61 102.5t37.5 133.5t19 159.5t5.5 188.5 t-5.5 188.5t-19 159.5t-37.5 133.5t-61 102.5t-89 75.5t-122.5 44t-160.5 15.5t-160.5 -15.5t-122.5 -44t-89.5 -75.5t-61.5 -102.5t-37.5 -133.5t-19 -159.5t-5.5 -188.5zM377 1638l262 205h70l262 -205h-60l-237 156l-238 -156h-59z" />
<glyph unicode="&#xd5;" horiz-adv-x="1347" d="M113 768q0 83 3 150t11.5 136t22.5 123.5t36 107t52.5 91t72.5 72t95 54.5t120 32.5t148 11.5q104 0 186 -19.5t140.5 -52.5t101 -87.5t68 -115.5t40.5 -145.5t20 -167t5 -190.5t-5 -190.5t-20 -167t-40.5 -145.5t-68 -115.5t-101 -87.5t-140.5 -52.5t-186 -19.5 q-81 0 -148 11.5t-120 32.5t-95 54.5t-72.5 72t-52.5 91t-36 107t-22.5 123.5t-11.5 136t-3 150zM178 768q0 -107 5.5 -188.5t19 -159.5t37.5 -133.5t61.5 -102.5t89.5 -75.5t122.5 -44t160.5 -15.5t160.5 15.5t122.5 44t89 75.5t61 102.5t37.5 133.5t19 159.5t5.5 188.5 t-5.5 188.5t-19 159.5t-37.5 133.5t-61 102.5t-89 75.5t-122.5 44t-160.5 15.5t-160.5 -15.5t-122.5 -44t-89.5 -75.5t-61.5 -102.5t-37.5 -133.5t-19 -159.5t-5.5 -188.5zM350 1657q6 88 52.5 134t125.5 46q41 0 74.5 -14.5t57 -35.5t46 -41.5t50.5 -35t61 -14.5 q117 0 123 129h57q-6 -88 -52.5 -134t-125.5 -46q-41 0 -74.5 14.5t-57 35.5t-46 41.5t-50.5 35t-61 14.5q-116 0 -122 -129h-58z" />
<glyph unicode="&#xd6;" horiz-adv-x="1347" d="M113 768q0 83 3 150t11.5 136t22.5 123.5t36 107t52.5 91t72.5 72t95 54.5t120 32.5t148 11.5q104 0 186 -19.5t140.5 -52.5t101 -87.5t68 -115.5t40.5 -145.5t20 -167t5 -190.5t-5 -190.5t-20 -167t-40.5 -145.5t-68 -115.5t-101 -87.5t-140.5 -52.5t-186 -19.5 q-81 0 -148 11.5t-120 32.5t-95 54.5t-72.5 72t-52.5 91t-36 107t-22.5 123.5t-11.5 136t-3 150zM178 768q0 -107 5.5 -188.5t19 -159.5t37.5 -133.5t61.5 -102.5t89.5 -75.5t122.5 -44t160.5 -15.5t160.5 15.5t122.5 44t89 75.5t61 102.5t37.5 133.5t19 159.5t5.5 188.5 t-5.5 188.5t-19 159.5t-37.5 133.5t-61 102.5t-89 75.5t-122.5 44t-160.5 15.5t-160.5 -15.5t-122.5 -44t-89.5 -75.5t-61.5 -102.5t-37.5 -133.5t-19 -159.5t-5.5 -188.5zM418 1741q0 25 17.5 43t43.5 18q25 0 43.5 -18t18.5 -43q0 -26 -18.5 -44t-43.5 -18q-26 0 -43.5 18 t-17.5 44zM807 1741q0 25 17.5 43t43.5 18q25 0 43.5 -18t18.5 -43q0 -26 -18.5 -44t-43.5 -18q-26 0 -43.5 18t-17.5 44z" />
<glyph unicode="&#xd7;" horiz-adv-x="1228" d="M311 436l262 262l-262 263l41 40l262 -262l263 262l41 -40l-263 -263l263 -262l-41 -41l-263 262l-262 -262z" />
<glyph unicode="&#xd8;" horiz-adv-x="1347" d="M113 768q0 83 3 150t11.5 136t22.5 123.5t36 107t52.5 91t72.5 72t95 54.5t120 32.5t148 11.5q233 0 366 -100l54 90h73l-80 -135q86 -94 117 -247.5t31 -385.5q0 -108 -5 -190.5t-20 -167t-40.5 -145.5t-68 -115.5t-101 -87.5t-140.5 -52.5t-186 -19.5q-234 0 -365 98 l-51 -88h-74l78 131q-87 94 -118 248t-31 389zM178 768q0 -215 25.5 -354.5t93.5 -223.5l711 1201q-116 96 -334 96q-90 0 -160.5 -15.5t-122.5 -44t-89.5 -75.5t-61.5 -102.5t-37.5 -133.5t-19 -159.5t-5.5 -188.5zM342 143q113 -94 332 -94q90 0 160.5 15.5t122.5 44 t89 75.5t61 102.5t37.5 133.5t19 159.5t5.5 188.5q0 214 -25 352t-91 223z" />
<glyph unicode="&#xd9;" horiz-adv-x="1318" d="M133 498v1038h64v-1036q0 -131 29.5 -219.5t90.5 -139t143 -71.5t199 -21t199 21t143.5 71.5t91 139t29.5 219.5v1036h64v-1038q0 -103 -19 -184.5t-55 -136t-82 -92t-108 -58t-124.5 -29t-138.5 -8.5q-65 0 -119.5 6t-109.5 21t-98 39.5t-81.5 64t-63.5 91.5 t-39.5 124.5t-14.5 161.5zM459 1843h104l123 -205h-53z" />
<glyph unicode="&#xda;" horiz-adv-x="1318" d="M133 498v1038h64v-1036q0 -131 29.5 -219.5t90.5 -139t143 -71.5t199 -21t199 21t143.5 71.5t91 139t29.5 219.5v1036h64v-1038q0 -103 -19 -184.5t-55 -136t-82 -92t-108 -58t-124.5 -29t-138.5 -8.5q-65 0 -119.5 6t-109.5 21t-98 39.5t-81.5 64t-63.5 91.5 t-39.5 124.5t-14.5 161.5zM633 1638l123 205h104l-174 -205h-53z" />
<glyph unicode="&#xdb;" horiz-adv-x="1318" d="M133 498v1038h64v-1036q0 -131 29.5 -219.5t90.5 -139t143 -71.5t199 -21t199 21t143.5 71.5t91 139t29.5 219.5v1036h64v-1038q0 -103 -19 -184.5t-55 -136t-82 -92t-108 -58t-124.5 -29t-138.5 -8.5q-65 0 -119.5 6t-109.5 21t-98 39.5t-81.5 64t-63.5 91.5 t-39.5 124.5t-14.5 161.5zM362 1638l263 205h69l262 -205h-59l-238 156l-237 -156h-60z" />
<glyph unicode="&#xdc;" horiz-adv-x="1318" d="M133 498v1038h64v-1036q0 -131 29.5 -219.5t90.5 -139t143 -71.5t199 -21t199 21t143.5 71.5t91 139t29.5 219.5v1036h64v-1038q0 -103 -19 -184.5t-55 -136t-82 -92t-108 -58t-124.5 -29t-138.5 -8.5q-65 0 -119.5 6t-109.5 21t-98 39.5t-81.5 64t-63.5 91.5 t-39.5 124.5t-14.5 161.5zM403 1741q0 25 18 43t44 18q25 0 43 -18t18 -43q0 -26 -18 -44t-43 -18q-26 0 -44 18t-18 44zM793 1741q0 25 17.5 43t43.5 18q25 0 43 -18t18 -43q0 -26 -18 -44t-43 -18q-26 0 -43.5 18t-17.5 44z" />
<glyph unicode="&#xdd;" horiz-adv-x="1265" d="M51 1536h80l502 -848l502 848h79l-548 -907v-629h-66v629zM606 1638l123 205h105l-175 -205h-53z" />
<glyph unicode="&#xde;" horiz-adv-x="1153" d="M143 0v1536h66v-324h414q469 0 469 -444q0 -442 -469 -442h-414v-326h-66zM209 383h424q98 0 171 24t114.5 60.5t66.5 90.5t33 102.5t8 107.5t-8 108t-33 102.5t-66.5 90t-114.5 60.5t-171 24h-424v-770z" />
<glyph unicode="&#xdf;" horiz-adv-x="1116" d="M176 0v1227q0 148 80.5 233.5t255.5 85.5q336 0 336 -309q0 -56 -18.5 -100t-48.5 -72t-66 -51.5t-72 -45t-66 -45.5t-48.5 -60.5t-18.5 -82.5q0 -43 10 -71.5t38 -49.5t58 -33.5t89 -31.5q85 -28 136.5 -51.5t92 -57.5t57.5 -79t17 -109q0 -62 -19 -115t-58 -97 t-107.5 -69.5t-159.5 -25.5q-52 0 -117 9.5t-103 31.5v51q113 -39 220 -39q66 0 117 17.5t81.5 43.5t50 61t26.5 66.5t7 63.5q0 79 -45 134.5t-156 88.5q-88 26 -136.5 45.5t-88 49.5t-54.5 69t-15 98q0 54 18.5 96t48.5 69t66 50t71.5 45t65.5 47t48.5 63t18.5 87 q0 129 -71.5 191.5t-204.5 62.5q-132 0 -205.5 -67t-73.5 -197v-1227h-57z" />
<glyph unicode="&#xe0;" horiz-adv-x="1007" d="M113 303q0 63 16.5 113t55 93.5t111 70.5t175.5 34l338 21v74q0 76 -13.5 124.5t-48 82.5t-94.5 48.5t-153 14.5q-175 0 -295 -43v55q123 43 295 43q92 0 159 -15t108 -41.5t65.5 -69t33 -89.5t8.5 -112v-707h-30l-29 80q-60 -43 -160.5 -66.5t-185.5 -23.5 q-95 0 -166 25.5t-111.5 70t-59.5 99t-19 118.5zM176 303q0 -258 297 -258q182 0 336 94v443l-363 -25q-270 -18 -270 -254zM305 1536h72l143 -410h-41z" />
<glyph unicode="&#xe1;" horiz-adv-x="1007" d="M113 303q0 63 16.5 113t55 93.5t111 70.5t175.5 34l338 21v74q0 76 -13.5 124.5t-48 82.5t-94.5 48.5t-153 14.5q-175 0 -295 -43v55q123 43 295 43q92 0 159 -15t108 -41.5t65.5 -69t33 -89.5t8.5 -112v-707h-30l-29 80q-60 -43 -160.5 -66.5t-185.5 -23.5 q-95 0 -166 25.5t-111.5 70t-59.5 99t-19 118.5zM176 303q0 -258 297 -258q182 0 336 94v443l-363 -25q-270 -18 -270 -254zM479 1126l144 410h71l-174 -410h-41z" />
<glyph unicode="&#xe2;" horiz-adv-x="1007" d="M113 303q0 63 16.5 113t55 93.5t111 70.5t175.5 34l338 21v74q0 76 -13.5 124.5t-48 82.5t-94.5 48.5t-153 14.5q-175 0 -295 -43v55q123 43 295 43q92 0 159 -15t108 -41.5t65.5 -69t33 -89.5t8.5 -112v-707h-30l-29 80q-60 -43 -160.5 -66.5t-185.5 -23.5 q-95 0 -166 25.5t-111.5 70t-59.5 99t-19 118.5zM162 1126l307 410h61l308 -410h-50l-288 344l-289 -344h-49zM176 303q0 -258 297 -258q182 0 336 94v443l-363 -25q-270 -18 -270 -254z" />
<glyph unicode="&#xe3;" horiz-adv-x="1007" d="M113 303q0 63 16.5 113t55 93.5t111 70.5t175.5 34l338 21v74q0 76 -13.5 124.5t-48 82.5t-94.5 48.5t-153 14.5q-175 0 -295 -43v55q123 43 295 43q92 0 159 -15t108 -41.5t65.5 -69t33 -89.5t8.5 -112v-707h-30l-29 80q-60 -43 -160.5 -66.5t-185.5 -23.5 q-95 0 -166 25.5t-111.5 70t-59.5 99t-19 118.5zM176 303q0 -258 297 -258q182 0 336 94v443l-363 -25q-270 -18 -270 -254zM176 1247q6 88 52.5 134t125.5 46q41 0 74.5 -14.5t57 -35.5t46 -41.5t50.5 -35t61 -14.5q117 0 123 129h57q-6 -88 -52.5 -134t-125.5 -46 q-41 0 -74.5 14.5t-57 35.5t-46 41.5t-50.5 35t-61 14.5q-117 0 -123 -129h-57z" />
<glyph unicode="&#xe4;" horiz-adv-x="1007" d="M113 303q0 63 16.5 113t55 93.5t111 70.5t175.5 34l338 21v74q0 76 -13.5 124.5t-48 82.5t-94.5 48.5t-153 14.5q-175 0 -295 -43v55q123 43 295 43q92 0 159 -15t108 -41.5t65.5 -69t33 -89.5t8.5 -112v-707h-30l-29 80q-60 -43 -160.5 -66.5t-185.5 -23.5 q-95 0 -166 25.5t-111.5 70t-59.5 99t-19 118.5zM176 303q0 -258 297 -258q182 0 336 94v443l-363 -25q-270 -18 -270 -254zM244 1331q0 25 17.5 43.5t43.5 18.5q25 0 43.5 -18.5t18.5 -43.5q0 -26 -18.5 -43.5t-43.5 -17.5q-26 0 -43.5 17.5t-17.5 43.5zM633 1331 q0 25 17.5 43.5t43.5 18.5q25 0 43.5 -18.5t18.5 -43.5q0 -26 -18.5 -43.5t-43.5 -17.5q-26 0 -43.5 17.5t-17.5 43.5z" />
<glyph unicode="&#xe5;" horiz-adv-x="1007" d="M113 303q0 63 16.5 113t55 93.5t111 70.5t175.5 34l338 21v74q0 76 -13.5 124.5t-48 82.5t-94.5 48.5t-153 14.5q-175 0 -295 -43v55q123 43 295 43q92 0 159 -15t108 -41.5t65.5 -69t33 -89.5t8.5 -112v-707h-30l-29 80q-60 -43 -160.5 -66.5t-185.5 -23.5 q-95 0 -166 25.5t-111.5 70t-59.5 99t-19 118.5zM176 303q0 -258 297 -258q182 0 336 94v443l-363 -25q-270 -18 -270 -254zM307 1331q0 98 50.5 144.5t142.5 46.5q90 0 140 -46.5t50 -144.5q0 -96 -50 -142t-140 -46q-193 0 -193 188zM356 1331q0 -141 144 -141 q139 0 139 141q0 142 -139 142q-144 0 -144 -142z" />
<glyph unicode="&#xe6;" horiz-adv-x="1714" d="M94 283q0 129 86.5 193.5t292.5 64.5h318v168q0 150 -64.5 210t-245.5 60q-175 0 -295 -43v55q123 43 295 43q118 0 194.5 -25t114.5 -68t54 -110q91 203 370 203q72 0 128 -13.5t95.5 -36.5t67.5 -61t44.5 -78.5t26 -98t12.5 -110.5t3 -124v-29h-737q1 -75 10.5 -135 t34 -118.5t63.5 -97.5t103 -63t149 -24q171 0 326 51v-55q-59 -23 -150 -37t-176 -14q-241 0 -340 147q-28 -25 -77 -57q-63 -41 -163.5 -65.5t-182.5 -24.5q-187 0 -272 80t-85 213zM158 283q0 -50 12 -89t42 -74.5t91.5 -55t151.5 -19.5q182 0 336 94q27 15 55 47 q-52 106 -55 297h-342q-153 0 -222 -48.5t-69 -151.5zM854 541h676q0 55 -2 95t-9.5 88.5t-20.5 83t-36.5 69t-56.5 55.5t-81.5 34t-109.5 13q-85 0 -149 -24t-103 -63t-63.5 -97.5t-34 -118.5t-10.5 -135z" />
<glyph unicode="&#xe7;" horiz-adv-x="933" d="M123 512q0 122 19 211.5t65 162.5t131 110.5t209 37.5q159 0 284 -41v-55q-53 14 -81 20.5t-85 13.5t-118 7q-89 0 -154.5 -26t-104.5 -68t-62.5 -105t-31.5 -126t-8 -142t8 -142t31.5 -126t62.5 -105t104.5 -68t154.5 -26q61 0 118 7t85 13.5t81 20.5v-55 q-125 -41 -284 -41l8 -137q78 -15 138.5 -67t60.5 -126q0 -78 -57.5 -125t-155.5 -47q-94 0 -168 33v55q96 -33 153 -33q85 0 125.5 30.5t40.5 82.5q0 67 -49.5 104.5t-146.5 55.5l12 176q-112 5 -189 44.5t-119 111.5t-59.5 159.5t-17.5 204.5z" />
<glyph unicode="&#xe8;" horiz-adv-x="1046" d="M123 512q0 122 19 211.5t65 162.5t131 110.5t209 37.5q72 0 128 -13.5t95.5 -36.5t67.5 -61t44.5 -78.5t26 -98t12.5 -110.5t3 -124v-29h-738q1 -75 10.5 -135t34 -118.5t63.5 -97.5t103.5 -63t149.5 -24q170 0 325 51v-55q-59 -23 -150 -37t-175 -14q-124 0 -209 37.5 t-131 110.5t-65 162.5t-19 211.5zM186 541h676q0 55 -2 95t-9.5 88.5t-20.5 83t-36.5 69t-56 55.5t-81 34t-109.5 13q-85 0 -149.5 -24t-103.5 -63t-63.5 -97.5t-34 -118.5t-10.5 -135zM373 1536h71l123 -410h-41z" />
<glyph unicode="&#xe9;" horiz-adv-x="1046" d="M123 512q0 122 19 211.5t65 162.5t131 110.5t209 37.5q72 0 128 -13.5t95.5 -36.5t67.5 -61t44.5 -78.5t26 -98t12.5 -110.5t3 -124v-29h-738q1 -75 10.5 -135t34 -118.5t63.5 -97.5t103.5 -63t149.5 -24q170 0 325 51v-55q-59 -23 -150 -37t-175 -14q-124 0 -209 37.5 t-131 110.5t-65 162.5t-19 211.5zM186 541h676q0 55 -2 95t-9.5 88.5t-20.5 83t-36.5 69t-56 55.5t-81 34t-109.5 13q-85 0 -149.5 -24t-103.5 -63t-63.5 -97.5t-34 -118.5t-10.5 -135zM526 1126l123 410h72l-154 -410h-41z" />
<glyph unicode="&#xea;" horiz-adv-x="1046" d="M123 512q0 122 19 211.5t65 162.5t131 110.5t209 37.5q72 0 128 -13.5t95.5 -36.5t67.5 -61t44.5 -78.5t26 -98t12.5 -110.5t3 -124v-29h-738q1 -75 10.5 -135t34 -118.5t63.5 -97.5t103.5 -63t149.5 -24q170 0 325 51v-55q-59 -23 -150 -37t-175 -14q-124 0 -209 37.5 t-131 110.5t-65 162.5t-19 211.5zM186 541h676q0 55 -2 95t-9.5 88.5t-20.5 83t-36.5 69t-56 55.5t-81 34t-109.5 13q-85 0 -149.5 -24t-103.5 -63t-63.5 -97.5t-34 -118.5t-10.5 -135zM209 1126l307 410h62l307 -410h-49l-289 344l-289 -344h-49z" />
<glyph unicode="&#xeb;" horiz-adv-x="1046" d="M123 512q0 122 19 211.5t65 162.5t131 110.5t209 37.5q72 0 128 -13.5t95.5 -36.5t67.5 -61t44.5 -78.5t26 -98t12.5 -110.5t3 -124v-29h-738q1 -75 10.5 -135t34 -118.5t63.5 -97.5t103.5 -63t149.5 -24q170 0 325 51v-55q-59 -23 -150 -37t-175 -14q-124 0 -209 37.5 t-131 110.5t-65 162.5t-19 211.5zM186 541h676q0 55 -2 95t-9.5 88.5t-20.5 83t-36.5 69t-56 55.5t-81 34t-109.5 13q-85 0 -149.5 -24t-103.5 -63t-63.5 -97.5t-34 -118.5t-10.5 -135zM291 1331q0 25 17.5 43.5t43.5 18.5q25 0 43.5 -18.5t18.5 -43.5q0 -26 -18.5 -43.5 t-43.5 -17.5q-26 0 -43.5 17.5t-17.5 43.5zM680 1331q0 25 17.5 43.5t43.5 18.5q25 0 43.5 -18.5t18.5 -43.5q0 -26 -18.5 -43.5t-43.5 -17.5q-26 0 -43.5 17.5t-17.5 43.5z" />
<glyph unicode="&#xec;" horiz-adv-x="491" d="M59 1536h72l123 -410h-41zM203 139v885h61v-881q0 -59 19.5 -81.5t74.5 -22.5v-49q-81 0 -118 36.5t-37 112.5z" />
<glyph unicode="&#xed;" horiz-adv-x="491" d="M203 139v885h61v-881q0 -59 19.5 -81.5t74.5 -22.5v-49q-81 0 -118 36.5t-37 112.5zM213 1126l123 410h72l-154 -410h-41z" />
<glyph unicode="&#xee;" horiz-adv-x="491" d="M-104 1126l307 410h61l307 -410h-49l-289 344l-288 -344h-49zM203 139v885h61v-881q0 -59 19.5 -81.5t74.5 -22.5v-49q-81 0 -118 36.5t-37 112.5z" />
<glyph unicode="&#xef;" horiz-adv-x="491" d="M18 1331q0 25 18 43.5t44 18.5q25 0 43 -18.5t18 -43.5q0 -26 -18 -43.5t-43 -17.5q-26 0 -44 17.5t-18 43.5zM203 139v885h61v-881q0 -59 19.5 -81.5t74.5 -22.5v-49q-81 0 -118 36.5t-37 112.5zM326 1331q0 25 17.5 43.5t43.5 18.5q25 0 43.5 -18.5t18.5 -43.5 q0 -26 -18.5 -43.5t-43.5 -17.5q-26 0 -43.5 17.5t-17.5 43.5z" />
<glyph unicode="&#xf0;" horiz-adv-x="1007" d="M82 512q0 98 9.5 171t36.5 142t72.5 112.5t122 70t181.5 26.5q198 0 307 -119q-68 233 -268 426l-326 -165v57l285 145q-109 95 -238 158h111q93 -53 182 -131l254 131v-57l-215 -111q318 -314 330 -817v-39q0 -98 -9.5 -171t-36.5 -142t-72.5 -112.5t-122 -70 t-181.5 -26.5t-181.5 26.5t-122 70t-72.5 112.5t-36.5 142t-9.5 171zM145 512q0 -61 3 -107.5t12 -97.5t25 -87.5t43 -71.5t64 -56t90.5 -34t121.5 -13q94 0 161 25t104.5 64t59 103.5t27.5 125.5t6 149t-6 149t-27.5 125.5t-59 103.5t-104.5 64t-161 25q-68 0 -121.5 -13 t-90.5 -34t-64 -56t-43 -71.5t-25 -87.5t-12 -97.5t-3 -107.5z" />
<glyph unicode="&#xf1;" horiz-adv-x="1036" d="M143 0v1024h31l29 -80q65 41 168.5 65.5t195.5 24.5q180 0 258 -66t78 -220v-748h-65v754q0 128 -67 176.5t-204 48.5q-222 0 -358 -84v-895h-66zM199 1247q6 88 52.5 134t125.5 46q41 0 74.5 -14.5t57 -35.5t46 -41.5t50.5 -35t61 -14.5q116 0 122 129h58 q-6 -88 -52.5 -134t-125.5 -46q-41 0 -74.5 14.5t-57 35.5t-46 41.5t-50.5 35t-61 14.5q-117 0 -123 -129h-57z" />
<glyph unicode="&#xf2;" horiz-adv-x="1089" d="M123 512q0 98 9.5 171t36.5 142t72.5 112.5t122 70t181.5 26.5t181.5 -26.5t122 -70t72.5 -112.5t36.5 -142t9.5 -171t-9.5 -171t-36.5 -142t-72.5 -112.5t-122 -70t-181.5 -26.5t-181.5 26.5t-122 70t-72.5 112.5t-36.5 142t-9.5 171zM186 512q0 -61 3 -107.5t12 -97.5 t25 -87.5t43 -71.5t64 -56t90.5 -34t121.5 -13q94 0 161 25t104.5 64t59 103.5t27.5 125.5t6 149t-6 149t-27.5 125.5t-59 103.5t-104.5 64t-161 25q-68 0 -121.5 -13t-90.5 -34t-64 -56t-43 -71.5t-25 -87.5t-12 -97.5t-3 -107.5zM371 1536h71l123 -410h-41z" />
<glyph unicode="&#xf3;" horiz-adv-x="1089" d="M123 512q0 98 9.5 171t36.5 142t72.5 112.5t122 70t181.5 26.5t181.5 -26.5t122 -70t72.5 -112.5t36.5 -142t9.5 -171t-9.5 -171t-36.5 -142t-72.5 -112.5t-122 -70t-181.5 -26.5t-181.5 26.5t-122 70t-72.5 112.5t-36.5 142t-9.5 171zM186 512q0 -61 3 -107.5t12 -97.5 t25 -87.5t43 -71.5t64 -56t90.5 -34t121.5 -13q94 0 161 25t104.5 64t59 103.5t27.5 125.5t6 149t-6 149t-27.5 125.5t-59 103.5t-104.5 64t-161 25q-68 0 -121.5 -13t-90.5 -34t-64 -56t-43 -71.5t-25 -87.5t-12 -97.5t-3 -107.5zM524 1126l123 410h72l-154 -410h-41z" />
<glyph unicode="&#xf4;" horiz-adv-x="1089" d="M123 512q0 98 9.5 171t36.5 142t72.5 112.5t122 70t181.5 26.5t181.5 -26.5t122 -70t72.5 -112.5t36.5 -142t9.5 -171t-9.5 -171t-36.5 -142t-72.5 -112.5t-122 -70t-181.5 -26.5t-181.5 26.5t-122 70t-72.5 112.5t-36.5 142t-9.5 171zM186 512q0 -61 3 -107.5t12 -97.5 t25 -87.5t43 -71.5t64 -56t90.5 -34t121.5 -13q94 0 161 25t104.5 64t59 103.5t27.5 125.5t6 149t-6 149t-27.5 125.5t-59 103.5t-104.5 64t-161 25q-68 0 -121.5 -13t-90.5 -34t-64 -56t-43 -71.5t-25 -87.5t-12 -97.5t-3 -107.5zM207 1126l307 410h61l308 -410h-49 l-289 344l-289 -344h-49z" />
<glyph unicode="&#xf5;" horiz-adv-x="1089" d="M123 512q0 98 9.5 171t36.5 142t72.5 112.5t122 70t181.5 26.5t181.5 -26.5t122 -70t72.5 -112.5t36.5 -142t9.5 -171t-9.5 -171t-36.5 -142t-72.5 -112.5t-122 -70t-181.5 -26.5t-181.5 26.5t-122 70t-72.5 112.5t-36.5 142t-9.5 171zM186 512q0 -61 3 -107.5t12 -97.5 t25 -87.5t43 -71.5t64 -56t90.5 -34t121.5 -13q94 0 161 25t104.5 64t59 103.5t27.5 125.5t6 149t-6 149t-27.5 125.5t-59 103.5t-104.5 64t-161 25q-68 0 -121.5 -13t-90.5 -34t-64 -56t-43 -71.5t-25 -87.5t-12 -97.5t-3 -107.5zM221 1247q6 88 52.5 134t125.5 46 q41 0 74.5 -14.5t57 -35.5t46 -41.5t50.5 -35t61 -14.5q117 0 123 129h57q-6 -88 -52.5 -134t-125.5 -46q-41 0 -74.5 14.5t-57 35.5t-46 41.5t-50.5 35t-61 14.5q-116 0 -122 -129h-58z" />
<glyph unicode="&#xf6;" horiz-adv-x="1089" d="M123 512q0 98 9.5 171t36.5 142t72.5 112.5t122 70t181.5 26.5t181.5 -26.5t122 -70t72.5 -112.5t36.5 -142t9.5 -171t-9.5 -171t-36.5 -142t-72.5 -112.5t-122 -70t-181.5 -26.5t-181.5 26.5t-122 70t-72.5 112.5t-36.5 142t-9.5 171zM186 512q0 -61 3 -107.5t12 -97.5 t25 -87.5t43 -71.5t64 -56t90.5 -34t121.5 -13q94 0 161 25t104.5 64t59 103.5t27.5 125.5t6 149t-6 149t-27.5 125.5t-59 103.5t-104.5 64t-161 25q-68 0 -121.5 -13t-90.5 -34t-64 -56t-43 -71.5t-25 -87.5t-12 -97.5t-3 -107.5zM289 1331q0 25 17.5 43.5t43.5 18.5 q25 0 43.5 -18.5t18.5 -43.5q0 -26 -18.5 -43.5t-43.5 -17.5q-26 0 -43.5 17.5t-17.5 43.5zM678 1331q0 25 17.5 43.5t43.5 18.5q25 0 43.5 -18.5t18.5 -43.5q0 -26 -18.5 -43.5t-43.5 -17.5q-26 0 -43.5 17.5t-17.5 43.5z" />
<glyph unicode="&#xf7;" horiz-adv-x="1228" d="M215 670v57h799v-57h-799zM553 350q0 25 17.5 43.5t43.5 18.5q25 0 43.5 -18.5t18.5 -43.5q0 -26 -18.5 -43.5t-43.5 -17.5q-26 0 -43.5 17.5t-17.5 43.5zM553 1047q0 25 17.5 43t43.5 18q25 0 43.5 -18t18.5 -43q0 -26 -18.5 -44t-43.5 -18q-26 0 -43.5 18t-17.5 44z " />
<glyph unicode="&#xf8;" horiz-adv-x="1089" d="M123 512q0 98 9.5 171t36.5 142t72.5 112.5t122 70t181.5 26.5q174 0 268 -69l41 59h70l-66 -96q62 -66 85.5 -168.5t23.5 -247.5q0 -98 -9.5 -171t-36.5 -142t-72.5 -112.5t-122 -70t-181.5 -26.5q-179 0 -273 69l-41 -59h-69l65 98q-59 66 -81.5 168.5t-22.5 245.5z M186 512q0 -124 16 -211t62 -147l516 761q-83 64 -235 64q-68 0 -121.5 -13t-90.5 -34t-64 -56t-43 -71.5t-25 -87.5t-12 -97.5t-3 -107.5zM305 111q81 -66 240 -66q94 0 161 25t104.5 64t59 103.5t27.5 125.5t6 149q0 125 -17 213t-65 147z" />
<glyph unicode="&#xf9;" horiz-adv-x="1036" d="M133 276v748h66v-754q0 -128 66.5 -176.5t203.5 -48.5q222 0 358 84v895h66v-1024h-31l-28 80q-65 -41 -169 -65.5t-196 -24.5q-180 0 -258 66t-78 220zM338 1536h72l122 -410h-40z" />
<glyph unicode="&#xfa;" horiz-adv-x="1036" d="M133 276v748h66v-754q0 -128 66.5 -176.5t203.5 -48.5q222 0 358 84v895h66v-1024h-31l-28 80q-65 -41 -169 -65.5t-196 -24.5q-180 0 -258 66t-78 220zM492 1126l122 410h72l-154 -410h-40z" />
<glyph unicode="&#xfb;" horiz-adv-x="1036" d="M133 276v748h66v-754q0 -128 66.5 -176.5t203.5 -48.5q222 0 358 84v895h66v-1024h-31l-28 80q-65 -41 -169 -65.5t-196 -24.5q-180 0 -258 66t-78 220zM174 1126l307 410h62l307 -410h-49l-289 344l-289 -344h-49z" />
<glyph unicode="&#xfc;" horiz-adv-x="1036" d="M133 276v748h66v-754q0 -128 66.5 -176.5t203.5 -48.5q222 0 358 84v895h66v-1024h-31l-28 80q-65 -41 -169 -65.5t-196 -24.5q-180 0 -258 66t-78 220zM256 1331q0 25 17.5 43.5t43.5 18.5q25 0 43.5 -18.5t18.5 -43.5q0 -26 -18.5 -43.5t-43.5 -17.5q-26 0 -43.5 17.5 t-17.5 43.5zM645 1331q0 25 18 43.5t44 18.5q25 0 43 -18.5t18 -43.5q0 -26 -18 -43.5t-43 -17.5q-26 0 -44 17.5t-18 43.5z" />
<glyph unicode="&#xfd;" horiz-adv-x="946" d="M51 1024h74l348 -938l350 938h72l-600 -1536h-70l219 522zM453 1126l122 410h72l-153 -410h-41z" />
<glyph unicode="&#xfe;" horiz-adv-x="1103" d="M143 -512v2048h62v-588q64 41 162 63.5t190 22.5q99 0 174 -26.5t122 -71.5t76.5 -113t40.5 -142.5t11 -168.5t-11 -168.5t-40.5 -142.5t-76.5 -113t-122 -71.5t-174 -26.5q-92 0 -190 22.5t-162 63.5v-588h-62zM205 131q139 -86 352 -86q88 0 154 27t105 70t62.5 106.5 t31.5 125.5t8 138t-8 138t-31.5 125.5t-62.5 106.5t-105 70t-154 27q-213 0 -352 -86v-762z" />
<glyph unicode="&#xff;" horiz-adv-x="946" d="M51 1024h74l348 -938l350 938h72l-600 -1536h-70l219 522zM217 1331q0 25 18 43.5t44 18.5q25 0 43 -18.5t18 -43.5q0 -26 -18 -43.5t-43 -17.5q-26 0 -44 17.5t-18 43.5zM606 1331q0 25 18 43.5t44 18.5q25 0 43 -18.5t18 -43.5q0 -26 -18 -43.5t-43 -17.5 q-26 0 -44 17.5t-18 43.5z" />
<glyph unicode="&#x152;" horiz-adv-x="1779" d="M113 768q0 108 7 194.5t25 168t47 142.5t74.5 112t106.5 83.5t143.5 50t185.5 17.5h965v-59h-704v-652h628v-57h-628v-709h704v-59h-965q-103 0 -185.5 17.5t-143.5 50t-106.5 83.5t-74.5 112t-47 142.5t-25 168t-7 194.5zM180 768q0 -149 14.5 -257t50.5 -197t96.5 -143 t152.5 -83t219 -29h184v1418h-184q-127 0 -219 -29t-152.5 -83t-96.5 -143t-50.5 -197t-14.5 -257z" />
<glyph unicode="&#x153;" horiz-adv-x="1826" d="M123 512q0 98 9.5 171t36.5 142t72.5 112.5t122 70t181.5 26.5q171 0 263 -65t128 -189q40 123 134 188.5t257 65.5q72 0 128 -13.5t95.5 -36.5t67.5 -61t44.5 -78.5t26 -98t12.5 -110.5t3 -124v-29h-737q1 -75 10.5 -135t34 -118.5t63.5 -97.5t103 -63t149 -24 q171 0 326 51v-55q-59 -23 -150 -37t-176 -14q-164 0 -257.5 64.5t-133.5 187.5q-36 -122 -128 -187t-263 -65q-105 0 -181.5 26.5t-122 70t-72.5 112.5t-36.5 142t-9.5 171zM186 512q0 -61 3 -107.5t12 -97.5t25 -87.5t43 -71.5t64 -56t90.5 -34t121.5 -13q94 0 161 25 t104.5 64t59 103.5t27.5 125.5t6 149t-6 149t-27.5 125.5t-59 103.5t-104.5 64t-161 25q-68 0 -121.5 -13t-90.5 -34t-64 -56t-43 -71.5t-25 -87.5t-12 -97.5t-3 -107.5zM967 541h675q0 55 -2 95t-9.5 88.5t-20.5 83t-36.5 69t-56 55.5t-81 34t-109.5 13q-85 0 -149 -24 t-103 -63t-63.5 -97.5t-34 -118.5t-10.5 -135z" />
<glyph unicode="&#x178;" horiz-adv-x="1265" d="M51 1536h80l502 -848l502 848h79l-548 -907v-629h-66v629zM377 1741q0 25 17.5 43t43.5 18q25 0 43.5 -18t18.5 -43q0 -26 -18.5 -44t-43.5 -18q-26 0 -43.5 18t-17.5 44zM766 1741q0 25 17.5 43t43.5 18q25 0 43.5 -18t18.5 -43q0 -26 -18.5 -44t-43.5 -18 q-26 0 -43.5 18t-17.5 44z" />
<glyph unicode="&#x2c6;" horiz-adv-x="1167" d="M246 1126l307 410h61l308 -410h-50l-288 344l-289 -344h-49z" />
<glyph unicode="&#x2dc;" horiz-adv-x="1167" d="M260 1247q6 88 52.5 134t125.5 46q41 0 74.5 -14.5t57 -35.5t46 -41.5t50.5 -35t61 -14.5q117 0 123 129h57q-6 -88 -52.5 -134t-125.5 -46q-41 0 -74.5 14.5t-57 35.5t-46 41.5t-50.5 35t-61 14.5q-117 0 -123 -129h-57z" />
<glyph unicode="&#x2000;" horiz-adv-x="943" />
<glyph unicode="&#x2001;" horiz-adv-x="1886" />
<glyph unicode="&#x2002;" horiz-adv-x="943" />
<glyph unicode="&#x2003;" horiz-adv-x="1886" />
<glyph unicode="&#x2004;" horiz-adv-x="628" />
<glyph unicode="&#x2005;" horiz-adv-x="471" />
<glyph unicode="&#x2006;" horiz-adv-x="314" />
<glyph unicode="&#x2007;" horiz-adv-x="314" />
<glyph unicode="&#x2008;" horiz-adv-x="235" />
<glyph unicode="&#x2009;" horiz-adv-x="377" />
<glyph unicode="&#x200a;" horiz-adv-x="104" />
<glyph unicode="&#x2010;" horiz-adv-x="696" d="M113 670v57h471v-57h-471z" />
<glyph unicode="&#x2011;" horiz-adv-x="696" d="M113 670v57h471v-57h-471z" />
<glyph unicode="&#x2012;" horiz-adv-x="696" d="M113 670v57h471v-57h-471z" />
<glyph unicode="&#x2013;" horiz-adv-x="1024" d="M113 670v57h798v-57h-798z" />
<glyph unicode="&#x2014;" horiz-adv-x="2048" d="M113 670v57h1822v-57h-1822z" />
<glyph unicode="&#x2018;" horiz-adv-x="225" d="M6 1024l139 512h43l-110 -512h-72z" />
<glyph unicode="&#x2019;" horiz-adv-x="225" d="M37 1024l110 512h72l-139 -512h-43z" />
<glyph unicode="&#x201a;" horiz-adv-x="225" d="M37 -328l110 512h72l-139 -512h-43z" />
<glyph unicode="&#x201c;" horiz-adv-x="450" d="M6 1024l139 512h43l-110 -512h-72zM231 1024l140 512h43l-111 -512h-72z" />
<glyph unicode="&#x201d;" horiz-adv-x="450" d="M37 1024l110 512h72l-139 -512h-43zM262 1024l111 512h71l-139 -512h-43z" />
<glyph unicode="&#x201e;" horiz-adv-x="450" d="M37 -328l110 512h72l-139 -512h-43zM262 -328l111 512h71l-139 -512h-43z" />
<glyph unicode="&#x2022;" horiz-adv-x="757" d="M113 768q0 110 78 188t188 78t188 -78t78 -188t-78 -188t-188 -78t-188 78t-78 188z" />
<glyph unicode="&#x2026;" horiz-adv-x="1966" d="M246 51q0 25 17.5 43.5t43.5 18.5q25 0 43.5 -18.5t18.5 -43.5q0 -26 -18.5 -43.5t-43.5 -17.5q-26 0 -43.5 17.5t-17.5 43.5zM922 51q0 25 17.5 43.5t43.5 18.5q25 0 43 -18.5t18 -43.5q0 -26 -18 -43.5t-43 -17.5q-26 0 -43.5 17.5t-17.5 43.5zM1597 51q0 25 18 43.5 t44 18.5q25 0 43 -18.5t18 -43.5q0 -26 -18 -43.5t-43 -17.5q-26 0 -44 17.5t-18 43.5z" />
<glyph unicode="&#x202f;" horiz-adv-x="377" />
<glyph unicode="&#x2039;" horiz-adv-x="563" d="M82 489v46l389 331v-61l-326 -293l326 -293v-63z" />
<glyph unicode="&#x203a;" horiz-adv-x="563" d="M92 156v63l326 293l-326 293v61l389 -331v-46z" />
<glyph unicode="&#x205f;" horiz-adv-x="471" />
<glyph unicode="&#x20ac;" horiz-adv-x="1159" d="M51 467v57h172q-4 74 -4 117q0 39 4 117h-172v57h180q14 112 48 196.5t92 148.5t148 97t210 33q75 0 159.5 -13t137.5 -32v-55q-153 43 -299 43q-103 0 -180.5 -30t-127.5 -87t-79 -130.5t-43 -170.5h577l-22 -57h-563q-4 -39 -4 -117q0 -80 4 -117h483l-22 -57h-453 q28 -201 129 -310.5t301 -109.5q157 0 299 45v-57q-120 -45 -297 -45q-234 0 -351.5 123t-146.5 354h-180z" />
<glyph unicode="&#x2122;" horiz-adv-x="1116" d="M0 1499v37h414v-37h-183v-475h-49v475h-182zM526 1024v512h43l199 -397l201 397h41v-512h-41l4 438l-185 -372h-38l-185 372l4 -438h-43z" />
<glyph unicode="&#x25fc;" horiz-adv-x="1024" d="M0 0v1024h1024v-1024h-1024z" />
</font>
</defs>
</svg>
