<?xml version="1.0" standalone="no"?>
<!DOCTYPE svg PUBLIC "-//W3C//DTD SVG 1.1//EN" "http://www.w3.org/Graphics/SVG/1.1/DTD/svg11.dtd" >
<svg>
<metadata>
Created by FontForge 20120731 at Wed Jul 10 19:58:44 2019
 By www
Copr.1994, Petr van Blokland, designer. Produced by The Font Bureau, Inc. 
</metadata>
<defs>
<font id="Proforma-Medium" horiz-adv-x="500" >
  <font-face 
    font-family="Proforma"
    font-weight="400"
    font-stretch="normal"
    units-per-em="1000"
    panose-1="2 0 6 3 6 0 0 2 0 3"
    ascent="800"
    descent="-200"
    x-height="447"
    cap-height="654"
    bbox="-202 -273 1239 944"
    underline-thickness="20"
    underline-position="-180"
    unicode-range="U+0005-2122"
  />
<missing-glyph 
 />
    <glyph glyph-name=".notdef" 
 />
    <glyph glyph-name="NUL" horiz-adv-x="0" 
 />
    <glyph glyph-name="nonmarkingreturn" horiz-adv-x="200" 
 />
    <glyph glyph-name="space" unicode=" " horiz-adv-x="200" 
 />
    <glyph glyph-name="space" unicode="&#xa0;" horiz-adv-x="200" 
 />
    <glyph glyph-name="Lslash" horiz-adv-x="530" 
d="M517 0h-476v31l81 16l10 101v161h-106v47h106v151l-10 101l-81 16v30h276v-30l-81 -16l-10 -101v-151h114v-47h-114v-160l10 -89l77 -16h64l85 16l22 98h43z" />
    <glyph glyph-name="lslash" horiz-adv-x="304" 
d="M200 321v-201l11 -76l69 -13v-31h-246v31l70 13l11 76v201h-82v47h82v208l-11 77l-80 13v31l186 18l-10 -139v-208h89v-47h-89z" />
    <glyph glyph-name="Scaron" unicode="&#x160;" horiz-adv-x="506" 
d="M460 179q0 -45 -17.5 -81t-49 -62t-75.5 -40t-98 -14q-18 0 -36 1t-37 5t-40.5 10t-48.5 17l-10 152h51l20 -105q26 -12 50.5 -20.5t55.5 -8.5q34 0 63 8t50 23.5t32.5 37.5t11.5 50q0 31 -13.5 53.5t-36 39t-50.5 28.5t-57 23q-36 13 -68 28.5t-57 36.5t-39.5 51
t-14.5 73q0 38 14.5 73t43 61.5t70.5 42.5t98 16q38 0 82.5 -9.5t85.5 -24.5l11 -151h-50l-22 107q-23 14 -55 22t-54 8q-37 0 -65 -9.5t-46.5 -25t-27.5 -36t-9 -41.5q0 -30 12 -50.5t31.5 -35t45 -25.5t51.5 -21q38 -15 74 -32t63.5 -40.5t44 -56t16.5 -78.5zM258 736
l-140 139l26 26l114 -90l114 90l26 -26z" />
    <glyph glyph-name="scaron" unicode="&#x161;" horiz-adv-x="398" 
d="M357 127q0 -32 -12 -59t-34.5 -47.5t-53.5 -32t-69 -11.5q-25 0 -63 7.5t-74 21.5l-8 117h44l17 -77q23 -11 43.5 -16.5t49.5 -5.5q41 0 64.5 19t23.5 54q0 22 -9.5 36.5t-24.5 25t-34.5 18t-38.5 14.5l-48 20t-44 25t-32.5 37t-12.5 56q0 28 11.5 54.5t33 46.5t52.5 32
t71 12q69 0 133 -29l10 -117h-44l-22 79q-43 20 -89 20q-40 0 -61.5 -16.5t-21.5 -50.5q0 -21 9.5 -35t24.5 -24t34 -17.5t37 -14.5q27 -10 51.5 -20.5t44 -26t31 -38t11.5 -57.5zM200 538l-140 139l26 26l114 -90l114 90l26 -26z" />
    <glyph glyph-name="Yacute" unicode="&#xdd;" horiz-adv-x="605" 
d="M536 608l-67 -101l-110 -197v-162l11 -101l81 -16v-31h-276v31l81 16l10 101v135l-128 224l-70 101l-60 16v30h261v-30l-73 -16l49 -101l90 -156l84 156l45 101l-71 16v30h204v-30zM312 741l-25 25l178 178l50 -50z" />
    <glyph glyph-name="yacute" unicode="&#xfd;" horiz-adv-x="512" 
d="M451 404l-38 -78l-218 -576l-145 13v34l100 16l43 70l43 101l-140 342l-41 78l-45 12v31h219v-31l-64 -12l24 -78l90 -231l84 231l22 78l-63 12v31h180v-31zM280 543l-25 25l178 178l50 -50z" />
    <glyph glyph-name="Thorn" unicode="&#xde;" horiz-adv-x="545" 
d="M511 395q0 -40 -15.5 -75.5t-47.5 -62.5t-81.5 -42.5t-116.5 -15.5h-29v-51l10 -101l91 -16v-31h-286v31l81 16l10 101v359l-10 101l-81 16v30h196l-10 -102h116q44 0 76.5 -11.5t54 -32.5t32 -50t10.5 -63zM416 382q0 61 -35.5 94.5t-119.5 33.5h-40v-264q8 -2 13 -2.5
t9.5 -1.5t10 -1h14.5q68 -1 108 36t40 105z" />
    <glyph glyph-name="thorn" unicode="&#xfe;" horiz-adv-x="560" 
d="M520 256q0 -59 -18.5 -109.5t-52 -87.5t-80.5 -58t-104 -21q-13 0 -29 1t-34 6v-106l11 -76l81 -14v-30h-257v29l69 15l11 76v695l-11 77l-80 13v31l187 18l-11 -139v-186q32 37 70.5 57.5t83.5 20.5q37 0 67 -15.5t51.5 -44t33.5 -67.5t12 -85zM432 222q0 84 -29 131
t-85 47q-32 0 -59.5 -12.5t-56.5 -46.5v-302q23 -8 39.5 -12t37.5 -4q72 0 112.5 52t40.5 147z" />
    <glyph glyph-name="Zcaron" horiz-adv-x="573" 
d="M515 0h-469v33l73 115l211 359l55 106h-166l-99 -15l-21 -96h-45l12 152h445v-30l-71 -117l-211 -359l-55 -104h195l92 16l22 94h44zM285 736l-140 139l26 26l114 -90l114 90l26 -26z" />
    <glyph glyph-name="zcaron" horiz-adv-x="453" 
d="M402 0h-360v34l63 86l132 206l45 80h-112l-68 -13l-18 -72h-41l11 126h341v-34l-62 -86l-131 -207l-43 -79h119l74 13l19 71h41zM227 538l-140 139l26 26l114 -90l114 90l26 -26z" />
    <glyph glyph-name="onehalf" unicode="&#xbd;" horiz-adv-x="1000" 
d="M1000 333q-4 1 -10.5 1.5t-13.5 1.5q-8 1 -18 1q-29 0 -52.5 -12.5t-40.5 -31.5t-27.5 -44t-16.5 -42q-5 8 -6.5 22.5t-4.5 32.5t-8 37t-17 35t-33 29t-47 18q-6 2 -14.5 3.5t-12.5 6.5q-3 20 -2.5 46t-1.5 48.5t-9.5 38t-25.5 15.5q-11 0 -18.5 -7t-7.5 -19q0 -11 2 -17
t4 -14t4 -20.5t2 -36.5q0 -20 -0.5 -30t-3.5 -15q-3 -6 -10 -7.5t-19.5 -5.5t-33 -12.5t-50.5 -29.5q-12 12 -24.5 25t-25 24t-24.5 18t-23 7q-29 0 -50.5 -5t-33.5 -20q1 6 1 9v7q0 41 -24 76.5t-56 55.5q-33 20 -66 31.5t-54 11.5q-18 0 -22 -8q-2 8 -5.5 17t-16.5 9
q-5 0 -14.5 -1.5t-13.5 -11.5q-3 -7 -2.5 -19.5t2.5 -21.5q1 -9 4.5 -32.5t7.5 -54.5t7 -66t4 -65q1 -20 2.5 -30t-7.5 -16q-26 1 -40.5 1t-33.5 -4v488h1000v-417v0zM275 399q0 -28 -13.5 -52.5t-32.5 -39.5q-13 -11 -23 -17t-19 -9.5t-18 -5.5t-20 -3q-2 -1 -4 -0.5
t-4 0.5h-5q0 2 -0.5 18t-2 39t-3 50.5t-3.5 52.5t-4.5 45t-5.5 29q2 -2 6 -3l6 -2t7 -1q14 -2 28 -4.5t34 -13.5q13 -7 26.5 -17.5t25 -21.5t18.5 -22.5t7 -21.5zM0 -250v464q26 -6 42.5 -6t33.5 -3q-1 -11 0.5 -20t3 -22.5t3 -35t1.5 -57.5q0 -47 1 -78t4.5 -49.5t9.5 -26
t15 -7.5q18 0 24 8.5t6 19.5q0 12 -6 28q0 57 -0.5 85.5t-1 41.5t-1 17t-1 12t-1 26.5t-0.5 61.5q16 2 42 8.5t60 25.5q17 10 37 29t38 42q-1 -17 5.5 -44t9.5 -59q2 -27 6.5 -53.5t9.5 -52.5q6 -30 17 -52t29 -33q3 -2 13 -4.5t20.5 -5t19 -4t9.5 -1.5h17.5t17.5 2.5
t13.5 7.5t5.5 16q0 15 -8.5 21.5t-21 8.5t-26 1.5t-23.5 1.5q-11 2 -18 16t-12 30t-7 29.5l-2 13.5q-5 28 -11 59.5t-10.5 59t-5.5 47t4 23.5q7 5 14 7t21 2q9 0 21.5 -8t23.5 -20t18.5 -24.5t7.5 -21.5q0 -17 -9 -26t-19.5 -15t-19.5 -12t-9 -18q0 -14 9 -21t17 -5
q8 1 12.5 3t9 6t10.5 9.5t17 13.5q8 6 15 16t14.5 21t15 21t17.5 16q14 9 31 18.5t41 11.5q2 -30 5 -61q2 -26 4.5 -57t4.5 -58q0 -8 -0.5 -18t-2.5 -19q-2 -11 -3 -22q0 -7 5 -17t14 -19.5t22.5 -16t30.5 -6.5q13 0 26.5 3t13.5 20q0 14 -4 18.5t-10 5t-12.5 0t-12.5 3.5
t-10 15t-4 36q0 17 -4 49t-6 65q-1 14 -1.5 31t-0.5 31q-1 17 -1 34h22q8 -5 16.5 -8.5t17 -9t15.5 -13.5t12 -21q3 -8 7 -39t9 -71t9.5 -80t9.5 -65q2 -5 7.5 -7.5t11.5 -3.5t12 -1h8q7 0 9 7.5t2.5 24t2 42t8.5 61.5q9 47 26.5 73.5t34.5 40.5q20 16 44 22q17 0 24 -0.5
t18 -3.5v-531h-1000z" />
    <glyph glyph-name="onequarter" unicode="&#xbc;" horiz-adv-x="1000" 
d="M1000 333q-4 1 -10.5 1.5t-13.5 1.5q-8 1 -18 1q-29 0 -52.5 -12.5t-40.5 -31.5t-27.5 -44t-16.5 -42q-5 8 -6.5 22.5t-4.5 32.5t-8 37t-17 35t-33 29t-47 18q-6 2 -14.5 3.5t-12.5 6.5q-3 20 -2.5 46t-1.5 48.5t-9.5 38t-25.5 15.5q-11 0 -18.5 -7t-7.5 -19q0 -11 2 -17
t4 -14t4 -20.5t2 -36.5q0 -20 -0.5 -30t-3.5 -15q-3 -6 -10 -7.5t-19.5 -5.5t-33 -12.5t-50.5 -29.5q-12 12 -24.5 25t-25 24t-24.5 18t-23 7q-29 0 -50.5 -5t-33.5 -20q1 6 1 9v7q0 41 -24 76.5t-56 55.5q-33 20 -66 31.5t-54 11.5q-18 0 -22 -8q-2 8 -5.5 17t-16.5 9
q-5 0 -14.5 -1.5t-13.5 -11.5q-3 -7 -2.5 -19.5t2.5 -21.5q1 -9 4.5 -32.5t7.5 -54.5t7 -66t4 -65q1 -20 2.5 -30t-7.5 -16q-26 1 -40.5 1t-33.5 -4v488h1000v-417v0zM275 399q0 -28 -13.5 -52.5t-32.5 -39.5q-13 -11 -23 -17t-19 -9.5t-18 -5.5t-20 -3q-2 -1 -4 -0.5
t-4 0.5h-5q0 2 -0.5 18t-2 39t-3 50.5t-3.5 52.5t-4.5 45t-5.5 29q2 -2 6 -3l6 -2t7 -1q14 -2 28 -4.5t34 -13.5q13 -7 26.5 -17.5t25 -21.5t18.5 -22.5t7 -21.5zM0 -250v464q26 -6 42.5 -6t33.5 -3q-1 -11 0.5 -20t3 -22.5t3 -35t1.5 -57.5q0 -47 1 -78t4.5 -49.5t9.5 -26
t15 -7.5q18 0 24 8.5t6 19.5q0 12 -6 28q0 57 -0.5 85.5t-1 41.5t-1 17t-1 12t-1 26.5t-0.5 61.5q16 2 42 8.5t60 25.5q17 10 37 29t38 42q-1 -17 5.5 -44t9.5 -59q2 -27 6.5 -53.5t9.5 -52.5q6 -30 17 -52t29 -33q3 -2 13 -4.5t20.5 -5t19 -4t9.5 -1.5h17.5t17.5 2.5
t13.5 7.5t5.5 16q0 15 -8.5 21.5t-21 8.5t-26 1.5t-23.5 1.5q-11 2 -18 16t-12 30t-7 29.5l-2 13.5q-5 28 -11 59.5t-10.5 59t-5.5 47t4 23.5q7 5 14 7t21 2q9 0 21.5 -8t23.5 -20t18.5 -24.5t7.5 -21.5q0 -17 -9 -26t-19.5 -15t-19.5 -12t-9 -18q0 -14 9 -21t17 -5
q8 1 12.5 3t9 6t10.5 9.5t17 13.5q8 6 15 16t14.5 21t15 21t17.5 16q14 9 31 18.5t41 11.5q2 -30 5 -61q2 -26 4.5 -57t4.5 -58q0 -8 -0.5 -18t-2.5 -19q-2 -11 -3 -22q0 -7 5 -17t14 -19.5t22.5 -16t30.5 -6.5q13 0 26.5 3t13.5 20q0 14 -4 18.5t-10 5t-12.5 0t-12.5 3.5
t-10 15t-4 36q0 17 -4 49t-6 65q-1 14 -1.5 31t-0.5 31q-1 17 -1 34h22q8 -5 16.5 -8.5t17 -9t15.5 -13.5t12 -21q3 -8 7 -39t9 -71t9.5 -80t9.5 -65q2 -5 7.5 -7.5t11.5 -3.5t12 -1h8q7 0 9 7.5t2.5 24t2 42t8.5 61.5q9 47 26.5 73.5t34.5 40.5q20 16 44 22q17 0 24 -0.5
t18 -3.5v-531h-1000z" />
    <glyph glyph-name="onesuperior" unicode="&#xb9;" horiz-adv-x="1000" 
d="M1000 333q-4 1 -10.5 1.5t-13.5 1.5q-8 1 -18 1q-29 0 -52.5 -12.5t-40.5 -31.5t-27.5 -44t-16.5 -42q-5 8 -6.5 22.5t-4.5 32.5t-8 37t-17 35t-33 29t-47 18q-6 2 -14.5 3.5t-12.5 6.5q-3 20 -2.5 46t-1.5 48.5t-9.5 38t-25.5 15.5q-11 0 -18.5 -7t-7.5 -19q0 -11 2 -17
t4 -14t4 -20.5t2 -36.5q0 -20 -0.5 -30t-3.5 -15q-3 -6 -10 -7.5t-19.5 -5.5t-33 -12.5t-50.5 -29.5q-12 12 -24.5 25t-25 24t-24.5 18t-23 7q-29 0 -50.5 -5t-33.5 -20q1 6 1 9v7q0 41 -24 76.5t-56 55.5q-33 20 -66 31.5t-54 11.5q-18 0 -22 -8q-2 8 -5.5 17t-16.5 9
q-5 0 -14.5 -1.5t-13.5 -11.5q-3 -7 -2.5 -19.5t2.5 -21.5q1 -9 4.5 -32.5t7.5 -54.5t7 -66t4 -65q1 -20 2.5 -30t-7.5 -16q-26 1 -40.5 1t-33.5 -4v488h1000v-417v0zM275 399q0 -28 -13.5 -52.5t-32.5 -39.5q-13 -11 -23 -17t-19 -9.5t-18 -5.5t-20 -3q-2 -1 -4 -0.5
t-4 0.5h-5q0 2 -0.5 18t-2 39t-3 50.5t-3.5 52.5t-4.5 45t-5.5 29q2 -2 6 -3l6 -2t7 -1q14 -2 28 -4.5t34 -13.5q13 -7 26.5 -17.5t25 -21.5t18.5 -22.5t7 -21.5zM0 -250v464q26 -6 42.5 -6t33.5 -3q-1 -11 0.5 -20t3 -22.5t3 -35t1.5 -57.5q0 -47 1 -78t4.5 -49.5t9.5 -26
t15 -7.5q18 0 24 8.5t6 19.5q0 12 -6 28q0 57 -0.5 85.5t-1 41.5t-1 17t-1 12t-1 26.5t-0.5 61.5q16 2 42 8.5t60 25.5q17 10 37 29t38 42q-1 -17 5.5 -44t9.5 -59q2 -27 6.5 -53.5t9.5 -52.5q6 -30 17 -52t29 -33q3 -2 13 -4.5t20.5 -5t19 -4t9.5 -1.5h17.5t17.5 2.5
t13.5 7.5t5.5 16q0 15 -8.5 21.5t-21 8.5t-26 1.5t-23.5 1.5q-11 2 -18 16t-12 30t-7 29.5l-2 13.5q-5 28 -11 59.5t-10.5 59t-5.5 47t4 23.5q7 5 14 7t21 2q9 0 21.5 -8t23.5 -20t18.5 -24.5t7.5 -21.5q0 -17 -9 -26t-19.5 -15t-19.5 -12t-9 -18q0 -14 9 -21t17 -5
q8 1 12.5 3t9 6t10.5 9.5t17 13.5q8 6 15 16t14.5 21t15 21t17.5 16q14 9 31 18.5t41 11.5q2 -30 5 -61q2 -26 4.5 -57t4.5 -58q0 -8 -0.5 -18t-2.5 -19q-2 -11 -3 -22q0 -7 5 -17t14 -19.5t22.5 -16t30.5 -6.5q13 0 26.5 3t13.5 20q0 14 -4 18.5t-10 5t-12.5 0t-12.5 3.5
t-10 15t-4 36q0 17 -4 49t-6 65q-1 14 -1.5 31t-0.5 31q-1 17 -1 34h22q8 -5 16.5 -8.5t17 -9t15.5 -13.5t12 -21q3 -8 7 -39t9 -71t9.5 -80t9.5 -65q2 -5 7.5 -7.5t11.5 -3.5t12 -1h8q7 0 9 7.5t2.5 24t2 42t8.5 61.5q9 47 26.5 73.5t34.5 40.5q20 16 44 22q17 0 24 -0.5
t18 -3.5v-531h-1000z" />
    <glyph glyph-name="threequarters" unicode="&#xbe;" horiz-adv-x="1000" 
d="M1000 333q-4 1 -10.5 1.5t-13.5 1.5q-8 1 -18 1q-29 0 -52.5 -12.5t-40.5 -31.5t-27.5 -44t-16.5 -42q-5 8 -6.5 22.5t-4.5 32.5t-8 37t-17 35t-33 29t-47 18q-6 2 -14.5 3.5t-12.5 6.5q-3 20 -2.5 46t-1.5 48.5t-9.5 38t-25.5 15.5q-11 0 -18.5 -7t-7.5 -19q0 -11 2 -17
t4 -14t4 -20.5t2 -36.5q0 -20 -0.5 -30t-3.5 -15q-3 -6 -10 -7.5t-19.5 -5.5t-33 -12.5t-50.5 -29.5q-12 12 -24.5 25t-25 24t-24.5 18t-23 7q-29 0 -50.5 -5t-33.5 -20q1 6 1 9v7q0 41 -24 76.5t-56 55.5q-33 20 -66 31.5t-54 11.5q-18 0 -22 -8q-2 8 -5.5 17t-16.5 9
q-5 0 -14.5 -1.5t-13.5 -11.5q-3 -7 -2.5 -19.5t2.5 -21.5q1 -9 4.5 -32.5t7.5 -54.5t7 -66t4 -65q1 -20 2.5 -30t-7.5 -16q-26 1 -40.5 1t-33.5 -4v488h1000v-417v0zM275 399q0 -28 -13.5 -52.5t-32.5 -39.5q-13 -11 -23 -17t-19 -9.5t-18 -5.5t-20 -3q-2 -1 -4 -0.5
t-4 0.5h-5q0 2 -0.5 18t-2 39t-3 50.5t-3.5 52.5t-4.5 45t-5.5 29q2 -2 6 -3l6 -2t7 -1q14 -2 28 -4.5t34 -13.5q13 -7 26.5 -17.5t25 -21.5t18.5 -22.5t7 -21.5zM0 -250v464q26 -6 42.5 -6t33.5 -3q-1 -11 0.5 -20t3 -22.5t3 -35t1.5 -57.5q0 -47 1 -78t4.5 -49.5t9.5 -26
t15 -7.5q18 0 24 8.5t6 19.5q0 12 -6 28q0 57 -0.5 85.5t-1 41.5t-1 17t-1 12t-1 26.5t-0.5 61.5q16 2 42 8.5t60 25.5q17 10 37 29t38 42q-1 -17 5.5 -44t9.5 -59q2 -27 6.5 -53.5t9.5 -52.5q6 -30 17 -52t29 -33q3 -2 13 -4.5t20.5 -5t19 -4t9.5 -1.5h17.5t17.5 2.5
t13.5 7.5t5.5 16q0 15 -8.5 21.5t-21 8.5t-26 1.5t-23.5 1.5q-11 2 -18 16t-12 30t-7 29.5l-2 13.5q-5 28 -11 59.5t-10.5 59t-5.5 47t4 23.5q7 5 14 7t21 2q9 0 21.5 -8t23.5 -20t18.5 -24.5t7.5 -21.5q0 -17 -9 -26t-19.5 -15t-19.5 -12t-9 -18q0 -14 9 -21t17 -5
q8 1 12.5 3t9 6t10.5 9.5t17 13.5q8 6 15 16t14.5 21t15 21t17.5 16q14 9 31 18.5t41 11.5q2 -30 5 -61q2 -26 4.5 -57t4.5 -58q0 -8 -0.5 -18t-2.5 -19q-2 -11 -3 -22q0 -7 5 -17t14 -19.5t22.5 -16t30.5 -6.5q13 0 26.5 3t13.5 20q0 14 -4 18.5t-10 5t-12.5 0t-12.5 3.5
t-10 15t-4 36q0 17 -4 49t-6 65q-1 14 -1.5 31t-0.5 31q-1 17 -1 34h22q8 -5 16.5 -8.5t17 -9t15.5 -13.5t12 -21q3 -8 7 -39t9 -71t9.5 -80t9.5 -65q2 -5 7.5 -7.5t11.5 -3.5t12 -1h8q7 0 9 7.5t2.5 24t2 42t8.5 61.5q9 47 26.5 73.5t34.5 40.5q20 16 44 22q17 0 24 -0.5
t18 -3.5v-531h-1000z" />
    <glyph glyph-name="threesuperior" unicode="&#xb3;" horiz-adv-x="1000" 
d="M1000 333q-4 1 -10.5 1.5t-13.5 1.5q-8 1 -18 1q-29 0 -52.5 -12.5t-40.5 -31.5t-27.5 -44t-16.5 -42q-5 8 -6.5 22.5t-4.5 32.5t-8 37t-17 35t-33 29t-47 18q-6 2 -14.5 3.5t-12.5 6.5q-3 20 -2.5 46t-1.5 48.5t-9.5 38t-25.5 15.5q-11 0 -18.5 -7t-7.5 -19q0 -11 2 -17
t4 -14t4 -20.5t2 -36.5q0 -20 -0.5 -30t-3.5 -15q-3 -6 -10 -7.5t-19.5 -5.5t-33 -12.5t-50.5 -29.5q-12 12 -24.5 25t-25 24t-24.5 18t-23 7q-29 0 -50.5 -5t-33.5 -20q1 6 1 9v7q0 41 -24 76.5t-56 55.5q-33 20 -66 31.5t-54 11.5q-18 0 -22 -8q-2 8 -5.5 17t-16.5 9
q-5 0 -14.5 -1.5t-13.5 -11.5q-3 -7 -2.5 -19.5t2.5 -21.5q1 -9 4.5 -32.5t7.5 -54.5t7 -66t4 -65q1 -20 2.5 -30t-7.5 -16q-26 1 -40.5 1t-33.5 -4v488h1000v-417v0zM275 399q0 -28 -13.5 -52.5t-32.5 -39.5q-13 -11 -23 -17t-19 -9.5t-18 -5.5t-20 -3q-2 -1 -4 -0.5
t-4 0.5h-5q0 2 -0.5 18t-2 39t-3 50.5t-3.5 52.5t-4.5 45t-5.5 29q2 -2 6 -3l6 -2t7 -1q14 -2 28 -4.5t34 -13.5q13 -7 26.5 -17.5t25 -21.5t18.5 -22.5t7 -21.5zM0 -250v464q26 -6 42.5 -6t33.5 -3q-1 -11 0.5 -20t3 -22.5t3 -35t1.5 -57.5q0 -47 1 -78t4.5 -49.5t9.5 -26
t15 -7.5q18 0 24 8.5t6 19.5q0 12 -6 28q0 57 -0.5 85.5t-1 41.5t-1 17t-1 12t-1 26.5t-0.5 61.5q16 2 42 8.5t60 25.5q17 10 37 29t38 42q-1 -17 5.5 -44t9.5 -59q2 -27 6.5 -53.5t9.5 -52.5q6 -30 17 -52t29 -33q3 -2 13 -4.5t20.5 -5t19 -4t9.5 -1.5h17.5t17.5 2.5
t13.5 7.5t5.5 16q0 15 -8.5 21.5t-21 8.5t-26 1.5t-23.5 1.5q-11 2 -18 16t-12 30t-7 29.5l-2 13.5q-5 28 -11 59.5t-10.5 59t-5.5 47t4 23.5q7 5 14 7t21 2q9 0 21.5 -8t23.5 -20t18.5 -24.5t7.5 -21.5q0 -17 -9 -26t-19.5 -15t-19.5 -12t-9 -18q0 -14 9 -21t17 -5
q8 1 12.5 3t9 6t10.5 9.5t17 13.5q8 6 15 16t14.5 21t15 21t17.5 16q14 9 31 18.5t41 11.5q2 -30 5 -61q2 -26 4.5 -57t4.5 -58q0 -8 -0.5 -18t-2.5 -19q-2 -11 -3 -22q0 -7 5 -17t14 -19.5t22.5 -16t30.5 -6.5q13 0 26.5 3t13.5 20q0 14 -4 18.5t-10 5t-12.5 0t-12.5 3.5
t-10 15t-4 36q0 17 -4 49t-6 65q-1 14 -1.5 31t-0.5 31q-1 17 -1 34h22q8 -5 16.5 -8.5t17 -9t15.5 -13.5t12 -21q3 -8 7 -39t9 -71t9.5 -80t9.5 -65q2 -5 7.5 -7.5t11.5 -3.5t12 -1h8q7 0 9 7.5t2.5 24t2 42t8.5 61.5q9 47 26.5 73.5t34.5 40.5q20 16 44 22q17 0 24 -0.5
t18 -3.5v-531h-1000z" />
    <glyph glyph-name="twosuperior" unicode="&#xb2;" horiz-adv-x="1000" 
d="M1000 333q-4 1 -10.5 1.5t-13.5 1.5q-8 1 -18 1q-29 0 -52.5 -12.5t-40.5 -31.5t-27.5 -44t-16.5 -42q-5 8 -6.5 22.5t-4.5 32.5t-8 37t-17 35t-33 29t-47 18q-6 2 -14.5 3.5t-12.5 6.5q-3 20 -2.5 46t-1.5 48.5t-9.5 38t-25.5 15.5q-11 0 -18.5 -7t-7.5 -19q0 -11 2 -17
t4 -14t4 -20.5t2 -36.5q0 -20 -0.5 -30t-3.5 -15q-3 -6 -10 -7.5t-19.5 -5.5t-33 -12.5t-50.5 -29.5q-12 12 -24.5 25t-25 24t-24.5 18t-23 7q-29 0 -50.5 -5t-33.5 -20q1 6 1 9v7q0 41 -24 76.5t-56 55.5q-33 20 -66 31.5t-54 11.5q-18 0 -22 -8q-2 8 -5.5 17t-16.5 9
q-5 0 -14.5 -1.5t-13.5 -11.5q-3 -7 -2.5 -19.5t2.5 -21.5q1 -9 4.5 -32.5t7.5 -54.5t7 -66t4 -65q1 -20 2.5 -30t-7.5 -16q-26 1 -40.5 1t-33.5 -4v488h1000v-417v0zM275 399q0 -28 -13.5 -52.5t-32.5 -39.5q-13 -11 -23 -17t-19 -9.5t-18 -5.5t-20 -3q-2 -1 -4 -0.5
t-4 0.5h-5q0 2 -0.5 18t-2 39t-3 50.5t-3.5 52.5t-4.5 45t-5.5 29q2 -2 6 -3l6 -2t7 -1q14 -2 28 -4.5t34 -13.5q13 -7 26.5 -17.5t25 -21.5t18.5 -22.5t7 -21.5zM0 -250v464q26 -6 42.5 -6t33.5 -3q-1 -11 0.5 -20t3 -22.5t3 -35t1.5 -57.5q0 -47 1 -78t4.5 -49.5t9.5 -26
t15 -7.5q18 0 24 8.5t6 19.5q0 12 -6 28q0 57 -0.5 85.5t-1 41.5t-1 17t-1 12t-1 26.5t-0.5 61.5q16 2 42 8.5t60 25.5q17 10 37 29t38 42q-1 -17 5.5 -44t9.5 -59q2 -27 6.5 -53.5t9.5 -52.5q6 -30 17 -52t29 -33q3 -2 13 -4.5t20.5 -5t19 -4t9.5 -1.5h17.5t17.5 2.5
t13.5 7.5t5.5 16q0 15 -8.5 21.5t-21 8.5t-26 1.5t-23.5 1.5q-11 2 -18 16t-12 30t-7 29.5l-2 13.5q-5 28 -11 59.5t-10.5 59t-5.5 47t4 23.5q7 5 14 7t21 2q9 0 21.5 -8t23.5 -20t18.5 -24.5t7.5 -21.5q0 -17 -9 -26t-19.5 -15t-19.5 -12t-9 -18q0 -14 9 -21t17 -5
q8 1 12.5 3t9 6t10.5 9.5t17 13.5q8 6 15 16t14.5 21t15 21t17.5 16q14 9 31 18.5t41 11.5q2 -30 5 -61q2 -26 4.5 -57t4.5 -58q0 -8 -0.5 -18t-2.5 -19q-2 -11 -3 -22q0 -7 5 -17t14 -19.5t22.5 -16t30.5 -6.5q13 0 26.5 3t13.5 20q0 14 -4 18.5t-10 5t-12.5 0t-12.5 3.5
t-10 15t-4 36q0 17 -4 49t-6 65q-1 14 -1.5 31t-0.5 31q-1 17 -1 34h22q8 -5 16.5 -8.5t17 -9t15.5 -13.5t12 -21q3 -8 7 -39t9 -71t9.5 -80t9.5 -65q2 -5 7.5 -7.5t11.5 -3.5t12 -1h8q7 0 9 7.5t2.5 24t2 42t8.5 61.5q9 47 26.5 73.5t34.5 40.5q20 16 44 22q17 0 24 -0.5
t18 -3.5v-531h-1000z" />
    <glyph glyph-name="brokenbar" unicode="&#xa6;" horiz-adv-x="1000" 
d="M1000 333q-4 1 -10.5 1.5t-13.5 1.5q-8 1 -18 1q-29 0 -52.5 -12.5t-40.5 -31.5t-27.5 -44t-16.5 -42q-5 8 -6.5 22.5t-4.5 32.5t-8 37t-17 35t-33 29t-47 18q-6 2 -14.5 3.5t-12.5 6.5q-3 20 -2.5 46t-1.5 48.5t-9.5 38t-25.5 15.5q-11 0 -18.5 -7t-7.5 -19q0 -11 2 -17
t4 -14t4 -20.5t2 -36.5q0 -20 -0.5 -30t-3.5 -15q-3 -6 -10 -7.5t-19.5 -5.5t-33 -12.5t-50.5 -29.5q-12 12 -24.5 25t-25 24t-24.5 18t-23 7q-29 0 -50.5 -5t-33.5 -20q1 6 1 9v7q0 41 -24 76.5t-56 55.5q-33 20 -66 31.5t-54 11.5q-18 0 -22 -8q-2 8 -5.5 17t-16.5 9
q-5 0 -14.5 -1.5t-13.5 -11.5q-3 -7 -2.5 -19.5t2.5 -21.5q1 -9 4.5 -32.5t7.5 -54.5t7 -66t4 -65q1 -20 2.5 -30t-7.5 -16q-26 1 -40.5 1t-33.5 -4v488h1000v-417v0zM275 399q0 -28 -13.5 -52.5t-32.5 -39.5q-13 -11 -23 -17t-19 -9.5t-18 -5.5t-20 -3q-2 -1 -4 -0.5
t-4 0.5h-5q0 2 -0.5 18t-2 39t-3 50.5t-3.5 52.5t-4.5 45t-5.5 29q2 -2 6 -3l6 -2t7 -1q14 -2 28 -4.5t34 -13.5q13 -7 26.5 -17.5t25 -21.5t18.5 -22.5t7 -21.5zM0 -250v464q26 -6 42.5 -6t33.5 -3q-1 -11 0.5 -20t3 -22.5t3 -35t1.5 -57.5q0 -47 1 -78t4.5 -49.5t9.5 -26
t15 -7.5q18 0 24 8.5t6 19.5q0 12 -6 28q0 57 -0.5 85.5t-1 41.5t-1 17t-1 12t-1 26.5t-0.5 61.5q16 2 42 8.5t60 25.5q17 10 37 29t38 42q-1 -17 5.5 -44t9.5 -59q2 -27 6.5 -53.5t9.5 -52.5q6 -30 17 -52t29 -33q3 -2 13 -4.5t20.5 -5t19 -4t9.5 -1.5h17.5t17.5 2.5
t13.5 7.5t5.5 16q0 15 -8.5 21.5t-21 8.5t-26 1.5t-23.5 1.5q-11 2 -18 16t-12 30t-7 29.5l-2 13.5q-5 28 -11 59.5t-10.5 59t-5.5 47t4 23.5q7 5 14 7t21 2q9 0 21.5 -8t23.5 -20t18.5 -24.5t7.5 -21.5q0 -17 -9 -26t-19.5 -15t-19.5 -12t-9 -18q0 -14 9 -21t17 -5
q8 1 12.5 3t9 6t10.5 9.5t17 13.5q8 6 15 16t14.5 21t15 21t17.5 16q14 9 31 18.5t41 11.5q2 -30 5 -61q2 -26 4.5 -57t4.5 -58q0 -8 -0.5 -18t-2.5 -19q-2 -11 -3 -22q0 -7 5 -17t14 -19.5t22.5 -16t30.5 -6.5q13 0 26.5 3t13.5 20q0 14 -4 18.5t-10 5t-12.5 0t-12.5 3.5
t-10 15t-4 36q0 17 -4 49t-6 65q-1 14 -1.5 31t-0.5 31q-1 17 -1 34h22q8 -5 16.5 -8.5t17 -9t15.5 -13.5t12 -21q3 -8 7 -39t9 -71t9.5 -80t9.5 -65q2 -5 7.5 -7.5t11.5 -3.5t12 -1h8q7 0 9 7.5t2.5 24t2 42t8.5 61.5q9 47 26.5 73.5t34.5 40.5q20 16 44 22q17 0 24 -0.5
t18 -3.5v-531h-1000z" />
    <glyph glyph-name="minus" unicode="&#xad;" horiz-adv-x="1000" 
d="M1000 333q-4 1 -10.5 1.5t-13.5 1.5q-8 1 -18 1q-29 0 -52.5 -12.5t-40.5 -31.5t-27.5 -44t-16.5 -42q-5 8 -6.5 22.5t-4.5 32.5t-8 37t-17 35t-33 29t-47 18q-6 2 -14.5 3.5t-12.5 6.5q-3 20 -2.5 46t-1.5 48.5t-9.5 38t-25.5 15.5q-11 0 -18.5 -7t-7.5 -19q0 -11 2 -17
t4 -14t4 -20.5t2 -36.5q0 -20 -0.5 -30t-3.5 -15q-3 -6 -10 -7.5t-19.5 -5.5t-33 -12.5t-50.5 -29.5q-12 12 -24.5 25t-25 24t-24.5 18t-23 7q-29 0 -50.5 -5t-33.5 -20q1 6 1 9v7q0 41 -24 76.5t-56 55.5q-33 20 -66 31.5t-54 11.5q-18 0 -22 -8q-2 8 -5.5 17t-16.5 9
q-5 0 -14.5 -1.5t-13.5 -11.5q-3 -7 -2.5 -19.5t2.5 -21.5q1 -9 4.5 -32.5t7.5 -54.5t7 -66t4 -65q1 -20 2.5 -30t-7.5 -16q-26 1 -40.5 1t-33.5 -4v488h1000v-417v0zM275 399q0 -28 -13.5 -52.5t-32.5 -39.5q-13 -11 -23 -17t-19 -9.5t-18 -5.5t-20 -3q-2 -1 -4 -0.5
t-4 0.5h-5q0 2 -0.5 18t-2 39t-3 50.5t-3.5 52.5t-4.5 45t-5.5 29q2 -2 6 -3l6 -2t7 -1q14 -2 28 -4.5t34 -13.5q13 -7 26.5 -17.5t25 -21.5t18.5 -22.5t7 -21.5zM0 -250v464q26 -6 42.5 -6t33.5 -3q-1 -11 0.5 -20t3 -22.5t3 -35t1.5 -57.5q0 -47 1 -78t4.5 -49.5t9.5 -26
t15 -7.5q18 0 24 8.5t6 19.5q0 12 -6 28q0 57 -0.5 85.5t-1 41.5t-1 17t-1 12t-1 26.5t-0.5 61.5q16 2 42 8.5t60 25.5q17 10 37 29t38 42q-1 -17 5.5 -44t9.5 -59q2 -27 6.5 -53.5t9.5 -52.5q6 -30 17 -52t29 -33q3 -2 13 -4.5t20.5 -5t19 -4t9.5 -1.5h17.5t17.5 2.5
t13.5 7.5t5.5 16q0 15 -8.5 21.5t-21 8.5t-26 1.5t-23.5 1.5q-11 2 -18 16t-12 30t-7 29.5l-2 13.5q-5 28 -11 59.5t-10.5 59t-5.5 47t4 23.5q7 5 14 7t21 2q9 0 21.5 -8t23.5 -20t18.5 -24.5t7.5 -21.5q0 -17 -9 -26t-19.5 -15t-19.5 -12t-9 -18q0 -14 9 -21t17 -5
q8 1 12.5 3t9 6t10.5 9.5t17 13.5q8 6 15 16t14.5 21t15 21t17.5 16q14 9 31 18.5t41 11.5q2 -30 5 -61q2 -26 4.5 -57t4.5 -58q0 -8 -0.5 -18t-2.5 -19q-2 -11 -3 -22q0 -7 5 -17t14 -19.5t22.5 -16t30.5 -6.5q13 0 26.5 3t13.5 20q0 14 -4 18.5t-10 5t-12.5 0t-12.5 3.5
t-10 15t-4 36q0 17 -4 49t-6 65q-1 14 -1.5 31t-0.5 31q-1 17 -1 34h22q8 -5 16.5 -8.5t17 -9t15.5 -13.5t12 -21q3 -8 7 -39t9 -71t9.5 -80t9.5 -65q2 -5 7.5 -7.5t11.5 -3.5t12 -1h8q7 0 9 7.5t2.5 24t2 42t8.5 61.5q9 47 26.5 73.5t34.5 40.5q20 16 44 22q17 0 24 -0.5
t18 -3.5v-531h-1000z" />
    <glyph glyph-name="multiply" unicode="&#xd7;" horiz-adv-x="1000" 
d="M1000 333q-4 1 -10.5 1.5t-13.5 1.5q-8 1 -18 1q-29 0 -52.5 -12.5t-40.5 -31.5t-27.5 -44t-16.5 -42q-5 8 -6.5 22.5t-4.5 32.5t-8 37t-17 35t-33 29t-47 18q-6 2 -14.5 3.5t-12.5 6.5q-3 20 -2.5 46t-1.5 48.5t-9.5 38t-25.5 15.5q-11 0 -18.5 -7t-7.5 -19q0 -11 2 -17
t4 -14t4 -20.5t2 -36.5q0 -20 -0.5 -30t-3.5 -15q-3 -6 -10 -7.5t-19.5 -5.5t-33 -12.5t-50.5 -29.5q-12 12 -24.5 25t-25 24t-24.5 18t-23 7q-29 0 -50.5 -5t-33.5 -20q1 6 1 9v7q0 41 -24 76.5t-56 55.5q-33 20 -66 31.5t-54 11.5q-18 0 -22 -8q-2 8 -5.5 17t-16.5 9
q-5 0 -14.5 -1.5t-13.5 -11.5q-3 -7 -2.5 -19.5t2.5 -21.5q1 -9 4.5 -32.5t7.5 -54.5t7 -66t4 -65q1 -20 2.5 -30t-7.5 -16q-26 1 -40.5 1t-33.5 -4v488h1000v-417v0zM275 399q0 -28 -13.5 -52.5t-32.5 -39.5q-13 -11 -23 -17t-19 -9.5t-18 -5.5t-20 -3q-2 -1 -4 -0.5
t-4 0.5h-5q0 2 -0.5 18t-2 39t-3 50.5t-3.5 52.5t-4.5 45t-5.5 29q2 -2 6 -3l6 -2t7 -1q14 -2 28 -4.5t34 -13.5q13 -7 26.5 -17.5t25 -21.5t18.5 -22.5t7 -21.5zM0 -250v464q26 -6 42.5 -6t33.5 -3q-1 -11 0.5 -20t3 -22.5t3 -35t1.5 -57.5q0 -47 1 -78t4.5 -49.5t9.5 -26
t15 -7.5q18 0 24 8.5t6 19.5q0 12 -6 28q0 57 -0.5 85.5t-1 41.5t-1 17t-1 12t-1 26.5t-0.5 61.5q16 2 42 8.5t60 25.5q17 10 37 29t38 42q-1 -17 5.5 -44t9.5 -59q2 -27 6.5 -53.5t9.5 -52.5q6 -30 17 -52t29 -33q3 -2 13 -4.5t20.5 -5t19 -4t9.5 -1.5h17.5t17.5 2.5
t13.5 7.5t5.5 16q0 15 -8.5 21.5t-21 8.5t-26 1.5t-23.5 1.5q-11 2 -18 16t-12 30t-7 29.5l-2 13.5q-5 28 -11 59.5t-10.5 59t-5.5 47t4 23.5q7 5 14 7t21 2q9 0 21.5 -8t23.5 -20t18.5 -24.5t7.5 -21.5q0 -17 -9 -26t-19.5 -15t-19.5 -12t-9 -18q0 -14 9 -21t17 -5
q8 1 12.5 3t9 6t10.5 9.5t17 13.5q8 6 15 16t14.5 21t15 21t17.5 16q14 9 31 18.5t41 11.5q2 -30 5 -61q2 -26 4.5 -57t4.5 -58q0 -8 -0.5 -18t-2.5 -19q-2 -11 -3 -22q0 -7 5 -17t14 -19.5t22.5 -16t30.5 -6.5q13 0 26.5 3t13.5 20q0 14 -4 18.5t-10 5t-12.5 0t-12.5 3.5
t-10 15t-4 36q0 17 -4 49t-6 65q-1 14 -1.5 31t-0.5 31q-1 17 -1 34h22q8 -5 16.5 -8.5t17 -9t15.5 -13.5t12 -21q3 -8 7 -39t9 -71t9.5 -80t9.5 -65q2 -5 7.5 -7.5t11.5 -3.5t12 -1h8q7 0 9 7.5t2.5 24t2 42t8.5 61.5q9 47 26.5 73.5t34.5 40.5q20 16 44 22q17 0 24 -0.5
t18 -3.5v-531h-1000z" />
    <glyph glyph-name="eth" unicode="&#xf0;" horiz-adv-x="535" 
d="M444 542v-422l11 -76l65 -13v-31l-161 -21l15 95q-35 -48 -71.5 -71.5t-87.5 -23.5q-38 0 -69.5 15.5t-54.5 45t-36 70.5t-13 92q0 58 17.5 106.5t49 84t76 55.5t97.5 20q22 0 39 -1.5t38 -7.5v83h-103v47h101l-9 64l-80 13v31l187 18l-10 -126h82v-47h-83zM359 406
q-21 9 -38.5 13.5t-42.5 4.5q-71 0 -108.5 -55t-37.5 -146q0 -82 29 -128.5t89 -46.5q26 0 53.5 14t55.5 48v296z" />
    <glyph glyph-name="exclam" unicode="!" horiz-adv-x="236" 
d="M136 200h-36l-28 316v185h92v-185zM174 48q0 -22 -15 -39.5t-41 -17.5q-23 0 -40 14.5t-17 42.5q0 21 15.5 39t41.5 18q22 0 39 -16t17 -41z" />
    <glyph glyph-name="quotedbl" unicode="&#x22;" horiz-adv-x="321" 
d="M253 467h-47l-14 187h75zM114 467h-46l-14 187h74z" />
    <glyph glyph-name="numbersign" unicode="#" 
d="M367 86v-137h-59v137h-116v-137h-59v137h-97v59h97v164h-97v58h97v138h59v-138h116v138h59v-138h97v-58h-97v-164h97v-59h-97zM308 309h-116v-164h116v164z" />
    <glyph glyph-name="dollar" unicode="$" 
d="M467 179q0 -79 -52.5 -131t-141.5 -63v-96h-40v93q-38 0 -76 5.5t-93 27.5l-9 152h50l20 -105q26 -12 51.5 -20t56.5 -9v262q-36 13 -68.5 28.5t-57.5 36.5t-40 51t-15 74q0 34 11.5 65.5t34 57t56.5 43.5t79 24v90h40v-87q39 0 85 -9t88 -25l11 -151h-50l-22 107
q-24 15 -56.5 22.5t-55.5 7.5v-245q38 -15 73 -32.5t62 -41t43 -55.5t16 -77zM233 625q-53 -10 -79 -40.5t-26 -66.5q0 -26 8.5 -44t22.5 -31.5t33.5 -23.5t40.5 -19v225zM388 152q0 26 -9.5 45.5t-25 34t-36.5 26t-44 21.5v-242q51 8 83 37.5t32 77.5z" />
    <glyph glyph-name="percent" unicode="%" horiz-adv-x="910" 
d="M850 174q0 -87 -44.5 -139t-119.5 -52q-36 0 -65.5 13t-51.5 38t-34 59.5t-12 78.5q0 42 11.5 76t32.5 59t51.5 38.5t69.5 13.5q36 0 66 -12.5t51 -36.5t33 -58.5t12 -77.5zM360 -10l-45 15l234 670l45 -16zM387 489q0 -87 -44 -138.5t-119 -51.5q-36 0 -66 13t-52 38
t-34 59.5t-12 78.5q0 42 11.5 76t33 59t52 38.5t68.5 13.5q72 0 117 -49.5t45 -136.5zM785 167q1 66 -26 105.5t-76 39.5q-45 1 -70 -37t-25 -104q0 -30 7.5 -55.5t20.5 -44t31.5 -29.5t40.5 -11q44 0 70.5 35.5t26.5 100.5zM323 483q0 66 -27 105t-75 40q-45 0 -70.5 -37.5
t-25.5 -104.5q0 -29 7.5 -54.5t20.5 -44.5t31.5 -29.5t40.5 -10.5q45 0 71 35.5t27 100.5z" />
    <glyph glyph-name="ampersand" unicode="&#x26;" horiz-adv-x="773" 
d="M686 403l-59 -77l-108 -164l125 -118l79 -13v-31h-170l-88 98q-41 -57 -89 -87t-114 -30q-41 0 -77 14.5t-63 40.5t-42.5 60.5t-15.5 75.5q0 57 34.5 108.5t94.5 92.5q-54 48 -78.5 87.5t-24.5 86.5q0 34 15 64.5t41 52.5t62 35t77 13q29 0 54.5 -9.5t44 -26.5t29 -40.5
t10.5 -52.5q0 -51 -38.5 -97.5t-102.5 -90.5l207 -206l87 138l38 76l-88 13v31h212v-31zM356 571q0 41 -24.5 69.5t-68.5 28.5q-39 0 -67 -27t-28 -74q0 -42 20.5 -73.5t65.5 -72.5q53 38 77.5 71.5t24.5 77.5zM220 346q-40 -29 -61.5 -63.5t-21.5 -72.5q0 -33 13 -62
t35 -51.5t51 -35.5t62 -13q38 0 75 19t66 60z" />
    <glyph glyph-name="quotesingle" unicode="'" horiz-adv-x="182" 
d="M114 467h-46l-14 187h74z" />
    <glyph glyph-name="parenleft" unicode="(" horiz-adv-x="313" 
d="M263 -189q-44 34 -76.5 66t-57 67t-42.5 76t-33 94q-19 67 -19 142q0 74 18 142q24 87 72.5 159.5t137.5 142.5l31 -32q-31 -33 -54 -61.5t-40.5 -59.5t-31 -66.5t-24.5 -82.5q-9 -35 -13 -70t-4 -72q0 -35 4 -70t12 -70q9 -39 20 -72t28.5 -64.5t42 -64t60.5 -71.5z" />
    <glyph glyph-name="parenright" unicode=")" horiz-adv-x="313" 
d="M278 256q0 -75 -18 -142q-24 -87 -72.5 -160t-137.5 -143l-31 33q31 33 54 61.5t40.5 59t31 66t25.5 82.5q16 68 16 143q0 35 -4 70t-12 70q-9 39 -20 71.5t-28.5 64t-42 64t-60.5 71.5l31 33q44 -34 76.5 -65.5t57 -66.5t42.5 -76t33 -94q19 -67 19 -142z" />
    <glyph glyph-name="asterisk" unicode="*" 
d="M423 80l-159 118l24 -195h-76l24 195l-159 -118l-38 66l182 77l-182 78l38 66l159 -119l-24 196h76l-24 -196l159 119l38 -66l-182 -78l182 -77z" />
    <glyph glyph-name="plus" unicode="+" 
d="M274 204v-204h-48v204h-189v47h189v197h48v-197h189v-47h-189z" />
    <glyph glyph-name="comma" unicode="," horiz-adv-x="221" 
d="M180 7q0 -58 -32 -98t-95 -57l-15 38q41 11 61.5 34.5t12.5 59.5q-31 0 -48 17.5t-17 44.5q0 25 16 42.5t45 17.5q32 0 52 -26t20 -73z" />
    <glyph glyph-name="hyphen" unicode="-" horiz-adv-x="250" 
d="M23 212v47h204v-47h-204z" />
    <glyph glyph-name="period" unicode="." horiz-adv-x="221" 
d="M174 50q0 -24 -17.5 -43.5t-46.5 -19.5q-25 0 -44.5 17t-19.5 46q0 25 17.5 44.5t46.5 19.5q25 0 44.5 -17.5t19.5 -46.5z" />
    <glyph glyph-name="slash" unicode="/" horiz-adv-x="304" 
d="M66 -11l-46 15l218 670l46 -15z" />
    <glyph glyph-name="zero" unicode="0" 
d="M465 227q0 -57 -15.5 -103t-44 -78.5t-68 -49.5t-86.5 -17t-85.5 17.5t-66 49.5t-43 77.5t-15.5 101.5q0 55 15.5 99.5t44 76.5t68.5 49.5t88 17.5t86.5 -17t65.5 -48.5t41.5 -76t14.5 -99.5zM391 218q0 44 -9 80.5t-26.5 63t-43 41t-59.5 14.5q-33 0 -58.5 -14.5
t-43.5 -40.5t-27 -61.5t-9 -78.5q0 -40 10 -75t28.5 -60.5t44 -40.5t56.5 -15q63 -1 100 49t37 138z" />
    <glyph glyph-name="one" unicode="1" 
d="M90 0v31l107 18l11 71v206l-11 72l-107 18v31h318v-31l-107 -18l-11 -72v-206l11 -71l107 -18v-31h-318z" />
    <glyph glyph-name="two" unicode="2" 
d="M413 0h-329v52q43 34 83 67t70.5 65.5t48.5 65t18 65.5q0 42 -23.5 68t-69.5 26q-30 0 -55.5 -10t-51.5 -30l-22 26q32 33 75 53t94 20q65 0 104 -34t39 -97q0 -64 -57 -128.5t-172 -140.5h147l113 16z" />
    <glyph glyph-name="three" unicode="3" 
d="M420 11q0 -45 -21.5 -84t-60 -68t-92 -46t-116.5 -17h-52v56q14 -4 31 -6.5t37 -2.5q39 0 73 10t58.5 29.5t38.5 47t14 62.5q0 64 -47 101t-159 38v39q35 3 66.5 13t55.5 28t38 43.5t14 58.5q0 43 -27 68t-70 25q-24 0 -48.5 -9.5t-51.5 -30.5l-24 29q34 33 77 53t88 20
q33 0 60.5 -9.5t47.5 -27t31.5 -42.5t11.5 -56q0 -50 -35.5 -93t-108.5 -70q37 -2 68 -13.5t54 -32t36 -49t13 -64.5z" />
    <glyph glyph-name="four" unicode="4" 
d="M459 24h-98v-177l-85 -16v193h-232v50l257 387h60v-379l110 16zM276 354l-174 -272h174v272z" />
    <glyph glyph-name="five" unicode="5" 
d="M422 20q0 -47 -20.5 -87.5t-58 -71t-92 -48t-121.5 -17.5h-48v55q31 -9 68 -9q41 0 75.5 11t59.5 32t39 50.5t14 65.5q0 34 -11.5 63t-40 50t-76 33t-119.5 12l25 288h301l-12 -81l-104 12h-148l-13 -145q73 0 126.5 -15.5t88 -44t51 -67.5t16.5 -86z" />
    <glyph glyph-name="six" unicode="6" 
d="M446 215q0 -49 -16 -92t-44.5 -75.5t-67 -51t-83.5 -18.5q-38 0 -70.5 15.5t-56 46t-37 76.5t-13.5 108q0 82 21 154.5t63.5 129.5t106.5 94t151 47l5 -39q-44 -9 -83.5 -27t-72 -49t-57 -76.5t-38.5 -108.5q28 29 64 43.5t73 15.5q34 0 62.5 -14t49 -39.5t32 -61
t11.5 -78.5zM368 185q0 72 -31 117t-84 46q-25 0 -49.5 -9.5t-54.5 -36.5q-2 -19 -3.5 -33t-1.5 -34q0 -44 7 -82t21.5 -66.5t36 -44.5t51.5 -16q26 0 46.5 12.5t34 34.5t20.5 51t7 61z" />
    <glyph glyph-name="seven" unicode="7" 
d="M159 -189l-73 38l274 523h-180l-106 -10l10 85h345v-33z" />
    <glyph glyph-name="eight" unicode="8" 
d="M454 161q0 -39 -15.5 -73t-43.5 -59t-67 -39t-86 -14q-85 0 -136 42t-51 118q0 61 39.5 107.5t107.5 80.5q-26 16 -49 33.5t-39.5 37.5t-26 43.5t-9.5 52.5q0 36 15 66t41 52.5t62.5 35t78.5 12.5q36 0 65.5 -10t51.5 -29t34 -45.5t12 -59.5q0 -50 -29.5 -93.5
t-90.5 -72.5q72 -48 104 -91t32 -95zM362 502q0 48 -27.5 81t-72.5 33q-43 0 -74.5 -26t-31.5 -70q0 -23 8 -41.5t24 -35.5t38.5 -34t52.5 -36q40 23 61.5 53t21.5 76zM372 129q0 30 -11 53.5t-29.5 43t-42 37t-48.5 34.5q-45 -21 -74 -60t-29 -87q0 -26 9 -49.5t25.5 -41
t39 -28t49.5 -10.5q23 0 43 8t35 22.5t24 34.5t9 43z" />
    <glyph glyph-name="nine" unicode="9" 
d="M444 223q0 -72 -19 -144t-60.5 -131t-106.5 -99.5t-157 -50.5l-5 38q30 7 67.5 22t73.5 44t65.5 76.5t44.5 120.5q-35 -35 -65.5 -47.5t-71.5 -12.5q-34 0 -63 13.5t-50 38.5t-33 60.5t-12 80.5q0 49 16.5 92.5t45 75t67.5 50t84 18.5q81 0 130 -64t49 -181zM357 214
q0 43 -7.5 81t-22 66t-36.5 44t-51 16q-48 0 -78.5 -41t-30.5 -118q0 -35 8.5 -65t23.5 -52t36.5 -34t47.5 -12q29 0 55.5 10.5t49.5 35.5q2 18 3.5 32.5t1.5 36.5z" />
    <glyph glyph-name="colon" unicode=":" horiz-adv-x="221" 
d="M173 354q0 -25 -17 -44.5t-46 -19.5q-26 0 -45 17t-19 47q0 25 17.5 44.5t46.5 18.5q25 1 44 -17t19 -46zM173 50q0 -24 -17 -43.5t-46 -19.5q-26 0 -45 17t-19 46q0 25 17.5 44.5t46.5 19.5q25 0 44 -17.5t19 -46.5z" />
    <glyph glyph-name="semicolon" unicode=";" horiz-adv-x="221" 
d="M172 355q0 -24 -17.5 -43.5t-46.5 -19.5q-25 0 -44.5 17t-19.5 46q0 25 17.5 44.5t46.5 19.5q25 0 44.5 -17.5t19.5 -46.5zM180 7q0 -57 -32 -97.5t-95 -57.5l-15 39q41 11 61.5 34t12.5 60q-31 -1 -48 16.5t-17 44.5q0 25 15.5 43t44.5 18q32 0 52.5 -26t20.5 -74z" />
    <glyph glyph-name="less" unicode="&#x3c;" 
d="M352 -17l-242 242l242 241l33 -33l-208 -208l208 -208z" />
    <glyph glyph-name="equal" unicode="=" 
d="M41 273v47h418v-47h-418zM41 124v47h418v-47h-418z" />
    <glyph glyph-name="greater" unicode="&#x3e;" 
d="M148 -17l-33 34l208 208l-208 208l33 33l242 -241z" />
    <glyph glyph-name="question" unicode="?" horiz-adv-x="400" 
d="M371 556q0 -52 -22.5 -97.5t-60.5 -81.5t-61 -81.5t-23 -100.5h-46q0 72 21.5 115.5t51.5 76.5q26 28 47 61.5t21 78.5q0 52 -34 84t-96 32q-29 0 -59 -12.5t-58 -38.5l-27 29q35 42 83.5 66t99.5 24q34 0 64 -11t52 -31.5t34.5 -49t12.5 -63.5zM239 48q0 -21 -15 -39
t-41 -18q-23 0 -40 15t-17 42q0 22 15.5 39.5t41.5 17.5q22 0 39 -16t17 -41z" />
    <glyph glyph-name="at" unicode="@" horiz-adv-x="1000" 
d="M926 277q0 -63 -20.5 -113.5t-58 -87t-89 -58.5t-113.5 -29l-69 -7l18 109q-59 -111 -153 -111q-49 0 -82.5 32t-33.5 88q0 67 59 109q30 21 78 31t117 11v48q0 58 -29.5 83t-70.5 25q-58 0 -108 -44l-24 26q35 39 80 61t97 22q63 0 100 -35.5t37 -113.5v-210l11 -69
q96 4 150 52.5t54 153.5q0 72 -29 136.5t-79.5 113t-118.5 76.5t-146 28t-146.5 -28.5t-119.5 -79t-80.5 -120t-29.5 -151.5t30.5 -154.5t84 -126.5t126 -85.5t155.5 -31.5q36 0 100 10.5t147 49.5l14 -30q-70 -36 -140 -53.5t-139 -17.5q-89 0 -167.5 32.5t-137 89
t-92.5 133t-34 163.5q0 91 35.5 171.5t97 140t143.5 94t174 34.5q83 0 156 -29t128 -79t86.5 -116.5t31.5 -142.5zM579 215q-87 0 -129 -24q-41 -24 -41 -69q0 -29 18 -50t48 -21q24 0 53 17.5t51 49.5v97z" />
    <glyph glyph-name="A" unicode="A" horiz-adv-x="682" 
d="M416 0v31l72 16l-27 101l-37 105h-210l-39 -105l-26 -101l74 -16v-31h-215v31l76 16l44 101l188 516h63l181 -516l43 -101l71 -16v-31h-258zM321 556l-93 -261h182z" />
    <glyph glyph-name="B" unicode="B" horiz-adv-x="574" 
d="M534 196q0 -42 -14 -78t-45 -62.5t-79 -41t-115 -14.5h-245v31l79 16l11 101v359l-11 101l-79 16v30h286q49 0 83.5 -11t56 -31t31 -47t9.5 -59q0 -51 -35 -94t-98 -61q42 1 73 -10.5t51.5 -32t30.5 -49.5t10 -63zM401 495q0 50 -31.5 83.5t-96.5 33.5h-54v-246h33
q78 0 113.5 33.5t35.5 95.5zM435 185q0 30 -8 55t-26.5 43.5t-49 29t-75.5 10.5h-57v-175l11 -94q14 -6 29 -9.5t35 -3.5q65 0 103 38.5t38 105.5z" />
    <glyph glyph-name="C" unicode="C" horiz-adv-x="648" 
d="M597 5q-26 -5 -49 -8.5t-47.5 -6.5t-54 -4.5t-67.5 -1.5q-89 0 -152 26t-103 71.5t-59 108t-19 135.5q0 69 20 131.5t62 110t107.5 75.5t155.5 28q23 0 45.5 -1t46 -3.5t49.5 -7t57 -10.5l10 -152h-49l-23 112q-29 10 -64 16t-75 6q-57 0 -102 -20t-76 -57.5t-47 -90.5
t-16 -119q0 -68 16.5 -126.5t48 -101.5t78.5 -67t108 -24q31 0 69 7t68 20l23 107h49z" />
    <glyph glyph-name="D" unicode="D" horiz-adv-x="721" 
d="M675 360q0 -77 -21 -143t-65 -114t-111.5 -75.5t-161.5 -27.5h-280v31l81 16l10 101v359l-10 101l-81 16v30h335q88 0 147 -23.5t93.5 -63.5t49 -93.5t14.5 -113.5zM576 337q0 54 -11 103.5t-40 88t-79 61t-127 22.5h-98v-464l9 -93q26 -6 53 -9t52 -3q59 0 104 21.5
t75.5 60.5t46 93t15.5 119z" />
    <glyph glyph-name="E" unicode="E" horiz-adv-x="568" 
d="M521 0h-485v31l81 16l10 101v359l-10 101l-81 16v30h470l11 -167h-45l-21 107l-92 16h-138v-253h75l76 11l10 81h37v-226h-37l-10 81l-76 10h-75v-165l10 -89l77 -16h74l84 16l22 98h43z" />
    <glyph glyph-name="F" unicode="F" horiz-adv-x="520" 
d="M468 496l-21 98l-96 16h-130v-253h73l78 11l11 81h36v-226h-36l-11 81l-78 10h-73v-166l10 -101l97 -16v-31h-292v31l81 16l10 101v359l-10 101l-81 16v30h464l10 -158h-42z" />
    <glyph glyph-name="G" unicode="G" horiz-adv-x="698" 
d="M614 235l-11 -101v-132q-26 -5 -50.5 -8.5t-50.5 -6.5t-55 -4.5t-65 -1.5q-87 0 -150.5 25.5t-105 70.5t-61 107t-19.5 136q0 71 20 134.5t62.5 111.5t109.5 76t162 28q44 0 92.5 -5t102.5 -17l11 -152h-52l-22 114q-32 9 -69.5 14.5t-72.5 5.5q-57 0 -102 -20
t-76.5 -57.5t-48 -91t-16.5 -119.5q0 -69 16.5 -128t49 -102t80 -67t109.5 -24q25 0 51.5 4.5t55.5 16.5v92l-10 101l-81 16v32h267v-32z" />
    <glyph glyph-name="H" unicode="H" horiz-adv-x="761" 
d="M453 0v31l77 16l11 101v165h-320v-165l10 -101l78 -16v-31h-273v31l81 16l10 101v359l-10 101l-81 16v30h273v-30l-78 -16l-10 -101v-151h320v151l-11 101l-77 16v30h272v-30l-80 -16l-11 -101v-359l11 -101l80 -16v-31h-272z" />
    <glyph glyph-name="I" unicode="I" horiz-adv-x="346" 
d="M36 0v31l81 16l10 101v359l-10 101l-81 16v30h276v-30l-81 -16l-10 -101v-359l10 -101l81 -16v-31h-276z" />
    <glyph glyph-name="J" unicode="J" horiz-adv-x="329" 
d="M221 608l-10 -101v-443q0 -61 -10.5 -105.5t-29 -79t-45.5 -62t-60 -54.5l-23 29q44 42 59.5 99t15.5 123v493l-11 101l-80 16v30h275v-30z" />
    <glyph glyph-name="K" unicode="K" horiz-adv-x="697" 
d="M401 0v31l68 16l-79 101l-71 83l-96 98l106 108l60 70l80 101l-71 16v30h249v-30l-80 -16l-112 -101l-132 -146l188 -213l103 -101l74 -16v-31h-287zM231 608l-10 -101v-359l10 -101l71 -16v-31h-266v31l81 16l10 101v359l-10 101l-81 16v30h273v-30z" />
    <glyph glyph-name="L" unicode="L" horiz-adv-x="530" 
d="M512 0h-476v31l81 16l10 101v359l-10 101l-81 16v30h276v-30l-81 -16l-10 -101v-358l10 -89l77 -16h64l85 16l22 98h43z" />
    <glyph glyph-name="M" unicode="M" horiz-adv-x="908" 
d="M596 0v31l80 16l11 101v438l-172 -438l-51 -148h-65l-54 148l-173 438v-438l11 -101l80 -16v-31h-227v31l81 16l10 101v359l-10 101l-81 16v30h216l51 -147l151 -393l155 394l47 146h216v-30l-80 -16l-11 -101v-359l11 -101l80 -16v-31h-276z" />
    <glyph glyph-name="N" unicode="N" horiz-adv-x="738" 
d="M622 608l-10 -101v-517h-83l-92 158l-265 411v-411l11 -101l80 -16v-31h-227v31l81 16l10 101v359l-10 101l-81 16v30h192l85 -147l254 -395v395l-11 101l-80 16v30h226v-30z" />
    <glyph glyph-name="O" unicode="O" horiz-adv-x="714" 
d="M668 333q0 -79 -20 -144t-60.5 -111.5t-101 -72.5t-141.5 -26q-78 0 -134 25t-93 70t-54.5 108.5t-17.5 140.5q0 78 21.5 142.5t63 111.5t102 73t137.5 26q70 0 125.5 -24t94 -68.5t58.5 -108t20 -142.5zM565 320q0 69 -12 127t-37 100t-63 65.5t-89 23.5
q-49 0 -88.5 -19.5t-68 -58.5t-44 -97t-15.5 -134q0 -69 12 -126t37.5 -97.5t65.5 -63t96 -22.5q46 0 84 21.5t65 60.5t42 95t15 125z" />
    <glyph glyph-name="P" unicode="P" horiz-adv-x="535" 
d="M511 498q0 -40 -15 -76t-47 -63t-81 -42.5t-118 -15.5h-29v-153l10 -101l91 -16v-31h-286v31l81 16l10 101v359l-10 101l-81 16v30h301q46 0 79 -12t54 -33t31 -49.5t10 -61.5zM416 484q1 59 -34.5 93.5t-113.5 34.5h-47v-264q8 -2 13 -2.5t9.5 -1.5t10 -1h14.5
q69 -1 108.5 37t39.5 104z" />
    <glyph glyph-name="Q" unicode="Q" horiz-adv-x="714" 
d="M668 333q0 -80 -22 -145t-62 -111t-96.5 -71.5t-125.5 -26.5l241 -102l-47 -75l-249 152l14 26q-129 1 -202 90t-73 252q0 81 22.5 146t64.5 111.5t102 71.5t135 25q72 0 128 -25t93.5 -70.5t57 -108.5t19.5 -139zM565 320q0 67 -11.5 124.5t-36.5 100t-63 67t-90 24.5
q-48 0 -88 -19.5t-68.5 -58.5t-44 -97t-15.5 -134q0 -150 52 -229.5t159 -79.5q45 0 83 20t65 58.5t42.5 95t15.5 128.5z" />
    <glyph glyph-name="R" unicode="R" horiz-adv-x="618" 
d="M443 0l-74 148l-87 151h-61v-151l10 -101l65 -16v-31h-260v31l81 16l10 101v359l-10 101l-81 16v30h296q93 0 136 -44t43 -113q0 -62 -35.5 -109.5t-103.5 -67.5l103 -172l69 -101l66 -16v-31h-167zM416 482q0 63 -35.5 96.5t-110.5 33.5h-49v-268q8 -1 13 -2t10 -1.5
t10.5 -1t14.5 -0.5q66 0 106.5 38t40.5 105z" />
    <glyph glyph-name="S" unicode="S" horiz-adv-x="506" 
d="M460 179q0 -45 -17.5 -81t-49 -62t-75.5 -40t-98 -14q-18 0 -36 1t-37 5t-40.5 10t-48.5 17l-10 152h51l20 -105q26 -12 50.5 -20.5t55.5 -8.5q34 0 63 8t50 23.5t32.5 37.5t11.5 50q0 31 -13.5 53.5t-36 39t-50.5 28.5t-57 23q-36 13 -68 28.5t-57 36.5t-39.5 51
t-14.5 73q0 38 14.5 73t43 61.5t70.5 42.5t98 16q38 0 82.5 -9.5t85.5 -24.5l11 -151h-50l-22 107q-23 14 -55 22t-54 8q-37 0 -65 -9.5t-46.5 -25t-27.5 -36t-9 -41.5q0 -30 12 -50.5t31.5 -35t45 -25.5t51.5 -21q38 -15 74 -32t63.5 -40.5t44 -56t16.5 -78.5z" />
    <glyph glyph-name="T" unicode="T" horiz-adv-x="589" 
d="M533 496l-21 104l-96 10h-75v-462l11 -101l80 -16v-31h-275v31l81 16l10 101v462h-75l-96 -10l-21 -104h-45l11 158h545l11 -158h-45z" />
    <glyph glyph-name="U" unicode="U" horiz-adv-x="722" 
d="M622 608l-11 -101v-274q0 -69 -17.5 -117.5t-50.5 -79t-80.5 -45t-107.5 -14.5q-115 0 -178 56t-63 167v307l-11 101l-80 16v30h275v-30l-80 -16l-11 -101v-307q0 -88 45.5 -134t126.5 -46q39 0 72 10.5t57.5 34t38.5 61t14 91.5v290l-10 101l-81 16v30h230v-30z" />
    <glyph glyph-name="V" unicode="V" horiz-adv-x="677" 
d="M596 608l-45 -103l-120 -357l-46 -160h-86l-50 160l-125 359l-43 101l-73 16v30h261v-30l-74 -16l25 -101l145 -417l138 417l22 101l-78 16v30h222v-30z" />
    <glyph glyph-name="W" unicode="W" horiz-adv-x="1052" 
d="M970 608l-45 -103l-115 -357l-45 -160h-87l-49 160l-103 295l-99 -295l-46 -160h-87l-49 160l-121 359l-43 101l-73 16v30h258v-30l-71 -16l25 -101l141 -417l139 417l-44 101l-73 16v30h265v-30l-74 -16l26 -101l144 -417l133 417l23 101l-79 16v30h223v-30z" />
    <glyph glyph-name="X" unicode="X" horiz-adv-x="634" 
d="M352 0v31l71 16l-50 101l-38 62q-15 23 -27 43q-6 11 -12 19l-42 -62l-42 -62l-55 -101l67 -16v-31h-215v31l71 16l78 101l56 82q11 15 21 30t18 26q10 13 18 26l-123 195l-72 101l-63 16v30h261v-30l-72 -16l56 -101l72 -116l78 116l59 101l-71 16v30h218v-30l-73 -16
l-78 -101l-108 -156l128 -202l70 -102l73 -16v-31h-274z" />
    <glyph glyph-name="Y" unicode="Y" horiz-adv-x="605" 
d="M536 608l-67 -101l-110 -197v-162l11 -101l81 -16v-31h-276v31l81 16l10 101v135l-128 224l-70 101l-60 16v30h261v-30l-73 -16l49 -101l90 -156l84 156l45 101l-71 16v30h204v-30z" />
    <glyph glyph-name="Z" unicode="Z" horiz-adv-x="573" 
d="M515 0h-469v33l73 115l211 359l55 106h-166l-99 -15l-21 -96h-45l12 152h445v-30l-71 -117l-211 -359l-55 -104h195l92 16l22 94h44z" />
    <glyph glyph-name="bracketleft" unicode="[" horiz-adv-x="243" 
d="M56 -185v889h171v-31l-85 -16l-11 -101v-593l11 -101l85 -16v-31h-171z" />
    <glyph glyph-name="backslash" unicode="\" horiz-adv-x="304" 
d="M238 -11l-218 670l47 15l217 -670z" />
    <glyph glyph-name="bracketright" unicode="]" horiz-adv-x="243" 
d="M20 -185v31l85 16l11 101v593l-11 101l-85 16v31h170v-889h-170z" />
    <glyph glyph-name="asciicircum" unicode="^" horiz-adv-x="325" 
d="M285 538l-118 95l-119 -95l-25 25l144 144l144 -144z" />
    <glyph glyph-name="underscore" unicode="_" 
d="M-4 -273v49h508v-49h-508z" />
    <glyph glyph-name="grave" unicode="`" horiz-adv-x="0" 
d="M0 543l-202 153l50 50l178 -178z" />
    <glyph glyph-name="a" unicode="a" horiz-adv-x="470" 
d="M291 -18l18 110q-28 -51 -65 -81.5t-88 -30.5q-50 0 -83 32t-33 89q0 66 59 109q59 44 194 44v54q0 48 -26.5 74t-72.5 26q-58 0 -107 -45l-25 27q34 38 78.5 60.5t98.5 22.5q60 0 99 -34t39 -108v-211l11 -76l67 -13v-31zM293 216q-88 0 -128 -25q-41 -23 -41 -69
q0 -29 18.5 -50t47.5 -21q25 0 52.5 17.5t50.5 50.5v97z" />
    <glyph glyph-name="b" unicode="b" horiz-adv-x="540" 
d="M498 259q0 -58 -17.5 -109t-51.5 -89t-85.5 -60t-118.5 -22q-16 0 -30 0.5t-28.5 2.5t-31.5 6t-38 12v576l-10 77l-80 13v31l186 18l-10 -139v-188q28 37 67 58.5t85 21.5q36 0 66 -15t51.5 -42t33.5 -65.5t12 -86.5zM410 227q0 78 -30 125.5t-81 47.5q-31 0 -60 -13.5
t-56 -45.5v-221l10 -87q18 -6 32.5 -9t34.5 -3q39 0 67 16t46.5 44t27.5 65.5t9 80.5z" />
    <glyph glyph-name="c" unicode="c" horiz-adv-x="443" 
d="M407 52q-83 -73 -174 -73q-43 0 -78 16t-60 47t-39 74.5t-14 99.5q0 55 15.5 101.5t43 80t67 52t87.5 18.5q32 0 60.5 -5t69.5 -19l11 -120h-39l-23 77q-18 8 -39 14t-45 6q-26 0 -48.5 -9.5t-39 -30t-26 -53.5t-9.5 -80q0 -94 39.5 -149t113.5 -55q24 0 51.5 8.5
t53.5 27.5l22 -28v0z" />
    <glyph glyph-name="d" unicode="d" horiz-adv-x="535" 
d="M359 -21l15 95q-35 -47 -72 -71t-87 -24q-38 0 -69.5 15.5t-54.5 45t-36 70.5t-13 92q0 58 17.5 107t49 84.5t76 55t97.5 19.5q21 0 39 -2t38 -7v117l-11 77l-80 13v31l187 18l-11 -139v-456l11 -76l65 -13v-31zM359 406q-21 9 -39.5 13.5t-41.5 4.5q-71 0 -108.5 -54
t-37.5 -147q0 -82 29.5 -128.5t88.5 -46.5q26 0 53.5 13.5t55.5 48.5v296z" />
    <glyph glyph-name="e" unicode="e" horiz-adv-x="457" 
d="M129 258q-1 -4 -1 -8v-13q0 -42 10 -77.5t30.5 -61t50.5 -40t70 -14.5q24 0 50.5 7t52.5 27l20 -28q-21 -19 -40.5 -32.5t-40 -22t-42.5 -12.5t-49 -4q-45 0 -81.5 16t-62.5 46.5t-40 75.5t-14 103q0 57 14 103t40 79t63.5 50.5t84.5 17.5q39 0 72 -13t56 -39.5t35 -66
t11 -93.5h-289zM328 309q0 60 -25 90.5t-67 30.5t-70 -32.5t-36 -98.5h130l68 10v0z" />
    <glyph glyph-name="f" unicode="f" horiz-adv-x="328" 
d="M350 625q-20 8 -40 13t-42 5t-38.5 -4.5t-27.5 -15.5t-15 -29.5t0 -45.5l9 -101h117v-42h-117v-285l11 -76l80 -13v-31h-256v31l69 13l11 76v285h-82v36l82 16l2 66q1 42 16.5 78.5t42 63.5t61 42t75.5 15q23 0 40.5 -4t34.5 -10z" />
    <glyph glyph-name="g" unicode="g" horiz-adv-x="498" 
d="M376 410q19 -25 29 -47.5t10 -60.5q0 -33 -13 -63t-36.5 -52.5t-56 -36t-71.5 -13.5q-11 0 -23.5 1t-24.5 4q-21 -11 -36 -25t-15 -26q0 -26 36 -35t95 -18q36 -6 71 -11t63.5 -17t46 -34.5t17.5 -62.5q0 -36 -16.5 -68t-48 -55.5t-76.5 -37.5t-102 -14q-41 0 -75 8.5
t-59 24t-39 38t-14 50.5q0 20 9 38.5t23.5 34t33.5 28.5t39 21q-37 8 -59.5 26.5t-22.5 45.5q0 32 24.5 56.5t65.5 44.5q-45 18 -71 57.5t-26 93.5q0 33 12 63t35 52.5t57 36t78 13.5q29 0 55.5 -6t55.5 -24l132 34v-64h-103zM326 296q0 59 -21.5 98t-70.5 39
q-44 0 -66.5 -34.5t-22.5 -96.5q0 -60 23 -93t71 -33q42 0 64.5 32t22.5 88zM411 -121q0 14 -5.5 25.5t-20.5 21t-41 17t-66 14.5l-96 16q-11 -6 -22.5 -15t-21.5 -20.5t-16.5 -25t-6.5 -27.5q0 -44 40 -70t107 -26q31 0 58.5 6.5t47.5 18.5t31.5 28.5t11.5 36.5z" />
    <glyph glyph-name="h" unicode="h" horiz-adv-x="597" 
d="M341 0v31l57 13l11 76v168q0 51 -23.5 81.5t-73.5 30.5q-36 0 -63.5 -18.5t-48.5 -42.5v-219l11 -76l57 -13v-31h-234v31l70 13l11 76v456l-11 77l-80 13v31l186 18l-10 -139v-188q26 38 65.5 59t84.5 21q68 0 106 -40t38 -116v-192l11 -76l69 -13v-31h-233z" />
    <glyph glyph-name="i" unicode="i" horiz-adv-x="304" 
d="M212 644q0 -24 -17.5 -43t-45.5 -19q-26 0 -44.5 17t-18.5 46q0 26 18.5 44.5t44.5 18.5t44.5 -18.5t18.5 -45.5zM34 0v31l70 13l10 76v206l-10 77l-80 13v31l186 18l-10 -139v-206l10 -76l70 -13v-31h-246z" />
    <glyph glyph-name="j" unicode="j" horiz-adv-x="276" 
d="M210 644q0 -24 -17.5 -43t-45.5 -19q-25 0 -44 17t-19 46q0 26 18.5 44.5t44.5 18.5t44.5 -18.5t18.5 -45.5zM199 326v-290q0 -88 -40 -156.5t-126 -118.5l-21 34q30 23 49.5 49.5t30.5 55t15 58t4 58.5v310l-11 77l-81 13v31l190 18z" />
    <glyph glyph-name="k" unicode="k" horiz-adv-x="570" 
d="M330 0v31l47 13l-59 76l-41 47l-68 69l70 64l26 26l68 77l-62 13v31h212v-31l-69 -13l-93 -77l-62 -62l132 -144l80 -76l45 -13v-31h-226zM32 0v31l69 13l11 76v456l-11 77l-80 13v31l187 18l-11 -139v-456l11 -76l52 -13v-31h-228z" />
    <glyph glyph-name="l" unicode="l" horiz-adv-x="304" 
d="M34 0v31l70 13l11 76v456l-11 77l-80 13v31l186 18l-10 -139v-456l11 -76l69 -13v-31h-246z" />
    <glyph glyph-name="m" unicode="m" horiz-adv-x="877" 
d="M624 0v31l57 13l11 76v168q0 51 -23.5 81.5t-71.5 30.5q-57 0 -108 -60v-220l11 -76l56 -13v-31h-220v31l56 13l11 76v168q0 51 -23.5 81.5t-70.5 30.5q-30 0 -56.5 -16t-52.5 -44v-220l11 -76l57 -13v-31h-234v31l70 13l11 76v206l-11 77l-80 13v31l176 18l-11 -90
q61 93 159 93q47 0 82 -22.5t51 -69.5q26 44 65 68t90 24q65 0 103 -40.5t38 -115.5v-192l11 -76l70 -13v-31h-234z" />
    <glyph glyph-name="n" unicode="n" horiz-adv-x="592" 
d="M338 0v31l57 13l10 76v168q0 51 -23.5 81.5t-71.5 30.5q-14 0 -27 -2.5t-26 -9t-27 -18.5t-30 -30v-220l11 -76l57 -13v-31h-234v31l70 13l11 76v206l-11 77l-80 13v31l176 18l-11 -90q61 93 161 93q65 0 103.5 -40.5t38.5 -115.5v-192l10 -76l71 -13v-31h-235z" />
    <glyph glyph-name="o" unicode="o" horiz-adv-x="523" 
d="M481 227q0 -57 -16.5 -103t-46 -78.5t-70.5 -50t-91 -17.5q-48 0 -87.5 16.5t-68 47.5t-44 75.5t-15.5 100.5q0 54 14.5 100t43 79.5t70.5 52.5t98 19q96 0 154.5 -62.5t58.5 -179.5zM385 226q0 100 -31 150.5t-91 50.5t-92 -48.5t-32 -153.5q0 -103 31 -153.5t90 -50.5
q60 0 92.5 50t32.5 155z" />
    <glyph glyph-name="p" unicode="p" horiz-adv-x="560" 
d="M517 256q0 -59 -18.5 -109.5t-52 -87.5t-80.5 -58t-103 -21q-12 0 -28 1t-34 6v-106l10 -76l80 -14v-30h-257v29l70 15l11 76v445l-11 77l-78 13v31l175 18l-11 -85q34 42 75 65t89 23q36 0 66 -15t51.5 -43t33.5 -67t12 -87zM429 222q0 84 -29 131t-84 47
q-32 0 -59 -12.5t-56 -46.5v-302q20 -8 37.5 -12t38.5 -4q72 0 112 52.5t40 146.5z" />
    <glyph glyph-name="q" unicode="q" horiz-adv-x="519" 
d="M278 -239v29l69 15l11 76v178q-30 -38 -65.5 -59t-86.5 -21q-37 0 -67 15t-51.5 43t-33.5 67.5t-12 87.5q0 63 18.5 114t53.5 87t85 55.5t113 19.5q35 0 70 -4.5t72 -16.5l-11 -121v-445l11 -76l67 -14v-30h-243zM358 326l-11 86q-17 5 -31.5 8.5t-37.5 3.5
q-39 0 -67 -16t-46 -43t-26.5 -63.5t-8.5 -77.5q0 -39 7.5 -71.5t22 -56.5t35.5 -37t48 -13q28 0 60 15.5t55 43.5v221z" />
    <glyph glyph-name="r" unicode="r" horiz-adv-x="384" 
d="M357 363q-13 6 -28 10.5t-31 4.5q-23 0 -49.5 -11t-48.5 -38v-209l11 -76l80 -13v-31h-257v31l70 13l11 76v206l-11 77l-80 13v31l176 18l-11 -97q32 54 66.5 78.5t77.5 24.5q14 0 23.5 -1t25.5 -6z" />
    <glyph glyph-name="s" unicode="s" horiz-adv-x="398" 
d="M357 127q0 -32 -12 -59t-34.5 -47.5t-53.5 -32t-69 -11.5q-25 0 -63 7.5t-74 21.5l-8 117h44l17 -77q23 -11 43.5 -16.5t49.5 -5.5q41 0 64.5 19t23.5 54q0 22 -9.5 36.5t-24.5 25t-34.5 18t-38.5 14.5l-48 20t-44 25t-32.5 37t-12.5 56q0 28 11.5 54.5t33 46.5t52.5 32
t71 12q69 0 133 -29l10 -117h-44l-22 79q-43 20 -89 20q-40 0 -61.5 -16.5t-21.5 -50.5q0 -21 9.5 -35t24.5 -24t34 -17.5t37 -14.5q27 -10 51.5 -20.5t44 -26t31 -38t11.5 -57.5z" />
    <glyph glyph-name="t" unicode="t" horiz-adv-x="343" 
d="M328 35q-38 -30 -66 -43t-62 -13q-18 0 -36 5.5t-31.5 18t-22 33.5t-8.5 52v317h-78v36l78 16v115l86 16v-141h122v-42h-122v-284q0 -74 55 -74q12 0 30.5 4t35.5 15l19 -31v0z" />
    <glyph glyph-name="u" unicode="u" horiz-adv-x="587" 
d="M402 -18l11 90q-35 -49 -71 -71t-89 -22q-66 0 -104 40.5t-38 115.5v191l-11 77l-78 13v31l185 18l-10 -139v-167q0 -53 23.5 -82.5t71.5 -29.5q32 0 60.5 17t49.5 43v219l-10 77l-78 13v31l185 18l-11 -139v-206l11 -76l72 -13v-31z" />
    <glyph glyph-name="v" unicode="v" horiz-adv-x="512" 
d="M450 404l-38 -78l-78 -206l-46 -137h-59l-51 137l-83 206l-41 78l-45 12v31h216v-31l-62 -12l25 -78l90 -233l86 233l21 78l-64 12v31h180v-31z" />
    <glyph glyph-name="w" unicode="w" horiz-adv-x="778" 
d="M718 404l-38 -78l-76 -206l-45 -137h-61l-50 137l-61 156l-54 -156l-45 -137h-61l-50 137l-82 206l-39 78l-47 12v31h210v-31l-55 -12l24 -78l89 -233l84 241l-34 70l-48 12v31h218v-31l-61 -12l24 -78l88 -233l84 233l22 78l-65 12v31h180v-31z" />
    <glyph glyph-name="x" unicode="x" horiz-adv-x="524" 
d="M279 0v31l50 13l-42 76l-46 67l-43 -67l-45 -76l48 -13v-31h-173v31l57 14l64 75l69 101l-72 105l-62 77l-51 13v31h218v-31l-50 -13l43 -76l36 -54l37 54l45 77l-49 12v31h170v-31l-60 -13l-60 -77q-17 -24 -30 -43l-30 -44l83 -119l58 -76l56 -13v-31h-221z" />
    <glyph glyph-name="y" unicode="y" horiz-adv-x="512" 
d="M451 404l-38 -78l-218 -576l-145 13v34l100 16l43 70l43 101l-140 342l-41 78l-45 12v31h219v-31l-64 -12l24 -78l90 -231l84 231l22 78l-63 12v31h180v-31z" />
    <glyph glyph-name="z" unicode="z" horiz-adv-x="453" 
d="M402 0h-360v34l63 86l132 206l45 80h-112l-68 -13l-18 -72h-41l11 126h341v-34l-62 -86l-131 -207l-43 -79h119l74 13l19 71h41z" />
    <glyph glyph-name="braceleft" unicode="{" horiz-adv-x="305" 
d="M223 -178q-24 0 -45.5 9t-38 28t-26.5 48t-10 69v184q0 12 -2 23.5t-8 21.5t-17 17.5t-28 10.5l-33 8v42l33 7q35 6 45 28t10 45v184q0 40 9.5 68.5t25.5 47.5t38 28t47 9h62v-32l-34 -5q-15 -3 -28.5 -9t-23.5 -18t-15.5 -31t-5.5 -48v-200q0 -68 -59 -85l-40 -10
l38 -10q28 -8 44.5 -29t16.5 -59v-198q0 -47 16 -73.5t57 -32.5l34 -5v-33h-62z" />
    <glyph glyph-name="bar" unicode="|" horiz-adv-x="100" 
d="M26 0v683h48v-683h-48z" />
    <glyph glyph-name="braceright" unicode="}" horiz-adv-x="305" 
d="M256 233q-17 -3 -27.5 -10.5t-16.5 -17.5t-8 -22t-2 -23v-183q0 -40 -9.5 -69t-26 -48t-38 -28t-46.5 -9h-63v32l34 5q15 3 28.5 9t23.5 18t16 31t6 48v200q0 69 58 85l40 11l-38 10q-28 8 -44 28.5t-16 58.5v199q0 46 -16 72.5t-58 32.5l-34 5v33h63q23 0 45 -9
t38.5 -27.5t26.5 -48t10 -69.5v-184q0 -12 2 -23.5t7.5 -21.5t16 -17.5t28.5 -10.5l34 -7v-42z" />
    <glyph glyph-name="asciitilde" unicode="~" 
d="M435 259q-17 -47 -43.5 -71.5t-62.5 -24.5q-29 0 -48.5 12.5t-43.5 32.5q-16 14 -35.5 26.5t-36.5 12.5q-42 0 -64 -54l-36 18q14 45 43.5 71t62.5 26q29 0 49 -13t43 -33q17 -14 34.5 -26.5t37.5 -12.5q19 0 36.5 14t26.5 40l37 -18v0z" />
    <glyph glyph-name="Adieresis" unicode="&#xc4;" horiz-adv-x="682" 
d="M416 0v31l72 16l-27 101l-37 105h-210l-39 -105l-26 -101l74 -16v-31h-215v31l76 16l44 101l188 516h63l181 -516l43 -101l71 -16v-31h-258zM321 556l-93 -261h182zM490 816q0 -19 -12.5 -34t-35.5 -15q-19 0 -33.5 13.5t-14.5 35.5q0 19 13 33.5t35 14.5q20 0 34 -13
t14 -35zM305 816q0 -19 -12.5 -34t-35.5 -15q-19 0 -33.5 13.5t-14.5 35.5q0 19 13 33.5t35 14.5q20 0 34 -13t14 -35z" />
    <glyph glyph-name="Aring" unicode="&#xc5;" horiz-adv-x="682" 
d="M416 0v31l72 16l-27 101l-37 105h-210l-39 -105l-26 -101l74 -16v-31h-215v31l76 16l44 101l188 516h63l181 -516l43 -101l71 -16v-31h-258zM321 556l-93 -261h182zM429 806q0 -32 -23 -54.5t-61 -22.5q-35 0 -59.5 21.5t-24.5 55.5q0 32 23.5 55t60.5 23q34 0 59 -21.5
t25 -56.5zM378 806q0 17 -8 30t-25 13q-14 0 -24 -10.5t-10 -32.5q0 -19 8.5 -30.5t25.5 -11.5q15 0 24 9t9 33z" />
    <glyph glyph-name="Ccedilla" unicode="&#xc7;" horiz-adv-x="648" 
d="M597 4q-25 -4 -47.5 -7.5t-46.5 -6.5t-52 -5t-64 -2v-42h3q19 0 36.5 -6.5t31.5 -18t22.5 -28t8.5 -36.5q0 -41 -35 -68.5t-104 -27.5h-25v41q11 -3 20.5 -5t20.5 -2q29 0 48 14t19 38q0 26 -21 40t-61 14h-10v89q-78 6 -134 33.5t-91.5 72.5t-52.5 104.5t-17 128.5
t20 132t62 110t107.5 75t155.5 28q23 0 45.5 -1t46 -3.5t49.5 -7t57 -10.5l10 -152h-49l-23 113q-29 10 -64 15.5t-75 5.5q-57 0 -102 -20t-76 -57t-47 -90t-16 -119q0 -68 16.5 -126.5t48 -101.5t78.5 -67t108 -24q31 0 69 6.5t68 20.5l23 107h49z" />
    <glyph glyph-name="Eacute" unicode="&#xc9;" horiz-adv-x="568" 
d="M521 0h-485v31l81 16l10 101v359l-10 101l-81 16v30h470l11 -167h-45l-21 107l-92 16h-138v-253h75l76 11l10 81h37v-226h-37l-10 81l-76 10h-75v-165l10 -89l77 -16h74l84 16l22 98h43zM296 741l-25 25l178 178l50 -50z" />
    <glyph glyph-name="Ntilde" unicode="&#xd1;" horiz-adv-x="738" 
d="M622 608l-10 -101v-517h-83l-92 158l-265 411v-411l11 -101l80 -16v-31h-227v31l81 16l10 101v359l-10 101l-81 16v30h192l85 -147l254 -395v395l-11 101l-80 16v30h226v-30zM517 826q-13 -37 -35 -59t-54 -22q-23 0 -40.5 11.5t-39.5 29.5q-14 12 -28.5 21t-28.5 9
q-36 0 -52 -44l-31 15q11 34 34.5 57.5t53.5 23.5q23 0 41.5 -12.5t38.5 -28.5q14 -12 25.5 -21t31.5 -9q16 0 30.5 11.5t22.5 32.5l31 -15v0z" />
    <glyph glyph-name="Odieresis" unicode="&#xd6;" horiz-adv-x="714" 
d="M668 333q0 -79 -20 -144t-60.5 -111.5t-101 -72.5t-141.5 -26q-78 0 -134 25t-93 70t-54.5 108.5t-17.5 140.5q0 78 21.5 142.5t63 111.5t102 73t137.5 26q70 0 125.5 -24t94 -68.5t58.5 -108t20 -142.5zM565 320q0 69 -12 127t-37 100t-63 65.5t-89 23.5
q-49 0 -88.5 -19.5t-68 -58.5t-44 -97t-15.5 -134q0 -69 12 -126t37.5 -97.5t65.5 -63t96 -22.5q46 0 84 21.5t65 60.5t42 95t15 125zM502 816q0 -19 -12.5 -34t-35.5 -15q-19 0 -33.5 13.5t-14.5 35.5q0 19 13 33.5t35 14.5q20 0 34 -13t14 -35zM317 816q0 -19 -12.5 -34
t-35.5 -15q-19 0 -33.5 13.5t-14.5 35.5q0 19 13 33.5t35 14.5q20 0 34 -13t14 -35z" />
    <glyph glyph-name="Udieresis" unicode="&#xdc;" horiz-adv-x="722" 
d="M622 608l-11 -101v-274q0 -69 -17.5 -117.5t-50.5 -79t-80.5 -45t-107.5 -14.5q-115 0 -178 56t-63 167v307l-11 101l-80 16v30h275v-30l-80 -16l-11 -101v-307q0 -88 45.5 -134t126.5 -46q39 0 72 10.5t57.5 34t38.5 61t14 91.5v290l-10 101l-81 16v30h230v-30zM510 816
q0 -19 -12.5 -34t-35.5 -15q-19 0 -33.5 13.5t-14.5 35.5q0 19 13 33.5t35 14.5q20 0 34 -13t14 -35zM325 816q0 -19 -12.5 -34t-35.5 -15q-19 0 -33.5 13.5t-14.5 35.5q0 19 13 33.5t35 14.5q20 0 34 -13t14 -35z" />
    <glyph glyph-name="aacute" unicode="&#xe1;" horiz-adv-x="470" 
d="M291 -18l18 110q-28 -51 -65 -81.5t-88 -30.5q-50 0 -83 32t-33 89q0 66 59 109q59 44 194 44v54q0 48 -26.5 74t-72.5 26q-58 0 -107 -45l-25 27q34 38 78.5 60.5t98.5 22.5q60 0 99 -34t39 -108v-211l11 -76l67 -13v-31zM293 216q-88 0 -128 -25q-41 -23 -41 -69
q0 -29 18.5 -50t47.5 -21q25 0 52.5 17.5t50.5 50.5v97zM232 543l-25 25l178 178l50 -50z" />
    <glyph glyph-name="agrave" unicode="&#xe0;" horiz-adv-x="470" 
d="M291 -18l18 110q-28 -51 -65 -81.5t-88 -30.5q-50 0 -83 32t-33 89q0 66 59 109q59 44 194 44v54q0 48 -26.5 74t-72.5 26q-58 0 -107 -45l-25 27q34 38 78.5 60.5t98.5 22.5q60 0 99 -34t39 -108v-211l11 -76l67 -13v-31zM293 216q-88 0 -128 -25q-41 -23 -41 -69
q0 -29 18.5 -50t47.5 -21q25 0 52.5 17.5t50.5 50.5v97zM242 543l-202 153l50 50l178 -178z" />
    <glyph glyph-name="acircumflex" unicode="&#xe2;" horiz-adv-x="470" 
d="M291 -18l18 110q-28 -51 -65 -81.5t-88 -30.5q-50 0 -83 32t-33 89q0 66 59 109q59 44 194 44v54q0 48 -26.5 74t-72.5 26q-58 0 -107 -45l-25 27q34 38 78.5 60.5t98.5 22.5q60 0 99 -34t39 -108v-211l11 -76l67 -13v-31zM293 216q-88 0 -128 -25q-41 -23 -41 -69
q0 -29 18.5 -50t47.5 -21q25 0 52.5 17.5t50.5 50.5v97zM346 538l-118 95l-119 -95l-25 25l144 144l144 -144z" />
    <glyph glyph-name="adieresis" unicode="&#xe4;" horiz-adv-x="470" 
d="M291 -18l18 110q-28 -51 -65 -81.5t-88 -30.5q-50 0 -83 32t-33 89q0 66 59 109q59 44 194 44v54q0 48 -26.5 74t-72.5 26q-58 0 -107 -45l-25 27q34 38 78.5 60.5t98.5 22.5q60 0 99 -34t39 -108v-211l11 -76l67 -13v-31zM293 216q-88 0 -128 -25q-41 -23 -41 -69
q0 -29 18.5 -50t47.5 -21q25 0 52.5 17.5t50.5 50.5v97zM372 618q0 -19 -12.5 -34t-35.5 -15q-19 0 -33.5 13.5t-14.5 35.5q0 19 13 33.5t35 14.5q20 0 34 -13t14 -35zM187 618q0 -19 -12.5 -34t-35.5 -15q-19 0 -33.5 13.5t-14.5 35.5q0 19 13 33.5t35 14.5q20 0 34 -13
t14 -35z" />
    <glyph glyph-name="atilde" unicode="&#xe3;" horiz-adv-x="470" 
d="M291 -18l18 110q-28 -51 -65 -81.5t-88 -30.5q-50 0 -83 32t-33 89q0 66 59 109q59 44 194 44v54q0 48 -26.5 74t-72.5 26q-58 0 -107 -45l-25 27q34 38 78.5 60.5t98.5 22.5q60 0 99 -34t39 -108v-211l11 -76l67 -13v-31zM293 216q-88 0 -128 -25q-41 -23 -41 -69
q0 -29 18.5 -50t47.5 -21q25 0 52.5 17.5t50.5 50.5v97zM386 628q-13 -37 -35 -59t-54 -22q-23 0 -40.5 11.5t-39.5 29.5q-14 12 -28.5 21t-28.5 9q-36 0 -52 -44l-31 15q11 34 34.5 57.5t53.5 23.5q23 0 41.5 -12.5t38.5 -28.5q14 -12 25.5 -21t31.5 -9q16 0 30.5 11.5
t22.5 32.5l31 -15v0z" />
    <glyph glyph-name="aring" unicode="&#xe5;" horiz-adv-x="470" 
d="M291 -18l18 110q-28 -51 -65 -81.5t-88 -30.5q-50 0 -83 32t-33 89q0 66 59 109q59 44 194 44v54q0 48 -26.5 74t-72.5 26q-58 0 -107 -45l-25 27q34 38 78.5 60.5t98.5 22.5q60 0 99 -34t39 -108v-211l11 -76l67 -13v-31zM293 216q-88 0 -128 -25q-41 -23 -41 -69
q0 -29 18.5 -50t47.5 -21q25 0 52.5 17.5t50.5 50.5v97zM316 608q0 -32 -23 -54.5t-61 -22.5q-35 0 -59.5 21.5t-24.5 55.5q0 32 23.5 55t60.5 23q34 0 59 -21.5t25 -56.5zM265 608q0 17 -8 30t-25 13q-14 0 -24 -10.5t-10 -32.5q0 -19 8.5 -30.5t25.5 -11.5q15 0 24 9t9 33
z" />
    <glyph glyph-name="ccedilla" unicode="&#xe7;" horiz-adv-x="443" 
d="M407 52q-36 -32 -74 -50t-76 -22v-36h4q19 0 36.5 -6t31.5 -17.5t22.5 -28t8.5 -37.5q0 -41 -35 -68.5t-104 -27.5h-25v41q11 -2 20 -4t20 -2q29 0 48.5 13.5t19.5 37.5q0 26 -21.5 40.5t-61.5 14.5h-10v80q-77 8 -123 70t-46 166q0 55 15.5 101.5t43 80t67 52t87.5 18.5
q32 0 60.5 -5t69.5 -19l11 -120h-39l-23 77q-18 8 -39 14t-45 6q-26 0 -48.5 -9.5t-39 -30t-26 -53.5t-9.5 -80q0 -94 39.5 -149t113.5 -55q24 0 51.5 8.5t53.5 27.5l22 -28v0z" />
    <glyph glyph-name="eacute" unicode="&#xe9;" horiz-adv-x="457" 
d="M129 258q-1 -4 -1 -8v-13q0 -42 10 -77.5t30.5 -61t50.5 -40t70 -14.5q24 0 50.5 7t52.5 27l20 -28q-21 -19 -40.5 -32.5t-40 -22t-42.5 -12.5t-49 -4q-45 0 -81.5 16t-62.5 46.5t-40 75.5t-14 103q0 57 14 103t40 79t63.5 50.5t84.5 17.5q39 0 72 -13t56 -39.5t35 -66
t11 -93.5h-289zM328 309q0 60 -25 90.5t-67 30.5t-70 -32.5t-36 -98.5h130l68 10v0zM238 547l-25 26l178 182l50 -51z" />
    <glyph glyph-name="egrave" unicode="&#xe8;" horiz-adv-x="457" 
d="M129 258q-1 -4 -1 -8v-13q0 -42 10 -77.5t30.5 -61t50.5 -40t70 -14.5q24 0 50.5 7t52.5 27l20 -28q-21 -19 -40.5 -32.5t-40 -22t-42.5 -12.5t-49 -4q-45 0 -81.5 16t-62.5 46.5t-40 75.5t-14 103q0 57 14 103t40 79t63.5 50.5t84.5 17.5q39 0 72 -13t56 -39.5t35 -66
t11 -93.5h-289zM328 309q0 60 -25 90.5t-67 30.5t-70 -32.5t-36 -98.5h130l68 10v0zM248 543l-202 153l50 50l178 -178z" />
    <glyph glyph-name="ecircumflex" unicode="&#xea;" horiz-adv-x="457" 
d="M129 258q-1 -4 -1 -8v-13q0 -42 10 -77.5t30.5 -61t50.5 -40t70 -14.5q24 0 50.5 7t52.5 27l20 -28q-21 -19 -40.5 -32.5t-40 -22t-42.5 -12.5t-49 -4q-45 0 -81.5 16t-62.5 46.5t-40 75.5t-14 103q0 57 14 103t40 79t63.5 50.5t84.5 17.5q39 0 72 -13t56 -39.5t35 -66
t11 -93.5h-289zM328 309q0 60 -25 90.5t-67 30.5t-70 -32.5t-36 -98.5h130l68 10v0zM350 538l-118 95l-119 -95l-25 25l144 144l144 -144z" />
    <glyph glyph-name="edieresis" unicode="&#xeb;" horiz-adv-x="457" 
d="M129 258q-1 -4 -1 -8v-13q0 -42 10 -77.5t30.5 -61t50.5 -40t70 -14.5q24 0 50.5 7t52.5 27l20 -28q-21 -19 -40.5 -32.5t-40 -22t-42.5 -12.5t-49 -4q-45 0 -81.5 16t-62.5 46.5t-40 75.5t-14 103q0 57 14 103t40 79t63.5 50.5t84.5 17.5q39 0 72 -13t56 -39.5t35 -66
t11 -93.5h-289zM328 309q0 60 -25 90.5t-67 30.5t-70 -32.5t-36 -98.5h130l68 10v0zM375 618q0 -19 -12.5 -34t-35.5 -15q-19 0 -33.5 13.5t-14.5 35.5q0 19 13 33.5t35 14.5q20 0 34 -13t14 -35zM190 618q0 -19 -12.5 -34t-35.5 -15q-19 0 -33.5 13.5t-14.5 35.5
q0 19 13 33.5t35 14.5q20 0 34 -13t14 -35z" />
    <glyph glyph-name="iacute" unicode="&#xed;" horiz-adv-x="304" 
d="M34 0v31l70 13l11 76v206l-11 77l-80 13v31l186 18l-10 -139v-206l11 -76l69 -13v-31h-246zM158 543l-25 25l178 178l50 -50z" />
    <glyph glyph-name="igrave" unicode="&#xec;" horiz-adv-x="304" 
d="M34 0v31l70 13l11 76v206l-11 77l-80 13v31l186 18l-10 -139v-206l11 -76l69 -13v-31h-246zM156 543l-202 153l50 50l178 -178z" />
    <glyph glyph-name="icircumflex" unicode="&#xee;" horiz-adv-x="304" 
d="M34 0v31l70 13l11 76v206l-11 77l-80 13v31l186 18l-10 -139v-206l11 -76l69 -13v-31h-246zM277 538l-118 95l-119 -95l-25 25l144 144l144 -144z" />
    <glyph glyph-name="idieresis" unicode="&#xef;" horiz-adv-x="304" 
d="M266 618q0 -19 -12.5 -34t-35.5 -15q-19 0 -33.5 13.5t-14.5 35.5q0 19 13 33.5t35 14.5q20 0 34 -13t14 -35zM115 618q0 -19 -12.5 -34t-35.5 -15q-19 0 -33.5 13.5t-14.5 35.5q0 19 13 33.5t35 14.5q20 0 34 -13t14 -35zM34 0v31l70 13l11 76v206l-11 77l-80 13v31
l186 18l-10 -139v-206l11 -76l69 -13v-31h-246z" />
    <glyph glyph-name="ntilde" unicode="&#xf1;" horiz-adv-x="592" 
d="M338 0v31l57 13l10 76v168q0 51 -23.5 81.5t-71.5 30.5q-14 0 -27 -2.5t-26 -9t-27 -18.5t-30 -30v-220l11 -76l57 -13v-31h-234v31l70 13l11 76v206l-11 77l-80 13v31l176 18l-11 -90q61 93 161 93q65 0 103.5 -40.5t38.5 -115.5v-192l10 -76l71 -13v-31h-235zM449 628
q-13 -37 -35 -59t-54 -22q-23 0 -40.5 11.5t-39.5 29.5q-14 12 -28.5 21t-28.5 9q-36 0 -52 -44l-31 15q11 34 34.5 57.5t53.5 23.5q23 0 41.5 -12.5t38.5 -28.5q14 -12 25.5 -21t31.5 -9q16 0 30.5 11.5t22.5 32.5l31 -15v0z" />
    <glyph glyph-name="oacute" unicode="&#xf3;" horiz-adv-x="523" 
d="M481 227q0 -57 -16.5 -103t-46 -78.5t-70.5 -50t-91 -17.5q-48 0 -87.5 16.5t-68 47.5t-44 75.5t-15.5 100.5q0 54 14.5 100t43 79.5t70.5 52.5t98 19q96 0 154.5 -62.5t58.5 -179.5zM385 226q0 100 -31 150.5t-91 50.5t-92 -48.5t-32 -153.5q0 -103 31 -153.5t90 -50.5
q60 0 92.5 50t32.5 155zM266 543l-25 25l178 178l50 -50z" />
    <glyph glyph-name="ograve" unicode="&#xf2;" horiz-adv-x="523" 
d="M481 227q0 -57 -16.5 -103t-46 -78.5t-70.5 -50t-91 -17.5q-48 0 -87.5 16.5t-68 47.5t-44 75.5t-15.5 100.5q0 54 14.5 100t43 79.5t70.5 52.5t98 19q96 0 154.5 -62.5t58.5 -179.5zM385 226q0 100 -31 150.5t-91 50.5t-92 -48.5t-32 -153.5q0 -103 31 -153.5t90 -50.5
q60 0 92.5 50t32.5 155zM264 543l-202 153l50 50l178 -178z" />
    <glyph glyph-name="ocircumflex" unicode="&#xf4;" horiz-adv-x="523" 
d="M481 227q0 -57 -16.5 -103t-46 -78.5t-70.5 -50t-91 -17.5q-48 0 -87.5 16.5t-68 47.5t-44 75.5t-15.5 100.5q0 54 14.5 100t43 79.5t70.5 52.5t98 19q96 0 154.5 -62.5t58.5 -179.5zM385 226q0 100 -31 150.5t-91 50.5t-92 -48.5t-32 -153.5q0 -103 31 -153.5t90 -50.5
q60 0 92.5 50t32.5 155zM379 538l-118 95l-119 -95l-25 25l144 144l144 -144z" />
    <glyph glyph-name="odieresis" unicode="&#xf6;" horiz-adv-x="523" 
d="M481 227q0 -57 -16.5 -103t-46 -78.5t-70.5 -50t-91 -17.5q-48 0 -87.5 16.5t-68 47.5t-44 75.5t-15.5 100.5q0 54 14.5 100t43 79.5t70.5 52.5t98 19q96 0 154.5 -62.5t58.5 -179.5zM385 226q0 100 -31 150.5t-91 50.5t-92 -48.5t-32 -153.5q0 -103 31 -153.5t90 -50.5
q60 0 92.5 50t32.5 155zM400 618q0 -19 -12.5 -34t-35.5 -15q-19 0 -33.5 13.5t-14.5 35.5q0 19 13 33.5t35 14.5q20 0 34 -13t14 -35zM215 618q0 -19 -12.5 -34t-35.5 -15q-19 0 -33.5 13.5t-14.5 35.5q0 19 13 33.5t35 14.5q20 0 34 -13t14 -35z" />
    <glyph glyph-name="otilde" unicode="&#xf5;" horiz-adv-x="523" 
d="M481 227q0 -57 -16.5 -103t-46 -78.5t-70.5 -50t-91 -17.5q-48 0 -87.5 16.5t-68 47.5t-44 75.5t-15.5 100.5q0 54 14.5 100t43 79.5t70.5 52.5t98 19q96 0 154.5 -62.5t58.5 -179.5zM385 226q0 100 -31 150.5t-91 50.5t-92 -48.5t-32 -153.5q0 -103 31 -153.5t90 -50.5
q60 0 92.5 50t32.5 155zM415 628q-13 -37 -35 -59t-54 -22q-23 0 -40.5 11.5t-39.5 29.5q-14 12 -28.5 21t-28.5 9q-36 0 -52 -44l-31 15q11 34 34.5 57.5t53.5 23.5q23 0 41.5 -12.5t38.5 -28.5q14 -12 25.5 -21t31.5 -9q16 0 30.5 11.5t22.5 32.5l31 -15v0z" />
    <glyph glyph-name="uacute" unicode="&#xfa;" horiz-adv-x="587" 
d="M402 -18l11 90q-35 -49 -71 -71t-89 -22q-66 0 -104 40.5t-38 115.5v191l-11 77l-78 13v31l185 18l-10 -139v-167q0 -53 23.5 -82.5t71.5 -29.5q32 0 60.5 17t49.5 43v219l-10 77l-78 13v31l185 18l-11 -139v-206l11 -76l72 -13v-31zM296 543l-25 25l178 178l50 -50z" />
    <glyph glyph-name="ugrave" unicode="&#xf9;" horiz-adv-x="587" 
d="M402 -18l11 90q-35 -49 -71 -71t-89 -22q-66 0 -104 40.5t-38 115.5v191l-11 77l-78 13v31l185 18l-10 -139v-167q0 -53 23.5 -82.5t71.5 -29.5q32 0 60.5 17t49.5 43v219l-10 77l-78 13v31l185 18l-11 -139v-206l11 -76l72 -13v-31zM295 543l-202 153l50 50l178 -178z
" />
    <glyph glyph-name="ucircumflex" unicode="&#xfb;" horiz-adv-x="587" 
d="M402 -18l11 90q-35 -49 -71 -71t-89 -22q-66 0 -104 40.5t-38 115.5v191l-11 77l-78 13v31l185 18l-10 -139v-167q0 -53 23.5 -82.5t71.5 -29.5q32 0 60.5 17t49.5 43v219l-10 77l-78 13v31l185 18l-11 -139v-206l11 -76l72 -13v-31zM408 538l-118 95l-119 -95l-25 25
l144 144l144 -144z" />
    <glyph glyph-name="udieresis" unicode="&#xfc;" horiz-adv-x="587" 
d="M402 -18l11 90q-35 -49 -71 -71t-89 -22q-66 0 -104 40.5t-38 115.5v191l-11 77l-78 13v31l185 18l-10 -139v-167q0 -53 23.5 -82.5t71.5 -29.5q32 0 60.5 17t49.5 43v219l-10 77l-78 13v31l185 18l-11 -139v-206l11 -76l72 -13v-31zM431 618q0 -19 -12.5 -34t-35.5 -15
q-19 0 -33.5 13.5t-14.5 35.5q0 19 13 33.5t35 14.5q20 0 34 -13t14 -35zM246 618q0 -19 -12.5 -34t-35.5 -15q-19 0 -33.5 13.5t-14.5 35.5q0 19 13 33.5t35 14.5q20 0 34 -13t14 -35z" />
    <glyph glyph-name="dagger" unicode="&#x2020;" 
d="M273 424v-345l13 -184h-72l13 184v345l-147 -13v72l147 -13l-13 184h72l-13 -184l147 13v-72z" />
    <glyph glyph-name="degree" unicode="&#xb0;" horiz-adv-x="319" 
d="M267 581q0 -21 -8 -40.5t-22.5 -34.5t-34 -23.5t-42.5 -8.5q-21 0 -40.5 8.5t-34.5 22.5t-23.5 33.5t-8.5 42.5q0 21 8.5 40t22.5 34t33.5 24t42.5 9q21 0 40.5 -8t34.5 -22.5t23.5 -34t8.5 -42.5zM216 581q0 24 -16 42.5t-40 18.5q-23 0 -40 -17.5t-17 -43.5
q0 -23 15 -42t42 -19q24 0 40 17.5t16 43.5z" />
    <glyph glyph-name="cent" unicode="&#xa2;" horiz-adv-x="443" 
d="M407 52q-35 -32 -69 -47.5t-72 -22.5v-88h-40v86q-41 1 -75 17.5t-58 47t-37.5 73.5t-13.5 98q0 52 12.5 95.5t36.5 76.5t58 53.5t77 25.5v89h40v-88q26 -1 56 -6.5t62 -14.5l11 -125h-41l-22 84q-14 5 -29.5 9.5t-36.5 6.5v-378q65 0 120 36l21 -28v0zM226 421
q-48 -6 -75 -55t-27 -124q0 -33 6 -65t18 -58t31.5 -44t46.5 -25v371z" />
    <glyph glyph-name="sterling" unicode="&#xa3;" 
d="M429 555q-31 21 -64.5 32.5t-68.5 11.5q-32 0 -56.5 -7t-40 -22.5t-21 -41t1.5 -62.5l10 -109h134v-42h-134v-167l-12 -105h135l88 16l21 99h43l-11 -158h-429v31l60 16l11 101v167h-71v33l71 14l1 55q1 47 18.5 93.5t47.5 83t72.5 59.5t93.5 23q35 0 67 -9.5t72 -32.5z
" />
    <glyph glyph-name="section" unicode="&#xa7;" 
d="M408 223q0 -32 -13.5 -62t-39.5 -55q29 -17 40.5 -43t11.5 -58q0 -30 -12.5 -56.5t-35 -47t-54 -32t-70.5 -11.5q-26 0 -60.5 6.5t-71.5 20.5l-10 115h43l16 -72q25 -12 44 -17.5t49 -5.5q42 0 68 18t26 52q0 22 -11.5 37.5t-30 26t-40.5 18t-43 15.5q-24 9 -45.5 19
t-38 25t-26.5 36t-10 51q0 35 12.5 61.5t44.5 54.5q-25 14 -40 38t-15 58q0 30 12.5 55.5t34.5 44.5t52.5 30t66.5 11q26 0 58 -6t68 -21l11 -116h-43l-16 77q-21 9 -40 13.5t-45 5.5q-42 1 -65 -16t-23 -49q0 -18 8 -30t21.5 -21t32 -16t38.5 -15q24 -10 49.5 -19.5
t45.5 -24.5t33 -37.5t13 -57.5zM344 185q0 31 -18 51t-70 40l-68 27q-32 -32 -32 -67q0 -26 14.5 -45t54.5 -33l96 -34q12 14 17.5 28t5.5 33z" />
    <glyph glyph-name="bullet" unicode="&#x2022;" horiz-adv-x="333" 
d="M271 213q0 -21 -8 -39.5t-21.5 -33t-33 -23t-41.5 -8.5q-21 0 -40 8t-33 22t-22.5 33t-8.5 41q0 21 8 39.5t22 33t33 23t41 8.5q20 0 39 -8t33.5 -21.5t23 -33t8.5 -41.5z" />
    <glyph glyph-name="paragraph" unicode="&#xb6;" horiz-adv-x="568" 
d="M448 608l-11 -101v-507h-74v610h-96v-610h-74v384q-35 0 -62.5 10t-46.5 28t-29.5 43t-10.5 54q0 28 10.5 52.5t29 43t44 29t55.5 10.5h346v-30z" />
    <glyph glyph-name="germandbls" unicode="&#xdf;" horiz-adv-x="581" 
d="M554 127q0 -29 -12.5 -54.5t-34.5 -45t-52 -31t-65 -11.5q-23 0 -53 5.5t-61 17.5l-9 112h42l15 -69q19 -8 35.5 -12t39.5 -4q35 0 56 16.5t21 50.5q0 19 -9 33t-23.5 26t-32 22.5t-35.5 21.5q-47 28 -76 59.5t-29 75.5q0 22 6 39.5t17 32.5t25 28t31 27q25 22 40 45
t15 54q0 34 -25 60t-73 26q-22 0 -42 -5.5t-35 -19.5t-24 -37.5t-9 -59.5v-530h-165v31l69 13l11 76v285h-83v36l85 16v56q4 42 25.5 78.5t53.5 63.5t72.5 42t82.5 15q31 0 57 -8.5t45 -24t30 -37.5t11 -49q0 -39 -21 -68t-56 -57q-26 -22 -43.5 -44.5t-17.5 -50.5
q0 -21 8 -36t21.5 -28t31 -24t36.5 -23q21 -14 40 -27t33 -28.5t22.5 -35t8.5 -44.5z" />
    <glyph glyph-name="registered" unicode="&#xae;" horiz-adv-x="859" 
d="M791 250q0 -74 -28.5 -139.5t-77.5 -114.5t-115 -78t-141 -29q-74 0 -139.5 27.5t-114.5 76t-78 114.5t-29 143q0 75 28.5 140.5t77.5 115t114.5 78t140.5 28.5t141 -28t115 -76.5t77.5 -115t28.5 -142.5zM735 250q0 63 -24 118.5t-65.5 97t-97.5 66t-119 24.5
t-118.5 -24t-97.5 -65t-66 -97t-24 -120q0 -63 24 -118.5t66 -97.5t97.5 -66t118.5 -24q64 0 119.5 24t97 66t65.5 97.5t24 118.5zM500 77l-42 89l-38 72h-28v-71l7 -51l40 -9v-30h-174v30l48 9l6 51v183l-6 51l-53 9v31h188q57 0 81.5 -24t24.5 -68q0 -32 -16 -56.5
t-53 -38.5l50 -86l36 -51l46 -10v-30h-117zM478 340q0 27 -14 46t-59 19h-13v-132h8q43 0 60.5 17t17.5 50z" />
    <glyph glyph-name="copyright" unicode="&#xa9;" horiz-adv-x="859" 
d="M791 250q0 -74 -28.5 -139.5t-77.5 -114.5t-115 -78t-141 -29q-74 0 -139.5 27.5t-114.5 76t-78 114.5t-29 143q0 75 28.5 140.5t77.5 115t114.5 78t140.5 28.5t141 -28t115 -76.5t77.5 -115t28.5 -142.5zM735 250q0 63 -24 118.5t-65.5 97t-97.5 66t-119 24.5
t-118.5 -24t-97.5 -65t-66 -97t-24 -120q0 -63 24 -118.5t66 -97.5t97.5 -66t118.5 -24q64 0 119.5 24t97 66t65.5 97.5t24 118.5zM564 79q-35 -8 -65 -12.5t-68 -4.5q-98 0 -143 52t-45 136q0 40 11.5 77t35.5 65t60.5 44.5t86.5 16.5q31 0 57.5 -4t57.5 -12l8 -95h-40
l-15 59q-16 5 -32 9t-36 4q-57 0 -86 -40.5t-30 -111.5q0 -33 7 -62.5t22 -51.5t38 -35t54 -13q15 0 35 3t39 11l15 61h41z" />
    <glyph glyph-name="trademark" unicode="&#x2122;" horiz-adv-x="945" 
d="M712 315v31l42 9l5 47v190l-73 -192l-28 -85h-51l-32 84l-75 195v-192l5 -47l42 -9v-31h-134v31l42 9l5 47v185l-5 48l-42 8v31h136l30 -84l69 -180l69 180l26 84h136v-31l-42 -8l-5 -48v-185l5 -47l42 -9v-31h-167zM337 574l-12 56l-44 5h-28v-233l5 -47l43 -9v-31h-168
v31l42 9l5 47v233h-28l-43 -5l-12 -56h-40l7 100h306l7 -100h-40z" />
    <glyph glyph-name="acute" unicode="&#xb4;" horiz-adv-x="0" 
d="M1 543l-25 25l178 178l50 -50z" />
    <glyph glyph-name="dieresis" unicode="&#xa8;" horiz-adv-x="0" 
d="M140 618q0 -19 -12.5 -34t-35.5 -15q-19 0 -33.5 13.5t-14.5 35.5q0 19 13 33.5t35 14.5q20 0 34 -13t14 -35zM-45 618q0 -19 -12.5 -34t-35.5 -15q-19 0 -33.5 13.5t-14.5 35.5q0 19 13 33.5t35 14.5q20 0 34 -13t14 -35z" />
    <glyph glyph-name="notequal" horiz-adv-x="644" 
d="M666 625q-19 7 -39 12.5t-45 5.5q-21 0 -37 -4.5t-26.5 -15.5t-15 -31t-0.5 -51l9 -94h117v-42h-117v-285l11 -76l80 -13v-31h-254v31l67 13l11 76v285h-231v-285l11 -76l62 -13v-31h-238v31l69 13l11 76v285h-82v36l82 16l2 59q2 42 17.5 79.5t44 66t70 45.5t96.5 17
q43 0 89 -12t79 -32q20 18 48 30t66 12q18 0 35 -3t40 -11zM449 609q-26 14 -60.5 27.5t-72.5 13.5q-29 0 -54.5 -5.5t-43.5 -18.5t-27 -35t-4 -56l9 -88h180l51 10l1 59q2 20 6.5 47t14.5 46z" />
    <glyph glyph-name="AE" unicode="&#xc6;" horiz-adv-x="899" 
d="M852 0h-486v31l78 16l11 101v104h-197l-59 -102l-53 -106l76 -13v-31h-214v31l68 15l68 102l279 462l-65 14v30h480l10 -158h-44l-21 98l-95 16h-140v-254h76l78 11l11 82h36v-226h-36l-11 82l-78 10h-76v-167l10 -88l80 -16h75l85 16l21 98h44zM455 581l-171 -285h171
v285z" />
    <glyph glyph-name="Oslash" unicode="&#xd8;" horiz-adv-x="714" 
d="M668 333q0 -79 -20 -144t-60.5 -111.5t-101 -72.5t-141.5 -26q-24 0 -46 2.5t-42 7.5q-3 -8 -9.5 -26.5t-13.5 -36.5q-8 -22 -17 -46l-45 17l40 107q-86 37 -126 120t-40 199q0 78 21.5 142.5t63 111.5t102 73t137.5 26q46 0 85 -12l42 114l46 -15l-42 -114
q81 -36 124 -117.5t43 -198.5zM565 320q0 91 -21 161t-64 110q-58 -156 -103 -278q-20 -53 -38.5 -102.5t-32.5 -88.5q-17 -46 -32 -87q37 -17 85 -17q46 0 84 21.5t65 60.5t42 95t15 125zM439 621q-17 7 -35.5 11t-39.5 4q-49 0 -88.5 -19.5t-68 -58.5t-44 -97t-15.5 -134
q0 -88 20 -156.5t65 -106.5l206 557v0z" />
    <glyph glyph-name="infinity" horiz-adv-x="924" 
d="M662 0v31l61 13l11 76v206l-11 72l-79 7h-132v-285l11 -76l61 -13v-31h-237v31l69 13l11 76v285h-231v-285l11 -76l62 -13v-31h-238v31l69 13l11 76v285h-82v36l82 16l2 59q2 42 17.5 79.5t44 66t70 45.5t96.5 17q42 0 88.5 -11.5t85.5 -36.5q26 20 60 34t81 14
q43 0 91 -13t89 -40l-39 -76q-38 27 -81.5 41t-84.5 14q-29 0 -54 -5t-43 -18t-27 -35.5t-4 -56.5l9 -88h131l187 18l-11 -139v-206l11 -76l70 -13v-31h-238zM451 606q-30 20 -65 32t-70 12q-29 0 -54.5 -5.5t-43.5 -18.5t-27 -35t-4 -56l9 -88h231l1 69q1 23 7 46t16 44z
" />
    <glyph glyph-name="plusminus" unicode="&#xb1;" horiz-adv-x="932" 
d="M670 0v31l62 13l10 76v456l-8 59q-26 7 -54.5 13t-59.5 6q-58 0 -92 -29t-25 -86l9 -92h118v-42h-118v-285l11 -76l61 -13v-31h-237v31l69 13l11 76v285h-231v-285l11 -76l62 -13v-31h-238v31l69 13l11 76v285h-82v36l82 16l2 59q2 42 17.5 79.5t44 66t70 45.5t96.5 17
q41 0 87.5 -11.5t87.5 -37.5q29 23 63.5 36t85.5 13q24 0 43 -1t38.5 -3.5t41 -7t50.5 -11.5l-10 -125v-456l11 -76l69 -13v-31h-238zM452 607q-30 20 -65 31.5t-71 11.5q-29 0 -54.5 -5.5t-43.5 -18.5t-27 -35t-4 -56l9 -88h231l1 67q1 26 7 49.5t17 43.5z" />
    <glyph glyph-name="lessequal" horiz-adv-x="378" 
d="M353 489q0 -43 -11.5 -78t-33 -60t-52 -38.5t-67.5 -13.5q-36 0 -65.5 13t-51.5 38t-34 59.5t-12 78.5q0 42 11.5 76t32.5 59t51.5 38.5t69.5 13.5q36 0 66 -13t51 -37t33 -58.5t12 -77.5zM288 483q1 66 -26.5 105.5t-75.5 39.5q-45 0 -70 -37.5t-25 -104.5
q0 -29 7.5 -54.5t20.5 -44.5t31.5 -29.5t40.5 -10.5q44 0 70.5 35.5t26.5 100.5z" />
    <glyph glyph-name="greaterequal" horiz-adv-x="281" 
d="M34 315v31l64 10l8 54v153l-8 55l-64 9v31h215v-31l-64 -9l-8 -55v-153l8 -54l64 -10v-31h-215z" />
    <glyph glyph-name="yen" unicode="&#xa5;" horiz-adv-x="605" 
d="M535 608l-67 -101l-109 -195v-31h137v-41h-137v-67h137v-42h-137l11 -84l81 -16v-31h-276v31l81 16l10 84h-136v42h136v67h-136v41h136l-128 226l-70 101l-60 16v30h262v-30l-74 -16l49 -101l90 -156l84 156l45 101l-71 16v30h203v-30z" />
    <glyph glyph-name="mu" unicode="&#xb5;" horiz-adv-x="334" 
d="M296 315h-254v46q30 24 59.5 48t53 48t37.5 48.5t14 49.5q0 29 -16.5 48t-48.5 19q-40 0 -81 -32l-21 26q52 58 133 58q50 0 80.5 -26t30.5 -76q1 -44 -37.5 -92t-123.5 -106h95l90 13z" />
    <glyph glyph-name="partialdiff" horiz-adv-x="329" 
d="M299 328q0 -35 -16.5 -65t-46.5 -52.5t-71.5 -35.5t-92.5 -13h-39v50q17 -4 29 -5.5t28 -1.5q58 0 95.5 29.5t37.5 78.5q0 47 -34 74t-121 27v36q59 3 94.5 30.5t35.5 73.5q0 28 -18 46.5t-50 18.5q-20 0 -36 -6.5t-40 -24.5l-23 28q26 28 60.5 43t70.5 15
q49 0 82.5 -27.5t33.5 -77.5q0 -35 -24.5 -68.5t-74.5 -51.5q54 -3 87 -36.5t33 -84.5z" />
    <glyph glyph-name="summation" horiz-adv-x="578" 
d="M485 595q-37 26 -80.5 40.5t-85.5 14.5q-29 0 -55 -5t-45 -18t-28 -35.5t-4 -56.5l9 -88h125l188 18l-11 -139v-290q0 -88 -39.5 -156t-125.5 -119l-22 33q30 22 49 48t30.5 54.5t15.5 59t4 60.5v310l-10 72l-79 7h-125v-285l11 -76l62 -13v-31h-238v31l69 13l11 76v285
h-82v36l82 16l2 59q2 42 17.5 79.5t45 66t71.5 45.5t97 17q43 0 91.5 -13t88.5 -40z" />
    <glyph glyph-name="product" horiz-adv-x="948" 
d="M949 35q-29 -24 -60 -40t-69 -16q-19 0 -37 5.5t-31.5 18.5t-21.5 34t-8 51v317h-210v-285l11 -76l61 -13v-31h-235v31l67 13l11 76v285h-231v-285l11 -76l62 -13v-31h-238v31l69 13l11 76v285h-82v36l82 16l2 59q2 41 17.5 78.5t44.5 66.5t70.5 46t95.5 17
q42 0 88.5 -12.5t85.5 -35.5q26 20 61.5 34t79.5 14q39 0 84 -13.5t81 -39.5l-40 -76q-33 25 -70.5 40t-79.5 15q-27 0 -52.5 -5.5t-44 -19t-27.5 -35.5t-4 -55l9 -88h165l45 9v96l87 16v-121h119v-42h-119v-284q0 -40 14 -57t41 -17q12 0 30 4t35 15l20 -31v0zM451 606
q-30 18 -65 31t-70 13q-30 0 -55.5 -6t-43 -20t-26 -36t-4.5 -53l9 -88h231l1 69q1 20 7 44.5t16 45.5z" />
    <glyph glyph-name="pi" horiz-adv-x="859" 
d="M791 250q0 -74 -28.5 -139.5t-77.5 -114.5t-115 -78t-141 -29q-74 0 -139.5 27.5t-114.5 76t-78 114.5t-29 143q0 75 28.5 140.5t77.5 115t114.5 78t140.5 28.5t141 -28t115 -76.5t77.5 -115t28.5 -142.5zM735 250q0 63 -24 118.5t-65.5 97t-97.5 66t-119 24.5
t-118.5 -24t-97.5 -65t-66 -97t-24 -120q0 -63 24 -118.5t66 -97.5t97.5 -66t118.5 -24q64 0 119.5 24t97 66t65.5 97.5t24 118.5zM592 349q0 -52 -38 -81.5t-132 -29.5v-71l7 -51l41 -9v-30h-174v30l47 9l6 51v183l-6 51l-52 9v31h195q58 0 82 -25.5t24 -66.5zM516 340
q0 13 -3 25t-11 21t-22.5 14t-36.5 5h-21v-132h16q42 0 60 17t18 50z" />
    <glyph glyph-name="integral" horiz-adv-x="362" 
d="M350 328h-77v-136l-73 -14v150h-183v43l204 293h52v-283l87 12zM200 566l-127 -186h127v186z" />
    <glyph glyph-name="ordfeminine" unicode="&#xaa;" horiz-adv-x="399" 
d="M244 300l10 72q-18 -35 -46 -54t-61 -19q-40 0 -66 26t-26 70q0 50 40 81q47 38 149 38v30q0 34 -16 54.5t-52 20.5q-23 0 -41 -7.5t-41 -27.5l-24 26q26 30 61.5 48.5t77.5 18.5q47 0 77.5 -27t30.5 -84v-156l7 -54l53 -10v-31zM244 477q-67 0 -96 -22q-24 -17 -24 -46
q0 -20 12.5 -35.5t34.5 -15.5q18 0 38.5 13t34.5 36v70z" />
    <glyph glyph-name="ordmasculine" unicode="&#xba;" horiz-adv-x="438" 
d="M394 489q0 -42 -12.5 -77t-35.5 -60.5t-55.5 -39.5t-72.5 -14q-76 0 -121.5 48t-45.5 137q0 43 12 78t34.5 60.5t55.5 39.5t76 14q75 0 120 -47.5t45 -138.5zM310 488q0 73 -22.5 110t-64.5 37t-64.5 -34.5t-23.5 -112.5q0 -72 21 -110t65 -38q42 0 65.5 35t23.5 113z
" />
    <glyph glyph-name="Omega" horiz-adv-x="325" 
d="M300 330q0 -35 -16 -66.5t-45 -55t-70 -37t-92 -13.5h-36v50q14 -4 23.5 -5t27.5 -1q60 0 99 29t39 85q0 26 -9 47.5t-31 37t-57.5 24t-88.5 8.5l19 220h230l-6 -66l-78 9h-111l-10 -104q54 0 93.5 -12t66 -33.5t39.5 -51t13 -65.5z" />
    <glyph glyph-name="ae" unicode="&#xe6;" horiz-adv-x="700" 
d="M370 260v-24q0 -88 42 -140t119 -52q24 0 50 7t53 27l20 -28q-45 -41 -86.5 -56t-85.5 -15q-57 0 -101.5 27t-72.5 84q-26 -47 -63.5 -78.5t-88.5 -31.5t-83.5 32.5t-32.5 88.5q0 65 58 110q59 44 193 44v49q0 54 -27 79t-70 25q-56 0 -107 -45l-25 27q31 36 76 59.5
t100 23.5q35 0 64 -13.5t52 -48.5q21 28 54 43.5t78 15.5q43 0 76 -15.5t55.5 -43.5t33.5 -66.5t9 -84.5h-290zM569 310q1 57 -24.5 88.5t-67.5 31.5t-69.5 -32.5t-35.5 -98.5h130l67 11v0zM291 215q-87 0 -127 -24q-40 -25 -40 -69q0 -30 18.5 -50.5t47.5 -20.5
q23 0 50.5 16t50.5 51v97z" />
    <glyph glyph-name="oslash" unicode="&#xf8;" horiz-adv-x="523" 
d="M481 227q0 -57 -16.5 -103t-46 -78.5t-70.5 -50t-91 -17.5q-36 0 -67 9l-31 -82l-37 15l31 82q-51 27 -81 82.5t-30 133.5q0 54 14.5 100t43 79.5t70.5 52.5t98 19q17 0 31.5 -2t28.5 -5l32 85l39 -14l-32 -85q54 -26 84 -81.5t30 -139.5zM385 226q0 54 -11.5 93.5
t-31.5 63.5l-133 -348q23 -14 51 -14q60 0 92.5 50t32.5 155zM311 417q-20 10 -48 10q-60 0 -92 -48.5t-32 -153.5q0 -102 42 -150l130 342v0z" />
    <glyph glyph-name="questiondown" unicode="&#xbf;" horiz-adv-x="400" 
d="M25 135q0 52 22.5 97.5t60.5 81.5t61 81.5t23 100.5h46q0 -72 -21.5 -115.5t-51.5 -76.5q-26 -28 -47 -61.5t-21 -78.5q0 -52 34 -84t96 -32q29 0 59 12.5t58 38.5l27 -29q-35 -42 -83.5 -66t-99.5 -24q-35 0 -64.5 11t-51.5 31.5t-34.5 49t-12.5 63.5zM157 643
q0 21 15 39t41 18q23 0 40 -15t17 -42q0 -22 -15.5 -39.5t-41.5 -17.5q-22 0 -39 16t-17 41z" />
    <glyph glyph-name="exclamdown" unicode="&#xa1;" horiz-adv-x="236" 
d="M99 501h36l28 -316v-185h-92v185zM61 653q0 22 15 39.5t41 17.5q23 0 40 -14.5t17 -42.5q0 -21 -15.5 -39t-41.5 -18q-22 0 -39 16t-17 41z" />
    <glyph glyph-name="logicalnot" unicode="&#xac;" horiz-adv-x="349" 
d="M328 476q0 -38 -11.5 -71t-32.5 -57.5t-51 -38.5t-67 -14q-28 0 -52.5 12.5t-43 36.5t-29 59t-10.5 80q0 61 16 116t48.5 98t81 71.5t113.5 36.5l4 -35q-24 -6 -52.5 -17t-55 -32.5t-48 -55t-31.5 -84.5q20 22 47.5 32t53.5 10q25 0 47 -11t38.5 -30.5t25.5 -46.5t9 -59z
M263 454q1 52 -21.5 85.5t-61.5 33.5q-20 0 -36.5 -6.5t-39.5 -26.5q-2 -16 -3 -25.5t-1 -23.5q0 -72 21 -112.5t63 -40.5q19 0 33.5 9.5t24.5 25.5t15.5 37t5.5 44z" />
    <glyph glyph-name="radical" 
d="M458 501l-126 -381l-45 -137h-61l-51 137l-80 206l-39 80l-57 10v31l147 18l44 -139l87 -233l133 408l38 134l55 -18z" />
    <glyph glyph-name="florin" unicode="&#x192;" 
d="M563 613q-29 13 -57.5 21t-51.5 8q-11 0 -23.5 -3t-26.5 -16q-6 -6 -11.5 -15.5t-10.5 -24.5t-10.5 -37.5t-12.5 -54.5l-9 -45h104v-43h-112l-82 -414q-11 -54 -36 -100t-62 -78q-32 -28 -67.5 -42t-71.5 -14q-10 0 -27.5 1.5t-32.5 5.5l19 86q24 -9 48 -15t45 -6
q41 0 64 34q19 30 31 87l91 455h-89v43h98l3 17q28 133 92 191q31 29 68 45t71 16q19 0 36.5 -2.5t43.5 -7.5z" />
    <glyph glyph-name="approxequal" horiz-adv-x="328" 
d="M102 172l-61 32l205 387h-133l-80 -7l9 69h261v-27z" />
    <glyph glyph-name="Delta" horiz-adv-x="351" 
d="M327 436q0 -30 -12 -56t-33 -45t-50.5 -30t-65.5 -11q-63 0 -103.5 33t-40.5 90q0 47 30 81t81 60q-39 25 -66 53.5t-27 71.5q0 28 11.5 51.5t31.5 40.5t47.5 26.5t59.5 9.5q54 0 90 -30t36 -81q0 -38 -22 -69t-70 -56q54 -35 78.5 -66.5t24.5 -72.5zM253 692
q0 35 -19.5 58.5t-54.5 23.5q-31 0 -52.5 -18.5t-21.5 -50.5q0 -34 22 -57.5t66 -51.5q30 18 45 39.5t15 56.5zM260 412q0 21 -7.5 38.5t-20.5 32.5t-30 28t-36 26q-33 -16 -54 -44t-21 -65q0 -38 23 -66t65 -28q32 0 56.5 21t24.5 57z" />
    <glyph glyph-name="guillemotleft" unicode="&#xab;" 
d="M441 20l-215 205l215 204l25 -25l-155 -179l155 -179zM237 20l-215 205l215 204l25 -25l-155 -179l155 -179z" />
    <glyph glyph-name="guillemotright" unicode="&#xbb;" 
d="M262 20l-25 25l155 180l-155 178l25 26l216 -204zM60 20l-25 25l154 180l-154 178l25 26l215 -204z" />
    <glyph glyph-name="ellipsis" unicode="&#x2026;" horiz-adv-x="668" 
d="M622 50q0 -24 -17 -43.5t-46 -19.5q-26 0 -45 17t-19 46q0 25 17.5 44.5t46.5 19.5q25 0 44 -17.5t19 -46.5zM399 50q0 -24 -17.5 -43.5t-46.5 -19.5q-25 0 -44.5 17t-19.5 46q0 25 17.5 44.5t46.5 19.5q25 0 44.5 -17.5t19.5 -46.5zM174 50q0 -24 -17.5 -43.5
t-46.5 -19.5q-25 0 -44.5 17t-19.5 46q0 25 17.5 44.5t46.5 19.5q25 0 44.5 -17.5t19.5 -46.5z" />
    <glyph glyph-name="nonbreakingspace" horiz-adv-x="100" 
 />
    <glyph glyph-name="Agrave" unicode="&#xc0;" horiz-adv-x="682" 
d="M416 0v31l72 16l-27 101l-37 105h-210l-39 -105l-26 -101l74 -16v-31h-215v31l76 16l44 101l188 516h63l181 -516l43 -101l71 -16v-31h-258zM321 556l-93 -261h182zM349 741l-202 153l50 50l178 -178z" />
    <glyph glyph-name="Atilde" unicode="&#xc3;" horiz-adv-x="682" 
d="M416 0v31l72 16l-27 101l-37 105h-210l-39 -105l-26 -101l74 -16v-31h-215v31l76 16l44 101l188 516h63l181 -516l43 -101l71 -16v-31h-258zM321 556l-93 -261h182zM500 826q-13 -37 -35 -59t-54 -22q-23 0 -40.5 11.5t-39.5 29.5q-14 12 -28.5 21t-28.5 9q-36 0 -52 -44
l-31 15q11 34 34.5 57.5t53.5 23.5q23 0 41.5 -12.5t38.5 -28.5q14 -12 25.5 -21t31.5 -9q16 0 30.5 11.5t22.5 32.5l31 -15v0z" />
    <glyph glyph-name="Otilde" unicode="&#xd5;" horiz-adv-x="714" 
d="M668 333q0 -79 -20 -144t-60.5 -111.5t-101 -72.5t-141.5 -26q-78 0 -134 25t-93 70t-54.5 108.5t-17.5 140.5q0 78 21.5 142.5t63 111.5t102 73t137.5 26q70 0 125.5 -24t94 -68.5t58.5 -108t20 -142.5zM565 320q0 69 -12 127t-37 100t-63 65.5t-89 23.5
q-49 0 -88.5 -19.5t-68 -58.5t-44 -97t-15.5 -134q0 -69 12 -126t37.5 -97.5t65.5 -63t96 -22.5q46 0 84 21.5t65 60.5t42 95t15 125zM506 826q-13 -37 -35 -59t-54 -22q-23 0 -40.5 11.5t-39.5 29.5q-14 12 -28.5 21t-28.5 9q-36 0 -52 -44l-31 15q11 34 34.5 57.5
t53.5 23.5q23 0 41.5 -12.5t38.5 -28.5q14 -12 25.5 -21t31.5 -9q16 0 30.5 11.5t22.5 32.5l31 -15v0z" />
    <glyph glyph-name="OE" unicode="&#x152;" horiz-adv-x="924" 
d="M876 0h-397q-33 -9 -62 -15t-69 -6q-153 0 -227.5 88.5t-74.5 254.5q0 82 23 147.5t64 111.5t98.5 70.5t125.5 24.5q34 0 64 -4t71 -18h365l10 -158h-44l-21 98l-95 16h-133v-253h74l78 11l11 81h36v-226h-36l-11 81l-78 10h-74v-166l11 -88l77 -16h75l85 16l21 98h44z
M481 507l-10 92q-26 18 -53 27t-61 9q-99 0 -157 -79t-58 -225q0 -147 55.5 -229.5t158.5 -82.5q32 0 60 9.5t56 31.5l9 90v357z" />
    <glyph glyph-name="oe" unicode="&#x153;" horiz-adv-x="799" 
d="M470 260q-1 -6 -1 -10.5v-13.5q0 -42 10 -77t30 -60.5t50 -40t70 -14.5q26 0 52 7t53 26l20 -27q-38 -35 -78.5 -53t-94.5 -18q-22 0 -44.5 5.5t-43.5 16.5t-38 27t-29 38q-25 -41 -69.5 -64.5t-101.5 -23.5q-48 0 -87.5 16.5t-67 47.5t-43 75.5t-15.5 100.5q0 55 15 101
t43.5 79t71 52t96.5 19q56 0 95.5 -20.5t67.5 -67.5q17 36 57 62.5t97 26.5q44 0 77 -15.5t55 -43.5t32.5 -66.5t9.5 -84.5h-289zM669 310q0 56 -25 88t-67 32q-40 0 -68.5 -32.5t-36.5 -98.5h130l67 11v0zM384 219q1 103 -29 155.5t-90 52.5t-93 -45.5t-33 -149.5
q0 -103 29 -157t92 -54q60 0 92 47.5t32 150.5z" />
    <glyph glyph-name="endash" unicode="&#x2013;" 
d="M-4 212v47h508v-47h-508z" />
    <glyph glyph-name="emdash" unicode="&#x2014;" horiz-adv-x="1000" 
d="M-4 212v47h1008v-47h-1008z" />
    <glyph glyph-name="quotedblleft" unicode="&#x201c;" horiz-adv-x="394" 
d="M356 637q-41 -11 -61.5 -34.5t-12.5 -59.5q31 0 48 -17.5t17 -44.5q0 -25 -16 -42.5t-45 -17.5q-32 0 -52 26t-20 73q0 58 32 98t95 57l15 -38v0zM180 637q-41 -11 -61.5 -34.5t-12.5 -59.5q31 0 48 -17.5t17 -44.5q0 -25 -15.5 -42.5t-44.5 -17.5q-32 0 -52.5 26
t-20.5 73q0 58 32 98t95 57l15 -38v0z" />
    <glyph glyph-name="quotedblright" unicode="&#x201d;" horiz-adv-x="394" 
d="M356 577q0 -58 -31.5 -98t-94.5 -57l-15 38q41 11 61 34.5t12 59.5q-30 0 -47.5 17.5t-17.5 44.5q0 25 16 42.5t45 17.5q32 0 52 -26t20 -73zM181 577q0 -58 -31.5 -98t-94.5 -57l-15 38q41 11 61 34.5t12 59.5q-30 0 -47.5 17.5t-17.5 44.5q0 25 16 42.5t45 17.5
q32 0 52 -26t20 -73z" />
    <glyph glyph-name="quoteleft" unicode="&#x2018;" horiz-adv-x="221" 
d="M180 637q-41 -11 -61.5 -34t-12.5 -60q31 1 48 -16.5t17 -44.5q0 -25 -15.5 -43t-44.5 -18q-32 0 -52.5 26t-20.5 74q0 57 32 97.5t95 57.5l15 -39v0z" />
    <glyph glyph-name="quoteright" unicode="&#x2019;" horiz-adv-x="221" 
d="M180 577q0 -58 -32 -98t-95 -57l-15 38q41 11 61.5 34.5t12.5 59.5q-31 0 -48 17.5t-17 44.5q0 25 16 42.5t45 17.5q32 0 52 -26t20 -73z" />
    <glyph glyph-name="divide" unicode="&#xf7;" 
d="M274 244v-180h-48v180h-175v47h175v180h48v-180h175v-47h-175zM51 -47v47h398v-47h-398z" />
    <glyph glyph-name="lozenge" horiz-adv-x="632" 
d="M633 35q-31 -27 -62 -41.5t-66 -14.5q-19 0 -36.5 5.5t-31 18.5t-22 34t-8.5 51v317h-211v-285l11 -76l62 -13v-31h-238v31l69 13l11 76v285h-82v36l82 16l2 59q2 41 17.5 78.5t44.5 66.5t70.5 46t95.5 17q42 0 87 -15t77 -38l-39 -76q-29 23 -68.5 39t-81.5 16
q-28 0 -53.5 -6t-43.5 -19.5t-27.5 -35.5t-4.5 -54l9 -88h165l46 9v96l86 16v-121h120v-42h-120v-284q0 -39 14 -56.5t41 -17.5q13 0 31 4t35 15l19 -31v0z" />
    <glyph glyph-name="ydieresis" unicode="&#xff;" horiz-adv-x="512" 
d="M451 404l-38 -78l-218 -576l-145 13v34l100 16l43 70l43 101l-140 342l-41 78l-45 12v31h219v-31l-64 -12l24 -78l90 -231l84 231l22 78l-63 12v31h180v-31zM405 618q0 -19 -12.5 -34t-35.5 -15q-19 0 -33.5 13.5t-14.5 35.5q0 19 13 33.5t35 14.5q20 0 34 -13t14 -35z
M220 618q0 -19 -12.5 -34t-35.5 -15q-19 0 -33.5 13.5t-14.5 35.5q0 19 13 33.5t35 14.5q20 0 34 -13t14 -35z" />
    <glyph glyph-name="Ydieresis" unicode="&#x178;" horiz-adv-x="605" 
d="M536 608l-67 -101l-110 -197v-162l11 -101l81 -16v-31h-276v31l81 16l10 101v135l-128 224l-70 101l-60 16v30h261v-30l-73 -16l49 -101l90 -156l84 156l45 101l-71 16v30h204v-30zM461 816q0 -19 -12.5 -34t-35.5 -15q-19 0 -33.5 13.5t-14.5 35.5q0 19 13 33.5t35 14.5
q20 0 34 -13t14 -35zM276 816q0 -19 -12.5 -34t-35.5 -15q-19 0 -33.5 13.5t-14.5 35.5q0 19 13 33.5t35 14.5q20 0 34 -13t14 -35z" />
    <glyph glyph-name="fraction" horiz-adv-x="103" 
d="M-34 -11l-47 13l207 674l47 -15z" />
    <glyph glyph-name="currency" unicode="&#xa4;" horiz-adv-x="349" 
d="M324 479q0 -60 -16.5 -114.5t-48.5 -98t-80.5 -72.5t-112.5 -37l-5 35q30 6 60 20t55.5 37.5t44 56.5t27.5 75q-22 -21 -46.5 -31.5t-55.5 -10.5q-26 0 -48 10.5t-38 30t-25.5 46.5t-9.5 60q0 37 12 70t33.5 58t51.5 39t66 14q27 0 52 -12t43.5 -36t29.5 -59t11 -81z
M253 471q0 72 -20.5 113t-61.5 41q-35 0 -57.5 -30t-22.5 -87q0 -53 22 -86t62 -33q20 0 37 6.5t38 26.5q2 18 2.5 26.5t0.5 22.5z" />
    <glyph glyph-name="guilsinglleft" unicode="&#x2039;" horiz-adv-x="333" 
d="M256 20l-216 205l216 204l24 -25l-154 -179l154 -179z" />
    <glyph glyph-name="guilsinglright" unicode="&#x203a;" horiz-adv-x="333" 
d="M78 20l-25 25l155 180l-155 178l25 26l215 -204z" />
    <glyph glyph-name="fi" horiz-adv-x="609" 
d="M347 0v31l62 13l10 76v206l-10 72l-80 7h-133v-285l11 -76l62 -13v-31h-238v31l69 13l11 76v285h-82v36l82 16l2 59q2 42 17 79.5t43 66t70 45.5t98 17q43 0 90.5 -12.5t88.5 -40.5l-39 -76q-81 55 -165 55q-29 0 -55 -5t-44 -17.5t-26.5 -35t-3.5 -57.5l9 -88h133
l186 18l-10 -142v-203l10 -76l70 -13v-31h-238z" />
    <glyph glyph-name="fl" horiz-adv-x="617" 
d="M355 0v31l61 13l10 76v456l-8 59q-29 8 -56.5 13.5t-56.5 5.5t-53 -6.5t-40 -20.5t-23 -36t-2 -52l9 -92h118v-42h-118v-285l11 -76l62 -13v-31h-238v31l69 13l11 76v285h-82v36l82 16l2 57q1 41 16 79t43.5 67t72.5 46.5t104 17.5q41 0 81.5 -5.5t92.5 -17.5l-11 -125
v-456l11 -76l70 -13v-31h-238z" />
    <glyph glyph-name="daggerdbl" unicode="&#x2021;" 
d="M274 78l13 -183h-73l14 183l-147 -13v72l147 -13v300l-147 -13v72l147 -13l-14 184h73l-13 -184l147 13v-72l-147 13v-300l147 13v-72z" />
    <glyph glyph-name="periodcentered" unicode="&#xb7;" horiz-adv-x="221" 
d="M174 285q0 -24 -17.5 -43.5t-46.5 -19.5q-25 0 -44.5 17t-19.5 46q0 25 17.5 44.5t46.5 19.5q25 0 44.5 -17.5t19.5 -46.5z" />
    <glyph glyph-name="periodcentered" unicode="&#x2219;" horiz-adv-x="221" 
d="M174 285q0 -24 -17.5 -43.5t-46.5 -19.5q-25 0 -44.5 17t-19.5 46q0 25 17.5 44.5t46.5 19.5q25 0 44.5 -17.5t19.5 -46.5z" />
    <glyph glyph-name="quotesinglbase" unicode="&#x201a;" horiz-adv-x="221" 
d="M180 7q0 -58 -32 -98t-95 -57l-15 38q41 11 61.5 34.5t12.5 59.5q-31 0 -48 17.5t-17 44.5q0 25 16 42.5t45 17.5q32 0 52 -26t20 -73z" />
    <glyph glyph-name="quotedblbase" unicode="&#x201e;" horiz-adv-x="394" 
d="M354 6q0 -58 -31.5 -98t-94.5 -57l-15 38q41 11 61.5 34.5t12.5 59.5q-31 0 -48.5 17.5t-17.5 44.5q0 25 16 43t45 18q32 0 52 -26.5t20 -73.5zM180 7q0 -58 -32 -98t-95 -57l-15 38q41 11 61.5 34.5t12.5 59.5q-31 0 -48 17.5t-17 44.5q0 25 16 42.5t45 17.5
q32 0 52 -26t20 -73z" />
    <glyph glyph-name="perthousand" unicode="&#x2030;" horiz-adv-x="1300" 
d="M1239 174q0 -87 -44.5 -139t-119.5 -52q-36 0 -65.5 13t-51.5 38t-34 59.5t-12 78.5q0 42 11.5 76t33 59t52 38.5t68.5 13.5q36 0 66 -12.5t51 -36.5t33 -58.5t12 -77.5zM850 174q0 -87 -44.5 -139t-119.5 -52q-36 0 -65.5 13t-51.5 38t-34 59.5t-12 78.5q0 42 11.5 76
t32.5 59t51.5 38.5t69.5 13.5q36 0 66 -12.5t51 -36.5t33 -58.5t12 -77.5zM360 -10l-45 15l234 670l45 -16zM387 489q0 -87 -44 -138.5t-119 -51.5q-36 0 -66 13t-52 38t-34 59.5t-12 78.5q0 42 11.5 76t33 59t52 38.5t68.5 13.5q72 0 117 -49.5t45 -136.5zM1174 167
q1 66 -26 105.5t-76 39.5q-45 1 -70 -37t-25 -104q0 -30 7.5 -55.5t20.5 -44t31.5 -29.5t40.5 -11q44 0 70.5 35.5t26.5 100.5zM785 167q1 66 -26 105.5t-76 39.5q-45 1 -70 -37t-25 -104q0 -30 7.5 -55.5t20.5 -44t31.5 -29.5t40.5 -11q44 0 70.5 35.5t26.5 100.5zM323 483
q0 66 -27 105t-75 40q-45 0 -70.5 -37.5t-25.5 -104.5q0 -29 7.5 -54.5t20.5 -44.5t31.5 -29.5t40.5 -10.5q45 0 71 35.5t27 100.5z" />
    <glyph glyph-name="Acircumflex" unicode="&#xc2;" horiz-adv-x="682" 
d="M416 0v31l72 16l-27 101l-37 105h-210l-39 -105l-26 -101l74 -16v-31h-215v31l76 16l44 101l188 516h63l181 -516l43 -101l71 -16v-31h-258zM321 556l-93 -261h182zM468 736l-118 95l-119 -95l-25 25l144 144l144 -144z" />
    <glyph glyph-name="Ecircumflex" unicode="&#xca;" horiz-adv-x="568" 
d="M521 0h-485v31l81 16l10 101v359l-10 101l-81 16v30h470l11 -167h-45l-21 107l-92 16h-138v-253h75l76 11l10 81h37v-226h-37l-10 81l-76 10h-75v-165l10 -89l77 -16h74l84 16l22 98h43zM404 736l-118 95l-119 -95l-25 25l144 144l144 -144z" />
    <glyph glyph-name="Aacute" unicode="&#xc1;" horiz-adv-x="682" 
d="M416 0v31l72 16l-27 101l-37 105h-210l-39 -105l-26 -101l74 -16v-31h-215v31l76 16l44 101l188 516h63l181 -516l43 -101l71 -16v-31h-258zM321 556l-93 -261h182zM352 741l-25 25l178 178l50 -50z" />
    <glyph glyph-name="Edieresis" unicode="&#xcb;" horiz-adv-x="568" 
d="M521 0h-485v31l81 16l10 101v359l-10 101l-81 16v30h470l11 -167h-45l-21 107l-92 16h-138v-253h75l76 11l10 81h37v-226h-37l-10 81l-76 10h-75v-165l10 -89l77 -16h74l84 16l22 98h43zM432 816q0 -19 -12.5 -34t-35.5 -15q-19 0 -33.5 13.5t-14.5 35.5q0 19 13 33.5
t35 14.5q20 0 34 -13t14 -35zM247 816q0 -19 -12.5 -34t-35.5 -15q-19 0 -33.5 13.5t-14.5 35.5q0 19 13 33.5t35 14.5q20 0 34 -13t14 -35z" />
    <glyph glyph-name="Egrave" unicode="&#xc8;" horiz-adv-x="568" 
d="M521 0h-485v31l81 16l10 101v359l-10 101l-81 16v30h470l11 -167h-45l-21 107l-92 16h-138v-253h75l76 11l10 81h37v-226h-37l-10 81l-76 10h-75v-165l10 -89l77 -16h74l84 16l22 98h43zM291 741l-202 153l50 50l178 -178z" />
    <glyph glyph-name="Iacute" unicode="&#xcd;" horiz-adv-x="346" 
d="M36 0v31l81 16l10 101v359l-10 101l-81 16v30h276v-30l-81 -16l-10 -101v-359l10 -101l81 -16v-31h-276zM175 741l-25 25l178 178l50 -50z" />
    <glyph glyph-name="Icircumflex" unicode="&#xce;" horiz-adv-x="346" 
d="M36 0v31l81 16l10 101v359l-10 101l-81 16v30h276v-30l-81 -16l-10 -101v-359l10 -101l81 -16v-31h-276zM294 737l-118 95l-119 -95l-25 25l144 144l144 -144z" />
    <glyph glyph-name="Idieresis" unicode="&#xcf;" horiz-adv-x="346" 
d="M298 815q0 -19 -12.5 -33.5t-35.5 -14.5q-19 0 -33.5 13t-14.5 35q0 20 13 34t35 14q20 0 34 -12.5t14 -35.5zM146 815q0 -19 -12 -33.5t-35 -14.5q-20 0 -34.5 13t-14.5 35q0 20 13 34t36 14q20 0 33.5 -12.5t13.5 -35.5zM36 0v31l81 16l10 101v359l-10 101l-81 16v30
h276v-30l-81 -16l-10 -101v-359l10 -101l81 -16v-31h-276z" />
    <glyph glyph-name="Igrave" unicode="&#xcc;" horiz-adv-x="346" 
d="M36 0v31l81 16l10 101v359l-10 101l-81 16v30h276v-30l-81 -16l-10 -101v-359l10 -101l81 -16v-31h-276zM207 741l-202 153l50 50l178 -178z" />
    <glyph glyph-name="Oacute" unicode="&#xd3;" horiz-adv-x="714" 
d="M668 333q0 -79 -20 -144t-60.5 -111.5t-101 -72.5t-141.5 -26q-78 0 -134 25t-93 70t-54.5 108.5t-17.5 140.5q0 78 21.5 142.5t63 111.5t102 73t137.5 26q70 0 125.5 -24t94 -68.5t58.5 -108t20 -142.5zM565 320q0 69 -12 127t-37 100t-63 65.5t-89 23.5
q-49 0 -88.5 -19.5t-68 -58.5t-44 -97t-15.5 -134q0 -69 12 -126t37.5 -97.5t65.5 -63t96 -22.5q46 0 84 21.5t65 60.5t42 95t15 125zM362 741l-25 25l178 178l50 -50z" />
    <glyph glyph-name="Ocircumflex" unicode="&#xd4;" horiz-adv-x="714" 
d="M668 333q0 -79 -20 -144t-60.5 -111.5t-101 -72.5t-141.5 -26q-78 0 -134 25t-93 70t-54.5 108.5t-17.5 140.5q0 78 21.5 142.5t63 111.5t102 73t137.5 26q70 0 125.5 -24t94 -68.5t58.5 -108t20 -142.5zM565 320q0 69 -12 127t-37 100t-63 65.5t-89 23.5
q-49 0 -88.5 -19.5t-68 -58.5t-44 -97t-15.5 -134q0 -69 12 -126t37.5 -97.5t65.5 -63t96 -22.5q46 0 84 21.5t65 60.5t42 95t15 125zM473 736l-118 95l-119 -95l-25 25l144 144l144 -144z" />
    <glyph glyph-name="apple" horiz-adv-x="1000" 
d="M1000 333q-4 1 -10.5 1.5t-13.5 1.5q-8 1 -18 1q-29 0 -52.5 -12.5t-40.5 -31.5t-27.5 -44t-16.5 -42q-5 8 -6.5 22.5t-4.5 32.5t-8 37t-17 35t-33 29t-47 18q-6 2 -14.5 3.5t-12.5 6.5q-3 20 -2.5 46t-1.5 48.5t-9.5 38t-25.5 15.5q-11 0 -18.5 -7t-7.5 -19q0 -11 2 -17
t4 -14t4 -20.5t2 -36.5q0 -20 -0.5 -30t-3.5 -15q-3 -6 -10 -7.5t-19.5 -5.5t-33 -12.5t-50.5 -29.5q-12 12 -24.5 25t-25 24t-24.5 18t-23 7q-29 0 -50.5 -5t-33.5 -20q1 6 1 9v7q0 41 -24 76.5t-56 55.5q-33 20 -66 31.5t-54 11.5q-18 0 -22 -8q-2 8 -5.5 17t-16.5 9
q-5 0 -14.5 -1.5t-13.5 -11.5q-3 -7 -2.5 -19.5t2.5 -21.5q1 -9 4.5 -32.5t7.5 -54.5t7 -66t4 -65q1 -20 2.5 -30t-7.5 -16q-26 1 -40.5 1t-33.5 -4v488h1000v-417v0zM275 399q0 -28 -13.5 -52.5t-32.5 -39.5q-13 -11 -23 -17t-19 -9.5t-18 -5.5t-20 -3q-2 -1 -4 -0.5
t-4 0.5h-5q0 2 -0.5 18t-2 39t-3 50.5t-3.5 52.5t-4.5 45t-5.5 29q2 -2 6 -3l6 -2t7 -1q14 -2 28 -4.5t34 -13.5q13 -7 26.5 -17.5t25 -21.5t18.5 -22.5t7 -21.5zM0 -250v464q26 -6 42.5 -6t33.5 -3q-1 -11 0.5 -20t3 -22.5t3 -35t1.5 -57.5q0 -47 1 -78t4.5 -49.5t9.5 -26
t15 -7.5q18 0 24 8.5t6 19.5q0 12 -6 28q0 57 -0.5 85.5t-1 41.5t-1 17t-1 12t-1 26.5t-0.5 61.5q16 2 42 8.5t60 25.5q17 10 37 29t38 42q-1 -17 5.5 -44t9.5 -59q2 -27 6.5 -53.5t9.5 -52.5q6 -30 17 -52t29 -33q3 -2 13 -4.5t20.5 -5t19 -4t9.5 -1.5h17.5t17.5 2.5
t13.5 7.5t5.5 16q0 15 -8.5 21.5t-21 8.5t-26 1.5t-23.5 1.5q-11 2 -18 16t-12 30t-7 29.5l-2 13.5q-5 28 -11 59.5t-10.5 59t-5.5 47t4 23.5q7 5 14 7t21 2q9 0 21.5 -8t23.5 -20t18.5 -24.5t7.5 -21.5q0 -17 -9 -26t-19.5 -15t-19.5 -12t-9 -18q0 -14 9 -21t17 -5
q8 1 12.5 3t9 6t10.5 9.5t17 13.5q8 6 15 16t14.5 21t15 21t17.5 16q14 9 31 18.5t41 11.5q2 -30 5 -61q2 -26 4.5 -57t4.5 -58q0 -8 -0.5 -18t-2.5 -19q-2 -11 -3 -22q0 -7 5 -17t14 -19.5t22.5 -16t30.5 -6.5q13 0 26.5 3t13.5 20q0 14 -4 18.5t-10 5t-12.5 0t-12.5 3.5
t-10 15t-4 36q0 17 -4 49t-6 65q-1 14 -1.5 31t-0.5 31q-1 17 -1 34h22q8 -5 16.5 -8.5t17 -9t15.5 -13.5t12 -21q3 -8 7 -39t9 -71t9.5 -80t9.5 -65q2 -5 7.5 -7.5t11.5 -3.5t12 -1h8q7 0 9 7.5t2.5 24t2 42t8.5 61.5q9 47 26.5 73.5t34.5 40.5q20 16 44 22q17 0 24 -0.5
t18 -3.5v-531h-1000z" />
    <glyph glyph-name="Ograve" unicode="&#xd2;" horiz-adv-x="714" 
d="M668 333q0 -79 -20 -144t-60.5 -111.5t-101 -72.5t-141.5 -26q-78 0 -134 25t-93 70t-54.5 108.5t-17.5 140.5q0 78 21.5 142.5t63 111.5t102 73t137.5 26q70 0 125.5 -24t94 -68.5t58.5 -108t20 -142.5zM565 320q0 69 -12 127t-37 100t-63 65.5t-89 23.5
q-49 0 -88.5 -19.5t-68 -58.5t-44 -97t-15.5 -134q0 -69 12 -126t37.5 -97.5t65.5 -63t96 -22.5q46 0 84 21.5t65 60.5t42 95t15 125zM361 741l-202 153l50 50l178 -178z" />
    <glyph glyph-name="Uacute" unicode="&#xda;" horiz-adv-x="722" 
d="M622 608l-11 -101v-274q0 -69 -17.5 -117.5t-50.5 -79t-80.5 -45t-107.5 -14.5q-115 0 -178 56t-63 167v307l-11 101l-80 16v30h275v-30l-80 -16l-11 -101v-307q0 -88 45.5 -134t126.5 -46q39 0 72 10.5t57.5 34t38.5 61t14 91.5v290l-10 101l-81 16v30h230v-30zM366 741
l-25 25l178 178l50 -50z" />
    <glyph glyph-name="Ucircumflex" unicode="&#xdb;" horiz-adv-x="722" 
d="M622 608l-11 -101v-274q0 -69 -17.5 -117.5t-50.5 -79t-80.5 -45t-107.5 -14.5q-115 0 -178 56t-63 167v307l-11 101l-80 16v30h275v-30l-80 -16l-11 -101v-307q0 -88 45.5 -134t126.5 -46q39 0 72 10.5t57.5 34t38.5 61t14 91.5v290l-10 101l-81 16v30h230v-30zM480 736
l-118 95l-119 -95l-25 25l144 144l144 -144z" />
    <glyph glyph-name="Ugrave" unicode="&#xd9;" horiz-adv-x="722" 
d="M622 608l-11 -101v-274q0 -69 -17.5 -117.5t-50.5 -79t-80.5 -45t-107.5 -14.5q-115 0 -178 56t-63 167v307l-11 101l-80 16v30h275v-30l-80 -16l-11 -101v-307q0 -88 45.5 -134t126.5 -46q39 0 72 10.5t57.5 34t38.5 61t14 91.5v290l-10 101l-81 16v30h230v-30zM365 741
l-202 153l50 50l178 -178z" />
    <glyph glyph-name="dotlessi" unicode="&#xd;" horiz-adv-x="304" 
d="M34 0v31l70 13l11 76v206l-11 77l-80 13v31l186 18l-10 -139v-206l11 -76l69 -13v-31h-246z" />
    <glyph glyph-name="circumflex" unicode="&#x2c6;" horiz-adv-x="0" 
d="M120 538l-118 95l-119 -95l-25 25l144 144l144 -144z" />
    <glyph glyph-name="tilde" unicode="&#x2dc;" horiz-adv-x="0" 
d="M155 628q-13 -37 -35 -59t-54 -22q-23 0 -40.5 11.5t-39.5 29.5q-14 12 -28.5 21t-28.5 9q-36 0 -52 -44l-31 15q11 34 34.5 57.5t53.5 23.5q23 0 41.5 -12.5t38.5 -28.5q14 -12 25.5 -21t31.5 -9q16 0 30.5 11.5t22.5 32.5l31 -15v0z" />
    <glyph glyph-name="macron" unicode="&#xaf;" horiz-adv-x="0" 
d="M-134 576v47h268v-47h-268z" />
    <glyph glyph-name="breve" horiz-adv-x="0" 
d="M155 676q-11 -66 -52 -104t-104 -38q-58 0 -100 37t-54 105l53 12q3 -23 11 -43.5t21 -36t31 -25t40 -9.5q36 0 64.5 31t36.5 83l53 -12v0z" />
    <glyph glyph-name="dotaccent" horiz-adv-x="0" 
d="M60 613q0 -24 -16.5 -42t-43.5 -18q-24 0 -42 16.5t-18 43.5q0 23 16.5 41.5t43.5 18.5q23 0 41.5 -17t18.5 -43z" />
    <glyph glyph-name="ring" horiz-adv-x="0" 
d="M84 608q0 -32 -23 -54.5t-61 -22.5q-35 0 -59.5 21.5t-24.5 55.5q0 32 23.5 55t60.5 23q34 0 59 -21.5t25 -56.5zM33 608q0 17 -8 30t-25 13q-14 0 -24 -10.5t-10 -32.5q0 -19 8.5 -30.5t25.5 -11.5q15 0 24 9t9 33z" />
    <glyph glyph-name="cedilla" unicode="&#xb8;" horiz-adv-x="0" 
d="M126 -145q0 -41 -35.5 -68.5t-104.5 -27.5h-24v41q10 -2 19.5 -4t20.5 -2q29 0 48.5 13.5t19.5 37.5q0 26 -21.5 40.5t-61.5 14.5h-10v107h46v-63h4q18 0 36 -6t32 -17.5t22.5 -28t8.5 -37.5z" />
    <glyph glyph-name="hungarumlaut" unicode="&#xa;" horiz-adv-x="0" 
d="M69 543l-25 24l124 149l38 -37zM-66 543l-25 24l124 149l38 -37z" />
    <glyph glyph-name="ogonek" horiz-adv-x="0" 
d="M103 -163q-10 -7 -22.5 -14t-26 -12.5t-26.5 -9t-24 -3.5q-55 0 -83.5 29t-28.5 73q0 56 34.5 91.5t115.5 47.5l7 -39q-52 0 -75 -23t-23 -58q0 -29 17 -47.5t47 -18.5q17 0 35 5t39 14l14 -35v0z" />
    <glyph glyph-name="caron" horiz-adv-x="0" 
d="M0 538l-140 139l26 26l114 -90l114 90l26 -26z" />
    <glyph glyph-name="Eth" unicode="&#xd0;" horiz-adv-x="721" 
d="M675 360q0 -77 -21 -143t-65 -114t-111.5 -75.5t-161.5 -27.5h-280v31l81 16l10 101v161h-106v47h106v151l-10 101l-81 16v30h335q88 0 147 -23.5t93.5 -63.5t49 -93.5t14.5 -113.5zM576 337q0 54 -11 103.5t-40 88t-79 61t-127 22.5h-98v-256h114v-47h-114v-161l9 -93
q26 -6 53 -9t52 -3q59 0 104 21.5t75.5 60.5t46 93t15.5 119z" />
    </font>
</defs>
</svg>
