<?xml version="1.0" standalone="no"?>
<!DOCTYPE svg PUBLIC "-//W3C//DTD SVG 1.1//EN" "http://www.w3.org/Graphics/SVG/1.1/DTD/svg11.dtd" >
<svg xmlns="http://www.w3.org/2000/svg">
<metadata></metadata>
<defs>
<font id="knilebold" horiz-adv-x="1652" >
<font-face units-per-em="2048" ascent="1536" descent="-512" />
<missing-glyph horiz-adv-x="563" />
<glyph unicode=" "  horiz-adv-x="563" />
<glyph unicode="&#x09;" horiz-adv-x="563" />
<glyph unicode="&#xa0;" horiz-adv-x="563" />
<glyph unicode="!" horiz-adv-x="722" d="M160 1481h403l-63 -1002h-277zM168 168q0 77 56.5 132.5t137.5 55.5q79 0 136 -55.5t57 -132.5q0 -81 -56.5 -138t-136.5 -57q-82 0 -138 56.5t-56 138.5z" />
<glyph unicode="&#x22;" horiz-adv-x="856" d="M82 1481h283l-33 -537h-217zM492 1481h282l-33 -537h-217z" />
<glyph unicode="#" horiz-adv-x="1392" d="M31 375v209h252l59 280h-207v209h252l76 361h266l-76 -361h221l76 361h267l-76 -361h209v-209h-252l-60 -280h209v-209h-254l-78 -375h-266l78 375h-221l-78 -375h-268l80 375h-209zM551 584h221l59 280h-221z" />
<glyph unicode="$" horiz-adv-x="1232" d="M96 0v469h232q31 -110 109.5 -175t183.5 -65q71 0 116 41t45 107q0 44 -29 80t-76 61t-107.5 52.5t-123 53.5t-123 66t-107.5 87t-76 120t-29 162q0 161 113 271.5t294 119.5v195h201v-234q70 -34 125 -92v115h248v-437h-230q-25 97 -94 155t-162 58q-62 0 -101.5 -36.5 t-39.5 -92.5q0 -37 23 -67.5t62.5 -53t90.5 -43.5t107 -44t112 -49t107 -64t90.5 -84.5t62.5 -113.5t23 -148q0 -178 -115.5 -300t-300.5 -137v-188h-201v211q-105 36 -182 123v-123h-248z" />
<glyph unicode="%" horiz-adv-x="1716" d="M76 1122q0 155 90.5 246.5t261.5 91.5t261.5 -91.5t90.5 -246.5q0 -161 -89.5 -254.5t-262.5 -93.5t-262.5 93.5t-89.5 254.5zM188 0l1043 1434h295l-1043 -1434h-295zM326 1120q0 -178 102 -178t102 178q0 172 -102 172t-102 -172zM936 317q0 155 90.5 246.5t261.5 91.5 t261.5 -91.5t90.5 -246.5q0 -161 -89.5 -254.5t-262.5 -93.5t-262.5 93.5t-89.5 254.5zM1186 315q0 -178 102 -178q103 0 103 178q0 172 -103 172q-102 0 -102 -172z" />
<glyph unicode="&#x26;" horiz-adv-x="1507" d="M74 414q0 129 84.5 233t214.5 158q-154 162 -154 313q0 147 107.5 244.5t277.5 97.5q144 0 246 -114v88h256v-416h-225q-22 100 -70.5 152.5t-120.5 52.5q-54 0 -89.5 -32.5t-35.5 -80.5q0 -47 32.5 -93t90.5 -104l346 -366q25 103 25 213h399v-209h-131 q-31 -117 -90 -217l119 -125h127v-209h-361l-100 106q-172 -133 -399 -133q-248 0 -398.5 123.5t-150.5 317.5zM432 422q0 -87 61.5 -145t157.5 -58q121 0 205 66l-317 329q-47 -28 -77 -79t-30 -113z" />
<glyph unicode="'" horiz-adv-x="501" d="M55 1343q0 83 56 139t139 56q88 0 147.5 -69.5t59.5 -176.5q0 -138 -74 -259t-203 -208l-88 97q127 97 139 235h-8q-72 0 -120 58t-48 128z" />
<glyph unicode="(" horiz-adv-x="727" d="M111 635q0 250 120 488.5t334 426.5l146 -114q-297 -375 -297 -801t297 -801l-146 -115q-214 188 -334 427t-120 489z" />
<glyph unicode=")" horiz-adv-x="727" d="M16 -166q297 375 297 801t-297 801l146 114q214 -188 334 -426.5t120 -488.5t-120 -489t-334 -427z" />
<glyph unicode="*" horiz-adv-x="933" d="M68 987l239 98l-239 103l118 194l197 -157l-31 256h228l-31 -256l201 157l116 -194l-239 -103l241 -96l-118 -198l-199 157l29 -254h-228l31 254l-197 -157z" />
<glyph unicode="+" horiz-adv-x="1185" d="M102 510v258h353v375h278v-375h350v-258h-350v-379h-278v379h-353z" />
<glyph unicode="," horiz-adv-x="598" d="M98 184q0 83 56 139t139 56q88 0 147.5 -69.5t59.5 -176.5q0 -138 -74 -259t-203 -208l-88 96q127 97 139 236h-8q-72 0 -120 58t-48 128z" />
<glyph unicode="-" horiz-adv-x="774" d="M90 479v285h594v-287z" />
<glyph unicode="." horiz-adv-x="608" d="M98 176q0 82 63 142.5t146 60.5t143 -60.5t60 -142.5q0 -83 -60 -143t-143 -60q-84 0 -146.5 60t-62.5 143z" />
<glyph unicode="/" horiz-adv-x="929" d="M25 -221l620 1757h291l-621 -1757h-290z" />
<glyph unicode="0" horiz-adv-x="1351" d="M106 723q0 176 31.5 308.5t99 227.5t177.5 143t262 48q298 0 433.5 -184.5t135.5 -542.5q0 -363 -136 -554.5t-433 -191.5q-151 0 -261.5 50.5t-177.5 148.5t-99 233.5t-32 313.5zM473 723q0 -117 7.5 -198t28.5 -152t62.5 -106.5t104.5 -35.5q51 0 88 25t59 66.5 t34.5 107t17 133.5t4.5 160q0 115 -7.5 193.5t-28.5 146t-62.5 100.5t-104.5 33t-104.5 -33t-62.5 -100.5t-28.5 -146t-7.5 -193.5z" />
<glyph unicode="1" horiz-adv-x="897" d="M12 1139l355 295h319v-1219h160v-215h-717v215h213v920l-182 -168z" />
<glyph unicode="2" horiz-adv-x="1153" d="M47 1073q47 173 184 278t340 105q221 0 358.5 -117.5t137.5 -296.5q0 -76 -32 -147.5t-84 -128.5t-115.5 -111t-128.5 -104.5t-120.5 -98.5t-94.5 -103.5t-48 -110.5h363v174h274v-412h-1026v127q0 94 35.5 182.5t92 158.5t125 135.5t137.5 122.5t125.5 109t92 105 t35.5 102q0 73 -43.5 116.5t-119.5 43.5q-72 0 -124.5 -63t-74.5 -156z" />
<glyph unicode="3" horiz-adv-x="1196" d="M33 319l299 95q21 -85 79 -137t142 -52q89 0 148 59t59 154q0 96 -71 150.5t-191 54.5h-113l-59 152l397 409h-334v-133h-274v363h940v-215l-363 -373h8q186 0 307 -108.5t121 -291.5q0 -135 -73 -244t-202.5 -170t-291.5 -61q-205 0 -339.5 91.5t-188.5 256.5z" />
<glyph unicode="4" horiz-adv-x="1273" d="M47 401v193l631 840h354v-820h160v-213h-160v-188h160v-213h-690v213h194v188h-649zM338 614h358v488z" />
<glyph unicode="5" horiz-adv-x="1212" d="M47 295l293 113q21 -80 79 -131.5t138 -51.5q98 0 157.5 66t59.5 172t-56.5 171.5t-154.5 65.5q-119 0 -194 -86l-252 80l71 740h856v-361h-274v127h-295l-35 -315q87 65 228 65q211 0 343 -135t132 -344q0 -221 -156.5 -360.5t-408.5 -139.5q-203 0 -337 84.5 t-194 239.5z" />
<glyph unicode="6" horiz-adv-x="1296" d="M109 666v28q0 165 38.5 302.5t114 242t196.5 163t277 58.5q220 0 402 -90l-107 -233q-142 69 -276 69q-137 0 -210.5 -112.5t-70.5 -300.5q39 67 113 109t168 42q206 0 337.5 -132.5t131.5 -338.5q0 -229 -154 -365.5t-401 -136.5q-274 0 -416.5 173t-142.5 522zM473 471 q0 -99 53.5 -172.5t143.5 -73.5q96 0 142 65t46 175q0 106 -46 170.5t-140 64.5q-93 0 -146 -64t-53 -165z" />
<glyph unicode="7" horiz-adv-x="1118" d="M33 993v441h1061v-224l-516 -1210h-375l524 1196h-420v-203h-274z" />
<glyph unicode="8" horiz-adv-x="1314" d="M106 416q0 134 85 229.5t217 120.5q-111 32 -181.5 116t-70.5 201q0 168 140.5 270.5t358.5 102.5q144 0 258.5 -46t180 -132.5t65.5 -198.5q0 -116 -70.5 -198.5t-183.5 -114.5q133 -25 218 -120.5t85 -229.5q0 -199 -151 -322t-402 -123q-248 0 -398.5 125.5 t-150.5 319.5zM461 428q0 -93 51 -153t143 -60q94 0 146.5 60t52.5 153q0 97 -55 152t-144 55q-88 0 -141 -55t-53 -152zM496 1055q0 -75 42.5 -123.5t116.5 -48.5q75 0 119.5 49t44.5 123q0 73 -43.5 118.5t-120.5 45.5q-76 0 -117.5 -45.5t-41.5 -118.5z" />
<glyph unicode="9" horiz-adv-x="1280" d="M72 977q0 220 152.5 350.5t393.5 130.5q553 0 553 -680v-18q0 -177 -35.5 -318.5t-108 -248t-192 -164.5t-278.5 -58q-236 0 -416 101l111 231q131 -78 287 -78q137 0 203.5 116t66.5 323q-37 -67 -111.5 -108.5t-169.5 -41.5q-194 0 -325 132t-131 331zM432 985 q0 -102 47 -164.5t137 -62.5q89 0 140 62t51 161q0 93 -52.5 160t-136.5 67q-89 0 -137.5 -61t-48.5 -162z" />
<glyph unicode=":" horiz-adv-x="608" d="M98 176q0 82 63 142.5t146 60.5t143 -60.5t60 -142.5q0 -83 -60 -143t-143 -60q-84 0 -146.5 60t-62.5 143zM98 881q0 81 62.5 141.5t146.5 60.5q83 0 143 -60t60 -142t-60 -142.5t-143 -60.5t-146 60.5t-63 142.5z" />
<glyph unicode=";" horiz-adv-x="610" d="M98 881q0 81 62.5 141.5t146.5 60.5q83 0 143 -60t60 -142t-60 -142.5t-143 -60.5t-146 60.5t-63 142.5zM111 184q0 83 55.5 139t138.5 56q88 0 147.5 -69.5t59.5 -176.5q0 -138 -73.5 -259t-202.5 -208l-89 96q128 98 140 236h-8q-72 0 -120 58t-48 128z" />
<glyph unicode="&#x3c;" horiz-adv-x="1128" d="M102 524v234l887 399v-287l-577 -229l577 -229v-287z" />
<glyph unicode="=" horiz-adv-x="1234" d="M127 274v258h981v-258h-981zM127 731v258h981v-258h-981z" />
<glyph unicode="&#x3e;" horiz-adv-x="1128" d="M139 125v287l578 229l-578 229v287l889 -399v-234z" />
<glyph unicode="?" horiz-adv-x="1085" d="M27 1169q53 151 178 240.5t323 89.5q218 0 350 -112.5t132 -286.5q0 -64 -20 -120t-52.5 -97.5t-71 -78.5t-77.5 -69t-71.5 -62t-52.5 -65t-20 -71v-58h-315v92q0 61 23 116t57.5 93.5t75 78.5t75 73.5t57.5 77.5t23 90q0 62 -40 101.5t-105 39.5q-68 0 -110.5 -52 t-55.5 -128zM295 168q0 77 56.5 133.5t135.5 56.5t137 -56.5t58 -133.5q0 -81 -57.5 -138t-137.5 -57t-136 56.5t-56 138.5z" />
<glyph unicode="@" horiz-adv-x="1980" d="M111 545q0 178 67 335.5t184 271.5t284 180.5t358 66.5q196 0 361 -61.5t274.5 -167t170 -245.5t60.5 -298q0 -229 -110.5 -364.5t-282.5 -135.5q-206 0 -279 149q-32 -68 -104.5 -108.5t-171.5 -40.5q-149 0 -251 113.5t-102 291.5q0 176 104.5 289t250.5 113 q84 0 143.5 -34.5t89.5 -88.5v111h227v-480q0 -49 26.5 -81.5t70.5 -32.5q62 0 102.5 74.5t40.5 213.5q0 252 -168 409t-455 157q-186 0 -330.5 -86t-221 -230t-76.5 -319q0 -182 75 -327.5t213 -228.5t314 -83q202 0 377 106l118 -184q-198 -139 -495 -139 q-178 0 -337.5 64t-275.5 175.5t-183.5 271.5t-67.5 343zM825 532q0 -85 47 -137.5t119 -52.5q71 0 119.5 50t48.5 140q0 87 -46 137t-124 50q-69 0 -116.5 -52t-47.5 -135z" />
<glyph unicode="A" horiz-adv-x="1619" d="M12 0v215h131l457 1219h422l451 -1219h135v-215h-670v215h143l-61 195h-506l-61 -195h143v-215h-584zM596 668h342l-170 495z" />
<glyph unicode="B" horiz-adv-x="1431" d="M76 0v215h139v1004h-139v215h725q206 0 340.5 -98.5t134.5 -262.5q0 -107 -73.5 -190.5t-186.5 -116.5q136 -29 225.5 -123t89.5 -221q0 -131 -68 -227.5t-183 -145.5t-261 -49h-743zM584 205h112q110 0 176 59.5t66 163.5q0 101 -68.5 157t-179.5 56h-106v-436zM584 846 h102q96 0 152.5 54t56.5 151q0 84 -57.5 131t-155.5 47h-98v-383z" />
<glyph unicode="C" horiz-adv-x="1495" d="M90 729q0 201 90.5 370.5t248 268t345.5 98.5q227 0 361 -159v127h266v-500h-246q-30 114 -112 184t-193 70q-155 0 -254.5 -126t-99.5 -327q0 -212 93 -347.5t240 -135.5q117 0 205 65.5t140 176.5l260 -175q-91 -168 -252.5 -259t-368.5 -91q-167 0 -304 57 t-228.5 158.5t-141 241t-49.5 303.5z" />
<glyph unicode="D" horiz-adv-x="1599" d="M78 0v215h139v1004h-139v215h653q229 0 404.5 -84t275.5 -246.5t100 -380.5q0 -333 -200 -528t-543 -195h-690zM586 225h133q178 0 282.5 131t104.5 369q0 229 -110.5 356t-290.5 127h-119v-983z" />
<glyph unicode="E" horiz-adv-x="1257" d="M76 0v215h139v1004h-139v215h1079v-373h-266v158h-305v-355h397v-235h-397v-414h309v182h266v-397h-1083z" />
<glyph unicode="F" horiz-adv-x="1236" d="M78 0v215h139v1004h-139v215h1104v-387h-267v172h-329v-388h405v-235h-405v-381h194v-215h-702z" />
<glyph unicode="G" horiz-adv-x="1628" d="M90 725q0 156 55 294t148 236t220.5 154.5t268.5 56.5q257 0 408 -163v131h266v-453h-250q-43 100 -130.5 155.5t-205.5 55.5q-163 0 -268.5 -124.5t-105.5 -330.5q0 -219 94.5 -358t251.5 -139q138 0 232.5 82.5t109.5 220.5h-262v241h579v-784h-293v184 q-77 -103 -191.5 -159t-252.5 -56q-200 0 -355 101.5t-237 273t-82 381.5z" />
<glyph unicode="H" horiz-adv-x="1738" d="M78 0v215h139v1004h-139v215h647v-215h-139v-349h567v349h-139v215h647v-215h-139v-1004h139v-215h-647v215h139v389h-567v-389h139v-215h-647z" />
<glyph unicode="I" horiz-adv-x="802" d="M78 0v215h139v1004h-139v215h647v-215h-139v-1004h139v-215h-647z" />
<glyph unicode="J" horiz-adv-x="833" d="M-68 -285l31 213q68 -16 131 -18q77 0 124.5 45.5t47.5 130.5v1133h-184v215h692v-215h-139v-1145q0 -118 -64 -208.5t-168 -136.5t-229 -46q-137 0 -242 32z" />
<glyph unicode="K" horiz-adv-x="1568" d="M76 0v215h139v1004h-139v215h626v-215h-118v-451l428 461h-142v205h627v-215h-156l-403 -424l477 -580h139v-215h-686v205h115l-399 526v-516h118v-215h-626z" />
<glyph unicode="L" horiz-adv-x="1212" d="M78 0v215h139v1004h-139v215h661v-215h-153v-1004h305v242h266v-457h-1079z" />
<glyph unicode="M" horiz-adv-x="2076" d="M76 0v215h139v1004h-139v215h641l327 -801l330 801h629v-215h-139v-1004h139v-215h-629v215h133v862l-383 -925h-247l-379 925v-862h133v-215h-555z" />
<glyph unicode="N" horiz-adv-x="1759" d="M78 0v215h139v1004h-139v215h536l641 -957v742h-139v215h565v-215h-139v-1219h-403l-635 961v-746h139v-215h-565z" />
<glyph unicode="O" horiz-adv-x="1703" d="M90 729q0 158 55.5 294t154 233.5t241.5 153.5t311 56q170 0 313.5 -55.5t242 -153.5t153.5 -234t55 -294q0 -163 -54 -303t-151.5 -241t-241.5 -158.5t-317 -57.5q-228 0 -402.5 98.5t-267 271t-92.5 390.5zM496 729q0 -221 96 -355t260 -134t261 134.5t97 354.5 q0 211 -97 339t-261 128t-260 -128t-96 -339z" />
<glyph unicode="P" horiz-adv-x="1353" d="M76 0v215h139v1004h-139v215h706q146 0 265 -54.5t189.5 -157.5t70.5 -237q0 -139 -70 -246t-187.5 -163t-261.5 -56h-204v-305h190v-215h-698zM584 735h104q102 0 163.5 64t61.5 186q0 110 -65.5 172t-167.5 62h-96v-484z" />
<glyph unicode="Q" horiz-adv-x="1724" d="M90 729q0 156 56.5 292t156.5 234t245 154.5t316 56.5q170 0 314.5 -56.5t244.5 -154.5t156.5 -234t56.5 -292q0 -295 -194 -508l143 -121l-155 -184l-177 156q-179 -103 -389 -103q-229 0 -406.5 99.5t-272.5 272t-95 388.5zM496 729q0 -224 100 -362t268 -138 q94 0 164 43l-170 152l143 170l179 -152q59 124 59 287q0 211 -101.5 339t-273.5 128q-168 0 -268 -128.5t-100 -338.5z" />
<glyph unicode="R" horiz-adv-x="1480" d="M76 0v215h139v1004h-139v215h717q144 0 262 -49.5t188 -143t70 -213.5q0 -124 -79.5 -224.5t-201.5 -146.5l273 -442h151v-215h-444l-324 588h-104v-373h125v-215h-633zM584 786h102q103 0 168.5 61t65.5 167q0 99 -63 157t-159 58h-114v-443z" />
<glyph unicode="S" horiz-adv-x="1269" d="M86 0v471h250q32 -111 112.5 -178.5t192.5 -67.5q79 0 128.5 44t49.5 112q0 41 -24.5 73.5t-65.5 56.5t-94 45.5t-112 44t-118 48.5t-112 63t-94 82.5t-65.5 112.5t-24.5 148q0 173 125.5 290t318.5 117q189 0 311 -135v107h266v-435h-245q-25 99 -93.5 158.5 t-164.5 59.5q-62 0 -103 -38t-41 -98q0 -43 30.5 -76.5t80.5 -55.5t114 -47t130.5 -48t130.5 -61.5t114 -85t80.5 -121t30.5 -166.5q0 -195 -135.5 -322t-353.5 -127q-108 0 -200 40t-153 110v-121h-266z" />
<glyph unicode="T" horiz-adv-x="1441" d="M45 973v461h1352v-461h-275v241h-217v-999h178v-215h-725v215h179v999h-218v-241h-274z" />
<glyph unicode="U" d="M53 1219v215h662v-215h-154v-713q0 -116 72 -191t192 -75t193.5 75t73.5 191v713h-156v215h663v-215h-139v-709q0 -250 -171 -395.5t-464 -145.5t-462.5 145t-169.5 396v709h-140z" />
<glyph unicode="V" horiz-adv-x="1601" d="M12 1219v215h701v-215h-162l285 -900l282 900h-162v215h633v-215h-139l-440 -1221h-414l-444 1221h-140z" />
<glyph unicode="W" horiz-adv-x="2297" d="M8 1219v215h682v-215h-168l201 -938l268 1153h385l271 -1151l196 936h-168v215h611v-215h-140l-307 -1221h-430l-252 1003l-256 -1003h-436l-318 1221h-139z" />
<glyph unicode="X" horiz-adv-x="1476" d="M25 0v215h139l373 518l-332 486h-139v215h653v-193h-111l209 -305l199 305h-127v193h553v-215h-139l-342 -492l350 -512h141v-215h-674v195h127l-227 329l-225 -329h127v-195h-555z" />
<glyph unicode="Y" horiz-adv-x="1490" d="M20 1219v215h678v-195h-143l242 -401l245 401h-143v195h571v-215h-139l-395 -617v-387h168v-215h-705v215h168v375l-407 629h-140z" />
<glyph unicode="Z" horiz-adv-x="1306" d="M66 0v195l700 1024h-395v-215h-267v430h1113v-193l-701 -1026h459v250h266v-465h-1175z" />
<glyph unicode="[" horiz-adv-x="681" d="M180 -293v1856h469v-197h-186v-1462h186v-197h-469z" />
<glyph unicode="\" horiz-adv-x="929" d="M-6 1536h291l620 -1757h-291z" />
<glyph unicode="]" horiz-adv-x="681" d="M33 -96h186v1462h-186v197h469v-1856h-469v197z" />
<glyph unicode="^" horiz-adv-x="1116" d="M49 651l381 783h256l381 -783h-305l-209 471l-209 -471h-295z" />
<glyph unicode="_" horiz-adv-x="1333" d="M61 -39h1211v-211h-1211v211z" />
<glyph unicode="`" horiz-adv-x="700" d="M109 1499h350l133 -301h-244z" />
<glyph unicode="a" horiz-adv-x="1310" d="M82 328q0 159 124 250.5t320 91.5q144 0 258 -62v76q0 85 -56.5 134.5t-154.5 49.5q-168 0 -340 -86l-92 207q246 117 514 117q213 0 343 -111.5t130 -292.5v-493h136v-209h-455l-18 102q-47 -59 -131 -94t-177 -35q-185 0 -293 97t-108 258zM436 340q0 -63 49 -107.5 t127 -44.5q79 0 129 43.5t50 108.5q0 64 -50.5 105.5t-128.5 41.5q-77 0 -126.5 -42.5t-49.5 -104.5z" />
<glyph unicode="b" horiz-adv-x="1423" d="M53 0v209h135v1063h-135v209h479v-559q54 81 141 132.5t197 51.5q212 0 348 -155.5t136 -399.5q0 -255 -138.5 -416.5t-359.5 -161.5q-104 0 -191 50t-139 131v-154h-473zM518 545q0 -147 65.5 -234.5t172.5 -87.5q105 0 171 89t66 233q0 139 -66 225t-171 86t-171.5 -86 t-66.5 -225z" />
<glyph unicode="c" horiz-adv-x="1191" d="M70 551q0 152 68 279t187 201.5t263 74.5q169 0 284 -139v116h242v-413h-213q-20 92 -80.5 144t-146.5 52q-106 0 -175 -85.5t-69 -229.5q0 -141 69.5 -233.5t178.5 -92.5q74 0 137 42.5t96 109.5l230 -141q-71 -125 -199.5 -195t-288.5 -70q-258 0 -420.5 163.5 t-162.5 416.5z" />
<glyph unicode="d" horiz-adv-x="1429" d="M78 551q0 243 143.5 399t362.5 156q99 0 181 -48.5t134 -127.5v342h-135v209h479l-2 -1272h135v-209h-473v164q-54 -86 -142.5 -138.5t-199.5 -52.5q-216 0 -349.5 161t-133.5 417zM438 547q0 -147 64 -235.5t172 -88.5q110 0 174.5 87.5t64.5 234.5q0 141 -66.5 226 t-170.5 85q-105 0 -171.5 -86t-66.5 -223z" />
<glyph unicode="e" horiz-adv-x="1263" d="M70 549q0 156 72.5 283.5t206.5 202.5t304 75q160 0 284.5 -74.5t190.5 -200t66 -278.5q0 -38 -4 -92l-768 -2q20 -119 93 -186.5t181 -67.5q80 0 147.5 35.5t110.5 93.5l215 -143q-78 -111 -205 -167.5t-286 -56.5q-275 0 -441.5 159t-166.5 419zM422 655h422 q0 102 -54.5 166t-148.5 64q-86 0 -144 -59.5t-75 -170.5z" />
<glyph unicode="f" horiz-adv-x="817" d="M63 0v209h136v661h-136v209h136v72q0 151 120 247.5t304 96.5q105 0 190 -12v-217q-70 12 -115 12q-75 0 -115 -35t-40 -98v-66h209v-209h-209v-661h157v-209h-637z" />
<glyph unicode="g" horiz-adv-x="1423" d="M78 557q0 244 141.5 396.5t360.5 152.5q104 0 187.5 -49.5t131.5 -130.5v153h479v-209h-135l-2 -768q0 -164 -85 -278.5t-232 -169.5t-344 -55q-218 0 -392 82l78 221q138 -74 318 -74q148 0 235.5 61.5t87.5 176.5v98q-54 -79 -144.5 -127.5t-201.5 -48.5 q-214 0 -348.5 158t-134.5 411zM438 551q0 -141 66 -230.5t170 -89.5q108 0 173.5 86.5t65.5 233.5q0 137 -66 221t-171 84t-171.5 -85t-66.5 -220z" />
<glyph unicode="h" horiz-adv-x="1435" d="M53 0v209h135v1063h-135v209h473v-566q46 82 134.5 133.5t199.5 51.5q182 0 287.5 -102t105.5 -279v-510h136v-209h-594v209h114v455q0 75 -51.5 126.5t-126.5 51.5q-87 0 -143 -56t-56 -139v-438h115v-209h-594z" />
<glyph unicode="i" horiz-adv-x="731" d="M63 0v209h136v661h-136v209h480v-870h135v-209h-615zM170 1384q0 77 53.5 127t136.5 50q84 0 137.5 -50t53.5 -127q0 -78 -53.5 -129t-137.5 -51q-85 0 -137.5 50.5t-52.5 129.5z" />
<glyph unicode="j" horiz-adv-x="700" d="M-25 -166q38 -10 86 -10q61 0 99.5 39t38.5 104v903h-136v209h480v-1120q0 -160 -118.5 -258t-293.5 -98q-84 0 -156 10v221zM170 1384q0 77 53 127t137 50q83 0 137 -50t54 -127q0 -78 -54 -129t-137 -51q-84 0 -137 50.5t-53 129.5z" />
<glyph unicode="k" horiz-adv-x="1347" d="M55 0v209h135v1063h-135v209h480v-885l294 291h-137v192h606v-209h-174l-252 -239l330 -422h137v-209h-393l-411 555v-346h108v-209h-588z" />
<glyph unicode="l" horiz-adv-x="720" d="M53 0v209h135v1063h-135v209h479v-1272h136v-209h-615z" />
<glyph unicode="m" horiz-adv-x="2074" d="M61 0v209h136v661h-136v209h471v-172q42 87 122.5 140t189.5 53q116 0 199 -51.5t124 -139.5q49 83 142 137t209 54q173 0 273.5 -100.5t100.5 -276.5v-514h136v-209h-578v209h98v463q0 76 -42.5 125t-112.5 49q-76 0 -126 -55.5t-50 -133.5v-448h98v-209h-541v209h98 v463q0 75 -44 124.5t-113 49.5q-80 0 -127 -59t-47 -148v-430h98v-209h-578z" />
<glyph unicode="n" horiz-adv-x="1443" d="M61 0v209h136v661h-136v209h474v-164q46 82 134 133.5t199 51.5q182 0 288 -102t106 -279v-510h135v-209h-594v209h115v455q0 75 -52 126.5t-127 51.5q-87 0 -142.5 -56t-55.5 -139v-438h114v-209h-594z" />
<glyph unicode="o" horiz-adv-x="1337" d="M70 551q0 244 169 401.5t429 157.5q171 0 308 -71.5t214.5 -199t77.5 -288.5q0 -256 -168 -418t-432 -162t-431 162t-167 418zM430 551q0 -148 65 -239t173 -91t173.5 91t65.5 239q0 139 -65.5 224t-173.5 85t-173 -85t-65 -224z" />
<glyph unicode="p" horiz-adv-x="1421" d="M49 870v209h479v-157q54 80 142 132t198 52q212 0 348 -155.5t136 -399.5q0 -255 -138.5 -416.5t-359.5 -161.5q-104 0 -191 50t-139 131v-328h156v-209h-629v209h135l-2 1044h-135zM516 545q0 -147 65.5 -234.5t172.5 -87.5q105 0 171 89t66 233q0 139 -66 225t-171 86 t-171.5 -86t-66.5 -225z" />
<glyph unicode="q" horiz-adv-x="1427" d="M78 551q0 243 143.5 399t362.5 156q99 0 181 -48.5t134 -127.5v149h479v-209h-135l-2 -1044h135v-209h-628v209h155v338q-54 -86 -142.5 -138.5t-199.5 -52.5q-216 0 -349.5 161t-133.5 417zM438 547q0 -147 64 -235.5t172 -88.5q110 0 174.5 87.5t64.5 234.5 q0 141 -66.5 226t-170.5 85q-105 0 -171.5 -86t-66.5 -223z" />
<glyph unicode="r" horiz-adv-x="1013" d="M63 0v209h136v661h-136v209h474v-241q43 116 126.5 193t190.5 77q71 0 143 -16l-51 -363q-113 37 -196 37q-97 0 -152 -50t-55 -138v-369h162v-209h-642z" />
<glyph unicode="s" horiz-adv-x="1126" d="M84 -2v356h221q37 -77 106 -121.5t164 -44.5q60 0 97 30t37 77q0 29 -21 50.5t-57 35.5t-82.5 26.5t-98 26.5t-103 30.5t-98 43.5t-82 62t-56.5 88t-21 120q0 142 104.5 236t270.5 94q171 0 297 -113v90h242v-331h-218q-33 67 -100.5 108t-148.5 41q-50 0 -82.5 -27 t-32.5 -67q0 -35 34.5 -59t89 -39.5t121 -31t133 -41t121 -61.5t89 -100.5t34.5 -150.5q0 -155 -115 -255t-290 -100q-190 0 -313 117v-90h-242z" />
<glyph unicode="t" horiz-adv-x="813" d="M37 870v209h141v244h344v-244h221v-209h-221v-512q0 -63 36 -101t95 -38q57 0 109 12v-221q-90 -22 -203 -22q-183 0 -282 96t-99 268v518h-141z" />
<glyph unicode="u" horiz-adv-x="1415" d="M37 870v209h479v-657q0 -83 43 -132.5t121 -49.5q93 0 148 54.5t55 141.5v434h-135v209h479v-870h135v-209h-473v164q-49 -82 -143 -133t-211 -51q-172 0 -267.5 104t-95.5 283v503h-135z" />
<glyph unicode="v" horiz-adv-x="1355" d="M8 870v209h621v-209h-133l213 -634l209 634h-134v209h564v-209h-125l-334 -876h-418l-338 876h-125z" />
<glyph unicode="w" horiz-adv-x="1964" d="M10 870v209h582v-209h-127l143 -641l217 850h365l221 -843l139 634h-131v209h527v-209h-121l-240 -870h-395l-207 743l-209 -743h-389l-250 870h-125z" />
<glyph unicode="x" horiz-adv-x="1253" d="M41 0v209h123l274 340l-260 321h-127v209h559v-186h-86l156 -193l141 193h-92v186h469v-209h-127l-258 -331l268 -330h131v-209h-573v182h96l-166 205l-151 -205h100v-182h-477z" />
<glyph unicode="y" horiz-adv-x="1343" d="M8 870v209h608v-209h-133l211 -624l221 624h-133v209h553v-209h-125l-338 -864q-68 -171 -227 -288t-340 -117q-87 0 -162 14v225q62 -16 123 -16q67 0 124.5 37.5t94.5 97.5l17 27l-371 884h-123z" />
<glyph unicode="z" horiz-adv-x="1171" d="M88 0v170l557 707h-297v-138h-233v340h946v-170l-557 -704h340v153h233v-358h-989z" />
<glyph unicode="{" horiz-adv-x="735" d="M98 545v180q72 0 111 49t39 141v273q0 184 123.5 279.5t328.5 95.5v-193q-88 0 -129 -46.5t-41 -123.5v-291q0 -109 -58 -180t-165 -94q107 -23 165 -94.5t58 -180.5v-290q0 -77 41 -123.5t129 -46.5v-193q-205 0 -328.5 95.5t-123.5 279.5v272q0 92 -39.5 141.5 t-110.5 49.5z" />
<glyph unicode="|" horiz-adv-x="733" d="M225 -422v2026h283v-2026h-283z" />
<glyph unicode="}" horiz-adv-x="735" d="M35 -100q88 0 129 46.5t41 123.5v290q0 109 58 180.5t165 94.5q-107 23 -165 94t-58 180v291q0 77 -41 123.5t-129 46.5v193q205 0 328.5 -95.5t123.5 -279.5v-273q0 -92 39.5 -141t110.5 -49v-180q-72 0 -111 -49.5t-39 -141.5v-272q0 -184 -123.5 -279.5t-328.5 -95.5 v193z" />
<glyph unicode="~" horiz-adv-x="1150" d="M78 438q2 165 82 273t221 108q59 0 118.5 -18.5t99 -41t85 -41t80.5 -18.5q46 0 72 33t28 78h209q-2 -165 -81 -273t-220 -108q-59 0 -118.5 18.5t-99.5 41t-86 41t-81 18.5q-46 0 -71.5 -32.5t-28.5 -78.5h-209z" />
<glyph unicode="&#xa1;" horiz-adv-x="722" d="M160 -383l63 1001h277l63 -1001h-403zM168 930q0 81 56 137.5t136 56.5q82 0 138.5 -56t56.5 -138q0 -77 -57 -133t-138 -56q-79 0 -135.5 56t-56.5 133z" />
<glyph unicode="&#xa2;" horiz-adv-x="1210" d="M98 715q0 214 121 368.5t313 182.5v184h193v-203q106 -32 166 -117v115h233v-414l-211 5q-20 88 -80.5 140t-146.5 52q-101 0 -164 -84.5t-63 -228.5q0 -142 65.5 -234t169.5 -92q72 0 131.5 41t92.5 107l215 -144q-61 -110 -166 -176t-236 -78v-170h-192v176 q-204 38 -322.5 191t-118.5 379z" />
<glyph unicode="&#xa3;" horiz-adv-x="1241" d="M80 616v226h176q-59 129 -59 219q0 174 117.5 286.5t301.5 112.5q161 0 287 -123v97h254v-426h-229q-20 97 -80.5 150.5t-149.5 53.5q-74 0 -116.5 -48t-42.5 -122q0 -88 55 -200h278v-226h-239q-4 -101 -39 -200.5t-92 -177.5h387v174h274v-412h-1046v215 q83 81 129.5 184.5t46.5 216.5h-213z" />
<glyph unicode="&#xa5;" horiz-adv-x="1392" d="M25 1223v211h622v-191h-137l225 -422l234 422h-133v191h532v-211h-127l-283 -463h232v-150h-318v-98h318v-150h-318v-153h168v-209h-688v209h168v153h-325v150h325v98h-325v150h235l-278 463h-127z" />
<glyph unicode="&#xa7;" horiz-adv-x="1198" d="M98 578q0 177 185 299q-113 98 -113 266q0 150 102.5 254t257.5 104q88 0 160.5 -35t114.5 -96v107h242v-381h-218q-20 83 -80 127.5t-145 44.5q-59 0 -95 -33.5t-36 -83.5q0 -36 27 -65.5t71 -50t100.5 -44.5t115 -46t115 -57t100.5 -76.5t71 -106t27 -142.5 q0 -184 -178 -307q114 -99 114 -270q0 -164 -102.5 -271.5t-265.5 -107.5q-97 0 -169.5 38t-115.5 105v-117h-242v402h217q18 -88 83 -139.5t151 -51.5q62 0 101.5 33t39.5 90q0 33 -21.5 60.5t-58.5 49t-84.5 42t-100.5 43t-105.5 48t-100 60.5t-84.5 77t-58.5 101.5 t-21.5 129.5zM403 637q0 -26 8.5 -50t21 -42t36.5 -37t43 -31.5t54 -29t56.5 -26t63 -26.5t62.5 -26q47 50 47 120q0 25 -8.5 48.5t-20.5 41.5t-35.5 37t-42.5 32t-53 30t-56 27t-62.5 27.5t-61.5 27.5q-52 -49 -52 -123z" />
<glyph unicode="&#xa8;" horiz-adv-x="1064" d="M129 1370q0 68 47.5 112t122.5 44t122.5 -44t47.5 -112q0 -71 -47.5 -115.5t-122.5 -44.5q-77 0 -123.5 44.5t-46.5 115.5zM596 1370q0 68 47.5 112t122.5 44t122.5 -44t47.5 -112q0 -69 -47.5 -114.5t-122.5 -45.5q-77 0 -123.5 45t-46.5 115z" />
<glyph unicode="&#xa9;" horiz-adv-x="1728" d="M84 723q0 153 58 289.5t160 236.5t248 158.5t314 58.5t314.5 -58.5t248 -158.5t160 -236.5t58.5 -289.5q0 -156 -58.5 -295t-160 -240t-248 -160t-314.5 -59t-314 59t-248 160t-160 240t-58 295zM315 723q0 -160 68.5 -289t194.5 -203.5t286 -74.5t286 74.5t194.5 203.5 t68.5 289q0 157 -68.5 283.5t-194.5 200t-286 73.5t-286 -73.5t-194.5 -200t-68.5 -283.5zM494 723q0 155 99 262t247 107q115 0 186 -88v69h156v-270h-138q-13 58 -52.5 90.5t-94.5 32.5q-70 0 -117 -55t-47 -148q0 -92 48.5 -151.5t121.5 -59.5q49 0 89 26t63 68l151 -94 q-47 -83 -132 -129.5t-189 -46.5q-174 0 -282.5 107.5t-108.5 279.5z" />
<glyph unicode="&#xaa;" horiz-adv-x="999" d="M90 887q0 117 91.5 184.5t232.5 67.5q104 0 188 -43v53q1 61 -40 97t-113 36q-115 0 -244 -59l-66 153q177 82 369 82q154 0 249 -83.5t95 -213.5v-364h98v-150h-321l-19 74q-36 -44 -98.5 -69t-130.5 -25q-133 0 -212 71t-79 189zM350 897q0 -46 35.5 -78.5t93.5 -32.5 q55 0 93 32.5t38 78.5q0 47 -36.5 77t-94.5 30t-93.5 -30.5t-35.5 -76.5z" />
<glyph unicode="&#xab;" horiz-adv-x="1159" d="M74 598l272 397h297l-272 -397l272 -397h-297zM549 598l272 397h297l-272 -397l272 -397h-297z" />
<glyph unicode="&#xad;" horiz-adv-x="774" d="M90 479v285h594v-287z" />
<glyph unicode="&#xae;" horiz-adv-x="1019" d="M63 1096q0 181 123.5 304.5t323.5 123.5q133 0 235.5 -58t156.5 -155t54 -215q0 -183 -123.5 -307.5t-322.5 -124.5q-133 0 -236 58.5t-157 156.5t-54 217zM197 1096q0 -140 85 -230t228 -90q144 0 228.5 90t84.5 230q0 139 -83.5 227t-229.5 88q-142 0 -227.5 -88.5 t-85.5 -226.5zM336 903v66h33v276h-33v66h194q65 0 106.5 -31.5t41.5 -85.5q0 -36 -23 -65.5t-59 -41.5l74 -118h43v-66h-129l-86 166h-27v-100h31v-66h-166zM471 1128h27q29 0 48 16t19 46q0 27 -18.5 42t-44.5 15h-31v-119z" />
<glyph unicode="&#xaf;" horiz-adv-x="954" d="M127 1233v197h700v-197h-700z" />
<glyph unicode="&#xb0;" horiz-adv-x="794" d="M49 1124q0 141 99 239.5t249 98.5q153 0 250.5 -97t97.5 -239q0 -145 -97 -241.5t-251 -96.5q-153 0 -250.5 96.5t-97.5 239.5zM268 1124q0 -58 35 -95.5t94 -37.5q60 0 94.5 37.5t34.5 97.5q0 59 -34.5 96.5t-94.5 37.5q-58 0 -93.5 -38.5t-35.5 -97.5z" />
<glyph unicode="&#xb2;" horiz-adv-x="757" d="M63 1237q27 101 107 160t199 59q131 0 213 -67.5t82 -169.5q0 -50 -24.5 -96t-61 -79t-80.5 -68t-82.5 -63.5t-67 -64t-33.5 -70.5h183v90h176v-241h-608v82q0 65 26.5 124.5t66.5 101.5t87 83t87 71.5t66.5 64t26.5 63.5q0 37 -21 58t-57 21q-38 0 -64 -32.5t-34 -81.5z " />
<glyph unicode="&#xb3;" horiz-adv-x="757" d="M41 807l192 65q8 -39 39.5 -68.5t75.5 -29.5q45 0 77 29t32 74q0 48 -34 75t-89 27h-68l-39 100l224 211h-187v-86h-176v230h571v-140l-215 -192q110 0 180 -62.5t70 -162.5q0 -120 -95.5 -192.5t-242.5 -72.5q-120 0 -201 52.5t-114 142.5z" />
<glyph unicode="&#xb4;" horiz-adv-x="700" d="M109 1198l133 301h350l-240 -301h-243z" />
<glyph unicode="&#xb6;" horiz-adv-x="1378" d="M96 1047q0 163 112 275t275 112h813v-209h-166v-1317h-241v1317h-158v-1317h-242v751q-110 1 -200 53t-141.5 140.5t-51.5 194.5z" />
<glyph unicode="&#xb7;" horiz-adv-x="679" d="M135 637q0 82 63 142.5t146 60.5t142 -60.5t59 -142.5q0 -83 -59 -143t-142 -60q-84 0 -146.5 60t-62.5 143z" />
<glyph unicode="&#xb8;" horiz-adv-x="696" d="M129 -453l37 150q38 -21 88 -21q37 0 60.5 16.5t23.5 47.5q0 30 -23 46.5t-61 16.5q-41 0 -68 -10l47 227h166l-22 -114q80 0 130 -49t50 -119q0 -106 -79.5 -162.5t-205.5 -56.5q-82 0 -143 28z" />
<glyph unicode="&#xb9;" horiz-adv-x="665" d="M43 1284l221 150h209v-662h107v-145h-449v145h121v481l-125 -88z" />
<glyph unicode="&#xba;" horiz-adv-x="1050" d="M90 1051q0 179 122 292t312 113t313.5 -113t123.5 -292q0 -190 -122 -307t-315 -117q-192 0 -313 117.5t-121 306.5zM356 1049q0 -105 46 -168.5t122 -63.5t123 64t47 168q0 97 -47 157t-123 60t-122 -60t-46 -157z" />
<glyph unicode="&#xbb;" horiz-adv-x="1159" d="M41 201l272 397l-272 397h297l272 -397l-272 -397h-297zM516 201l272 397l-272 397h297l272 -397l-272 -397h-297z" />
<glyph unicode="&#xbc;" horiz-adv-x="1767" d="M53 1284l221 150h209v-662h107v-145h-449v145h121v481l-125 -88zM348 -84l797 1602h237l-796 -1602h-238zM991 233v113l357 465h217v-446h112v-132h-112v-102h112v-131h-448v131h123v102h-361zM1159 365h193v251z" />
<glyph unicode="&#xbd;" horiz-adv-x="1767" d="M53 1284l221 150h209v-662h107v-145h-449v145h121v481l-125 -88zM348 -84l797 1602h237l-796 -1602h-238zM1067 610q27 101 106.5 160t198.5 59q131 0 213 -67.5t82 -169.5q0 -50 -24 -96t-61 -79t-80.5 -68t-82 -63t-67 -63.5t-33.5 -70.5h182v90h176v-242h-608v82 q0 65 26.5 124.5t67 101.5t87 83t87 71.5t67 64t26.5 63.5q0 37 -21.5 58.5t-56.5 21.5q-38 0 -64.5 -33t-34.5 -82z" />
<glyph unicode="&#xbe;" horiz-adv-x="1824" d="M68 807l192 65q8 -39 40 -68.5t75 -29.5q45 0 76.5 29t31.5 74q0 48 -34 75t-89 27h-67l-39 100l223 211h-186v-86h-176v230h571v-140l-215 -192q110 0 180 -62.5t70 -162.5q0 -120 -95.5 -192.5t-242.5 -72.5q-120 0 -201 52.5t-114 142.5zM403 -84l797 1602h238 l-797 -1602h-238zM1049 233v113l356 465h217v-446h113v-132h-113v-102h113v-131h-449v131h123v102h-360zM1217 365h192v251z" />
<glyph unicode="&#xbf;" horiz-adv-x="1085" d="M76 14q0 64 20 120t52 97.5t71 78.5t78 69t71 62.5t52 65.5t20 71v57h316v-92q0 -61 -23 -116t-58 -93.5t-75 -78.5t-75 -73.5t-58 -77.5t-23 -90q0 -62 40.5 -101.5t105.5 -39.5q68 0 110.5 52t55.5 128l303 -108q-53 -151 -178.5 -240.5t-323.5 -89.5 q-218 0 -349.5 112t-131.5 287zM403 946q0 81 57.5 138t137.5 57t136.5 -57t56.5 -138q0 -77 -57 -133.5t-136 -56.5t-137 56.5t-58 133.5z" />
<glyph unicode="&#xc0;" horiz-adv-x="1619" d="M12 0v215h131l457 1219h422l451 -1219h135v-215h-670v215h143l-61 195h-506l-61 -195h143v-215h-584zM487 1853h351l133 -301h-244zM596 668h342l-170 495z" />
<glyph unicode="&#xc1;" horiz-adv-x="1619" d="M12 0v215h131l457 1219h422l451 -1219h135v-215h-670v215h143l-61 195h-506l-61 -195h143v-215h-584zM596 668h342l-170 495zM645 1552l133 301h350l-239 -301h-244z" />
<glyph unicode="&#xc2;" horiz-adv-x="1619" d="M12 0v215h131l457 1219h422l451 -1219h135v-215h-670v215h143l-61 195h-506l-61 -195h143v-215h-584zM442 1552l234 281h270l234 -281h-256l-113 148l-113 -148h-256zM596 668h342l-170 495z" />
<glyph unicode="&#xc3;" horiz-adv-x="1619" d="M12 0v215h131l457 1219h422l451 -1219h135v-215h-670v215h143l-61 195h-506l-61 -195h143v-215h-584zM438 1556q0 121 63.5 202t162.5 81q52 0 107 -21t102 -42t77 -21q32 0 51.5 21.5t22.5 52.5h160q0 -128 -60 -205.5t-161 -77.5q-52 0 -107.5 21t-103 42t-80.5 21 q-32 0 -51.5 -21.5t-22.5 -52.5h-160zM596 668h342l-170 495z" />
<glyph unicode="&#xc4;" horiz-adv-x="1619" d="M12 0v215h131l457 1219h422l451 -1219h135v-215h-670v215h143l-61 195h-506l-61 -195h143v-215h-584zM408 1724q0 68 47.5 112t122.5 44t122.5 -44t47.5 -112q0 -70 -47.5 -114.5t-122.5 -44.5q-77 0 -123.5 44t-46.5 115zM596 668h342l-170 495zM874 1724q0 68 47.5 112 t122.5 44t122.5 -44t47.5 -112q0 -69 -47.5 -114t-122.5 -45q-77 0 -123.5 44.5t-46.5 114.5z" />
<glyph unicode="&#xc5;" horiz-adv-x="1619" d="M12 0v215h131l457 1219h422l451 -1219h135v-215h-670v215h143l-61 195h-506l-61 -195h143v-215h-584zM557 1745q0 95 72.5 155t181.5 60t181.5 -60t72.5 -155q0 -96 -73 -157.5t-181 -61.5t-181 61.5t-73 157.5zM596 668h342l-170 495zM721 1743q0 -39 24.5 -62.5 t65.5 -23.5q40 0 65 24t25 62t-25 62t-65 24q-41 0 -65.5 -23.5t-24.5 -62.5z" />
<glyph unicode="&#xc6;" horiz-adv-x="2037" d="M-2 0v215h131l676 1219h1128v-381h-266v168h-301v-379h395v-230h-395v-399h307v176h266v-389h-1085v215h143v397h-344l-200 -397h143v-215h-598zM756 809h241v467z" />
<glyph unicode="&#xc7;" horiz-adv-x="1495" d="M90 729q0 201 90.5 370.5t248 268t345.5 98.5q227 0 361 -159v127h266v-500h-246q-30 114 -112 184t-193 70q-155 0 -254.5 -126t-99.5 -327q0 -212 93 -347.5t240 -135.5q117 0 205 65.5t140 176.5l260 -175q-85 -158 -232 -247.5t-336 -100.5l-12 -65q80 0 130 -49 t50 -119q0 -106 -79 -162.5t-205 -56.5q-83 0 -144 28l37 150q38 -21 88 -21q37 0 60.5 16.5t23.5 47.5q0 30 -23 46.5t-61 16.5q-40 0 -67 -10l38 182q-190 24 -329.5 127.5t-211 264.5t-71.5 362z" />
<glyph unicode="&#xc8;" horiz-adv-x="1257" d="M76 0v215h139v1004h-139v215h1079v-373h-266v158h-305v-355h397v-235h-397v-414h309v182h266v-397h-1083zM326 1853h350l133 -301h-244z" />
<glyph unicode="&#xc9;" horiz-adv-x="1257" d="M76 0v215h139v1004h-139v215h1079v-373h-266v158h-305v-355h397v-235h-397v-414h309v182h266v-397h-1083zM483 1552l133 301h351l-240 -301h-244z" />
<glyph unicode="&#xca;" horiz-adv-x="1257" d="M76 0v215h139v1004h-139v215h1079v-373h-266v158h-305v-355h397v-235h-397v-414h309v182h266v-397h-1083zM281 1552l233 281h270l234 -281h-256l-113 148l-112 -148h-256z" />
<glyph unicode="&#xcb;" horiz-adv-x="1257" d="M76 0v215h139v1004h-139v215h1079v-373h-266v158h-305v-355h397v-235h-397v-414h309v182h266v-397h-1083zM246 1724q0 68 47.5 112t122.5 44t122.5 -44t47.5 -112q0 -70 -47.5 -114.5t-122.5 -44.5q-77 0 -123.5 44t-46.5 115zM713 1724q0 68 47.5 112t122.5 44 t122.5 -44t47.5 -112q0 -69 -47.5 -114t-122.5 -45q-77 0 -123.5 44.5t-46.5 114.5z" />
<glyph unicode="&#xcc;" horiz-adv-x="802" d="M78 0v215h139v1004h-139v215h647v-215h-139v-1004h139v-215h-647zM78 1853h350l133 -301h-244z" />
<glyph unicode="&#xcd;" horiz-adv-x="802" d="M78 0v215h139v1004h-139v215h647v-215h-139v-1004h139v-215h-647zM236 1552l133 301h350l-240 -301h-243z" />
<glyph unicode="&#xce;" horiz-adv-x="802" d="M33 1552l233 281h271l233 -281h-256l-113 148l-112 -148h-256zM78 0v215h139v1004h-139v215h647v-215h-139v-1004h139v-215h-647z" />
<glyph unicode="&#xcf;" horiz-adv-x="802" d="M-2 1724q0 68 47.5 112t122.5 44t122.5 -44t47.5 -112q0 -70 -47.5 -114.5t-122.5 -44.5q-77 0 -123.5 44t-46.5 115zM78 0v215h139v1004h-139v215h647v-215h-139v-1004h139v-215h-647zM465 1724q0 68 47.5 112t122.5 44t122.5 -44t47.5 -112q0 -69 -47.5 -114 t-122.5 -45q-77 0 -123.5 44.5t-46.5 114.5z" />
<glyph unicode="&#xd0;" horiz-adv-x="1638" d="M78 641v205h178v373h-139v215h653q229 0 404.5 -84t275.5 -246.5t100 -380.5q0 -333 -200 -528t-543 -195h-690v215h139v426h-178zM625 225h133q178 0 282.5 131t104.5 369q0 229 -111 356t-291 127h-118v-362h239v-205h-239v-416z" />
<glyph unicode="&#xd1;" horiz-adv-x="1759" d="M78 0v215h139v1004h-139v215h536l641 -957v742h-139v215h565v-215h-139v-1219h-403l-635 961v-746h139v-215h-565zM508 1556q0 121 63 202t162 81q52 0 107.5 -21t102.5 -42t77 -21q32 0 51.5 21.5t22.5 52.5h159q0 -128 -60 -205.5t-161 -77.5q-52 0 -107.5 21t-103 42 t-80.5 21q-32 0 -51 -21t-22 -53h-160z" />
<glyph unicode="&#xd2;" horiz-adv-x="1703" d="M90 729q0 158 55.5 294t154 233.5t241.5 153.5t311 56q170 0 313.5 -55.5t242 -153.5t153.5 -234t55 -294q0 -163 -54 -303t-151.5 -241t-241.5 -158.5t-317 -57.5q-228 0 -402.5 98.5t-267 271t-92.5 390.5zM496 729q0 -221 96 -355t260 -134t261 134.5t97 354.5 q0 211 -97 339t-261 128t-260 -128t-96 -339zM528 1853h351l133 -301h-244z" />
<glyph unicode="&#xd3;" horiz-adv-x="1703" d="M90 729q0 158 55.5 294t154 233.5t241.5 153.5t311 56q170 0 313.5 -55.5t242 -153.5t153.5 -234t55 -294q0 -163 -54 -303t-151.5 -241t-241.5 -158.5t-317 -57.5q-228 0 -402.5 98.5t-267 271t-92.5 390.5zM496 729q0 -221 96 -355t260 -134t261 134.5t97 354.5 q0 211 -97 339t-261 128t-260 -128t-96 -339zM686 1552l133 301h350l-239 -301h-244z" />
<glyph unicode="&#xd4;" horiz-adv-x="1703" d="M90 729q0 158 55.5 294t154 233.5t241.5 153.5t311 56q170 0 313.5 -55.5t242 -153.5t153.5 -234t55 -294q0 -163 -54 -303t-151.5 -241t-241.5 -158.5t-317 -57.5q-228 0 -402.5 98.5t-267 271t-92.5 390.5zM483 1552l234 281h270l234 -281h-256l-113 148l-113 -148 h-256zM496 729q0 -221 96 -355t260 -134t261 134.5t97 354.5q0 211 -97 339t-261 128t-260 -128t-96 -339z" />
<glyph unicode="&#xd5;" horiz-adv-x="1703" d="M90 729q0 158 55.5 294t154 233.5t241.5 153.5t311 56q170 0 313.5 -55.5t242 -153.5t153.5 -234t55 -294q0 -163 -54 -303t-151.5 -241t-241.5 -158.5t-317 -57.5q-228 0 -402.5 98.5t-267 271t-92.5 390.5zM479 1556q0 121 63.5 202t162.5 81q52 0 107 -21t102 -42 t77 -21q32 0 51.5 21.5t22.5 52.5h160q0 -128 -60 -205.5t-161 -77.5q-52 0 -107.5 21t-103 42t-80.5 21q-32 0 -51.5 -21.5t-22.5 -52.5h-160zM496 729q0 -221 96 -355t260 -134t261 134.5t97 354.5q0 211 -97 339t-261 128t-260 -128t-96 -339z" />
<glyph unicode="&#xd6;" horiz-adv-x="1703" d="M90 729q0 158 55.5 294t154 233.5t241.5 153.5t311 56q170 0 313.5 -55.5t242 -153.5t153.5 -234t55 -294q0 -163 -54 -303t-151.5 -241t-241.5 -158.5t-317 -57.5q-228 0 -402.5 98.5t-267 271t-92.5 390.5zM449 1724q0 68 47 112t122 44t122.5 -44t47.5 -112 q0 -70 -47.5 -114.5t-122.5 -44.5q-77 0 -123 44t-46 115zM496 729q0 -221 96 -355t260 -134t261 134.5t97 354.5q0 211 -97 339t-261 128t-260 -128t-96 -339zM915 1724q0 68 47.5 112t122.5 44t122.5 -44t47.5 -112q0 -69 -47.5 -114t-122.5 -45q-77 0 -123.5 44.5 t-46.5 114.5z" />
<glyph unicode="&#xd7;" horiz-adv-x="1234" d="M127 307l307 332l-307 330l195 184l296 -317l295 317l195 -184l-307 -330l307 -332l-195 -184l-295 317l-296 -317z" />
<glyph unicode="&#xd8;" horiz-adv-x="1703" d="M90 729q0 158 55.5 294t154 233.5t241.5 153.5t311 56q229 0 405 -98l103 123l151 -127l-96 -117q201 -204 201 -518q0 -163 -54 -303t-151.5 -241t-241.5 -158.5t-317 -57.5q-225 0 -406 101l-104 -125l-152 127l99 121q-199 212 -199 536zM496 729q0 -141 36 -242 l527 637q-84 72 -207 72q-164 0 -260 -128t-96 -339zM647 313q85 -73 205 -73q164 0 261 134.5t97 354.5q0 130 -36 225z" />
<glyph unicode="&#xd9;" d="M53 1219v215h662v-215h-154v-713q0 -116 72 -191t192 -75t193.5 75t73.5 191v713h-156v215h663v-215h-139v-709q0 -250 -171 -395.5t-464 -145.5t-462.5 145t-169.5 396v709h-140zM504 1853h350l133 -301h-244z" />
<glyph unicode="&#xda;" d="M53 1219v215h662v-215h-154v-713q0 -116 72 -191t192 -75t193.5 75t73.5 191v713h-156v215h663v-215h-139v-709q0 -250 -171 -395.5t-464 -145.5t-462.5 145t-169.5 396v709h-140zM662 1552l133 301h350l-240 -301h-243z" />
<glyph unicode="&#xdb;" d="M53 1219v215h662v-215h-154v-713q0 -116 72 -191t192 -75t193.5 75t73.5 191v713h-156v215h663v-215h-139v-709q0 -250 -171 -395.5t-464 -145.5t-462.5 145t-169.5 396v709h-140zM459 1552l233 281h271l233 -281h-256l-113 148l-112 -148h-256z" />
<glyph unicode="&#xdc;" d="M53 1219v215h662v-215h-154v-713q0 -116 72 -191t192 -75t193.5 75t73.5 191v713h-156v215h663v-215h-139v-709q0 -250 -171 -395.5t-464 -145.5t-462.5 145t-169.5 396v709h-140zM424 1724q0 68 47.5 112t122.5 44t122.5 -44t47.5 -112q0 -70 -47.5 -114.5t-122.5 -44.5 q-77 0 -123.5 44t-46.5 115zM891 1724q0 68 47.5 112t122.5 44t122.5 -44t47.5 -112q0 -69 -47.5 -114t-122.5 -45q-77 0 -123.5 44.5t-46.5 114.5z" />
<glyph unicode="&#xdd;" horiz-adv-x="1490" d="M20 1219v215h678v-195h-143l242 -401l245 401h-143v195h571v-215h-139l-395 -617v-387h168v-215h-705v215h168v375l-407 629h-140zM621 1552l133 301h350l-240 -301h-243z" />
<glyph unicode="&#xde;" horiz-adv-x="1327" d="M76 0v209h141v1016h-141v209h692v-201l-182 2v-115h194q142 0 253.5 -44t179 -133.5t67.5 -211.5t-67.5 -213t-178 -136.5t-248.5 -45.5h-200v-137l184 2v-201h-694zM586 537h110q87 0 143 51.5t56 146.5q0 87 -58.5 136t-144.5 49h-106v-383z" />
<glyph unicode="&#xdf;" horiz-adv-x="1404" d="M41 0v209h135v862q0 199 135.5 310.5t358.5 111.5q208 0 343.5 -98t135.5 -232q0 -102 -53 -176t-142 -104q160 -22 260.5 -127.5t100.5 -259.5q0 -226 -157.5 -361t-412.5 -135h-53v211q115 6 188.5 84.5t73.5 200.5q0 114 -88 187.5t-221 82.5v184q77 0 126.5 44 t49.5 118q0 61 -42 100t-109 39q-65 0 -107.5 -47.5t-42.5 -118.5v-876h80v-209h-559z" />
<glyph unicode="&#xe0;" horiz-adv-x="1310" d="M82 328q0 159 124 250.5t320 91.5q144 0 258 -62v76q0 85 -56.5 134.5t-154.5 49.5q-168 0 -340 -86l-92 207q246 117 514 117q213 0 343 -111.5t130 -292.5v-493h136v-209h-455l-18 102q-47 -59 -131 -94t-177 -35q-185 0 -293 97t-108 258zM332 1499h350l133 -301h-244 zM436 340q0 -63 49 -107.5t127 -44.5q79 0 129 43.5t50 108.5q0 64 -50.5 105.5t-128.5 41.5q-77 0 -126.5 -42.5t-49.5 -104.5z" />
<glyph unicode="&#xe1;" horiz-adv-x="1310" d="M82 328q0 159 124 250.5t320 91.5q144 0 258 -62v76q0 85 -56.5 134.5t-154.5 49.5q-168 0 -340 -86l-92 207q246 117 514 117q213 0 343 -111.5t130 -292.5v-493h136v-209h-455l-18 102q-47 -59 -131 -94t-177 -35q-185 0 -293 97t-108 258zM436 340q0 -63 49 -107.5 t127 -44.5q79 0 129 43.5t50 108.5q0 64 -50.5 105.5t-128.5 41.5q-77 0 -126.5 -42.5t-49.5 -104.5zM489 1198l134 301h350l-240 -301h-244z" />
<glyph unicode="&#xe2;" horiz-adv-x="1310" d="M82 328q0 159 124 250.5t320 91.5q144 0 258 -62v76q0 85 -56.5 134.5t-154.5 49.5q-168 0 -340 -86l-92 207q246 117 514 117q213 0 343 -111.5t130 -292.5v-493h136v-209h-455l-18 102q-47 -59 -131 -94t-177 -35q-185 0 -293 97t-108 258zM287 1198l233 281h271 l233 -281h-256l-113 148l-112 -148h-256zM436 340q0 -63 49 -107.5t127 -44.5q79 0 129 43.5t50 108.5q0 64 -50.5 105.5t-128.5 41.5q-77 0 -126.5 -42.5t-49.5 -104.5z" />
<glyph unicode="&#xe3;" horiz-adv-x="1310" d="M82 328q0 159 124 250.5t320 91.5q144 0 258 -62v76q0 85 -56.5 134.5t-154.5 49.5q-168 0 -340 -86l-92 207q246 117 514 117q213 0 343 -111.5t130 -292.5v-493h136v-209h-455l-18 102q-47 -59 -131 -94t-177 -35q-185 0 -293 97t-108 258zM283 1202q0 121 63 202 t162 81q52 0 107.5 -21t102.5 -42t77 -21q32 0 51 21t22 53h160q0 -128 -60 -205.5t-161 -77.5q-52 0 -107.5 21t-103 42t-80.5 21q-32 0 -51.5 -21.5t-22.5 -52.5h-159zM436 340q0 -63 49 -107.5t127 -44.5q79 0 129 43.5t50 108.5q0 64 -50.5 105.5t-128.5 41.5 q-77 0 -126.5 -42.5t-49.5 -104.5z" />
<glyph unicode="&#xe4;" horiz-adv-x="1310" d="M82 328q0 159 124 250.5t320 91.5q144 0 258 -62v76q0 85 -56.5 134.5t-154.5 49.5q-168 0 -340 -86l-92 207q246 117 514 117q213 0 343 -111.5t130 -292.5v-493h136v-209h-455l-18 102q-47 -59 -131 -94t-177 -35q-185 0 -293 97t-108 258zM252 1370q0 68 47.5 112 t122.5 44t122.5 -44t47.5 -112q0 -71 -47.5 -115.5t-122.5 -44.5q-77 0 -123.5 44.5t-46.5 115.5zM436 340q0 -63 49 -107.5t127 -44.5q79 0 129 43.5t50 108.5q0 64 -50.5 105.5t-128.5 41.5q-77 0 -126.5 -42.5t-49.5 -104.5zM719 1370q0 68 47.5 112t122.5 44t122.5 -44 t47.5 -112q0 -69 -47.5 -114.5t-122.5 -45.5q-77 0 -123.5 45t-46.5 115z" />
<glyph unicode="&#xe5;" horiz-adv-x="1310" d="M82 328q0 159 124 250.5t320 91.5q144 0 258 -62v76q0 85 -56.5 134.5t-154.5 49.5q-168 0 -340 -86l-92 207q246 117 514 117q213 0 343 -111.5t130 -292.5v-493h136v-209h-455l-18 102q-47 -59 -131 -94t-177 -35q-185 0 -293 97t-108 258zM401 1391q0 95 72.5 155 t181.5 60t181.5 -60t72.5 -155q0 -96 -73 -158t-181 -62t-181 62t-73 158zM436 340q0 -63 49 -107.5t127 -44.5q79 0 129 43.5t50 108.5q0 64 -50.5 105.5t-128.5 41.5q-77 0 -126.5 -42.5t-49.5 -104.5zM565 1389q0 -39 24.5 -62.5t65.5 -23.5q40 0 65 24t25 62t-25 62 t-65 24q-41 0 -65.5 -23.5t-24.5 -62.5z" />
<glyph unicode="&#xe6;" horiz-adv-x="1970" d="M82 328q0 159 124 250.5t320 91.5q144 0 258 -62v80q0 83 -56.5 131.5t-154.5 48.5q-168 0 -340 -86l-92 207q236 117 492 117q216 0 352 -139q156 143 375 143q160 0 284.5 -74.5t190.5 -200t66 -278.5q0 -25 -5 -92l-768 -2q15 -116 91 -185t184 -69q80 0 147.5 35.5 t110.5 93.5l215 -143q-78 -111 -205.5 -167.5t-286.5 -56.5q-125 0 -233 44t-188 122q-182 -164 -441 -164q-203 0 -321.5 97t-118.5 258zM436 340q0 -63 48 -107.5t124 -44.5q81 0 133 43.5t52 108.5t-51 106t-130 41q-77 0 -126.5 -42.5t-49.5 -104.5zM1128 655h422 q0 102 -54.5 166t-147.5 64q-87 0 -147.5 -61.5t-72.5 -168.5z" />
<glyph unicode="&#xe7;" horiz-adv-x="1191" d="M70 551q0 152 68 279t187 201.5t263 74.5q169 0 284 -139v116h242v-413h-213q-20 92 -80.5 144t-146.5 52q-106 0 -175 -85.5t-69 -229.5q0 -141 69.5 -233.5t178.5 -92.5q74 0 137 42.5t96 109.5l230 -141q-68 -120 -191 -190.5t-276 -74.5l-12 -65q80 0 130 -49 t50 -119q0 -106 -79.5 -162.5t-205.5 -56.5q-82 0 -143 28l37 150q38 -21 88 -21q37 0 60.5 16.5t23.5 47.5q0 30 -23 46.5t-61 16.5q-41 0 -68 -10l41 193q-201 43 -321.5 196.5t-120.5 368.5z" />
<glyph unicode="&#xe8;" horiz-adv-x="1263" d="M70 549q0 156 72.5 283.5t206.5 202.5t304 75q160 0 284.5 -74.5t190.5 -200t66 -278.5q0 -38 -4 -92l-768 -2q20 -119 93 -186.5t181 -67.5q80 0 147.5 35.5t110.5 93.5l215 -143q-78 -111 -205 -167.5t-286 -56.5q-275 0 -441.5 159t-166.5 419zM309 1499h350l134 -301 h-244zM422 655h422q0 102 -54.5 166t-148.5 64q-86 0 -144 -59.5t-75 -170.5z" />
<glyph unicode="&#xe9;" horiz-adv-x="1263" d="M70 549q0 156 72.5 283.5t206.5 202.5t304 75q160 0 284.5 -74.5t190.5 -200t66 -278.5q0 -38 -4 -92l-768 -2q20 -119 93 -186.5t181 -67.5q80 0 147.5 35.5t110.5 93.5l215 -143q-78 -111 -205 -167.5t-286 -56.5q-275 0 -441.5 159t-166.5 419zM422 655h422 q0 102 -54.5 166t-148.5 64q-86 0 -144 -59.5t-75 -170.5zM467 1198l133 301h350l-239 -301h-244z" />
<glyph unicode="&#xea;" horiz-adv-x="1263" d="M70 549q0 156 72.5 283.5t206.5 202.5t304 75q160 0 284.5 -74.5t190.5 -200t66 -278.5q0 -38 -4 -92l-768 -2q20 -119 93 -186.5t181 -67.5q80 0 147.5 35.5t110.5 93.5l215 -143q-78 -111 -205 -167.5t-286 -56.5q-275 0 -441.5 159t-166.5 419zM264 1198l234 281h270 l233 -281h-256l-112 148l-113 -148h-256zM422 655h422q0 102 -54.5 166t-148.5 64q-86 0 -144 -59.5t-75 -170.5z" />
<glyph unicode="&#xeb;" horiz-adv-x="1263" d="M70 549q0 156 72.5 283.5t206.5 202.5t304 75q160 0 284.5 -74.5t190.5 -200t66 -278.5q0 -38 -4 -92l-768 -2q20 -119 93 -186.5t181 -67.5q80 0 147.5 35.5t110.5 93.5l215 -143q-78 -111 -205 -167.5t-286 -56.5q-275 0 -441.5 159t-166.5 419zM229 1370 q0 68 47.5 112t122.5 44t122.5 -44t47.5 -112q0 -71 -47.5 -115.5t-122.5 -44.5q-77 0 -123.5 44.5t-46.5 115.5zM422 655h422q0 102 -54.5 166t-148.5 64q-86 0 -144 -59.5t-75 -170.5zM696 1370q0 68 47.5 112t122.5 44t122.5 -44t47.5 -112q0 -69 -47.5 -114.5 t-122.5 -45.5q-77 0 -123.5 45t-46.5 115z" />
<glyph unicode="&#xec;" horiz-adv-x="731" d="M33 1499h350l133 -301h-244zM63 0v209h136v661h-136v209h480v-870h135v-209h-615z" />
<glyph unicode="&#xed;" horiz-adv-x="731" d="M63 0v209h136v661h-136v209h480v-870h135v-209h-615zM190 1198l134 301h350l-240 -301h-244z" />
<glyph unicode="&#xee;" horiz-adv-x="731" d="M-12 1198l233 281h271l233 -281h-256l-113 148l-112 -148h-256zM63 0v209h136v661h-136v209h480v-870h135v-209h-615z" />
<glyph unicode="&#xef;" horiz-adv-x="731" d="M-27 1370q0 66 46.5 109t119.5 43t119.5 -43t46.5 -109q0 -69 -46.5 -112.5t-119.5 -43.5q-76 0 -121 43t-45 113zM63 0v209h136v661h-136v209h480v-870h135v-209h-615zM408 1370q0 66 46 109t119 43t119.5 -43t46.5 -109q0 -68 -46.5 -112t-119.5 -44q-75 0 -120 43.5 t-45 112.5z" />
<glyph unicode="&#xf0;" horiz-adv-x="1327" d="M66 508q0 218 147.5 362t376.5 144q134 0 256 -86q-67 134 -182 246l-308 -134l-65 156l223 96q-102 68 -225 113l188 125q157 -53 287 -127l268 117l66 -156l-174 -76q323 -281 323 -747q0 -252 -160 -411t-428 -159q-270 0 -431.5 147t-161.5 390zM418 502 q0 -133 66.5 -217t170.5 -84t172 86t68 217q0 137 -65 214t-175 77q-103 0 -170 -82t-67 -211z" />
<glyph unicode="&#xf1;" horiz-adv-x="1443" d="M61 0v209h136v661h-136v209h474v-164q46 82 134 133.5t199 51.5q182 0 288 -102t106 -279v-510h135v-209h-594v209h115v455q0 75 -52 126.5t-127 51.5q-87 0 -142.5 -56t-55.5 -139v-438h114v-209h-594zM399 1202q0 121 63.5 202t162.5 81q52 0 107 -21t102 -42t77 -21 q32 0 51.5 21.5t22.5 52.5h160q0 -128 -60 -205.5t-161 -77.5q-52 0 -107.5 21t-103 42t-80.5 21q-32 0 -51.5 -21.5t-22.5 -52.5h-160z" />
<glyph unicode="&#xf2;" horiz-adv-x="1337" d="M70 551q0 244 169 401.5t429 157.5q171 0 308 -71.5t214.5 -199t77.5 -288.5q0 -256 -168 -418t-432 -162t-431 162t-167 418zM346 1499h350l133 -301h-243zM430 551q0 -148 65 -239t173 -91t173.5 91t65.5 239q0 139 -65.5 224t-173.5 85t-173 -85t-65 -224z" />
<glyph unicode="&#xf3;" horiz-adv-x="1337" d="M70 551q0 244 169 401.5t429 157.5q171 0 308 -71.5t214.5 -199t77.5 -288.5q0 -256 -168 -418t-432 -162t-431 162t-167 418zM430 551q0 -148 65 -239t173 -91t173.5 91t65.5 239q0 139 -65.5 224t-173.5 85t-173 -85t-65 -224zM504 1198l133 301h350l-239 -301h-244z " />
<glyph unicode="&#xf4;" horiz-adv-x="1337" d="M70 551q0 244 169 401.5t429 157.5q171 0 308 -71.5t214.5 -199t77.5 -288.5q0 -256 -168 -418t-432 -162t-431 162t-167 418zM301 1198l234 281h270l233 -281h-256l-112 148l-113 -148h-256zM430 551q0 -148 65 -239t173 -91t173.5 91t65.5 239q0 139 -65.5 224 t-173.5 85t-173 -85t-65 -224z" />
<glyph unicode="&#xf5;" horiz-adv-x="1337" d="M70 551q0 244 169 401.5t429 157.5q171 0 308 -71.5t214.5 -199t77.5 -288.5q0 -256 -168 -418t-432 -162t-431 162t-167 418zM297 1202q0 121 63 202t162 81q52 0 107.5 -21t102.5 -42t77 -21q32 0 51.5 21.5t22.5 52.5h159q0 -128 -60 -205.5t-161 -77.5 q-52 0 -107.5 21t-103 42t-80.5 21q-32 0 -51 -21t-22 -53h-160zM430 551q0 -148 65 -239t173 -91t173.5 91t65.5 239q0 139 -65.5 224t-173.5 85t-173 -85t-65 -224z" />
<glyph unicode="&#xf6;" horiz-adv-x="1337" d="M70 551q0 244 169 401.5t429 157.5q171 0 308 -71.5t214.5 -199t77.5 -288.5q0 -256 -168 -418t-432 -162t-431 162t-167 418zM266 1370q0 68 47.5 112t122.5 44t122.5 -44t47.5 -112q0 -71 -47.5 -115.5t-122.5 -44.5q-77 0 -123.5 44.5t-46.5 115.5zM430 551 q0 -148 65 -239t173 -91t173.5 91t65.5 239q0 139 -65.5 224t-173.5 85t-173 -85t-65 -224zM733 1370q0 68 47.5 112t122.5 44t122.5 -44t47.5 -112q0 -69 -47.5 -114.5t-122.5 -45.5q-77 0 -123.5 45t-46.5 115z" />
<glyph unicode="&#xf7;" horiz-adv-x="1185" d="M102 510v258h981v-258h-981zM426 240q0 65 46 107t118 42t119 -42t47 -107t-47 -108.5t-119 -43.5q-73 0 -118.5 43.5t-45.5 108.5zM426 1040q0 64 46.5 107t117.5 43t118.5 -43.5t47.5 -106.5q0 -66 -47 -108.5t-119 -42.5q-73 0 -118.5 42.5t-45.5 108.5z" />
<glyph unicode="&#xf8;" horiz-adv-x="1337" d="M70 551q0 244 169 401.5t429 157.5q171 0 313 -74l76 92l117 -96l-70 -86q164 -158 164 -395q0 -256 -168 -418t-432 -162q-171 0 -310 74l-84 -102l-116 96l78 94q-79 78 -122.5 185t-43.5 233zM430 551q0 -80 23 -154l348 420q-55 43 -133 43q-108 0 -173 -85t-65 -224 zM541 264q52 -43 127 -43q108 0 173.5 91t65.5 239q0 76 -20 135z" />
<glyph unicode="&#xf9;" horiz-adv-x="1415" d="M37 870v209h479v-657q0 -83 43 -132.5t121 -49.5q93 0 148 54.5t55 141.5v434h-135v209h479v-870h135v-209h-473v164q-49 -82 -143 -133t-211 -51q-172 0 -267.5 104t-95.5 283v503h-135zM373 1499h350l133 -301h-244z" />
<glyph unicode="&#xfa;" horiz-adv-x="1415" d="M37 870v209h479v-657q0 -83 43 -132.5t121 -49.5q93 0 148 54.5t55 141.5v434h-135v209h479v-870h135v-209h-473v164q-49 -82 -143 -133t-211 -51q-172 0 -267.5 104t-95.5 283v503h-135zM530 1198l134 301h350l-240 -301h-244z" />
<glyph unicode="&#xfb;" horiz-adv-x="1415" d="M37 870v209h479v-657q0 -83 43 -132.5t121 -49.5q93 0 148 54.5t55 141.5v434h-135v209h479v-870h135v-209h-473v164q-49 -82 -143 -133t-211 -51q-172 0 -267.5 104t-95.5 283v503h-135zM328 1198l233 281h270l234 -281h-256l-113 148l-112 -148h-256z" />
<glyph unicode="&#xfc;" horiz-adv-x="1415" d="M37 870v209h479v-657q0 -83 43 -132.5t121 -49.5q93 0 148 54.5t55 141.5v434h-135v209h479v-870h135v-209h-473v164q-49 -82 -143 -133t-211 -51q-172 0 -267.5 104t-95.5 283v503h-135zM293 1370q0 68 47.5 112t122.5 44t122.5 -44t47.5 -112q0 -71 -47.5 -115.5 t-122.5 -44.5q-77 0 -123.5 44.5t-46.5 115.5zM760 1370q0 68 47.5 112t122.5 44t122.5 -44t47.5 -112q0 -69 -47.5 -114.5t-122.5 -45.5q-77 0 -123.5 45t-46.5 115z" />
<glyph unicode="&#xfd;" horiz-adv-x="1343" d="M8 870v209h608v-209h-133l211 -624l221 624h-133v209h553v-209h-125l-338 -864q-68 -171 -227 -288t-340 -117q-87 0 -162 14v225q62 -16 123 -16q67 0 124.5 37.5t94.5 97.5l17 27l-371 884h-123zM524 1198l133 301h351l-240 -301h-244z" />
<glyph unicode="&#xfe;" horiz-adv-x="1425" d="M53 1272v209h479v-559q54 80 142 132t198 52q212 0 348 -155.5t136 -399.5q0 -255 -138.5 -416.5t-359.5 -161.5q-104 0 -191 50t-139 131v-328h156v-209h-629v209h135l-2 1446h-135zM520 545q0 -147 65.5 -234.5t172.5 -87.5q105 0 171 89t66 233q0 139 -66 225t-171 86 t-171.5 -86t-66.5 -225z" />
<glyph unicode="&#xff;" horiz-adv-x="1343" d="M8 870v209h608v-209h-133l211 -624l221 624h-133v209h553v-209h-125l-338 -864q-68 -171 -227 -288t-340 -117q-87 0 -162 14v225q62 -16 123 -16q67 0 124.5 37.5t94.5 97.5l17 27l-371 884h-123zM287 1370q0 68 47.5 112t122.5 44t122.5 -44t47.5 -112 q0 -71 -47.5 -115.5t-122.5 -44.5q-77 0 -123.5 44.5t-46.5 115.5zM754 1370q0 68 47.5 112t122.5 44t122.5 -44t47.5 -112q0 -69 -47.5 -114.5t-122.5 -45.5q-77 0 -123.5 45t-46.5 115z" />
<glyph unicode="&#x100;" horiz-adv-x="1619" d="M12 0v215h131l457 1219h422l451 -1219h135v-215h-670v215h143l-61 195h-506l-61 -195h143v-215h-584zM461 1587v197h700v-197h-700zM596 668h342l-170 495z" />
<glyph unicode="&#x101;" horiz-adv-x="1310" d="M82 328q0 159 124 250.5t320 91.5q144 0 258 -62v76q0 85 -56.5 134.5t-154.5 49.5q-168 0 -340 -86l-92 207q246 117 514 117q213 0 343 -111.5t130 -292.5v-493h136v-209h-455l-18 102q-47 -59 -131 -94t-177 -35q-185 0 -293 97t-108 258zM305 1233v197h701v-197h-701 zM436 340q0 -63 49 -107.5t127 -44.5q79 0 129 43.5t50 108.5q0 64 -50.5 105.5t-128.5 41.5q-77 0 -126.5 -42.5t-49.5 -104.5z" />
<glyph unicode="&#x102;" horiz-adv-x="1619" d="M12 0v215h131l457 1219h422l451 -1219h135v-215h-670v215h143l-61 195h-506l-61 -195h143v-215h-584zM483 1841h217q0 -135 111 -135t111 135h217q0 -137 -87.5 -221t-240.5 -84t-240.5 84t-87.5 221zM596 668h342l-170 495z" />
<glyph unicode="&#x103;" horiz-adv-x="1310" d="M82 328q0 159 124 250.5t320 91.5q144 0 258 -62v76q0 85 -56.5 134.5t-154.5 49.5q-168 0 -340 -86l-92 207q246 117 514 117q213 0 343 -111.5t130 -292.5v-493h136v-209h-455l-18 102q-47 -59 -131 -94t-177 -35q-185 0 -293 97t-108 258zM328 1487h217 q0 -135 110 -135q111 0 111 135h217q0 -137 -87.5 -221t-240.5 -84t-240 84t-87 221zM436 340q0 -63 49 -107.5t127 -44.5q79 0 129 43.5t50 108.5q0 64 -50.5 105.5t-128.5 41.5q-77 0 -126.5 -42.5t-49.5 -104.5z" />
<glyph unicode="&#x104;" horiz-adv-x="1619" d="M12 0v215h131l457 1219h422l451 -1219h135v-215h-203q-55 -23 -89 -63.5t-34 -83.5q0 -34 21 -57t53 -23q50 0 96 43l86 -144q-90 -84 -231 -84q-109 0 -180.5 59.5t-71.5 159.5q0 104 102 193h-219v215h143l-61 195h-506l-61 -195h143v-215h-584zM596 668h342l-170 495z " />
<glyph unicode="&#x105;" horiz-adv-x="1310" d="M82 328q0 159 124 250.5t320 91.5q144 0 258 -62v76q0 85 -56.5 134.5t-154.5 49.5q-168 0 -340 -86l-92 207q246 117 514 117q213 0 343 -111.5t130 -292.5v-493h136v-209h-211q-55 -23 -89 -63.5t-34 -83.5q0 -34 21 -57t53 -23q50 0 96 43l86 -144q-90 -84 -232 -84 q-109 0 -180.5 59.5t-71.5 159.5q0 109 107 195l-18 100q-47 -59 -131 -94t-177 -35q-185 0 -293 97t-108 258zM436 340q0 -63 49 -107.5t127 -44.5q79 0 129 43.5t50 108.5q0 64 -50.5 105.5t-128.5 41.5q-77 0 -126.5 -42.5t-49.5 -104.5z" />
<glyph unicode="&#x106;" horiz-adv-x="1495" d="M90 729q0 201 90.5 370.5t248 268t345.5 98.5q227 0 361 -159v127h266v-500h-246q-30 114 -112 184t-193 70q-155 0 -254.5 -126t-99.5 -327q0 -212 93 -347.5t240 -135.5q117 0 205 65.5t140 176.5l260 -175q-91 -168 -252.5 -259t-368.5 -91q-167 0 -304 57 t-228.5 158.5t-141 241t-49.5 303.5zM582 1552l133 301h350l-240 -301h-243z" />
<glyph unicode="&#x107;" horiz-adv-x="1191" d="M70 551q0 152 68 279t187 201.5t263 74.5q169 0 284 -139v116h242v-413h-213q-20 92 -80.5 144t-146.5 52q-106 0 -175 -85.5t-69 -229.5q0 -141 69.5 -233.5t178.5 -92.5q74 0 137 42.5t96 109.5l230 -141q-71 -125 -199.5 -195t-288.5 -70q-258 0 -420.5 163.5 t-162.5 416.5zM430 1198l133 301h350l-239 -301h-244z" />
<glyph unicode="&#x108;" horiz-adv-x="1495" d="M90 729q0 201 90.5 370.5t248 268t345.5 98.5q227 0 361 -159v127h266v-500h-246q-30 114 -112 184t-193 70q-155 0 -254.5 -126t-99.5 -327q0 -212 93 -347.5t240 -135.5q117 0 205 65.5t140 176.5l260 -175q-91 -168 -252.5 -259t-368.5 -91q-167 0 -304 57 t-228.5 158.5t-141 241t-49.5 303.5zM379 1552l233 281h271l233 -281h-256l-112 148l-113 -148h-256z" />
<glyph unicode="&#x109;" horiz-adv-x="1191" d="M70 551q0 152 68 279t187 201.5t263 74.5q169 0 284 -139v116h242v-413h-213q-20 92 -80.5 144t-146.5 52q-106 0 -175 -85.5t-69 -229.5q0 -141 69.5 -233.5t178.5 -92.5q74 0 137 42.5t96 109.5l230 -141q-71 -125 -199.5 -195t-288.5 -70q-258 0 -420.5 163.5 t-162.5 416.5zM227 1198l234 281h270l234 -281h-256l-113 148l-113 -148h-256z" />
<glyph unicode="&#x10a;" horiz-adv-x="1495" d="M90 729q0 201 90.5 370.5t248 268t345.5 98.5q227 0 361 -159v127h266v-500h-246q-30 114 -112 184t-193 70q-155 0 -254.5 -126t-99.5 -327q0 -212 93 -347.5t240 -135.5q117 0 205 65.5t140 176.5l260 -175q-91 -168 -252.5 -259t-368.5 -91q-167 0 -304 57 t-228.5 158.5t-141 241t-49.5 303.5zM573 1733q0 68 49.5 111.5t125.5 43.5q78 0 128 -43.5t50 -111.5q0 -72 -50 -118t-128 -46q-79 0 -127 45.5t-48 118.5z" />
<glyph unicode="&#x10b;" horiz-adv-x="1191" d="M70 551q0 152 68 279t187 201.5t263 74.5q169 0 284 -139v116h242v-413h-213q-20 92 -80.5 144t-146.5 52q-106 0 -175 -85.5t-69 -229.5q0 -141 69.5 -233.5t178.5 -92.5q74 0 137 42.5t96 109.5l230 -141q-71 -125 -199.5 -195t-288.5 -70q-258 0 -420.5 163.5 t-162.5 416.5zM422 1378q0 68 49 112t125 44q78 0 128 -44t50 -112q0 -72 -50 -118t-128 -46q-79 0 -126.5 45.5t-47.5 118.5z" />
<glyph unicode="&#x10c;" horiz-adv-x="1495" d="M90 729q0 201 90.5 370.5t248 268t345.5 98.5q227 0 361 -159v127h266v-500h-246q-30 114 -112 184t-193 70q-155 0 -254.5 -126t-99.5 -327q0 -212 93 -347.5t240 -135.5q117 0 205 65.5t140 176.5l260 -175q-91 -168 -252.5 -259t-368.5 -91q-167 0 -304 57 t-228.5 158.5t-141 241t-49.5 303.5zM379 1833h256l113 -147l112 147h256l-233 -281h-271z" />
<glyph unicode="&#x10d;" horiz-adv-x="1191" d="M70 551q0 152 68 279t187 201.5t263 74.5q169 0 284 -139v116h242v-413h-213q-20 92 -80.5 144t-146.5 52q-106 0 -175 -85.5t-69 -229.5q0 -141 69.5 -233.5t178.5 -92.5q74 0 137 42.5t96 109.5l230 -141q-71 -125 -199.5 -195t-288.5 -70q-258 0 -420.5 163.5 t-162.5 416.5zM227 1479h256l113 -148l113 148h256l-234 -281h-270z" />
<glyph unicode="&#x10e;" horiz-adv-x="1599" d="M78 0v215h139v1004h-139v215h653q229 0 404.5 -84t275.5 -246.5t100 -380.5q0 -333 -200 -528t-543 -195h-690zM412 1833h256l112 -147l113 147h256l-234 -281h-270zM586 225h133q178 0 282.5 131t104.5 369q0 229 -110.5 356t-290.5 127h-119v-983z" />
<glyph unicode="&#x10f;" horiz-adv-x="1597" d="M78 551q0 243 143.5 399t362.5 156q99 0 181 -48.5t134 -127.5v342h-135v209h479l-2 -1272h135v-209h-473v164q-54 -86 -142.5 -138.5t-199.5 -52.5q-216 0 -349.5 161t-133.5 417zM438 547q0 -147 64 -235.5t172 -88.5q110 0 174.5 87.5t64.5 234.5q0 141 -66.5 226 t-170.5 85q-105 0 -171.5 -86t-66.5 -223zM1376 1090l25 391h270l-108 -391h-187z" />
<glyph unicode="&#x110;" horiz-adv-x="1638" d="M78 641v205h178v373h-139v215h653q229 0 404.5 -84t275.5 -246.5t100 -380.5q0 -333 -200 -528t-543 -195h-690v215h139v426h-178zM625 225h133q178 0 282.5 131t104.5 369q0 229 -111 356t-291 127h-118v-362h239v-205h-239v-416z" />
<glyph unicode="&#x111;" horiz-adv-x="1429" d="M78 539q0 237 143.5 388.5t362.5 151.5q99 0 181 -48.5t134 -127.5v223h-233v136h233v84h-135v135h479v-219h133v-136h-133l-2 -917h135v-209h-473v164q-54 -86 -142.5 -138.5t-199.5 -52.5q-216 0 -349.5 158t-133.5 408zM438 535q0 -141 64 -226.5t172 -85.5 q110 0 174.5 84.5t64.5 224.5q0 135 -66.5 216t-170.5 81q-105 0 -171.5 -81.5t-66.5 -212.5z" />
<glyph unicode="&#x112;" horiz-adv-x="1257" d="M76 0v215h139v1004h-139v215h1079v-373h-266v158h-305v-355h397v-235h-397v-414h309v182h266v-397h-1083zM299 1587v197h700v-197h-700z" />
<glyph unicode="&#x113;" horiz-adv-x="1263" d="M70 549q0 156 72.5 283.5t206.5 202.5t304 75q160 0 284.5 -74.5t190.5 -200t66 -278.5q0 -38 -4 -92l-768 -2q20 -119 93 -186.5t181 -67.5q80 0 147.5 35.5t110.5 93.5l215 -143q-78 -111 -205 -167.5t-286 -56.5q-275 0 -441.5 159t-166.5 419zM283 1233v197h700v-197 h-700zM422 655h422q0 102 -54.5 166t-148.5 64q-86 0 -144 -59.5t-75 -170.5z" />
<glyph unicode="&#x114;" horiz-adv-x="1257" d="M76 0v215h139v1004h-139v215h1079v-373h-266v158h-305v-355h397v-235h-397v-414h309v182h266v-397h-1083zM322 1841h217q0 -135 110 -135q111 0 111 135h217q0 -137 -87.5 -221t-240.5 -84t-240 84t-87 221z" />
<glyph unicode="&#x115;" horiz-adv-x="1263" d="M70 549q0 156 72.5 283.5t206.5 202.5t304 75q160 0 284.5 -74.5t190.5 -200t66 -278.5q0 -38 -4 -92l-768 -2q20 -119 93 -186.5t181 -67.5q80 0 147.5 35.5t110.5 93.5l215 -143q-78 -111 -205 -167.5t-286 -56.5q-275 0 -441.5 159t-166.5 419zM305 1487h217 q0 -135 111 -135q110 0 110 135h218q0 -137 -87.5 -221t-240.5 -84t-240.5 84t-87.5 221zM422 655h422q0 102 -54.5 166t-148.5 64q-86 0 -144 -59.5t-75 -170.5z" />
<glyph unicode="&#x116;" horiz-adv-x="1257" d="M76 0v215h139v1004h-139v215h1079v-373h-266v158h-305v-355h397v-235h-397v-414h309v182h266v-397h-1083zM475 1733q0 68 49 111.5t125 43.5q78 0 128 -43.5t50 -111.5q0 -72 -50 -118t-128 -46q-79 0 -126.5 45.5t-47.5 118.5z" />
<glyph unicode="&#x117;" horiz-adv-x="1263" d="M70 549q0 156 72.5 283.5t206.5 202.5t304 75q160 0 284.5 -74.5t190.5 -200t66 -278.5q0 -38 -4 -92l-768 -2q20 -119 93 -186.5t181 -67.5q80 0 147.5 35.5t110.5 93.5l215 -143q-78 -111 -205 -167.5t-286 -56.5q-275 0 -441.5 159t-166.5 419zM422 655h422 q0 102 -54.5 166t-148.5 64q-86 0 -144 -59.5t-75 -170.5zM459 1378q0 68 49 112t125 44q78 0 128 -44t50 -112q0 -72 -50 -118t-128 -46q-79 0 -126.5 45.5t-47.5 118.5z" />
<glyph unicode="&#x118;" horiz-adv-x="1257" d="M76 0v215h139v1004h-139v215h1079v-373h-266v158h-305v-355h397v-235h-397v-414h309v182h266v-397h-108q-55 -23 -89 -63.5t-34 -83.5q0 -34 20.5 -57t52.5 -23q51 0 97 43l86 -144q-90 -84 -232 -84q-109 0 -180.5 59.5t-71.5 159.5q0 104 103 193h-727z" />
<glyph unicode="&#x119;" horiz-adv-x="1263" d="M70 549q0 156 72.5 283.5t206.5 202.5t304 75q160 0 284.5 -74.5t190.5 -200t66 -278.5q0 -38 -4 -92l-768 -2q20 -119 93 -186.5t181 -67.5q80 0 147.5 35.5t110.5 93.5l215 -143q-74 -108 -200 -166q-131 -79 -131 -176q0 -35 20.5 -57.5t52.5 -22.5q52 0 97 45 l88 -142q-93 -90 -230 -90q-105 0 -176.5 59t-71.5 152q0 90 91 174h-31q-275 0 -441.5 159t-166.5 419zM422 655h422q0 102 -54.5 166t-148.5 64q-86 0 -144 -59.5t-75 -170.5z" />
<glyph unicode="&#x11a;" horiz-adv-x="1257" d="M76 0v215h139v1004h-139v215h1079v-373h-266v158h-305v-355h397v-235h-397v-414h309v182h266v-397h-1083zM281 1833h256l112 -147l113 147h256l-234 -281h-270z" />
<glyph unicode="&#x11b;" horiz-adv-x="1263" d="M70 549q0 156 72.5 283.5t206.5 202.5t304 75q160 0 284.5 -74.5t190.5 -200t66 -278.5q0 -38 -4 -92l-768 -2q20 -119 93 -186.5t181 -67.5q80 0 147.5 35.5t110.5 93.5l215 -143q-78 -111 -205 -167.5t-286 -56.5q-275 0 -441.5 159t-166.5 419zM264 1479h256l113 -148 l112 148h256l-233 -281h-270zM422 655h422q0 102 -54.5 166t-148.5 64q-86 0 -144 -59.5t-75 -170.5z" />
<glyph unicode="&#x11c;" horiz-adv-x="1628" d="M90 725q0 156 55 294t148 236t220.5 154.5t268.5 56.5q257 0 408 -163v131h266v-453h-250q-43 100 -130.5 155.5t-205.5 55.5q-163 0 -268.5 -124.5t-105.5 -330.5q0 -219 94.5 -358t251.5 -139q138 0 232.5 82.5t109.5 220.5h-262v241h579v-784h-293v184 q-77 -103 -191.5 -159t-252.5 -56q-200 0 -355 101.5t-237 273t-82 381.5zM422 1552l233 281h271l233 -281h-256l-112 148l-113 -148h-256z" />
<glyph unicode="&#x11d;" horiz-adv-x="1423" d="M78 557q0 244 141.5 396.5t360.5 152.5q104 0 187.5 -49.5t131.5 -130.5v153h479v-209h-135l-2 -768q0 -164 -85 -278.5t-232 -169.5t-344 -55q-218 0 -392 82l78 221q138 -74 318 -74q148 0 235.5 61.5t87.5 176.5v98q-54 -79 -144.5 -127.5t-201.5 -48.5 q-214 0 -348.5 158t-134.5 411zM252 1198l233 281h271l233 -281h-256l-112 148l-113 -148h-256zM438 551q0 -141 66 -230.5t170 -89.5q108 0 173.5 86.5t65.5 233.5q0 137 -66 221t-171 84t-171.5 -85t-66.5 -220z" />
<glyph unicode="&#x11e;" horiz-adv-x="1628" d="M90 725q0 156 55 294t148 236t220.5 154.5t268.5 56.5q257 0 408 -163v131h266v-453h-250q-43 100 -130.5 155.5t-205.5 55.5q-163 0 -268.5 -124.5t-105.5 -330.5q0 -219 94.5 -358t251.5 -139q138 0 232.5 82.5t109.5 220.5h-262v241h579v-784h-293v184 q-77 -103 -191.5 -159t-252.5 -56q-200 0 -355 101.5t-237 273t-82 381.5zM463 1841h217q0 -135 111 -135q110 0 110 135h217q0 -137 -87 -221t-240 -84t-240.5 84t-87.5 221z" />
<glyph unicode="&#x11f;" horiz-adv-x="1423" d="M78 557q0 244 141.5 396.5t360.5 152.5q104 0 187.5 -49.5t131.5 -130.5v153h479v-209h-135l-2 -768q0 -164 -85 -278.5t-232 -169.5t-344 -55q-218 0 -392 82l78 221q138 -74 318 -74q148 0 235.5 61.5t87.5 176.5v98q-54 -79 -144.5 -127.5t-201.5 -48.5 q-214 0 -348.5 158t-134.5 411zM293 1487h217q0 -135 111 -135q110 0 110 135h217q0 -137 -87 -221t-240 -84t-240.5 84t-87.5 221zM438 551q0 -141 66 -230.5t170 -89.5q108 0 173.5 86.5t65.5 233.5q0 137 -66 221t-171 84t-171.5 -85t-66.5 -220z" />
<glyph unicode="&#x120;" horiz-adv-x="1628" d="M90 725q0 156 55 294t148 236t220.5 154.5t268.5 56.5q257 0 408 -163v131h266v-453h-250q-43 100 -130.5 155.5t-205.5 55.5q-163 0 -268.5 -124.5t-105.5 -330.5q0 -219 94.5 -358t251.5 -139q138 0 232.5 82.5t109.5 220.5h-262v241h579v-784h-293v184 q-77 -103 -191.5 -159t-252.5 -56q-200 0 -355 101.5t-237 273t-82 381.5zM616 1733q0 68 49.5 111.5t125.5 43.5q78 0 128 -43.5t50 -111.5q0 -72 -50 -118t-128 -46q-79 0 -127 45.5t-48 118.5z" />
<glyph unicode="&#x121;" horiz-adv-x="1423" d="M78 557q0 244 141.5 396.5t360.5 152.5q104 0 187.5 -49.5t131.5 -130.5v153h479v-209h-135l-2 -768q0 -164 -85 -278.5t-232 -169.5t-344 -55q-218 0 -392 82l78 221q138 -74 318 -74q148 0 235.5 61.5t87.5 176.5v98q-54 -79 -144.5 -127.5t-201.5 -48.5 q-214 0 -348.5 158t-134.5 411zM438 551q0 -141 66 -230.5t170 -89.5q108 0 173.5 86.5t65.5 233.5q0 137 -66 221t-171 84t-171.5 -85t-66.5 -220zM446 1378q0 68 49.5 112t125.5 44q78 0 128 -44t50 -112q0 -72 -50 -118t-128 -46q-79 0 -127 45.5t-48 118.5z" />
<glyph unicode="&#x122;" horiz-adv-x="1628" d="M90 725q0 156 55 294t148 236t220.5 154.5t268.5 56.5q257 0 408 -163v131h266v-453h-250q-43 100 -130.5 155.5t-205.5 55.5q-163 0 -268.5 -124.5t-105.5 -330.5q0 -219 94.5 -358t251.5 -139q138 0 232.5 82.5t109.5 220.5h-262v241h579v-784h-293v184 q-77 -103 -191.5 -159t-252.5 -56q-200 0 -355 101.5t-237 273t-82 381.5zM664 -219q0 60 41 101.5t102 41.5q65 0 109.5 -52t44.5 -128q0 -194 -189 -338l-67 68q81 78 90 168h-7q-55 0 -89.5 42t-34.5 97z" />
<glyph unicode="&#x123;" horiz-adv-x="1423" d="M78 557q0 244 141.5 396.5t360.5 152.5q104 0 187.5 -49.5t131.5 -130.5v153h479v-209h-135l-2 -768q0 -164 -85 -278.5t-232 -169.5t-344 -55q-218 0 -392 82l78 221q138 -74 318 -74q148 0 235.5 61.5t87.5 176.5v98q-54 -79 -144.5 -127.5t-201.5 -48.5 q-214 0 -348.5 158t-134.5 411zM438 551q0 -141 66 -230.5t170 -89.5q108 0 173.5 86.5t65.5 233.5q0 137 -66 221t-171 84t-171.5 -85t-66.5 -220zM471 1337q0 195 188 338l68 -67q-81 -78 -90 -168h6q55 0 90 -42.5t35 -97.5q0 -60 -41 -101.5t-102 -41.5q-65 0 -109.5 52 t-44.5 128z" />
<glyph unicode="&#x124;" horiz-adv-x="1738" d="M78 0v215h139v1004h-139v215h647v-215h-139v-349h567v349h-139v215h647v-215h-139v-1004h139v-215h-647v215h139v389h-567v-389h139v-215h-647zM502 1552l233 281h271l233 -281h-256l-113 148l-112 -148h-256z" />
<glyph unicode="&#x125;" horiz-adv-x="1435" d="M53 0v209h135v1063h-135v209h473v-566q46 82 134.5 133.5t199.5 51.5q182 0 287.5 -102t105.5 -279v-510h136v-209h-594v209h114v455q0 75 -51.5 126.5t-126.5 51.5q-87 0 -143 -56t-56 -139v-438h115v-209h-594zM395 1540l234 281h270l234 -281h-256l-113 148l-113 -148 h-256z" />
<glyph unicode="&#x126;" horiz-adv-x="1738" d="M78 0v215h139v754h-139v151h139v125h-139v189h647v-189h-139v-125h567v125h-139v189h647v-189h-139v-125h139v-151h-139v-754h139v-215h-647v215h139v389h-567v-389h139v-215h-647zM586 846h567v123h-567v-123z" />
<glyph unicode="&#x127;" horiz-adv-x="1437" d="M55 0v209h135v917h-135v136h135v84h-135v135h473v-219h230v-136h-230v-231q46 82 134.5 133t199.5 51q182 0 287.5 -102t105.5 -279v-489h136v-209h-594v209h114v434q0 75 -51.5 126.5t-126.5 51.5q-87 0 -142.5 -55.5t-55.5 -138.5v-418h114v-209h-594z" />
<glyph unicode="&#x128;" horiz-adv-x="802" d="M29 1556q0 121 63 202t162 81q52 0 107.5 -21t102.5 -42t77 -21q32 0 51 21t22 53h160q0 -128 -60 -205.5t-161 -77.5q-52 0 -107.5 21t-103 42t-80.5 21q-32 0 -51.5 -21.5t-22.5 -52.5h-159zM78 0v215h139v1004h-139v215h647v-215h-139v-1004h139v-215h-647z" />
<glyph unicode="&#x129;" horiz-adv-x="729" d="M-27 1202q0 121 63.5 202t162.5 81q52 0 107 -21t102 -42t77 -21q32 0 51.5 21.5t22.5 52.5h160q0 -128 -60 -205.5t-161 -77.5q-52 0 -107.5 21t-103 42t-80.5 21q-32 0 -51.5 -21.5t-22.5 -52.5h-160zM63 0v209h136v661h-136v209h478v-870h135v-209h-613z" />
<glyph unicode="&#x12a;" horiz-adv-x="802" d="M51 1587v197h701v-197h-701zM78 0v215h139v1004h-139v215h647v-215h-139v-1004h139v-215h-647z" />
<glyph unicode="&#x12b;" horiz-adv-x="731" d="M6 1233v197h701v-197h-701zM63 0v209h136v661h-136v209h480v-870h135v-209h-615z" />
<glyph unicode="&#x12c;" horiz-adv-x="802" d="M74 1841h217q0 -135 110 -135q111 0 111 135h217q0 -137 -87.5 -221t-240.5 -84t-240 84t-87 221zM78 0v215h139v1004h-139v215h647v-215h-139v-1004h139v-215h-647z" />
<glyph unicode="&#x12d;" horiz-adv-x="731" d="M29 1487h217q0 -135 110 -135q111 0 111 135h217q0 -137 -87.5 -221t-240.5 -84t-240 84t-87 221zM63 0v209h136v661h-136v209h480v-870h135v-209h-615z" />
<glyph unicode="&#x12e;" horiz-adv-x="802" d="M78 0v215h139v1004h-139v215h647v-215h-139v-1004h139v-215h-127q-55 -23 -89 -63.5t-34 -83.5q0 -34 21 -57t53 -23q50 0 96 43l86 -144q-90 -84 -231 -84q-109 0 -180.5 59.5t-71.5 159.5q0 104 102 193h-272z" />
<glyph unicode="&#x12f;" horiz-adv-x="731" d="M63 0v209h136v661h-136v209h480v-870h135v-209h-117q-55 -23 -89 -63.5t-34 -83.5q0 -34 21 -57t53 -23q50 0 96 43l86 -144q-90 -84 -231 -84q-109 0 -180.5 59.5t-71.5 159.5q0 104 102 193h-250zM170 1384q0 77 53.5 127t136.5 50q84 0 137.5 -50t53.5 -127 q0 -78 -53.5 -129t-137.5 -51q-85 0 -137.5 50.5t-52.5 129.5z" />
<glyph unicode="&#x130;" horiz-adv-x="802" d="M78 0v215h139v1004h-139v215h647v-215h-139v-1004h139v-215h-647zM227 1733q0 68 49 111.5t125 43.5q78 0 128.5 -43.5t50.5 -111.5q0 -72 -50.5 -118t-128.5 -46q-79 0 -126.5 45.5t-47.5 118.5z" />
<glyph unicode="&#x131;" horiz-adv-x="731" d="M63 0v209h136v661h-136v209h480v-870h135v-209h-615z" />
<glyph unicode="&#x132;" horiz-adv-x="1636" d="M78 0v215h139v1004h-139v215h647v-215h-139v-1004h139v-215h-647zM735 -285l31 213q68 -16 131 -18q77 0 124.5 45.5t47.5 130.5v1133h-184v215h692v-215h-139v-1145q0 -118 -64 -208.5t-168 -136.5t-229 -46q-137 0 -242 32z" />
<glyph unicode="&#x133;" horiz-adv-x="1431" d="M63 0v209h136v661h-136v209h480v-870h135v-209h-615zM170 1384q0 77 53.5 127t136.5 50q84 0 137.5 -50t53.5 -127q0 -78 -53.5 -129t-137.5 -51q-85 0 -137.5 50.5t-52.5 129.5zM707 -166q38 -10 86 -10q61 0 99 39t38 104v903h-135v209h479v-1120q0 -160 -118.5 -258 t-293.5 -98q-83 0 -155 10v221zM901 1384q0 77 53.5 127t137.5 50q83 0 136.5 -50t53.5 -127q0 -78 -53.5 -129t-136.5 -51q-84 0 -137.5 51t-53.5 129z" />
<glyph unicode="&#x134;" horiz-adv-x="833" d="M-68 -285l31 213q68 -16 131 -18q77 0 124.5 45.5t47.5 130.5v1133h-184v215h692v-215h-139v-1145q0 -118 -64 -208.5t-168 -136.5t-229 -46q-137 0 -242 32zM49 1552l234 281h270l233 -281h-256l-112 148l-113 -148h-256z" />
<glyph unicode="&#x135;" horiz-adv-x="700" d="M-25 -166q38 -10 86 -10q61 0 99.5 39t38.5 104v903h-136v209h480v-1120q0 -160 -118.5 -258t-293.5 -98q-84 0 -156 10v221zM-20 1198l233 281h270l234 -281h-256l-113 148l-112 -148h-256z" />
<glyph unicode="&#x136;" horiz-adv-x="1568" d="M76 0v215h139v1004h-139v215h626v-215h-118v-451l428 461h-142v205h627v-215h-156l-403 -424l477 -580h139v-215h-686v205h115l-399 526v-516h118v-215h-626zM637 -211q0 60 41 101.5t102 41.5q65 0 109.5 -52t44.5 -128q0 -194 -189 -338l-67 68q81 78 90 168h-6 q-55 0 -90 42t-35 97z" />
<glyph unicode="&#x137;" horiz-adv-x="1347" d="M55 0v209h135v1063h-135v209h480v-885l294 291h-137v192h606v-209h-174l-252 -239l330 -422h137v-209h-393l-411 555v-346h108v-209h-588zM571 -211q0 60 41.5 101.5t102.5 41.5q65 0 109 -52t44 -128q0 -195 -188 -338l-68 68q81 78 90 168h-6q-55 0 -90 42t-35 97z" />
<glyph unicode="&#x138;" horiz-adv-x="1353" d="M61 0v209h136v661h-136v209h480v-483l295 291h-138v192h607v-209h-175l-251 -239l329 -422h138v-209h-394l-411 555v-346h108v-209h-588z" />
<glyph unicode="&#x139;" horiz-adv-x="1212" d="M78 0v215h139v1004h-139v215h661v-215h-153v-1004h305v242h266v-457h-1079zM250 1552l133 301h350l-239 -301h-244z" />
<glyph unicode="&#x13a;" horiz-adv-x="720" d="M53 0v209h135v1063h-135v209h479v-1272h136v-209h-615zM195 1577l133 301h350l-240 -301h-243z" />
<glyph unicode="&#x13b;" horiz-adv-x="1212" d="M78 0v215h139v1004h-139v215h661v-215h-153v-1004h305v242h266v-457h-1079zM537 -211q0 60 41 101.5t102 41.5q65 0 109.5 -52t44.5 -128q0 -194 -189 -338l-67 68q81 78 90 168h-6q-55 0 -90 42t-35 97z" />
<glyph unicode="&#x13c;" horiz-adv-x="720" d="M53 0v209h135v1063h-135v209h479v-1272h136v-209h-615zM213 -211q0 60 41 101.5t102 41.5q65 0 109.5 -52t44.5 -128q0 -195 -188 -338l-68 68q81 78 90 168h-6q-55 0 -90 42t-35 97z" />
<glyph unicode="&#x13d;" horiz-adv-x="1247" d="M78 0v215h139v1004h-139v215h661v-215h-153v-1004h305v242h266v-457h-1079zM872 1090l25 391h270l-108 -391h-187z" />
<glyph unicode="&#x13e;" horiz-adv-x="888" d="M53 0v209h135v1063h-135v209h479v-1272h136v-209h-615zM668 1090l24 391h271l-109 -391h-186z" />
<glyph unicode="&#x13f;" horiz-adv-x="1288" d="M78 0v215h139v1004h-139v215h661v-215h-153v-1004h305v221h266v-436h-1079zM834 776q0 77 60.5 136t139.5 59t136 -59t57 -136q0 -80 -57 -137t-136 -57q-80 0 -140 57.5t-60 136.5z" />
<glyph unicode="&#x140;" horiz-adv-x="1171" d="M53 0v209h135v1063h-135v209h479v-1272h136v-209h-615zM737 760q0 82 63 142.5t146 60.5t142 -60.5t59 -142.5q0 -83 -59 -143t-142 -60q-84 0 -146.5 60t-62.5 143z" />
<glyph unicode="&#x141;" horiz-adv-x="1255" d="M78 492v204l182 74v449h-139v215h661v-215h-153v-301l297 118v-205l-297 -118v-498h305v242h266v-457h-1079v215h139v350z" />
<glyph unicode="&#x142;" horiz-adv-x="817" d="M29 541v196l215 90v445h-135v209h479v-506l215 90v-197l-215 -90v-569h135v-209h-614v209h135v422z" />
<glyph unicode="&#x143;" horiz-adv-x="1759" d="M78 0v215h139v1004h-139v215h536l641 -957v742h-139v215h565v-215h-139v-1219h-403l-635 961v-746h139v-215h-565zM715 1552l133 301h350l-240 -301h-243z" />
<glyph unicode="&#x144;" horiz-adv-x="1443" d="M61 0v209h136v661h-136v209h474v-164q46 82 134 133.5t199 51.5q182 0 288 -102t106 -279v-510h135v-209h-594v209h115v455q0 75 -52 126.5t-127 51.5q-87 0 -142.5 -56t-55.5 -139v-438h114v-209h-594zM606 1198l133 301h351l-240 -301h-244z" />
<glyph unicode="&#x145;" horiz-adv-x="1759" d="M78 0v215h139v1004h-139v215h536l641 -957v742h-139v215h565v-215h-139v-1219h-403l-635 961v-746h139v-215h-565zM733 -211q0 60 41.5 101.5t102.5 41.5q65 0 109 -52t44 -128q0 -195 -188 -338l-68 68q81 78 90 168h-6q-55 0 -90 42t-35 97z" />
<glyph unicode="&#x146;" horiz-adv-x="1443" d="M61 0v209h136v661h-136v209h474v-164q46 82 134 133.5t199 51.5q182 0 288 -102t106 -279v-510h135v-209h-594v209h115v455q0 75 -52 126.5t-127 51.5q-87 0 -142.5 -56t-55.5 -139v-438h114v-209h-594zM575 -211q0 60 41.5 101.5t102.5 41.5q65 0 109 -52t44 -128 q0 -195 -188 -338l-68 68q83 79 91 168h-7q-55 0 -90 42t-35 97z" />
<glyph unicode="&#x147;" horiz-adv-x="1759" d="M78 0v215h139v1004h-139v215h536l641 -957v742h-139v215h565v-215h-139v-1219h-403l-635 961v-746h139v-215h-565zM512 1833h256l113 -147l112 147h256l-233 -281h-271z" />
<glyph unicode="&#x148;" horiz-adv-x="1443" d="M61 0v209h136v661h-136v209h474v-164q46 82 134 133.5t199 51.5q182 0 288 -102t106 -279v-510h135v-209h-594v209h115v455q0 75 -52 126.5t-127 51.5q-87 0 -142.5 -56t-55.5 -139v-438h114v-209h-594zM403 1479h256l113 -148l113 148h256l-234 -281h-270z" />
<glyph unicode="&#x149;" horiz-adv-x="1638" d="M-109 1391q0 75 51 125.5t126 50.5q79 0 132.5 -62.5t53.5 -158.5q0 -125 -66.5 -234t-183.5 -186l-80 86q115 85 127 211h-8q-64 0 -108 53t-44 115zM256 0v209h135v661h-135v209h473v-164q46 82 134.5 133.5t199.5 51.5q182 0 287.5 -102t105.5 -279v-510h135v-209 h-594v209h115v455q0 75 -51.5 126.5t-126.5 51.5q-87 0 -143 -56t-56 -139v-438h115v-209h-594z" />
<glyph unicode="&#x14a;" horiz-adv-x="1759" d="M78 0v215h139v1004h-139v215h526l651 -910v695h-139v215h565v-215h-139v-1260q0 -160 -115.5 -258t-287.5 -98q-84 0 -156 10v221q38 -10 86 -10q64 0 104.5 39t40.5 104v23l-710 966v-741h139v-215h-565z" />
<glyph unicode="&#x14b;" horiz-adv-x="1411" d="M61 0v209h136v661h-136v209h474v-164q46 82 134 133.5t199 51.5q182 0 288 -102t106 -279v-760q0 -160 -118.5 -258t-293.5 -98q-84 0 -156 10v221q38 -10 86 -10q61 0 99.5 39t38.5 104v697q0 75 -52 126.5t-127 51.5q-87 0 -142.5 -56t-55.5 -139v-438h114v-209h-594z " />
<glyph unicode="&#x14c;" horiz-adv-x="1703" d="M90 729q0 158 55.5 294t154 233.5t241.5 153.5t311 56q170 0 313.5 -55.5t242 -153.5t153.5 -234t55 -294q0 -163 -54 -303t-151.5 -241t-241.5 -158.5t-317 -57.5q-228 0 -402.5 98.5t-267 271t-92.5 390.5zM496 729q0 -221 96 -355t260 -134t261 134.5t97 354.5 q0 211 -97 339t-261 128t-260 -128t-96 -339zM502 1587v197h700v-197h-700z" />
<glyph unicode="&#x14d;" horiz-adv-x="1337" d="M70 551q0 244 169 401.5t429 157.5q171 0 308 -71.5t214.5 -199t77.5 -288.5q0 -256 -168 -418t-432 -162t-431 162t-167 418zM319 1233v197h701v-197h-701zM430 551q0 -148 65 -239t173 -91t173.5 91t65.5 239q0 139 -65.5 224t-173.5 85t-173 -85t-65 -224z" />
<glyph unicode="&#x14e;" horiz-adv-x="1703" d="M90 729q0 158 55.5 294t154 233.5t241.5 153.5t311 56q170 0 313.5 -55.5t242 -153.5t153.5 -234t55 -294q0 -163 -54 -303t-151.5 -241t-241.5 -158.5t-317 -57.5q-228 0 -402.5 98.5t-267 271t-92.5 390.5zM496 729q0 -221 96 -355t260 -134t261 134.5t97 354.5 q0 211 -97 339t-261 128t-260 -128t-96 -339zM524 1841h217q0 -135 111 -135t111 135h217q0 -137 -87.5 -221t-240.5 -84t-240.5 84t-87.5 221z" />
<glyph unicode="&#x14f;" horiz-adv-x="1337" d="M70 551q0 244 169 401.5t429 157.5q171 0 308 -71.5t214.5 -199t77.5 -288.5q0 -256 -168 -418t-432 -162t-431 162t-167 418zM342 1487h217q0 -135 111 -135q110 0 110 135h217q0 -137 -87 -221t-240 -84t-240.5 84t-87.5 221zM430 551q0 -148 65 -239t173 -91t173.5 91 t65.5 239q0 139 -65.5 224t-173.5 85t-173 -85t-65 -224z" />
<glyph unicode="&#x150;" horiz-adv-x="1703" d="M90 729q0 158 55.5 294t154 233.5t241.5 153.5t311 56q170 0 313.5 -55.5t242 -153.5t153.5 -234t55 -294q0 -163 -54 -303t-151.5 -241t-241.5 -158.5t-317 -57.5q-228 0 -402.5 98.5t-267 271t-92.5 390.5zM496 729q0 -221 96 -355t260 -134t261 134.5t97 354.5 q0 211 -97 339t-261 128t-260 -128t-96 -339zM557 1550l121 303h289l-193 -303h-217zM940 1550l121 303h289l-193 -303h-217z" />
<glyph unicode="&#x151;" horiz-adv-x="1337" d="M70 551q0 244 169 401.5t429 157.5q171 0 308 -71.5t214.5 -199t77.5 -288.5q0 -256 -168 -418t-432 -162t-431 162t-167 418zM375 1196l121 303h288l-192 -303h-217zM430 551q0 -148 65 -239t173 -91t173.5 91t65.5 239q0 139 -65.5 224t-173.5 85t-173 -85t-65 -224z M758 1196l121 303h288l-192 -303h-217z" />
<glyph unicode="&#x152;" horiz-adv-x="2256" d="M90 729q0 158 55.5 294t154 233.5t241.5 153.5t311 56q118 0 233 -32h1069v-373h-266v145h-461q115 -145 150 -342h403v-235h-399q-24 -234 -160 -402h471v170h267v-397h-1082q-108 -31 -225 -31q-228 0 -402.5 98.5t-267 271t-92.5 390.5zM496 729q0 -221 96 -355 t260 -134q161 0 255.5 134.5t94.5 354.5q0 211 -94.5 339t-255.5 128q-164 0 -260 -128t-96 -339z" />
<glyph unicode="&#x153;" horiz-adv-x="2095" d="M70 551q0 244 169 401.5t429 157.5q120 0 226 -46t185 -128q77 82 181.5 128t224.5 46q160 0 284.5 -75t190 -200t65.5 -278q0 -38 -4 -92l-768 -2q20 -119 93.5 -186.5t181.5 -67.5q80 0 147.5 35.5t110.5 93.5l215 -143q-78 -111 -205.5 -167.5t-286.5 -56.5 q-130 0 -240 46.5t-190 129.5q-78 -84 -183.5 -130t-227.5 -46q-264 0 -431 162t-167 418zM430 551q0 -148 65 -239t173 -91t173.5 91t65.5 239q0 139 -65.5 224t-173.5 85t-173 -85t-65 -224zM1253 655h422q0 102 -54.5 166t-147.5 64q-86 0 -144.5 -59.5t-75.5 -170.5z " />
<glyph unicode="&#x154;" horiz-adv-x="1480" d="M76 0v215h139v1004h-139v215h717q144 0 262 -49.5t188 -143t70 -213.5q0 -124 -79.5 -224.5t-201.5 -146.5l273 -442h151v-215h-444l-324 588h-104v-373h125v-215h-633zM553 1552l133 301h350l-239 -301h-244zM584 786h102q103 0 168.5 61t65.5 167q0 99 -63 157t-159 58 h-114v-443z" />
<glyph unicode="&#x155;" horiz-adv-x="1013" d="M63 0v209h136v661h-136v209h474v-241q43 116 126.5 193t190.5 77q71 0 143 -16l-51 -363q-113 37 -196 37q-97 0 -152 -50t-55 -138v-369h162v-209h-642zM440 1198l133 301h351l-240 -301h-244z" />
<glyph unicode="&#x156;" horiz-adv-x="1480" d="M76 0v215h139v1004h-139v215h717q144 0 262 -49.5t188 -143t70 -213.5q0 -124 -79.5 -224.5t-201.5 -146.5l273 -442h151v-215h-444l-324 588h-104v-373h125v-215h-633zM584 786h102q103 0 168.5 61t65.5 167q0 99 -63 157t-159 58h-114v-443zM639 -211q0 60 41 101.5 t102 41.5q65 0 109.5 -52t44.5 -128q0 -195 -188 -338l-68 68q81 78 90 168h-6q-55 0 -90 42t-35 97z" />
<glyph unicode="&#x157;" horiz-adv-x="1013" d="M63 0v209h136v661h-136v209h474v-241q43 116 126.5 193t190.5 77q71 0 143 -16l-51 -363q-113 37 -196 37q-97 0 -152 -50t-55 -138v-369h162v-209h-642zM227 -211q0 60 41.5 101.5t102.5 41.5q65 0 109 -52t44 -128q0 -195 -188 -338l-68 68q81 78 90 168h-6 q-55 0 -90 42t-35 97z" />
<glyph unicode="&#x158;" horiz-adv-x="1480" d="M76 0v215h139v1004h-139v215h717q144 0 262 -49.5t188 -143t70 -213.5q0 -124 -79.5 -224.5t-201.5 -146.5l273 -442h151v-215h-444l-324 588h-104v-373h125v-215h-633zM350 1833h256l113 -147l112 147h256l-233 -281h-270zM584 786h102q103 0 168.5 61t65.5 167 q0 99 -63 157t-159 58h-114v-443z" />
<glyph unicode="&#x159;" horiz-adv-x="1013" d="M63 0v209h136v661h-136v209h474v-241q43 116 126.5 193t190.5 77q71 0 143 -16l-51 -363q-113 37 -196 37q-97 0 -152 -50t-55 -138v-369h162v-209h-642zM238 1479h256l112 -148l113 148h256l-234 -281h-270z" />
<glyph unicode="&#x15a;" horiz-adv-x="1269" d="M86 0v471h250q32 -111 112.5 -178.5t192.5 -67.5q79 0 128.5 44t49.5 112q0 41 -24.5 73.5t-65.5 56.5t-94 45.5t-112 44t-118 48.5t-112 63t-94 82.5t-65.5 112.5t-24.5 148q0 173 125.5 290t318.5 117q189 0 311 -135v107h266v-435h-245q-25 99 -93.5 158.5 t-164.5 59.5q-62 0 -103 -38t-41 -98q0 -43 30.5 -76.5t80.5 -55.5t114 -47t130.5 -48t130.5 -61.5t114 -85t80.5 -121t30.5 -166.5q0 -195 -135.5 -322t-353.5 -127q-108 0 -200 40t-153 110v-121h-266zM428 1552l133 301h350l-239 -301h-244z" />
<glyph unicode="&#x15b;" horiz-adv-x="1126" d="M84 -2v356h221q37 -77 106 -121.5t164 -44.5q60 0 97 30t37 77q0 29 -21 50.5t-57 35.5t-82.5 26.5t-98 26.5t-103 30.5t-98 43.5t-82 62t-56.5 88t-21 120q0 142 104.5 236t270.5 94q171 0 297 -113v90h242v-331h-218q-33 67 -100.5 108t-148.5 41q-50 0 -82.5 -27 t-32.5 -67q0 -35 34.5 -59t89 -39.5t121 -31t133 -41t121 -61.5t89 -100.5t34.5 -150.5q0 -155 -115 -255t-290 -100q-190 0 -313 117v-90h-242zM354 1198l133 301h351l-240 -301h-244z" />
<glyph unicode="&#x15c;" horiz-adv-x="1269" d="M86 0v471h250q32 -111 112.5 -178.5t192.5 -67.5q79 0 128.5 44t49.5 112q0 41 -24.5 73.5t-65.5 56.5t-94 45.5t-112 44t-118 48.5t-112 63t-94 82.5t-65.5 112.5t-24.5 148q0 173 125.5 290t318.5 117q189 0 311 -135v107h266v-435h-245q-25 99 -93.5 158.5 t-164.5 59.5q-62 0 -103 -38t-41 -98q0 -43 30.5 -76.5t80.5 -55.5t114 -47t130.5 -48t130.5 -61.5t114 -85t80.5 -121t30.5 -166.5q0 -195 -135.5 -322t-353.5 -127q-108 0 -200 40t-153 110v-121h-266zM225 1552l234 281h270l234 -281h-256l-113 148l-113 -148h-256z" />
<glyph unicode="&#x15d;" horiz-adv-x="1126" d="M84 -2v356h221q37 -77 106 -121.5t164 -44.5q60 0 97 30t37 77q0 29 -21 50.5t-57 35.5t-82.5 26.5t-98 26.5t-103 30.5t-98 43.5t-82 62t-56.5 88t-21 120q0 142 104.5 236t270.5 94q171 0 297 -113v90h242v-331h-218q-33 67 -100.5 108t-148.5 41q-50 0 -82.5 -27 t-32.5 -67q0 -35 34.5 -59t89 -39.5t121 -31t133 -41t121 -61.5t89 -100.5t34.5 -150.5q0 -155 -115 -255t-290 -100q-190 0 -313 117v-90h-242zM152 1198l233 281h270l234 -281h-256l-113 148l-112 -148h-256z" />
<glyph unicode="&#x15e;" horiz-adv-x="1269" d="M86 0v471h250q32 -111 112.5 -178.5t192.5 -67.5q79 0 128.5 44t49.5 112q0 41 -24.5 73.5t-65.5 56.5t-94 45.5t-112 44t-118 48.5t-112 63t-94 82.5t-65.5 112.5t-24.5 148q0 173 125.5 290t318.5 117q189 0 311 -135v107h266v-435h-245q-25 99 -93.5 158.5 t-164.5 59.5q-62 0 -103 -38t-41 -98q0 -43 30.5 -76.5t80.5 -55.5t114 -47t130.5 -48t130.5 -61.5t114 -85t80.5 -121t30.5 -166.5q0 -180 -117.5 -304t-312.5 -143l-14 -75q80 0 130 -49t50 -119q0 -106 -79.5 -162.5t-205.5 -56.5q-82 0 -143 28l37 150q38 -21 88 -21 q37 0 60.5 16.5t23.5 47.5q0 30 -23 46.5t-61 16.5q-41 0 -68 -10l41 197q-157 31 -248 139v-121h-266z" />
<glyph unicode="&#x15f;" horiz-adv-x="1126" d="M84 -2v356h221q37 -77 106 -121.5t164 -44.5q60 0 97 30t37 77q0 29 -21 50.5t-57 35.5t-82.5 26.5t-98 26.5t-103 30.5t-98 43.5t-82 62t-56.5 88t-21 120q0 142 104.5 236t270.5 94q171 0 297 -113v90h242v-331h-218q-33 67 -100.5 108t-148.5 41q-50 0 -82.5 -27 t-32.5 -67q0 -35 34.5 -59t89 -39.5t121 -31t133 -41t121 -61.5t89 -100.5t34.5 -150.5q0 -149 -105.5 -247.5t-270.5 -107.5l-13 -65q80 0 130.5 -49.5t50.5 -118.5q0 -106 -79.5 -162.5t-205.5 -56.5q-82 0 -143 28l36 150q38 -21 88 -21q37 0 60.5 16.5t23.5 47.5 q0 30 -23 46.5t-61 16.5q-40 0 -67 -10l41 197q-102 26 -180 98v-90h-242z" />
<glyph unicode="&#x160;" horiz-adv-x="1269" d="M86 0v471h250q32 -111 112.5 -178.5t192.5 -67.5q79 0 128.5 44t49.5 112q0 41 -24.5 73.5t-65.5 56.5t-94 45.5t-112 44t-118 48.5t-112 63t-94 82.5t-65.5 112.5t-24.5 148q0 173 125.5 290t318.5 117q189 0 311 -135v107h266v-435h-245q-25 99 -93.5 158.5 t-164.5 59.5q-62 0 -103 -38t-41 -98q0 -43 30.5 -76.5t80.5 -55.5t114 -47t130.5 -48t130.5 -61.5t114 -85t80.5 -121t30.5 -166.5q0 -195 -135.5 -322t-353.5 -127q-108 0 -200 40t-153 110v-121h-266zM225 1833h256l113 -147l113 147h256l-234 -281h-270z" />
<glyph unicode="&#x161;" horiz-adv-x="1126" d="M84 -2v356h221q37 -77 106 -121.5t164 -44.5q60 0 97 30t37 77q0 29 -21 50.5t-57 35.5t-82.5 26.5t-98 26.5t-103 30.5t-98 43.5t-82 62t-56.5 88t-21 120q0 142 104.5 236t270.5 94q171 0 297 -113v90h242v-331h-218q-33 67 -100.5 108t-148.5 41q-50 0 -82.5 -27 t-32.5 -67q0 -35 34.5 -59t89 -39.5t121 -31t133 -41t121 -61.5t89 -100.5t34.5 -150.5q0 -155 -115 -255t-290 -100q-190 0 -313 117v-90h-242zM152 1479h256l112 -148l113 148h256l-234 -281h-270z" />
<glyph unicode="&#x162;" horiz-adv-x="1441" d="M45 973v461h1352v-461h-275v241h-217v-999h178v-215h-278l-19 -94q80 0 130.5 -49.5t50.5 -118.5q0 -106 -79.5 -162.5t-205.5 -56.5q-82 0 -143 28l36 150q38 -21 89 -21q37 0 60.5 16.5t23.5 47.5q0 30 -23 46.5t-61 16.5q-41 0 -68 -10l43 207h-281v215h179v999h-218 v-241h-274z" />
<glyph unicode="&#x163;" horiz-adv-x="813" d="M37 870v209h141v244h344v-244h221v-209h-221v-512q0 -63 36 -101t95 -38q57 0 109 12v-221q-90 -22 -203 -22h-2l-16 -82q80 0 130 -49t50 -119q0 -106 -79.5 -162.5t-205.5 -56.5q-82 0 -143 28l37 150q38 -21 88 -21q37 0 60.5 16.5t23.5 47.5q0 30 -23 46.5t-61 16.5 q-41 0 -68 -10l45 219q-105 37 -161 124.5t-56 215.5v518h-141z" />
<glyph unicode="&#x164;" horiz-adv-x="1441" d="M45 973v461h1352v-461h-275v241h-217v-999h178v-215h-725v215h179v999h-218v-241h-274zM352 1833h256l113 -147l113 147h256l-234 -281h-270z" />
<glyph unicode="&#x165;" horiz-adv-x="886" d="M37 870v209h141v244h344v-244h221v-209h-221v-512q0 -63 36 -101t95 -38q57 0 109 12v-221q-90 -22 -203 -22q-183 0 -282 96t-99 268v518h-141zM655 1190l21 379h270l-104 -379h-187z" />
<glyph unicode="&#x166;" horiz-adv-x="1441" d="M45 973v461h1352v-461h-275v241h-217v-426h230v-188h-230v-385h178v-215h-725v215h179v385h-228v188h228v426h-218v-241h-274z" />
<glyph unicode="&#x167;" horiz-adv-x="813" d="M37 518v168h141v184h-141v209h141v244h344v-244h221v-209h-221v-184h221v-168h-221v-160q0 -63 36 -101t95 -38q57 0 109 12v-221q-90 -22 -203 -22q-183 0 -282 96t-99 268v166h-141z" />
<glyph unicode="&#x168;" d="M53 1219v215h662v-215h-154v-713q0 -116 72 -191t192 -75t193.5 75t73.5 191v713h-156v215h663v-215h-139v-709q0 -250 -171 -395.5t-464 -145.5t-462.5 145t-169.5 396v709h-140zM455 1556q0 121 63 202t162 81q52 0 107.5 -21t102.5 -42t77 -21q32 0 51 21t22 53h160 q0 -128 -60 -205.5t-161 -77.5q-52 0 -107.5 21t-103 42t-80.5 21q-32 0 -51.5 -21.5t-22.5 -52.5h-159z" />
<glyph unicode="&#x169;" horiz-adv-x="1415" d="M37 870v209h479v-657q0 -83 43 -132.5t121 -49.5q93 0 148 54.5t55 141.5v434h-135v209h479v-870h135v-209h-473v164q-49 -82 -143 -133t-211 -51q-172 0 -267.5 104t-95.5 283v503h-135zM324 1202q0 121 63 202t162 81q52 0 107.5 -21t102.5 -42t77 -21q32 0 51 21 t22 53h160q0 -128 -60 -205.5t-161 -77.5q-52 0 -107.5 21t-103 42t-80.5 21q-32 0 -51.5 -21.5t-22.5 -52.5h-159z" />
<glyph unicode="&#x16a;" d="M53 1219v215h662v-215h-154v-713q0 -116 72 -191t192 -75t193.5 75t73.5 191v713h-156v215h663v-215h-139v-709q0 -250 -171 -395.5t-464 -145.5t-462.5 145t-169.5 396v709h-140zM477 1587v197h701v-197h-701z" />
<glyph unicode="&#x16b;" horiz-adv-x="1415" d="M37 870v209h479v-657q0 -83 43 -132.5t121 -49.5q93 0 148 54.5t55 141.5v434h-135v209h479v-870h135v-209h-473v164q-49 -82 -143 -133t-211 -51q-172 0 -267.5 104t-95.5 283v503h-135zM346 1233v197h701v-197h-701z" />
<glyph unicode="&#x16c;" d="M53 1219v215h662v-215h-154v-713q0 -116 72 -191t192 -75t193.5 75t73.5 191v713h-156v215h663v-215h-139v-709q0 -250 -171 -395.5t-464 -145.5t-462.5 145t-169.5 396v709h-140zM500 1841h217q0 -135 110 -135q111 0 111 135h217q0 -137 -87.5 -221t-240.5 -84t-240 84 t-87 221z" />
<glyph unicode="&#x16d;" horiz-adv-x="1415" d="M37 870v209h479v-657q0 -83 43 -132.5t121 -49.5q93 0 148 54.5t55 141.5v434h-135v209h479v-870h135v-209h-473v164q-49 -82 -143 -133t-211 -51q-172 0 -267.5 104t-95.5 283v503h-135zM369 1487h217q0 -135 110 -135q111 0 111 135h217q0 -137 -87.5 -221t-240.5 -84 t-240 84t-87 221z" />
<glyph unicode="&#x16e;" d="M53 1219v215h662v-215h-154v-713q0 -116 72 -191t192 -75t193.5 75t73.5 191v713h-156v215h663v-215h-139v-709q0 -250 -171 -395.5t-464 -145.5t-462.5 145t-169.5 396v709h-140zM573 1745q0 95 72.5 155t181.5 60t181.5 -60t72.5 -155q0 -96 -73 -157.5t-181 -61.5 t-181 61.5t-73 157.5zM737 1743q0 -39 24.5 -62.5t65.5 -23.5q40 0 65.5 24t25.5 62t-25.5 62t-65.5 24q-41 0 -65.5 -23.5t-24.5 -62.5z" />
<glyph unicode="&#x16f;" horiz-adv-x="1415" d="M37 870v209h479v-657q0 -83 43 -132.5t121 -49.5q93 0 148 54.5t55 141.5v434h-135v209h479v-870h135v-209h-473v164q-49 -82 -143 -133t-211 -51q-172 0 -267.5 104t-95.5 283v503h-135zM442 1391q0 95 72.5 155t181.5 60t181.5 -60t72.5 -155q0 -96 -73 -158t-181 -62 t-181 62t-73 158zM606 1389q0 -39 24.5 -62.5t65.5 -23.5q40 0 65 24t25 62t-25 62t-65 24q-41 0 -65.5 -23.5t-24.5 -62.5z" />
<glyph unicode="&#x170;" d="M53 1219v215h662v-215h-154v-713q0 -116 72 -191t192 -75t193.5 75t73.5 191v713h-156v215h663v-215h-139v-709q0 -250 -171 -395.5t-464 -145.5t-462.5 145t-169.5 396v709h-140zM532 1550l121 303h289l-192 -303h-218zM915 1550l121 303h289l-192 -303h-218z" />
<glyph unicode="&#x171;" horiz-adv-x="1415" d="M37 870v209h479v-657q0 -83 43 -132.5t121 -49.5q93 0 148 54.5t55 141.5v434h-135v209h479v-870h135v-209h-473v164q-49 -82 -143 -133t-211 -51q-172 0 -267.5 104t-95.5 283v503h-135zM401 1196l121 303h289l-193 -303h-217zM784 1196l121 303h289l-193 -303h-217z " />
<glyph unicode="&#x172;" d="M53 1219v215h662v-215h-154v-713q0 -116 72 -191t192 -75t193.5 75t73.5 191v713h-156v215h663v-215h-139v-709q0 -203 -115.5 -339t-320.5 -181q-48 -25 -76 -62.5t-28 -77.5q0 -34 20.5 -56.5t52.5 -22.5q51 0 97 43l86 -144q-90 -84 -232 -84q-109 0 -180.5 59.5 t-71.5 159.5q0 89 74 166q-267 15 -420 158.5t-153 380.5v709h-140z" />
<glyph unicode="&#x173;" horiz-adv-x="1415" d="M37 870v209h479v-657q0 -83 43 -132.5t121 -49.5q93 0 148 54.5t55 141.5v434h-135v209h479v-870h135v-209h-227q-55 -23 -89 -63.5t-34 -83.5q0 -34 20.5 -57t52.5 -23q51 0 97 43l86 -144q-90 -84 -232 -84q-109 0 -180.5 59.5t-71.5 159.5q0 108 105 193v164 q-49 -82 -143 -133t-211 -51q-172 0 -267.5 104t-95.5 283v503h-135z" />
<glyph unicode="&#x174;" horiz-adv-x="2297" d="M8 1219v215h682v-215h-168l201 -938l268 1153h385l271 -1151l196 936h-168v215h611v-215h-140l-307 -1221h-430l-252 1003l-256 -1003h-436l-318 1221h-139zM821 1552l234 281h270l234 -281h-256l-113 148l-113 -148h-256z" />
<glyph unicode="&#x175;" horiz-adv-x="1964" d="M10 870v209h582v-209h-127l143 -641l217 850h365l221 -843l139 634h-131v209h527v-209h-121l-240 -870h-395l-207 743l-209 -743h-389l-250 870h-125zM633 1198l233 281h271l233 -281h-256l-113 148l-112 -148h-256z" />
<glyph unicode="&#x176;" horiz-adv-x="1490" d="M20 1219v215h678v-195h-143l242 -401l245 401h-143v195h571v-215h-139l-395 -617v-387h168v-215h-705v215h168v375l-407 629h-140zM418 1552l233 281h271l233 -281h-256l-113 148l-112 -148h-256z" />
<glyph unicode="&#x177;" horiz-adv-x="1343" d="M8 870v209h608v-209h-133l211 -624l221 624h-133v209h553v-209h-125l-338 -864q-68 -171 -227 -288t-340 -117q-87 0 -162 14v225q62 -16 123 -16q67 0 124.5 37.5t94.5 97.5l17 27l-371 884h-123zM322 1198l233 281h270l234 -281h-256l-113 148l-112 -148h-256z" />
<glyph unicode="&#x178;" horiz-adv-x="1490" d="M20 1219v215h678v-195h-143l242 -401l245 401h-143v195h571v-215h-139l-395 -617v-387h168v-215h-705v215h168v375l-407 629h-140zM383 1724q0 68 47.5 112t122.5 44t122.5 -44t47.5 -112q0 -70 -47.5 -114.5t-122.5 -44.5q-77 0 -123.5 44t-46.5 115zM850 1724 q0 68 47.5 112t122.5 44t122.5 -44t47.5 -112q0 -69 -47.5 -114t-122.5 -45q-77 0 -123.5 44.5t-46.5 114.5z" />
<glyph unicode="&#x179;" horiz-adv-x="1306" d="M66 0v195l700 1024h-395v-215h-267v430h1113v-193l-701 -1026h459v250h266v-465h-1175zM487 1552l134 301h350l-240 -301h-244z" />
<glyph unicode="&#x17a;" horiz-adv-x="1171" d="M88 0v170l557 707h-297v-138h-233v340h946v-170l-557 -704h340v153h233v-358h-989zM420 1198l133 301h350l-239 -301h-244z" />
<glyph unicode="&#x17b;" horiz-adv-x="1306" d="M66 0v195l700 1024h-395v-215h-267v430h1113v-193l-701 -1026h459v250h266v-465h-1175zM479 1733q0 68 49 111.5t125 43.5q78 0 128 -43.5t50 -111.5q0 -72 -50 -118t-128 -46q-79 0 -126.5 45.5t-47.5 118.5z" />
<glyph unicode="&#x17c;" horiz-adv-x="1171" d="M88 0v170l557 707h-297v-138h-233v340h946v-170l-557 -704h340v153h233v-358h-989zM412 1378q0 68 49 112t125 44q78 0 128 -44t50 -112q0 -72 -50 -118t-128 -46q-79 0 -126.5 45.5t-47.5 118.5z" />
<glyph unicode="&#x17d;" horiz-adv-x="1306" d="M66 0v195l700 1024h-395v-215h-267v430h1113v-193l-701 -1026h459v250h266v-465h-1175zM285 1833h256l112 -147l113 147h256l-234 -281h-270z" />
<glyph unicode="&#x17e;" horiz-adv-x="1171" d="M88 0v170l557 707h-297v-138h-233v340h946v-170l-557 -704h340v153h233v-358h-989zM217 1479h256l113 -148l112 148h256l-233 -281h-270z" />
<glyph unicode="&#x192;" horiz-adv-x="1024" d="M-96 -369l33 217q46 -24 98 -24q138 0 162 182l92 672h-162v209h190l31 209q31 187 154.5 277.5t304.5 90.5q93 0 180 -24l-33 -217q-45 20 -102 20q-67 0 -110.5 -45.5t-55.5 -134.5l-22 -176h206v-209h-235l-98 -721q-13 -92 -55 -161t-105.5 -110t-139.5 -61t-163 -20 q-90 0 -170 26z" />
<glyph unicode="&#x1fa;" horiz-adv-x="1619" d="M12 0v215h131l449 1215q-43 53 -43 116q0 88 74 144.5t188 56.5t188 -56.5t74 -144.5q0 -66 -47 -123l447 -1208h135v-215h-670v215h143l-61 195h-506l-61 -195h143v-215h-584zM596 668h342l-170 495zM662 1800l145 232h336l-252 -232h-229zM713 1544q0 -38 27 -62 t71 -24q43 0 70.5 24t27.5 62q0 36 -27.5 58t-70.5 22q-44 0 -71 -21.5t-27 -58.5z" />
<glyph unicode="&#x1fb;" horiz-adv-x="1310" d="M82 328q0 159 124 250.5t320 91.5q144 0 258 -62v76q0 85 -56.5 134.5t-154.5 49.5q-168 0 -340 -86l-92 207q246 117 514 117q213 0 343 -111.5t130 -292.5v-493h136v-209h-455l-18 102q-47 -59 -131 -94t-177 -35q-185 0 -293 97t-108 258zM389 1354q0 87 64.5 140.5 t162.5 53.5t164 -54t66 -140q0 -87 -66 -142t-164 -55t-162.5 55t-64.5 142zM436 340q0 -63 49 -107.5t127 -44.5q79 0 129 43.5t50 108.5q0 64 -50.5 105.5t-128.5 41.5q-77 0 -126.5 -42.5t-49.5 -104.5zM479 1604l119 272h315l-215 -272h-219zM537 1352q0 -34 21.5 -56 t57.5 -22t59 22t23 56q0 35 -22.5 56.5t-59.5 21.5q-36 0 -57.5 -21t-21.5 -57z" />
<glyph unicode="&#x1fc;" horiz-adv-x="2037" d="M-2 0v215h131l676 1219h1128v-381h-266v168h-301v-379h395v-230h-395v-399h307v176h266v-389h-1085v215h143v397h-344l-200 -397h143v-215h-598zM756 809h241v467zM1008 1552l133 301h350l-240 -301h-243z" />
<glyph unicode="&#x1fd;" horiz-adv-x="1970" d="M82 328q0 159 124 250.5t320 91.5q144 0 258 -62v80q0 83 -56.5 131.5t-154.5 48.5q-168 0 -340 -86l-92 207q236 117 492 117q216 0 352 -139q156 143 375 143q160 0 284.5 -74.5t190.5 -200t66 -278.5q0 -25 -5 -92l-768 -2q15 -116 91 -185t184 -69q80 0 147.5 35.5 t110.5 93.5l215 -143q-78 -111 -205.5 -167.5t-286.5 -56.5q-125 0 -233 44t-188 122q-182 -164 -441 -164q-203 0 -321.5 97t-118.5 258zM436 340q0 -63 48 -107.5t124 -44.5q81 0 133 43.5t52 108.5t-51 106t-130 41q-77 0 -126.5 -42.5t-49.5 -104.5zM852 1198l133 301 h350l-239 -301h-244zM1128 655h422q0 102 -54.5 166t-147.5 64q-87 0 -147.5 -61.5t-72.5 -168.5z" />
<glyph unicode="&#x1fe;" horiz-adv-x="1703" d="M90 729q0 158 55.5 294t154 233.5t241.5 153.5t311 56q229 0 405 -98l103 123l151 -127l-96 -117q201 -204 201 -518q0 -163 -54 -303t-151.5 -241t-241.5 -158.5t-317 -57.5q-225 0 -406 101l-104 -125l-152 127l99 121q-199 212 -199 536zM496 729q0 -141 36 -242 l527 637q-84 72 -207 72q-164 0 -260 -128t-96 -339zM647 313q85 -73 205 -73q164 0 261 134.5t97 354.5q0 130 -36 225zM686 1552l133 301h350l-239 -301h-244z" />
<glyph unicode="&#x1ff;" horiz-adv-x="1337" d="M70 551q0 244 169 401.5t429 157.5q171 0 313 -74l76 92l117 -96l-70 -86q164 -158 164 -395q0 -256 -168 -418t-432 -162q-171 0 -310 74l-84 -102l-116 96l78 94q-79 78 -122.5 185t-43.5 233zM430 551q0 -80 23 -154l348 420q-55 43 -133 43q-108 0 -173 -85t-65 -224 zM504 1198l133 301h350l-239 -301h-244zM541 264q52 -43 127 -43q108 0 173.5 91t65.5 239q0 76 -20 135z" />
<glyph unicode="&#x218;" horiz-adv-x="1269" d="M86 0v471h250q32 -111 112.5 -178.5t192.5 -67.5q79 0 128.5 44t49.5 112q0 41 -24.5 73.5t-65.5 56.5t-94 45.5t-112 44t-118 48.5t-112 63t-94 82.5t-65.5 112.5t-24.5 148q0 173 125.5 290t318.5 117q189 0 311 -135v107h266v-435h-245q-25 99 -93.5 158.5 t-164.5 59.5q-62 0 -103 -38t-41 -98q0 -43 30.5 -76.5t80.5 -55.5t114 -47t130.5 -48t130.5 -61.5t114 -85t80.5 -121t30.5 -166.5q0 -195 -135.5 -322t-353.5 -127q-108 0 -200 40t-153 110v-121h-266zM537 -219q0 60 41 101.5t102 41.5q65 0 109.5 -52t44.5 -128 q0 -194 -189 -338l-67 68q81 78 90 168h-6q-55 0 -90 42t-35 97z" />
<glyph unicode="&#x219;" horiz-adv-x="1126" d="M84 -2v356h221q37 -77 106 -121.5t164 -44.5q60 0 97 30t37 77q0 29 -21 50.5t-57 35.5t-82.5 26.5t-98 26.5t-103 30.5t-98 43.5t-82 62t-56.5 88t-21 120q0 142 104.5 236t270.5 94q171 0 297 -113v90h242v-331h-218q-33 67 -100.5 108t-148.5 41q-50 0 -82.5 -27 t-32.5 -67q0 -35 34.5 -59t89 -39.5t121 -31t133 -41t121 -61.5t89 -100.5t34.5 -150.5q0 -155 -115 -255t-290 -100q-190 0 -313 117v-90h-242zM442 -211q0 60 41.5 101.5t102.5 41.5q65 0 109 -52t44 -128q0 -195 -188 -338l-68 68q81 78 90 168h-6q-55 0 -90 42t-35 97z " />
<glyph unicode="&#x21a;" horiz-adv-x="1441" d="M45 973v461h1352v-461h-275v241h-217v-999h178v-215h-725v215h179v999h-218v-241h-274zM573 -211q0 60 41.5 101.5t102.5 41.5q65 0 109 -52t44 -128q0 -195 -188 -338l-68 68q83 79 91 168h-7q-55 0 -90 42t-35 97z" />
<glyph unicode="&#x21b;" horiz-adv-x="813" d="M37 870v209h141v244h344v-244h221v-209h-221v-512q0 -63 36 -101t95 -38q57 0 109 12v-221q-90 -22 -203 -22q-183 0 -282 96t-99 268v518h-141zM328 -211q0 60 41 101.5t102 41.5q65 0 109.5 -52t44.5 -128q0 -194 -189 -338l-67 68q81 78 90 168h-6q-55 0 -90 42 t-35 97z" />
<glyph unicode="&#x237;" horiz-adv-x="700" d="M-25 -166q38 -10 86 -10q61 0 99.5 39t38.5 104v903h-136v209h480v-1120q0 -160 -118.5 -258t-293.5 -98q-84 0 -156 10v221z" />
<glyph unicode="&#x2c6;" horiz-adv-x="913" d="M88 1198l234 281h270l233 -281h-256l-112 148l-113 -148h-256z" />
<glyph unicode="&#x2c7;" horiz-adv-x="913" d="M88 1479h256l113 -148l112 148h256l-233 -281h-270z" />
<glyph unicode="&#x2d8;" horiz-adv-x="909" d="M127 1487h217q0 -135 111 -135q110 0 110 135h217q0 -137 -87 -221t-240 -84t-240.5 84t-87.5 221z" />
<glyph unicode="&#x2d9;" horiz-adv-x="595" d="M123 1378q0 68 49 112t125 44q78 0 128 -44t50 -112q0 -72 -50 -118t-128 -46q-79 0 -126.5 45.5t-47.5 118.5z" />
<glyph unicode="&#x2da;" horiz-adv-x="757" d="M125 1391q0 95 72.5 155t181.5 60t181.5 -60t72.5 -155q0 -96 -73 -158t-181 -62t-181 62t-73 158zM289 1389q0 -39 24.5 -62.5t65.5 -23.5q40 0 65 24t25 62t-25 62t-65 24q-41 0 -65.5 -23.5t-24.5 -62.5z" />
<glyph unicode="&#x2db;" horiz-adv-x="751" d="M139 -213q0 108 104.5 192.5t248.5 102.5l71 -82q-82 -10 -139 -60t-57 -108q0 -34 20.5 -57t52.5 -23q51 0 97 43l86 -143q-90 -84 -232 -84q-109 0 -180.5 59.5t-71.5 159.5z" />
<glyph unicode="&#x2dc;" horiz-adv-x="1003" d="M129 1202q0 121 63 202t162 81q52 0 107.5 -21t102.5 -42t77 -21q32 0 51.5 21.5t22.5 52.5h159q0 -128 -60 -205.5t-161 -77.5q-52 0 -107.5 21t-103 42t-80.5 21q-32 0 -51 -21t-22 -53h-160z" />
<glyph unicode="&#x2dd;" horiz-adv-x="1009" d="M109 1196l120 303h289l-192 -303h-217zM492 1196l120 303h289l-192 -303h-217z" />
<glyph unicode="&#x326;" horiz-adv-x="0" d="M-418 -211q0 60 41.5 101.5t102.5 41.5q65 0 109 -52t44 -128q0 -195 -188 -338l-68 68q81 78 90 168h-6q-55 0 -90 42t-35 97z" />
<glyph unicode="&#x1e80;" horiz-adv-x="2297" d="M8 1219v215h682v-215h-168l201 -938l268 1153h385l271 -1151l196 936h-168v215h611v-215h-140l-307 -1221h-430l-252 1003l-256 -1003h-436l-318 1221h-139zM866 1853h351l133 -301h-244z" />
<glyph unicode="&#x1e81;" horiz-adv-x="1964" d="M10 870v209h582v-209h-127l143 -641l217 850h365l221 -843l139 634h-131v209h527v-209h-121l-240 -870h-395l-207 743l-209 -743h-389l-250 870h-125zM678 1499h350l133 -301h-243z" />
<glyph unicode="&#x1e82;" horiz-adv-x="2297" d="M8 1219v215h682v-215h-168l201 -938l268 1153h385l271 -1151l196 936h-168v215h611v-215h-140l-307 -1221h-430l-252 1003l-256 -1003h-436l-318 1221h-139zM1024 1552l133 301h350l-239 -301h-244z" />
<glyph unicode="&#x1e83;" horiz-adv-x="1964" d="M10 870v209h582v-209h-127l143 -641l217 850h365l221 -843l139 634h-131v209h527v-209h-121l-240 -870h-395l-207 743l-209 -743h-389l-250 870h-125zM836 1198l133 301h350l-240 -301h-243z" />
<glyph unicode="&#x1e84;" horiz-adv-x="2297" d="M8 1219v215h682v-215h-168l201 -938l268 1153h385l271 -1151l196 936h-168v215h611v-215h-140l-307 -1221h-430l-252 1003l-256 -1003h-436l-318 1221h-139zM786 1724q0 68 47.5 112t122.5 44t122.5 -44t47.5 -112q0 -70 -47.5 -114.5t-122.5 -44.5q-77 0 -123.5 44 t-46.5 115zM1253 1724q0 68 47.5 112t122.5 44t122.5 -44t47.5 -112q0 -69 -47.5 -114t-122.5 -45q-77 0 -123.5 44.5t-46.5 114.5z" />
<glyph unicode="&#x1e85;" horiz-adv-x="1964" d="M10 870v209h582v-209h-127l143 -641l217 850h365l221 -843l139 634h-131v209h527v-209h-121l-240 -870h-395l-207 743l-209 -743h-389l-250 870h-125zM598 1370q0 68 47.5 112t122.5 44t122.5 -44t47.5 -112q0 -71 -47.5 -115.5t-122.5 -44.5q-77 0 -123.5 44.5 t-46.5 115.5zM1065 1370q0 68 47.5 112t122.5 44t122.5 -44t47.5 -112q0 -69 -47.5 -114.5t-122.5 -45.5q-77 0 -123.5 45t-46.5 115z" />
<glyph unicode="&#x1ef2;" horiz-adv-x="1490" d="M20 1219v215h678v-195h-143l242 -401l245 401h-143v195h571v-215h-139l-395 -617v-387h168v-215h-705v215h168v375l-407 629h-140zM463 1853h350l133 -301h-244z" />
<glyph unicode="&#x1ef3;" horiz-adv-x="1343" d="M8 870v209h608v-209h-133l211 -624l221 624h-133v209h553v-209h-125l-338 -864q-68 -171 -227 -288t-340 -117q-87 0 -162 14v225q62 -16 123 -16q67 0 124.5 37.5t94.5 97.5l17 27l-371 884h-123zM367 1499h350l133 -301h-244z" />
<glyph unicode="&#x2000;" horiz-adv-x="1016" />
<glyph unicode="&#x2001;" horiz-adv-x="2032" />
<glyph unicode="&#x2002;" horiz-adv-x="1016" />
<glyph unicode="&#x2003;" horiz-adv-x="2032" />
<glyph unicode="&#x2004;" horiz-adv-x="677" />
<glyph unicode="&#x2005;" horiz-adv-x="508" />
<glyph unicode="&#x2006;" horiz-adv-x="338" />
<glyph unicode="&#x2007;" horiz-adv-x="338" />
<glyph unicode="&#x2008;" horiz-adv-x="254" />
<glyph unicode="&#x2009;" horiz-adv-x="406" />
<glyph unicode="&#x200a;" horiz-adv-x="112" />
<glyph unicode="&#x2010;" horiz-adv-x="774" d="M90 479v285h594v-287z" />
<glyph unicode="&#x2011;" horiz-adv-x="774" d="M90 479v285h594v-287z" />
<glyph unicode="&#x2012;" horiz-adv-x="774" d="M90 479v285h594v-287z" />
<glyph unicode="&#x2013;" horiz-adv-x="1398" d="M90 494v254h1219v-256z" />
<glyph unicode="&#x2014;" horiz-adv-x="1949" d="M90 496v249h1770v-251z" />
<glyph unicode="&#x2018;" horiz-adv-x="567" d="M82 1071q0 138 73.5 259t202.5 208l88 -96q-127 -97 -139 -236h8q72 0 120 -58t48 -128q0 -83 -55.5 -139t-138.5 -56q-88 0 -147.5 69.5t-59.5 176.5z" />
<glyph unicode="&#x2019;" horiz-adv-x="567" d="M82 1343q0 83 55.5 139t138.5 56q88 0 147.5 -69.5t59.5 -176.5q0 -138 -73.5 -259t-202.5 -208l-88 97q127 97 139 235h-8q-72 0 -120 58t-48 128z" />
<glyph unicode="&#x201a;" horiz-adv-x="598" d="M98 184q0 83 56 139t139 56q88 0 147.5 -69.5t59.5 -176.5q0 -138 -74 -259t-203 -208l-88 96q127 97 139 236h-8q-72 0 -120 58t-48 128z" />
<glyph unicode="&#x201c;" horiz-adv-x="1056" d="M82 1071q0 138 73.5 259t202.5 208l88 -96q-127 -97 -139 -236h8q72 0 120 -58t48 -128q0 -83 -55.5 -139t-138.5 -56q-88 0 -147.5 69.5t-59.5 176.5zM571 1071q0 138 74 259t203 208l88 -96q-127 -97 -139 -236h8q72 0 120 -58t48 -128q0 -83 -56 -139t-139 -56 q-88 0 -147.5 69.5t-59.5 176.5z" />
<glyph unicode="&#x201d;" horiz-adv-x="1056" d="M84 1343q0 83 56 139t139 56q88 0 147 -69.5t59 -176.5q0 -138 -73.5 -259t-202.5 -208l-88 97q127 97 139 235h-8q-72 0 -120 58t-48 128zM573 1343q0 83 56 139t139 56q88 0 147.5 -69.5t59.5 -176.5q0 -138 -74 -259t-203 -208l-88 97q128 98 140 235h-9 q-72 0 -120 58t-48 128z" />
<glyph unicode="&#x201e;" horiz-adv-x="1087" d="M98 184q0 83 56 139t139 56q88 0 147.5 -69.5t59.5 -176.5q0 -138 -74 -259t-203 -208l-88 96q127 97 139 236h-8q-72 0 -120 58t-48 128zM588 184q0 83 55.5 139t138.5 56q88 0 147.5 -69.5t59.5 -176.5q0 -138 -73.5 -259t-202.5 -208l-88 96q127 97 139 236h-8 q-72 0 -120 58t-48 128z" />
<glyph unicode="&#x2020;" horiz-adv-x="1013" d="M92 817v307l279 -49l-35 359h342l-35 -359l279 49v-307l-279 51l35 -991h-342l35 991z" />
<glyph unicode="&#x2021;" horiz-adv-x="1013" d="M92 270v308l279 -50v340l-279 -51v307l279 -49l-35 359h340l-35 -359l279 49v-307l-279 51v-340l279 50v-308l-277 52l33 -445h-340l35 445z" />
<glyph unicode="&#x2022;" horiz-adv-x="1245" d="M197 690q0 110 60.5 207t160.5 154t213 57q171 0 294.5 -124.5t123.5 -293.5q0 -171 -123.5 -295.5t-294.5 -124.5q-113 0 -213 57t-160.5 154.5t-60.5 208.5z" />
<glyph unicode="&#x2026;" horiz-adv-x="1923" d="M98 176q0 82 63 142.5t146 60.5t143 -60.5t60 -142.5q0 -83 -60 -143t-143 -60q-84 0 -146.5 60t-62.5 143zM756 176q0 82 63 142.5t146 60.5t142.5 -60.5t59.5 -142.5q0 -83 -59.5 -143t-142.5 -60q-84 0 -146.5 60t-62.5 143zM1413 176q0 82 63 142.5t146 60.5 t143 -60.5t60 -142.5q0 -83 -60 -143t-143 -60q-84 0 -146.5 60t-62.5 143z" />
<glyph unicode="&#x202f;" horiz-adv-x="406" />
<glyph unicode="&#x2030;" horiz-adv-x="2510" d="M76 1122q0 155 90.5 246.5t261.5 91.5t261.5 -91.5t90.5 -246.5q0 -161 -89.5 -254.5t-262.5 -93.5t-262.5 93.5t-89.5 254.5zM188 0l1043 1434h295l-1043 -1434h-295zM326 1120q0 -178 102 -178t102 178q0 172 -102 172t-102 -172zM936 317q0 155 90.5 246.5t261.5 91.5 t261.5 -91.5t90.5 -246.5q0 -161 -89.5 -254.5t-262.5 -93.5t-262.5 93.5t-89.5 254.5zM1186 315q0 -178 102 -178q103 0 103 178q0 172 -103 172q-102 0 -102 -172zM1731 317q0 155 90.5 246.5t261.5 91.5t261.5 -91.5t90.5 -246.5q0 -161 -89.5 -254.5t-262.5 -93.5 t-262.5 93.5t-89.5 254.5zM1980 315q0 -83 25.5 -130.5t77.5 -47.5q102 0 102 178q0 172 -102 172q-103 0 -103 -172z" />
<glyph unicode="&#x2039;" horiz-adv-x="684" d="M74 598l272 397h297l-272 -397l272 -397h-297z" />
<glyph unicode="&#x203a;" horiz-adv-x="684" d="M41 201l272 397l-272 397h297l272 -397l-272 -397h-297z" />
<glyph unicode="&#x2044;" horiz-adv-x="956" d="M-39 -84l797 1602h237l-796 -1602h-238z" />
<glyph unicode="&#x205f;" horiz-adv-x="508" />
<glyph unicode="&#x2074;" horiz-adv-x="808" d="M37 860v113l356 465h217v-447h113v-131h-113v-102h113v-131h-449v131h123v102h-360zM205 991h192v252z" />
<glyph unicode="&#x20ac;" horiz-adv-x="1460" d="M33 522l28 158h166q-2 18 -2 59q0 38 2 56h-192l24 157h191q52 229 203.5 371.5t357.5 142.5q190 0 313 -120v88h254v-408h-225q-28 89 -98.5 137.5t-173.5 48.5q-101 0 -170.5 -67.5t-100.5 -192.5h459l-27 -157h-454q-2 -18 -2 -56q0 -41 2 -59h428l-29 -158h-379 q27 -137 99.5 -216t179.5 -79q100 3 175 61t112 150l237 -135q-72 -162 -214 -248t-339 -86q-249 0 -409.5 150t-204.5 403h-211z" />
<glyph unicode="&#x2116;" horiz-adv-x="2592" d="M78 0v215h139v1004h-139v215h536l641 -957v742h-139v215h565v-215h-139v-1219h-403l-635 961v-746h139v-215h-565zM1763 1092q0 160 106.5 260t272.5 100t273.5 -100t107.5 -260q0 -167 -107 -270t-274 -103t-273 103t-106 270zM1784 412v217h717v-217h-717zM1997 1092 q0 -91 39 -145t106 -54t106.5 54t39.5 145q0 84 -39.5 136t-106.5 52t-106 -52t-39 -136z" />
<glyph unicode="&#x2122;" horiz-adv-x="1947" d="M72 1235v246h700v-246h-147v121h-93v-477h86v-129h-393v129h86v477h-92v-121h-147zM858 750v129h66v473h-66v129h344l162 -379l160 379h331v-129h-65v-473h65v-129h-339v129h69v391l-172 -402h-147l-170 402v-391h69v-129h-307z" />
<glyph unicode="&#x2212;" horiz-adv-x="1185" d="M102 510v258h981v-258h-981z" />
<glyph unicode="&#x25fc;" horiz-adv-x="1075" d="M0 0v1075h1075v-1075h-1075z" />
<glyph horiz-adv-x="774" d="M90 588v284h594v-286z" />
<glyph horiz-adv-x="1398" d="M90 610v254h1219v-256z" />
<glyph horiz-adv-x="1949" d="M90 612v250h1770v-252z" />
<glyph horiz-adv-x="1159" d="M74 729l272 397h297l-272 -397l272 -397h-297zM549 729l272 397h297l-272 -397l272 -397h-297z" />
<glyph horiz-adv-x="1159" d="M41 332l272 397l-272 397h297l272 -397l-272 -397h-297zM516 332l272 397l-272 397h297l272 -397l-272 -397h-297z" />
<glyph horiz-adv-x="684" d="M74 733l272 397h297l-272 -397l272 -397h-297z" />
<glyph horiz-adv-x="684" d="M41 336l272 397l-272 397h297l272 -397l-272 -397h-297z" />
<glyph horiz-adv-x="727" d="M111 713q0 250 120 488.5t334 426.5l146 -115q-297 -375 -297 -800q0 -426 297 -801l-146 -115q-214 188 -334 427t-120 489z" />
<glyph horiz-adv-x="727" d="M16 -88q297 375 297 801q0 425 -297 800l146 115q214 -188 334 -426.5t120 -488.5t-120 -489t-334 -427z" />
<glyph horiz-adv-x="681" d="M180 -215v1855h469v-196h-186v-1462h186v-197h-469z" />
<glyph horiz-adv-x="681" d="M33 -16h186v1462h-186v196h469v-1855h-469v197z" />
<glyph horiz-adv-x="735" d="M98 623v180q72 0 111 49t39 141v273q0 184 123.5 279t328.5 95v-192q-88 0 -129 -46.5t-41 -123.5v-291q0 -109 -58 -180t-165 -94q107 -23 165 -94.5t58 -180.5v-291q0 -77 41 -123.5t129 -46.5v-192q-205 0 -328.5 95.5t-123.5 279.5v272q0 92 -39.5 141.5t-110.5 49.5 z" />
<glyph horiz-adv-x="733" d="M225 -336v2026h283v-2026h-283z" />
<glyph horiz-adv-x="735" d="M35 -23q88 0 129 46.5t41 123.5v291q0 109 58 180.5t165 94.5q-107 23 -165 94t-58 180v291q0 77 -41 123.5t-129 46.5v192q205 0 328.5 -95t123.5 -279v-273q0 -92 39.5 -141t110.5 -49v-180q-72 0 -111 -49.5t-39 -141.5v-272q0 -184 -123.5 -279.5t-328.5 -95.5v192z " />
<glyph horiz-adv-x="929" d="M25 -164l620 1757h291l-621 -1757h-290z" />
<glyph horiz-adv-x="929" d="M-6 1593h291l620 -1757h-291z" />
<glyph horiz-adv-x="722" d="M160 0l63 1001h277l63 -1001h-403zM168 1313q0 81 56 137.5t136 56.5q82 0 138.5 -56t56.5 -138q0 -77 -57 -133t-138 -56q-79 0 -135.5 56t-56.5 133z" />
<glyph horiz-adv-x="1085" d="M76 369q0 64 20 120t52 97.5t71 78.5t78 69t71 62t52 65t20 71v57h316v-92q0 -53 -17 -101t-44.5 -84t-61 -69.5t-67 -65t-61 -62.5t-44.5 -68.5t-17 -77.5q0 -62 40.5 -102t105.5 -40q68 0 110.5 52.5t55.5 128.5l303 -109q-53 -151 -178.5 -240.5t-323.5 -89.5 q-218 0 -349.5 112.5t-131.5 287.5zM403 1300q0 81 57.5 138t137.5 57t136.5 -57t56.5 -138q0 -77 -57 -133.5t-136 -56.5t-137 56.5t-58 133.5z" />
<glyph horiz-adv-x="679" d="M135 727q0 82 63 142.5t146 60.5t142 -60.5t59 -142.5q0 -83 -59 -143t-142 -60q-84 0 -146.5 60t-62.5 143z" />
<glyph horiz-adv-x="1245" d="M197 723q0 110 60.5 207t160.5 154t213 57q171 0 294.5 -124.5t123.5 -293.5q0 -171 -123.5 -295.5t-294.5 -124.5q-113 0 -213 57t-160.5 154.5t-60.5 208.5z" />
<glyph horiz-adv-x="1253" d="M76 723q0 358 129.5 542.5t415.5 184.5t415 -184.5t129 -542.5q0 -178 -30 -312.5t-94 -233t-169.5 -149.5t-250.5 -51t-250.5 51t-169.5 149t-94.5 233t-30.5 313zM436 723q0 -77 2.5 -135.5t9.5 -117.5t20.5 -100t33.5 -74t50 -49t69 -16q47 0 80.5 25t53.5 66 t31.5 107.5t15 133.5t3.5 160q0 91 -3.5 156t-15 128.5t-31.5 102.5t-53.5 62.5t-80.5 23.5t-80.5 -23.5t-53.5 -62.5t-31.5 -102t-15.5 -128.5t-4 -156.5z" />
<glyph horiz-adv-x="1253" d="M82 1108l512 340l297 -39v-1186h328v-223h-1033v223h361v916l-326 -230z" />
<glyph horiz-adv-x="1253" d="M96 1073q47 173 184.5 278t340.5 105q221 0 358 -117t137 -297q0 -76 -32 -147.5t-84 -128.5t-115 -111t-128 -104.5t-120.5 -98.5t-94.5 -103.5t-48 -110.5h362v174h274v-412h-1026v127q0 94 35.5 182.5t92.5 158.5t125.5 135.5t137 122.5t125.5 109t92.5 105t35.5 102 q0 73 -44 116.5t-120 43.5q-72 0 -124.5 -63t-74.5 -156z" />
<glyph horiz-adv-x="1253" d="M63 319l299 95q21 -85 79.5 -137t142.5 -52q89 0 148 59t59 154q0 96 -71.5 150.5t-191.5 54.5h-112l-60 152l398 409h-334v-133h-275v363h940v-215l-362 -373h8q186 0 307 -108.5t121 -291.5q0 -135 -73 -244t-202.5 -170t-291.5 -61q-205 0 -340 91.5t-189 256.5z" />
<glyph horiz-adv-x="1253" d="M51 410v190l619 834h344v-811h160v-213h-160v-197h160v-213h-685v213h191v197h-629zM342 623h338v477z" />
<glyph horiz-adv-x="1253" d="M76 295l293 113q21 -80 79 -131.5t138 -51.5q98 0 157.5 66t59.5 172t-56.5 171.5t-154.5 65.5q-120 0 -195 -86l-252 80l72 740h856v-361h-274v127h-295l-35 -315q87 65 227 65q211 0 343 -135t132 -344q0 -221 -156.5 -360.5t-408.5 -139.5q-203 0 -336.5 84 t-193.5 240z" />
<glyph horiz-adv-x="1253" d="M90 668v22q0 164 39 303t114 243.5t192.5 164t266.5 59.5q227 0 394 -96l-107 -231q-128 73 -270 73q-131 0 -199.5 -110.5t-66.5 -300.5q37 66 108.5 107.5t163.5 41.5q200 0 329.5 -133t129.5 -338q0 -228 -151.5 -365t-395.5 -137q-267 0 -407 173.5t-140 523.5z M453 471q0 -99 50.5 -172.5t137.5 -73.5q91 0 135.5 65t44.5 175q0 105 -45 170t-133 65q-89 0 -139.5 -64t-50.5 -165z" />
<glyph horiz-adv-x="1253" d="M86 991v443h1090v-220l-525 -1214h-368l524 1196h-447v-205h-274z" />
<glyph horiz-adv-x="1253" d="M82 414q0 137 84.5 230t216.5 120q-111 32 -181.5 116.5t-70.5 202.5q0 168 138.5 270.5t355.5 102.5t356 -102.5t139 -270.5q0 -118 -70.5 -202.5t-181.5 -116.5q132 -27 216.5 -120t84.5 -230q0 -198 -148.5 -320.5t-395.5 -122.5q-248 0 -395.5 122.5t-147.5 320.5z M436 426q0 -92 49.5 -151.5t139.5 -59.5q92 0 141 59.5t49 151.5q0 96 -51.5 151.5t-138.5 55.5q-86 0 -137.5 -55.5t-51.5 -151.5zM467 1055q0 -74 42.5 -123t115.5 -49t116 49t43 123q0 72 -42 118t-117 46q-74 0 -116 -46t-42 -118z" />
<glyph horiz-adv-x="1253" d="M66 977q0 221 150.5 351t391.5 130q281 0 418 -167t137 -513v-20q0 -141 -22 -259.5t-69 -216.5t-118 -166.5t-172.5 -106.5t-228.5 -38q-230 0 -410 101l113 231q131 -78 283 -78q133 0 198.5 113.5t65.5 323.5q-37 -66 -111.5 -107t-169.5 -41q-196 0 -326 131.5 t-130 331.5zM426 985q0 -102 47 -164.5t137 -62.5q87 0 138 62.5t51 160.5q0 95 -50.5 161t-136.5 66q-90 0 -138 -61t-48 -162z" />
</font>
</defs>
</svg>
