<?xml version="1.0" standalone="no"?>
<!DOCTYPE svg PUBLIC "-//W3C//DTD SVG 1.1//EN" "http://www.w3.org/Graphics/SVG/1.1/DTD/svg11.dtd" >
<svg xmlns="http://www.w3.org/2000/svg" xmlns:xlink="http://www.w3.org/1999/xlink" version="1.1">
<metadata></metadata>
<defs>
<font id="rn_house_sansbold" horiz-adv-x="1220" >
<font-face units-per-em="2048" ascent="1526" descent="-522" />
<missing-glyph horiz-adv-x="413" />
<glyph unicode="&#xfb01;" horiz-adv-x="1234" d="M41 776v217h106v166q0 91 29.5 162.5t79.5 115t111.5 65.5t130.5 22q129 0 233 -72l-82 -209q-56 37 -102 37q-49 0 -80 -35t-31 -102v-150h230v-217h-230v-776h-289v776h-106zM801 1352q0 80 45.5 122t118.5 42q71 0 117 -42.5t46 -123.5t-46.5 -121.5t-118.5 -40.5 t-117 41.5t-45 122.5zM821 0v993h289v-993h-289z" />
<glyph unicode="&#xfb02;" horiz-adv-x="1234" d="M41 776v217h106v166q0 91 29.5 162.5t79.5 115t111.5 65.5t130.5 22q129 0 233 -72l-82 -209q-56 37 -102 37q-49 0 -80 -35t-31 -102v-150h230v-217h-230v-776h-289v776h-106zM821 0v1495h289v-1495h-289z" />
<glyph horiz-adv-x="0" />
<glyph horiz-adv-x="682" />
<glyph unicode=" "  horiz-adv-x="413" />
<glyph unicode="&#x09;" horiz-adv-x="413" />
<glyph unicode="&#xa0;" horiz-adv-x="413" />
<glyph unicode="!" horiz-adv-x="694" d="M172 156q0 79 47.5 125.5t126.5 46.5q78 0 125 -47.5t47 -126.5q0 -78 -46.5 -124t-127.5 -46q-78 0 -125 46.5t-47 125.5zM190 1454h310q0 -89 -0.5 -164t-2 -145t-2.5 -114.5t-4.5 -106.5t-4 -85.5t-6 -87t-6 -75.5t-7.5 -86t-8 -86h-228q-2 19 -7 78.5t-6.5 76.5 t-6 69.5t-6 75.5t-4.5 75t-4 88t-3 94t-2.5 113.5t-1 127t-0.5 152.5z" />
<glyph unicode="&#x22;" horiz-adv-x="860" d="M145 870v613h215v-613h-215zM504 870v613h215v-613h-215z" />
<glyph unicode="#" horiz-adv-x="1361" d="M68 406l34 221h193l37 227h-195l35 221h195l59 379h236l-60 -379h262l60 379h235l-59 -379h194l-34 -221h-195l-37 -227h197l-35 -221h-197l-63 -406h-236l64 406h-262l-64 -406h-235l63 406h-192zM530 627h263l36 227h-262z" />
<glyph unicode="$" horiz-adv-x="1175" d="M100 299l240 113q36 -105 99 -157t161 -52q89 0 145 41t56 123q0 46 -18.5 79t-57.5 56t-77 38.5t-101.5 38t-106.5 42.5q-145 67 -212.5 164t-67.5 233q0 166 93 265.5t257 123.5v170h201v-170q275 -40 362 -299l-229 -90q-37 87 -95 125.5t-143 38.5q-92 0 -136 -40.5 t-44 -111.5q0 -36 13 -65.5t31.5 -50t55 -41.5t65 -33.5t79.5 -32.5q151 -61 196 -86q138 -75 181 -192q24 -64 24 -146q0 -169 -97 -273t-263 -133v-170h-201v166q-160 20 -264.5 106.5t-145.5 219.5z" />
<glyph unicode="%" horiz-adv-x="1519" d="M68 125l1228 1335l156 -125l-1231 -1335zM72 1155q0 147 83 236.5t228 89.5q147 0 230 -89.5t83 -236.5t-83 -236.5t-230 -89.5q-145 0 -228 89.5t-83 236.5zM264 1155q0 -63 31.5 -99t87.5 -36q57 0 89 36t32 99t-32 100t-89 37q-55 0 -87 -37t-32 -100zM827 299 q0 147 83.5 236.5t230.5 89.5q144 0 227.5 -89.5t83.5 -236.5t-83.5 -236.5t-227.5 -89.5q-147 0 -230.5 89.5t-83.5 236.5zM1022 299q0 -63 31 -99t88 -36q56 0 88.5 36t32.5 99t-32.5 100t-88.5 37t-87.5 -36.5t-31.5 -100.5z" />
<glyph unicode="&#x26;" horiz-adv-x="1349" d="M61 377q0 265 271 430q-88 168 -88 309q0 172 105.5 273.5t275.5 101.5q172 0 283.5 -102.5t111.5 -266.5q0 -65 -20.5 -125t-50.5 -103.5t-74.5 -84.5t-83 -67.5t-86.5 -53.5q79 -103 190 -225q58 98 119 229l295 -65q-123 -233 -228 -363q81 -86 256 -264h-387l-65 78 q-160 -115 -361 -115q-72 0 -139.5 16t-126.5 49.5t-102.5 82t-69 117t-25.5 149.5zM367 395q0 -76 56 -120t138 -44q92 0 162 43q-160 192 -244 306q-112 -78 -112 -185zM510 1096q0 -86 47 -183q102 48 148.5 93.5t46.5 113.5q0 53 -28.5 86t-88.5 33q-61 0 -93 -37.5 t-32 -105.5z" />
<glyph unicode="'" horiz-adv-x="499" d="M141 870v613h217v-613h-217z" />
<glyph unicode="(" horiz-adv-x="677" d="M127 492q0 287 65.5 549.5t190.5 445.5h238q-116 -208 -176 -467t-60 -531q0 -273 60 -527.5t176 -453.5h-238q-126 180 -191 439.5t-65 544.5z" />
<glyph unicode=")" horiz-adv-x="677" d="M55 -492q116 208 176 467t60 531q0 273 -60 527.5t-176 453.5h238q126 -180 191 -439t65 -544q0 -287 -65.5 -550t-190.5 -446h-238z" />
<glyph unicode="*" horiz-adv-x="903" d="M70 1083l63 199l229 -96l-20 252h213l-12 -252l229 96l62 -199l-238 -65l162 -180l-170 -125l-135 202l-134 -204l-169 120l157 187z" />
<glyph unicode="+" d="M70 408v227h428v426h227v-426h424v-227h-424v-424h-227v424h-428z" />
<glyph unicode="," horiz-adv-x="598" d="M125 170q0 86 46 131t134 45t127 -58t39 -177q0 -152 -75.5 -267t-190.5 -174l-68 107q118 76 154 221q-86 3 -126 44.5t-40 127.5z" />
<glyph unicode="-" horiz-adv-x="806" d="M78 434v228h649v-228h-649z" />
<glyph unicode="." horiz-adv-x="598" d="M125 152q0 79 48 126.5t126 47.5t125 -47.5t47 -126.5q0 -80 -46.5 -126t-127.5 -46q-78 0 -125 46.5t-47 125.5z" />
<glyph unicode="/" horiz-adv-x="739" d="M-12 0l573 1454h223l-573 -1454h-223z" />
<glyph unicode="0" horiz-adv-x="1130" d="M70 692q0 721 495 721q496 0 496 -721t-496 -721q-495 0 -495 721zM377 692q0 -174 22.5 -279.5t62.5 -147.5t103 -42q62 0 103 42t64.5 148t23.5 279t-23.5 279t-64.5 148t-103 42q-63 0 -103 -42t-62.5 -147.5t-22.5 -279.5z" />
<glyph unicode="1" horiz-adv-x="1130" d="M129 1087q100 39 188 118t138 179h276v-1138h266v-246h-821v246h270v770q-40 -51 -103 -96.5t-124 -69.5z" />
<glyph unicode="2" horiz-adv-x="1130" d="M39 1163q165 250 491 250q219 0 345 -113t126 -305q0 -57 -13 -110.5t-42.5 -106t-61 -97.5t-84 -101.5t-96 -100t-113 -112.5t-118.5 -121h557v-246h-969v193q93 101 197.5 209t163 167.5t118.5 125t89 107.5t47 88t18 91q0 84 -51 132t-139 48t-155 -36t-136 -126z" />
<glyph unicode="3" horiz-adv-x="1130" d="M6 274l221 160q52 -112 117 -161.5t166 -49.5q92 0 143.5 46.5t51.5 131.5q0 89 -56.5 136t-185.5 47h-125v245h98q112 0 172 47t60 132q0 69 -45 111t-125 42q-79 0 -139 -38t-123 -128l-189 170q61 115 180 181.5t273 66.5q216 0 343.5 -112.5t127.5 -284.5 q0 -87 -45 -162t-133 -121q102 -48 159.5 -135.5t57.5 -204.5q0 -191 -134 -306.5t-364 -115.5q-99 0 -183.5 24.5t-146 68t-105 96t-71.5 114.5z" />
<glyph unicode="4" horiz-adv-x="1130" d="M14 279v221l590 884h297v-884h160v-221h-160v-279h-293v279h-594zM279 500h329v499z" />
<glyph unicode="5" horiz-adv-x="1130" d="M35 209l207 174q65 -85 124 -123.5t132 -38.5q101 0 157 56t56 159t-54 157t-155 54q-118 0 -193 -78l-233 35l180 780h709v-245h-492l-63 -260q61 20 135 20q211 0 342 -124t131 -333q0 -214 -139 -342.5t-379 -128.5q-158 0 -274 65.5t-191 172.5z" />
<glyph unicode="6" horiz-adv-x="1130" d="M57 449q0 97 23.5 196t58.5 182.5t96.5 185.5t117 180t141.5 191h325q-239 -303 -370 -514q64 25 135 25q210 0 337.5 -125t127.5 -317q0 -222 -139.5 -350t-364.5 -128q-221 0 -354.5 128.5t-133.5 345.5zM340 446q0 -107 52 -163t151 -56q100 0 152.5 56t52.5 163 q0 106 -53 163t-152 57q-98 0 -150.5 -56.5t-52.5 -163.5z" />
<glyph unicode="7" horiz-adv-x="1130" d="M74 1108v276h975v-231l-490 -1153h-301l483 1108h-667z" />
<glyph unicode="8" horiz-adv-x="1130" d="M76 401q0 212 180 320q-152 100 -152 283q0 179 127 294t334 115t334 -115t127 -294q0 -183 -149 -283q86 -53 132 -135t46 -185q0 -190 -134 -310t-356 -120t-355.5 120t-133.5 310zM373 403q0 -84 53 -136t139 -52t139.5 52.5t53.5 135.5q0 86 -53.5 138.5t-139.5 52.5 q-87 0 -139.5 -52t-52.5 -139zM391 997q0 -77 49 -124.5t125 -47.5q74 0 124 48t50 124q0 74 -50 123t-124 49q-75 0 -124.5 -48.5t-49.5 -123.5z" />
<glyph unicode="9" horiz-adv-x="1130" d="M61 932q0 222 140 349.5t366 127.5q221 0 354.5 -128.5t133.5 -346.5q0 -96 -23.5 -195t-58.5 -183t-96.5 -186t-116 -180t-137.5 -190h-316q232 291 361 518q-59 -29 -142 -29q-210 0 -337.5 125t-127.5 318zM365 938q0 -106 52 -162.5t150 -56.5q99 0 151 56t52 163 t-52 163t-151 56q-98 0 -150 -56t-52 -163z" />
<glyph unicode=":" horiz-adv-x="598" d="M129 152q0 79 47 126.5t125 47.5t125 -47.5t47 -126.5q0 -80 -46.5 -126t-127.5 -46q-78 0 -124 46.5t-46 125.5zM129 850q0 79 47 125.5t125 46.5t125 -47.5t47 -126.5t-46.5 -125.5t-127.5 -46.5q-78 0 -124 47t-46 127z" />
<glyph unicode=";" horiz-adv-x="598" d="M129 170q0 86 45 131t133 45t127 -58t39 -177q0 -152 -75.5 -267t-190.5 -174l-68 107q118 76 154 221q-86 3 -125 44t-39 128zM129 850q0 79 47 125.5t125 46.5t125 -47.5t47 -126.5t-46.5 -125.5t-127.5 -46.5q-78 0 -124 47t-46 127z" />
<glyph unicode="&#x3c;" horiz-adv-x="1185" d="M74 389v215l1044 381v-240l-729 -247l729 -250v-240z" />
<glyph unicode="=" d="M70 188v228h1079v-228h-1079zM70 629v227h1079v-227h-1079z" />
<glyph unicode="&#x3e;" horiz-adv-x="1185" d="M70 8v240l729 250l-729 247v240l1044 -381v-215z" />
<glyph unicode="?" horiz-adv-x="1120" d="M20 1231q183 252 504 252q222 0 348.5 -107t126.5 -297q0 -65 -16 -121.5t-37.5 -93.5t-58.5 -74.5t-61.5 -56.5t-65.5 -47q-67 -43 -100 -78t-33 -78v-61h-289v68q0 46 12.5 86.5t28.5 68t46 57t50.5 45t57.5 41.5q2 1 3.5 2t3 2.5t3.5 2.5q41 30 63.5 48.5t50.5 49 t41 65.5t13 76q-3 80 -56.5 123t-148.5 43q-81 0 -144.5 -40t-136.5 -150zM315 152q0 79 47 126.5t125 47.5t126.5 -47.5t48.5 -126.5t-47.5 -125.5t-127.5 -46.5q-79 0 -125.5 46t-46.5 126z" />
<glyph unicode="@" horiz-adv-x="1703" d="M47 582q0 81 13.5 162t44 162.5t76 154.5t112.5 136.5t149.5 109t192 72t235.5 26.5q167 0 311 -45.5t249.5 -129t166 -210t60.5 -279.5q0 -71 -11.5 -147t-43 -161t-78 -151t-123.5 -109.5t-174 -43.5t-161.5 44t-78.5 140q-88 -98 -235 -98q-163 0 -259 109t-96 270 q0 66 16.5 132t52 129t86.5 112t126 78.5t164 29.5q80 0 135 -25.5t92 -84.5l10 55h205l-86 -477q-26 -135 -24 -168q3 -49 48 -55q7 -1 15 -1q59 0 104 43t69 110t36 135.5t12 133.5q-3 216 -156.5 347t-416.5 131q-137 0 -247.5 -38.5t-180.5 -101t-117 -146t-66.5 -168 t-19.5 -173.5q0 -240 146 -382t419 -142q109 0 205 34l45 -180q-139 -45 -270 -45q-216 0 -384.5 80.5t-268 242t-99.5 382.5zM629 602q0 -84 44 -136t120 -52q53 0 107 24t91 64l45 268q-21 47 -69 75.5t-113 28.5q-61 0 -107 -27.5t-70.5 -71t-36 -87.5t-11.5 -86z" />
<glyph unicode="A" horiz-adv-x="1560" d="M4 0l574 1454h399l573 -1454h-346l-125 338h-614l-127 -338h-334zM571 616h404l-201 541z" />
<glyph unicode="B" horiz-adv-x="1353" d="M137 0v1454h608q127 0 223 -29.5t152 -83t83.5 -120.5t27.5 -148q0 -198 -193 -303q232 -94 232 -354q0 -87 -30 -161t-89 -132t-157.5 -90.5t-225.5 -32.5h-631zM451 260h305q92 0 141 49.5t49 130.5q0 170 -194 170h-301v-350zM451 858h266q190 6 190 166 q0 156 -184 156h-272v-322z" />
<glyph unicode="C" horiz-adv-x="1527" d="M78 727q0 366 196.5 565t530.5 199q202 0 357 -74t272 -237l-226 -197q-94 124 -186.5 179t-220.5 55q-187 0 -296.5 -126.5t-109.5 -363.5q0 -234 108 -361.5t294 -127.5q96 0 171 34t130 93t116 159l246 -162q-108 -198 -276.5 -298.5t-382.5 -100.5q-162 0 -294.5 50 t-228 145t-148 240t-52.5 329z" />
<glyph unicode="D" horiz-adv-x="1515" d="M145 0v1454h557q165 0 301.5 -46.5t237 -136t156 -228.5t55.5 -316t-55.5 -316t-155.5 -228.5t-236 -136t-300 -46.5h-560zM463 281h260q174 0 288.5 118t114.5 328t-115 328.5t-288 118.5h-260v-893z" />
<glyph unicode="E" horiz-adv-x="1232" d="M137 0v1454h1034v-280h-716v-293h600v-271h-600v-329h716v-281h-1034z" />
<glyph unicode="F" horiz-adv-x="1146" d="M145 0v1454h979v-280h-661v-312h559v-278h-559v-584h-318z" />
<glyph unicode="G" horiz-adv-x="1531" d="M78 723q0 184 53.5 329t149.5 239t228 143t290 49q206 0 367 -83t257 -249l-225 -176q-75 123 -168.5 178t-216.5 55q-196 0 -303 -125.5t-107 -357.5q0 -234 107.5 -359.5t304.5 -125.5q144 0 233 69.5t109 210.5h-412v281h719v-105q0 -160 -35.5 -286.5t-96 -208.5 t-146 -136t-181 -77t-206.5 -23q-159 0 -290.5 48.5t-228 142t-149.5 238.5t-53 329z" />
<glyph unicode="H" horiz-adv-x="1521" d="M137 0v1454h318v-557h612v557h317v-1454h-317v618h-612v-618h-318z" />
<glyph unicode="I" horiz-adv-x="608" d="M145 0v1454h318v-1454h-318z" />
<glyph unicode="J" horiz-adv-x="976" d="M-6 119l170 221q93 -96 198 -96q81 0 120.5 47.5t39.5 161.5v1001h318v-997q0 -125 -34.5 -220.5t-97 -154.5t-146.5 -89t-187 -30q-219 0 -381 156z" />
<glyph unicode="K" horiz-adv-x="1431" d="M137 0v1454h318v-608l579 608h406l-627 -645l623 -809h-424l-428 571l-129 -133v-438h-318z" />
<glyph unicode="L" horiz-adv-x="1179" d="M137 0v1454h318v-1173h714v-281h-1032z" />
<glyph unicode="M" horiz-adv-x="1886" d="M139 0l60 1454h389l354 -1003l354 1003h392l57 -1454h-318l-34 934l-320 -873h-260l-321 873l-35 -934h-318z" />
<glyph unicode="N" horiz-adv-x="1603" d="M137 0v1454h387l619 -1008h4v1008h317v-1454h-385l-620 1008h-4v-1008h-318z" />
<glyph unicode="O" horiz-adv-x="1622" d="M78 727q0 186 54.5 332.5t152.5 240t231.5 142.5t294.5 49t294.5 -49t231.5 -142.5t152.5 -240t54.5 -332.5q0 -185 -54.5 -331.5t-152.5 -240.5t-231.5 -143t-294.5 -49t-294.5 49t-231.5 143t-152.5 240.5t-54.5 331.5zM403 727q0 -232 111.5 -360.5t296.5 -128.5 t296.5 128.5t111.5 360.5q0 233 -111 361.5t-297 128.5t-297 -128.5t-111 -361.5z" />
<glyph unicode="P" horiz-adv-x="1331" d="M145 0v1454h603q142 0 248.5 -38.5t170 -107.5t94.5 -157.5t31 -196.5q0 -113 -33.5 -206.5t-99 -163.5t-170.5 -109t-241 -39h-285v-436h-318zM463 715h268q117 0 176.5 62t59.5 179q0 218 -240 218h-264v-459z" />
<glyph unicode="Q" horiz-adv-x="1587" d="M59 727q0 186 54.5 332.5t153 240t232 142.5t294.5 49t294.5 -49t231.5 -142.5t152.5 -240t54.5 -332.5q0 -237 -86.5 -405.5t-243.5 -260.5l176 -290h-340l-121 198q-59 -6 -118 -6q-161 0 -294.5 49t-232 143t-153 240.5t-54.5 331.5zM387 727q0 -232 111 -360.5 t295 -128.5q185 0 296 128.5t111 360.5q0 233 -111 361.5t-296 128.5q-184 0 -295 -128.5t-111 -361.5z" />
<glyph unicode="R" horiz-adv-x="1359" d="M137 0v1454h598q135 0 239 -37t165.5 -101t92 -144t30.5 -173q0 -145 -68.5 -258t-200.5 -170l295 -571h-346l-258 524h-229v-524h-318zM455 799h286q102 0 156.5 53t54.5 143q0 85 -54.5 135t-176.5 50h-266v-381z" />
<glyph unicode="S" horiz-adv-x="1257" d="M37 256l239 186q78 -105 160.5 -154.5t184.5 -49.5q115 0 177 44.5t62 133.5q0 33 -12 57.5t-30.5 41t-56 31.5t-73 25.5t-97.5 26.5q-13 3 -20.5 5t-19 5t-21.5 6q-50 14 -86 26.5t-84 33.5t-82.5 43.5t-70.5 56.5t-58 72.5t-36.5 91t-14.5 113.5q0 206 140 323t383 117 q341 0 534 -205l-221 -211q-74 76 -146.5 109t-158.5 33q-209 0 -209 -152q0 -24 7.5 -43.5t16 -33.5t31.5 -27.5t38 -21.5t52 -19t56.5 -16t68.5 -17q182 -44 268 -87q228 -117 230 -362q0 -223 -156.5 -349t-410.5 -126q-387 0 -584 293z" />
<glyph unicode="T" horiz-adv-x="1239" d="M10 1174v280h1219v-280h-451v-1174h-315v1174h-453z" />
<glyph unicode="U" horiz-adv-x="1499" d="M135 547v907h318v-907q0 -151 80 -230t217 -79t217 79t80 230v907h317v-907q0 -138 -46.5 -249t-129 -184t-194.5 -112t-244 -39t-244 39t-194.5 112t-129.5 184t-47 249z" />
<glyph unicode="V" horiz-adv-x="1466" d="M10 1454h342l383 -1128l383 1128h340l-520 -1454h-408z" />
<glyph unicode="W" horiz-adv-x="1986" d="M27 1454h333l234 -1071l211 1010h377l211 -1010l233 1071h334l-365 -1454h-383l-219 975l-219 -975h-383z" />
<glyph unicode="X" horiz-adv-x="1441" d="M8 0l512 743l-479 711h379l303 -448l309 448h361l-480 -696l512 -758h-383l-331 494l-340 -494h-363z" />
<glyph unicode="Y" horiz-adv-x="1359" d="M-16 1454h362l342 -580l348 580h340l-538 -883v-571h-318v571z" />
<glyph unicode="Z" horiz-adv-x="1214" d="M35 0v281l751 893h-682v280h1045v-280l-748 -893h773v-281h-1139z" />
<glyph unicode="[" horiz-adv-x="645" d="M117 -492v2018h483v-215h-256v-1587h256v-216h-483z" />
<glyph unicode="\" horiz-adv-x="704" d="M-84 1454h223l574 -1454h-224z" />
<glyph unicode="]" horiz-adv-x="645" d="M43 -276h256v1587h-256v215h483v-2018h-483v216z" />
<glyph unicode="^" horiz-adv-x="1216" d="M111 662l407 722h182l406 -722h-250l-248 452l-248 -452h-249z" />
<glyph unicode="_" horiz-adv-x="1001" d="M-12 -106h1024v-207h-1024v207z" />
<glyph unicode="`" horiz-adv-x="595" d="M41 1526h346l164 -314h-240z" />
<glyph unicode="a" d="M59 496q0 234 131.5 379t348.5 145q175 0 278 -115v88h279v-993h-279v88q-103 -115 -278 -115q-217 0 -348.5 144.5t-131.5 378.5zM348 496q0 -133 66.5 -211t181.5 -78q143 0 213 119v340q-70 118 -213 118q-115 0 -181.5 -77.5t-66.5 -210.5z" />
<glyph unicode="b" horiz-adv-x="1226" d="M123 0v1495h289v-582q99 107 270 107q217 0 348 -144.5t131 -379.5t-131 -380t-348 -145q-176 0 -279 115v-86h-280zM412 326q32 -57 87.5 -88t125.5 -31q115 0 181 78t66 211t-66 210.5t-181 77.5q-146 0 -213 -118v-340z" />
<glyph unicode="c" horiz-adv-x="1075" d="M63 496q0 235 142.5 377.5t388.5 142.5q285 0 422 -211l-189 -162q-58 71 -109.5 101t-119.5 30q-118 0 -181 -74t-63 -200q0 -131 65 -207t177 -76q146 0 238 139l200 -145q-63 -110 -174.5 -173t-267.5 -63q-246 0 -387.5 143t-141.5 378z" />
<glyph unicode="d" horiz-adv-x="1226" d="M63 496q0 234 132.5 379t349.5 145q169 0 268 -107v582h289v-1495h-279v86q-103 -115 -278 -115q-217 0 -349.5 145.5t-132.5 379.5zM354 496q0 -132 66 -210.5t180 -78.5q146 0 213 119v340q-67 118 -213 118q-114 0 -180 -78t-66 -210z" />
<glyph unicode="e" horiz-adv-x="1157" d="M59 504q0 232 140 375t381 143q239 0 374.5 -141t135.5 -369q0 -42 -7 -96h-739q20 -109 90 -168.5t174 -59.5q160 0 252 121l203 -127q-156 -213 -457 -213q-257 0 -402 146t-145 389zM350 616h449q-21 88 -77.5 137.5t-143.5 49.5q-89 0 -147 -51t-81 -136z" />
<glyph unicode="f" horiz-adv-x="698" d="M41 776v217h106v166q0 91 29.5 162.5t79.5 115t111.5 65.5t130.5 22q129 0 233 -72l-82 -209q-56 37 -102 37q-49 0 -80 -35t-31 -102v-150h230v-217h-230v-776h-289v776h-106z" />
<glyph unicode="g" horiz-adv-x="1226" d="M63 498q0 234 132.5 379t349.5 145q175 0 278 -115v86h279v-975q0 -137 -40.5 -241.5t-114.5 -169t-173.5 -97t-222.5 -32.5q-265 0 -451 160l150 198q128 -112 291 -112q143 0 207.5 70.5t64.5 219.5v66q-96 -107 -268 -107q-217 0 -349.5 145.5t-132.5 379.5zM354 498 q0 -132 66 -210.5t180 -78.5q146 0 213 119v338q-66 120 -213 120q-114 0 -180 -78t-66 -210z" />
<glyph unicode="h" horiz-adv-x="1245" d="M123 0v1495h289v-596q108 121 290 121q209 0 324 -130t115 -364v-526h-289v496q0 123 -58.5 191.5t-162.5 68.5q-72 0 -129.5 -33t-89.5 -88v-635h-289z" />
<glyph unicode="i" horiz-adv-x="536" d="M102 1352q0 80 45.5 122t118.5 42q72 0 118 -42.5t46 -123.5q0 -80 -47 -121t-119 -41t-117 41.5t-45 122.5zM123 0v993h289v-993h-289z" />
<glyph unicode="j" horiz-adv-x="536" d="M-188 -449l98 236q53 -33 108 -33q46 0 75.5 29t29.5 92v1118h289v-1102q0 -109 -32 -189.5t-87 -125t-120 -65.5t-140 -21q-118 0 -221 61zM102 1352q0 80 45.5 122t118.5 42q72 0 118 -42.5t46 -123.5q0 -80 -47 -121t-119 -41t-117 41.5t-45 122.5z" />
<glyph unicode="k" horiz-adv-x="1196" d="M123 0v1495h289v-784l338 282h426l-469 -379l491 -614h-364l-334 446l-88 -71v-375h-289z" />
<glyph unicode="l" horiz-adv-x="536" d="M123 0v1495h289v-1495h-289z" />
<glyph unicode="m" horiz-adv-x="1855" d="M123 0v993h270v-104q105 131 283 131q223 0 328 -158q133 158 339 158q193 0 300.5 -120t107.5 -335v-565h-289v526q0 109 -49.5 169.5t-140.5 60.5q-61 0 -111.5 -28.5t-83.5 -78.5q4 -54 4 -84v-565h-288v526q0 109 -50 169.5t-141 60.5q-62 0 -112.5 -29.5 t-77.5 -77.5v-649h-289z" />
<glyph unicode="n" horiz-adv-x="1245" d="M123 0v993h280v-104q109 131 299 131q209 0 324 -130t115 -364v-526h-289v494q0 125 -58 193.5t-163 68.5q-72 0 -129.5 -33t-89.5 -88v-635h-289z" />
<glyph unicode="o" horiz-adv-x="1185" d="M59 496q0 238 140.5 381t392.5 143q253 0 393.5 -143t140.5 -381t-140.5 -381.5t-393.5 -143.5q-252 0 -392.5 143.5t-140.5 381.5zM348 496q0 -132 66.5 -210.5t177.5 -78.5t178.5 79t67.5 210t-67.5 209.5t-178.5 78.5t-177.5 -78t-66.5 -210z" />
<glyph unicode="p" horiz-adv-x="1226" d="M123 -492v1485h280v-86q103 115 279 115q217 0 348 -144.5t131 -379.5t-131 -380t-348 -145q-174 0 -270 107v-572h-289zM412 328q32 -57 87.5 -88t125.5 -31q115 0 181 78t66 211t-66 210.5t-181 77.5q-147 0 -213 -120v-338z" />
<glyph unicode="q" horiz-adv-x="1226" d="M63 498q0 234 132.5 379t349.5 145q175 0 278 -115v86h279v-1485h-289v572q-96 -107 -268 -107q-217 0 -349.5 145.5t-132.5 379.5zM354 498q0 -132 66 -210.5t180 -78.5q146 0 213 119v338q-66 120 -213 120q-114 0 -180 -78t-66 -210z" />
<glyph unicode="r" horiz-adv-x="876" d="M123 0v993h278v-147q104 170 281 170q107 0 217 -66l-131 -270q-71 45 -147 45q-135 0 -209 -145v-580h-289z" />
<glyph unicode="s" horiz-adv-x="948" d="M33 145l182 189q58 -69 116.5 -100t127.5 -31q133 0 133 88q0 12 -2.5 21.5t-9 17.5t-13 14t-19.5 12t-23 10.5t-29 10t-32.5 9t-38 10t-40.5 10.5q-47 12 -85.5 25.5t-82 38.5t-73 55.5t-49 77t-19.5 102.5q0 140 111 225.5t290 85.5q231 0 389 -142l-155 -190 q-107 104 -242 104q-111 0 -111 -71q0 -37 32.5 -56.5t115.5 -39.5q141 -30 198 -55q169 -75 170 -253q0 -159 -120.5 -248.5t-302.5 -89.5q-259 0 -418 170z" />
<glyph unicode="t" horiz-adv-x="761" d="M25 776v217h114v271h287v-271h266v-217h-266v-422q0 -135 106 -135q57 0 113 41l105 -182q-119 -96 -279 -96q-154 0 -243 91.5t-89 248.5v454h-114z" />
<glyph unicode="u" horiz-adv-x="1224" d="M104 467v526h289v-493q0 -125 55 -193.5t154 -68.5q70 0 125.5 30.5t85.5 81.5v643h289v-993h-281v96q-107 -123 -291 -123q-202 0 -314 130t-112 364z" />
<glyph unicode="v" horiz-adv-x="1167" d="M0 993h324l268 -712l260 712h315l-401 -993h-354z" />
<glyph unicode="w" horiz-adv-x="1779" d="M18 993h310l215 -704l200 704h330l203 -694l190 694h295l-309 -993h-338l-207 674l-200 -674h-340z" />
<glyph unicode="x" horiz-adv-x="1222" d="M10 0l410 514l-404 479h373l209 -264l201 264h360l-381 -471l436 -522h-372l-242 307l-246 -307h-344z" />
<glyph unicode="y" horiz-adv-x="1183" d="M6 993h316l278 -688l266 688h310l-613 -1485h-307l199 443z" />
<glyph unicode="z" horiz-adv-x="993" d="M37 0v215l516 543h-475v235h837v-213l-528 -544h557v-236h-907z" />
<glyph unicode="{" horiz-adv-x="702" d="M-2 446v213q33 0 74.5 16t79.5 57t38 97v365q0 153 83 242.5t214 89.5h168v-215h-133q-51 0 -77.5 -33t-26.5 -94v-414q0 -58 -18 -101.5t-46.5 -66t-53.5 -33.5t-48 -14v-4q166 -20 166 -227v-474q0 -126 104 -126h133v-216h-168q-130 0 -213.5 90.5t-83.5 241.5v420 q0 47 -22 85t-54 58.5t-62.5 31.5t-53.5 11z" />
<glyph unicode="|" horiz-adv-x="579" d="M193 -102v1618h194v-1618h-194z" />
<glyph unicode="}" horiz-adv-x="698" d="M41 -276h133q105 0 105 126v474q0 208 165 227v4q-23 3 -48 14t-53 33.5t-46 66t-18 101.5v414q0 60 -27 93.5t-78 33.5h-133v215h168q131 0 214 -89.5t83 -242.5v-365q0 -56 38 -97t79.5 -57t74.5 -16v-213q-23 0 -53.5 -11t-62.5 -31.5t-54 -58.5t-22 -85v-420 q0 -151 -83.5 -241.5t-213.5 -90.5h-168v216z" />
<glyph unicode="~" d="M76 330q5 76 28.5 145.5t64.5 126t105 90t142 33.5q50 0 98 -17t84.5 -41t70 -48t69 -41t67.5 -17q117 0 137 160h203q-5 -76 -28.5 -145t-65 -126t-106 -90.5t-142.5 -33.5q-49 0 -96 17t-83.5 41t-70 47.5t-69.5 40.5t-68 17q-118 0 -137 -159h-203z" />
<glyph unicode="&#xa1;" horiz-adv-x="694" d="M176 850q0 79 46 125.5t124 46.5q81 0 127.5 -46t46.5 -126q0 -79 -47 -126.5t-125 -47.5t-125 47.5t-47 126.5zM195 -449q0 80 0.5 152t1 126.5t2.5 114t3 94t4.5 88.5t4.5 75t5.5 76t5.5 69.5t7 77t7 78.5h225q1 -16 7 -78.5t7 -77t5.5 -69.5t5.5 -76t4.5 -75 t4.5 -88.5t3 -94t2.5 -114t1 -126.5t0.5 -152h-307z" />
<glyph unicode="&#xa2;" horiz-adv-x="1212" d="M92 733q0 207 111.5 348.5t306.5 171.5v201h201v-201q214 -35 329 -219l-198 -137q-66 88 -131 115v-535q81 31 149 119l197 -127q-104 -196 -346 -233v-236h-201v233q-196 28 -307 161t-111 339zM373 735q0 -97 36 -163.5t101 -94.5v531q-67 -32 -102 -103.5t-35 -169.5 z" />
<glyph unicode="&#xa3;" horiz-adv-x="1150" d="M59 82q62 111 105 237.5t43 217.5q0 39 -2 57h-129v213h76q-37 126 -37 258q0 180 117 279.5t321 99.5q350 0 469 -295l-227 -113q-67 174 -224 174q-74 0 -121.5 -35t-48.5 -106q0 -37 5 -75.5t9.5 -60.5t15.5 -66l15 -60h349v-213h-318l2 -51q0 -131 -37 -250 q170 -94 271 -94q61 0 101.5 33t92.5 108l185 -160q-26 -38 -59 -72t-80 -67.5t-110 -53.5t-132 -20q-50 0 -98.5 9.5t-101 31.5t-79 35.5t-82.5 42.5l-47 -86z" />
<glyph unicode="&#xa5;" horiz-adv-x="1138" d="M37 1384h307l221 -573l230 573h305l-316 -708h172v-164h-251v-127h251v-164h-251v-221h-291v221h-242v164h242v127h-242v164h172z" />
<glyph unicode="&#xa6;" horiz-adv-x="579" d="M193 -102v620h194v-620h-194zM193 895v621h194v-621h-194z" />
<glyph unicode="&#xa7;" horiz-adv-x="1142" d="M68 -74l198 156q65 -89 132 -129.5t157 -40.5q89 0 141 37.5t52 107.5q0 20 -5 36.5t-12.5 28.5t-23.5 22.5t-29.5 17.5t-40.5 15.5t-45.5 14t-55.5 15t-61 16.5q-59 17 -102 33t-94 46t-83.5 66.5t-54.5 93t-22 126.5q0 99 42.5 175t121.5 122q-107 90 -107 245 q0 169 116 265t324 96q279 0 433 -170l-181 -174q-62 64 -121.5 91.5t-132.5 27.5q-87 0 -129.5 -33t-42.5 -92q0 -18 3 -32.5t13 -26.5l17.5 -21t27 -18t31 -14t39.5 -12.5t42.5 -11.5t50.5 -12q51 -13 86 -23t81.5 -27t78 -35.5t65.5 -47t54 -61.5t33 -78.5t13 -99.5 q0 -198 -157 -304q98 -88 98 -239q0 -184 -130 -288.5t-341 -104.5q-315 0 -479 241zM385 610q0 -38 9.5 -62.5t39.5 -41.5t55 -24.5t85 -22.5q21 -5 32 -8q56 -14 103 -27q98 45 98 166q0 26 -4.5 45.5t-17.5 34t-25 24t-40 19.5t-48 15.5t-63.5 17t-73.5 20.5l-31 8 q-60 -13 -89.5 -57t-29.5 -107z" />
<glyph unicode="&#xa8;" horiz-adv-x="851" d="M43 1352q0 75 43.5 115t112.5 40q67 0 111 -40.5t44 -116.5q0 -75 -44.5 -114.5t-112.5 -39.5t-111 40t-43 116zM498 1352q0 75 42.5 115t110.5 40t112 -40.5t44 -116.5t-44.5 -115t-111.5 -39q-68 0 -110.5 40t-42.5 116z" />
<glyph unicode="&#xa9;" horiz-adv-x="1613" d="M61 727q0 236 97 411t265 264t386 89q162 0 298.5 -52t235 -148.5t154 -241t55.5 -322.5t-55.5 -322.5t-154 -241t-235 -148.5t-298.5 -52q-218 0 -386 89t-265 264t-97 411zM254 727q0 -272 150.5 -424.5t402.5 -152.5q251 0 402 152.5t151 424.5t-151 425t-402 153 q-252 0 -402.5 -153t-150.5 -425zM389 727q0 230 114.5 349.5t307.5 119.5q226 0 350 -178l-153 -127q-82 110 -195 110q-99 0 -155 -72t-56 -206q0 -131 54.5 -200.5t156.5 -69.5q123 0 197 120l168 -102q-118 -213 -367 -213q-194 0 -308 119.5t-114 349.5z" />
<glyph unicode="&#xaa;" horiz-adv-x="915" d="M43 1022q0 166 93.5 268.5t248.5 102.5q120 0 197 -80v59h249v-696h-249v59q-77 -80 -197 -80q-155 0 -248.5 101t-93.5 266zM301 1022q0 -77 39.5 -123.5t105.5 -46.5q88 0 125 70v202q-39 70 -125 70q-66 0 -105.5 -47t-39.5 -125z" />
<glyph unicode="&#xab;" horiz-adv-x="1036" d="M94 459v196l410 338v-272l-228 -164l228 -164v-272zM537 459v196l409 338v-272l-225 -164l225 -164v-272z" />
<glyph unicode="&#xac;" d="M70 553v227h1079v-612h-227v385h-852z" />
<glyph unicode="&#xad;" horiz-adv-x="806" d="M78 434v228h649v-228h-649z" />
<glyph unicode="&#xae;" horiz-adv-x="1613" d="M61 727q0 236 97 411t265 264t386 89q162 0 298.5 -52t235 -148.5t154 -241t55.5 -322.5t-55.5 -322.5t-154 -241t-235 -148.5t-298.5 -52q-218 0 -386 89t-265 264t-97 411zM254 727q0 -272 151 -424.5t402 -152.5t402 152.5t151 424.5t-151 425t-402 153t-402 -153 t-151 -425zM514 313v863h365q72 0 128 -23t88 -62t48 -85t16 -97q0 -86 -42.5 -156.5t-123.5 -99.5l178 -340h-206l-160 320h-100v-320h-191zM705 795h141q64 0 96.5 29.5t32.5 82.5q0 49 -31 79t-98 30h-141v-221z" />
<glyph unicode="&#xaf;" horiz-adv-x="700" d="M43 1284v197h614v-197h-614z" />
<glyph unicode="&#xb0;" horiz-adv-x="724" d="M35 1206q0 144 88.5 232t241.5 88q152 0 238.5 -87.5t86.5 -232.5q0 -144 -86.5 -230.5t-238.5 -86.5q-154 0 -242 86.5t-88 230.5zM199 1206q0 -78 44 -121t122 -43q76 0 121.5 43.5t45.5 120.5q0 79 -45.5 123.5t-121.5 44.5q-78 0 -122 -44.5t-44 -123.5z" />
<glyph unicode="&#xb1;" d="M70 0v227h1079v-227h-1079zM70 598v209h428v254h227v-254h424v-209h-424v-254h-227v254h-428z" />
<glyph unicode="&#xb2;" horiz-adv-x="749" d="M31 1389q113 135 321 135q145 0 229.5 -73.5t84.5 -195.5q0 -23 -3.5 -45t-13.5 -45t-18 -40t-28 -42t-30.5 -39t-38.5 -42.5t-40 -40.5t-47 -45t-48 -46h283v-194h-619v155q58 60 125.5 126t100.5 98t64.5 68.5t43 62.5t11.5 55q0 38 -26.5 60t-70.5 22q-86 0 -157 -74z " />
<glyph unicode="&#xb3;" horiz-adv-x="747" d="M8 838l174 123q32 -58 63 -80.5t87 -22.5q38 0 59 20t21 54q0 35 -24.5 52t-86.5 17h-80v193h64q104 0 104 72q0 57 -65 57q-41 0 -71.5 -18t-70.5 -64l-151 131q106 152 295 152q144 0 230.5 -72.5t86.5 -181.5q0 -96 -90 -156q113 -66 113 -188q0 -119 -90.5 -193 t-241.5 -74q-126 0 -210 53.5t-116 125.5z" />
<glyph unicode="&#xb4;" horiz-adv-x="595" d="M43 1212l164 314h346l-270 -314h-240z" />
<glyph unicode="&#xb5;" horiz-adv-x="1243" d="M123 -492v1485h289v-508q0 -247 209 -247q70 0 125 30.5t85 81.5v643h289v-993h-280v96q-99 -123 -269 -123q-97 0 -159 45v-510h-289z" />
<glyph unicode="&#xb6;" horiz-adv-x="1339" d="M39 1055q0 96 24.5 167t66.5 115t106 70.5t134.5 36.5t161.5 10h676v-215h-121v-1450h-227v1450h-160v-1450h-227v879h-29q-192 0 -298.5 98.5t-106.5 288.5z" />
<glyph unicode="&#xb7;" horiz-adv-x="598" d="M129 752q0 79 47 126.5t125 47.5t125 -47.5t47 -126.5q0 -80 -46.5 -126t-127.5 -46q-78 0 -124 46.5t-46 125.5z" />
<glyph unicode="&#xb8;" horiz-adv-x="589" d="M43 -414l47 127q71 -43 168 -43q39 0 61.5 14t22.5 40q0 34 -64 52.5t-157 18.5l82 228h192l-76 -127q38 0 67 -3t60.5 -14t52.5 -29t34.5 -50t13.5 -76q0 -69 -41.5 -116.5t-100.5 -67t-129 -19.5q-67 0 -129.5 17.5t-103.5 47.5z" />
<glyph unicode="&#xb9;" horiz-adv-x="784" d="M78 1321q137 62 192 186h242v-637h166v-194h-574v194h170v355q-52 -52 -122 -86z" />
<glyph unicode="&#xba;" horiz-adv-x="884" d="M41 1022q0 170 104.5 270.5t296.5 100.5q193 0 298.5 -101t105.5 -270q0 -168 -105.5 -268.5t-298.5 -100.5q-192 0 -296.5 100.5t-104.5 268.5zM299 1022q0 -76 40 -123t103 -47q65 0 104.5 47t39.5 123q0 78 -39.5 125t-104.5 47q-63 0 -103 -47.5t-40 -124.5z" />
<glyph unicode="&#xbb;" horiz-adv-x="1036" d="M86 121v272l225 164l-225 164v272l410 -338v-196zM530 121v272l226 164l-226 164v272l410 -338v-196z" />
<glyph unicode="&#xbc;" horiz-adv-x="1880" d="M78 1198q137 62 192 186h242v-636h166v-195h-574v195h170v354q-52 -52 -122 -86zM377 -82l962 1536h193l-963 -1536h-192zM1137 135v150l358 546h234v-532h102v-164h-102v-135h-246v135h-346zM1311 299h172v260z" />
<glyph unicode="&#xbd;" horiz-adv-x="1875" d="M78 1198q137 62 192 186h242v-636h166v-195h-574v195h170v354q-52 -52 -122 -86zM377 -82l962 1536h193l-963 -1536h-192zM1155 713q113 135 322 135q144 0 227.5 -73t83.5 -195q0 -23 -3.5 -45t-14 -45.5t-17.5 -40t-27.5 -42t-30 -38.5t-38.5 -42.5t-40 -40 t-47.5 -45.5t-47.5 -46h284v-195h-620v156q58 60 126.5 126t101 97.5t64.5 68t43 62.5t11 55q0 38 -26 60t-70 22q-86 0 -160 -74z" />
<glyph unicode="&#xbe;" horiz-adv-x="1843" d="M6 715l176 123q32 -58 63 -80.5t87 -22.5q38 0 59 20t21 54q0 36 -24.5 53t-86.5 17h-80v192h64q104 0 104 72q0 57 -65 57q-41 0 -71.5 -18t-70.5 -64l-151 131q106 152 295 152q144 0 229.5 -72.5t85.5 -181.5q0 -95 -88 -156q111 -65 111 -188q0 -120 -89.5 -193 t-240.5 -73q-126 0 -210 52.5t-118 125.5zM340 -82l963 1536h192l-963 -1536h-192zM1098 135v150l358 546h234v-532h102v-164h-102v-135h-246v135h-346zM1272 299h172v260z" />
<glyph unicode="&#xbf;" horiz-adv-x="1120" d="M117 -78q0 64 16.5 121t37.5 94t59 75t61.5 56t64.5 47q68 44 102 78.5t34 77.5v61h286v-67q0 -48 -13.5 -90t-29 -68.5t-49.5 -58t-52.5 -45.5t-60.5 -43q-40 -30 -62 -48.5t-49.5 -49.5t-40.5 -66t-13 -76q2 -80 54.5 -123t149.5 -43q81 0 143.5 40t135.5 151l205 -174 q-180 -252 -504 -252q-221 0 -348 106.5t-127 296.5zM457 850q0 80 46.5 126t125.5 46q80 0 127 -46.5t47 -125.5t-48 -126.5t-126 -47.5t-125 47.5t-47 126.5z" />
<glyph unicode="&#xc0;" horiz-adv-x="1560" d="M4 0l574 1454h399l573 -1454h-346l-125 338h-614l-127 -338h-334zM436 1894h375l164 -313h-268zM571 616h404l-201 541z" />
<glyph unicode="&#xc1;" horiz-adv-x="1560" d="M4 0l574 1454h399l573 -1454h-346l-125 338h-614l-127 -338h-334zM571 616h404l-201 541zM588 1581l164 313h374l-270 -313h-268z" />
<glyph unicode="&#xc2;" horiz-adv-x="1560" d="M4 0l574 1454h399l573 -1454h-346l-125 338h-614l-127 -338h-334zM344 1602l240 292h395l242 -292h-310l-131 143l-129 -143h-307zM571 616h404l-201 541z" />
<glyph unicode="&#xc3;" horiz-adv-x="1560" d="M4 0l574 1454h399l573 -1454h-346l-125 338h-614l-127 -338h-334zM377 1628q24 275 227 275q66 0 154 -31q120 -43 157 -43q32 0 49.5 19t24.5 69h197q-6 -138 -69 -211.5t-167 -73.5q-79 0 -186 41q-93 35 -125 35q-26 0 -41.5 -17.5t-22.5 -62.5h-198zM571 616h404 l-201 541z" />
<glyph unicode="&#xc4;" horiz-adv-x="1560" d="M4 0l574 1454h399l573 -1454h-346l-125 338h-614l-127 -338h-334zM373 1718q0 79 46 121.5t118 42.5q71 0 117 -43t46 -123q0 -81 -46.5 -122.5t-118.5 -41.5q-71 0 -116.5 42.5t-45.5 123.5zM571 616h404l-201 541zM862 1718q0 79 46 121.5t118 42.5q71 0 117.5 -43 t46.5 -123q0 -81 -47 -122.5t-119 -41.5q-71 0 -116.5 42.5t-45.5 123.5z" />
<glyph unicode="&#xc5;" horiz-adv-x="1560" d="M4 0l574 1454h399l573 -1454h-346l-125 338h-614l-127 -338h-334zM551 1761q0 102 61.5 163t167.5 61t168 -61t62 -163q0 -101 -62 -161t-168 -60t-167.5 60t-61.5 161zM571 616h404l-201 541zM674 1761q0 -51 27.5 -78.5t78.5 -27.5q52 0 81.5 28t29.5 78q0 52 -30 81.5 t-81 29.5t-78.5 -29t-27.5 -82z" />
<glyph unicode="&#xc6;" horiz-adv-x="2043" d="M-74 0l795 1454h1264v-280h-717v-293h600v-271h-600v-329h717v-281h-1035v338h-510l-178 -338h-336zM586 616h364v558h-71z" />
<glyph unicode="&#xc7;" horiz-adv-x="1527" d="M78 727q0 366 196.5 565t530.5 199q202 0 357 -74t272 -237l-226 -197q-94 124 -186.5 179t-220.5 55q-187 0 -296.5 -126.5t-109.5 -363.5q0 -234 108 -361.5t294 -127.5q96 0 171 34t130 93t116 159l246 -162q-103 -189 -262 -289.5t-360 -109.5l-41 -67q48 0 83.5 -6 t70.5 -22.5t54 -53t19 -90.5q0 -69 -41.5 -116.5t-100 -67t-128.5 -19.5q-67 0 -130 17.5t-104 47.5l47 127q71 -43 168 -43q39 0 61.5 14t22.5 40q0 34 -64 52.5t-157 18.5l64 178q-270 39 -427 234t-157 520z" />
<glyph unicode="&#xc8;" horiz-adv-x="1232" d="M137 0v1454h1034v-280h-716v-293h600v-271h-600v-329h716v-281h-1034zM266 1894h375l164 -313h-268z" />
<glyph unicode="&#xc9;" horiz-adv-x="1232" d="M137 0v1454h1034v-280h-716v-293h600v-271h-600v-329h716v-281h-1034zM418 1581l164 313h374l-270 -313h-268z" />
<glyph unicode="&#xca;" horiz-adv-x="1232" d="M137 0v1454h1034v-280h-716v-293h600v-271h-600v-329h716v-281h-1034zM174 1602l240 292h395l242 -292h-310l-131 143l-129 -143h-307z" />
<glyph unicode="&#xcb;" horiz-adv-x="1232" d="M137 0v1454h1034v-280h-716v-293h600v-271h-600v-329h716v-281h-1034zM203 1718q0 79 46 121.5t118 42.5q71 0 117 -43t46 -123q0 -81 -46.5 -122.5t-118.5 -41.5q-71 0 -116.5 42.5t-45.5 123.5zM692 1718q0 79 46 121.5t118 42.5q71 0 117.5 -43t46.5 -123 q0 -81 -47 -122.5t-119 -41.5q-71 0 -116.5 42.5t-45.5 123.5z" />
<glyph unicode="&#xcc;" horiz-adv-x="608" d="M-43 1894h375l164 -313h-269zM145 0v1454h318v-1454h-318z" />
<glyph unicode="&#xcd;" horiz-adv-x="608" d="M109 1581l163 313h375l-270 -313h-268zM145 0v1454h318v-1454h-318z" />
<glyph unicode="&#xce;" horiz-adv-x="608" d="M-135 1602l239 292h396l241 -292h-309l-131 143l-129 -143h-307zM145 0v1454h318v-1454h-318z" />
<glyph unicode="&#xcf;" horiz-adv-x="608" d="M-104 1718q0 79 45.5 121.5t117.5 42.5q71 0 117.5 -43t46.5 -123q0 -81 -47 -122.5t-119 -41.5q-71 0 -116 42.5t-45 123.5zM145 0v1454h318v-1454h-318zM385 1718q0 79 46 121.5t118 42.5q71 0 117.5 -43t46.5 -123q0 -81 -47 -122.5t-119 -41.5q-71 0 -116.5 42.5 t-45.5 123.5z" />
<glyph unicode="&#xd0;" horiz-adv-x="1515" d="M47 639v227h94v588h555q165 0 301.5 -46.5t237 -136t156 -228.5t55.5 -316t-55.5 -316t-156 -228.5t-236.5 -136t-300 -46.5h-557v639h-94zM459 281h258q174 0 288.5 118t114.5 328t-115 328.5t-288 118.5h-258v-308h303v-227h-303v-358z" />
<glyph unicode="&#xd1;" horiz-adv-x="1603" d="M137 0v1454h387l619 -1008h4v1008h317v-1454h-385l-620 1008h-4v-1008h-318zM395 1628q24 275 228 275q65 0 153 -31q120 -43 158 -43q32 0 49.5 19t24.5 69h196q-6 -138 -69 -211.5t-166 -73.5q-80 0 -187 41q-93 35 -125 35q-26 0 -41 -17.5t-22 -62.5h-199z" />
<glyph unicode="&#xd2;" horiz-adv-x="1622" d="M78 727q0 186 54.5 332.5t152.5 240t231.5 142.5t294.5 49t294.5 -49t231.5 -142.5t152.5 -240t54.5 -332.5q0 -185 -54.5 -331.5t-152.5 -240.5t-231.5 -143t-294.5 -49t-294.5 49t-231.5 143t-152.5 240.5t-54.5 331.5zM403 727q0 -232 111.5 -360.5t296.5 -128.5 t296.5 128.5t111.5 360.5q0 233 -111 361.5t-297 128.5t-297 -128.5t-111 -361.5zM465 1894h375l164 -313h-269z" />
<glyph unicode="&#xd3;" horiz-adv-x="1622" d="M78 727q0 186 54.5 332.5t152.5 240t231.5 142.5t294.5 49t294.5 -49t231.5 -142.5t152.5 -240t54.5 -332.5q0 -185 -54.5 -331.5t-152.5 -240.5t-231.5 -143t-294.5 -49t-294.5 49t-231.5 143t-152.5 240.5t-54.5 331.5zM403 727q0 -232 111.5 -360.5t296.5 -128.5 t296.5 128.5t111.5 360.5q0 233 -111 361.5t-297 128.5t-297 -128.5t-111 -361.5zM616 1581l164 313h375l-270 -313h-269z" />
<glyph unicode="&#xd4;" horiz-adv-x="1622" d="M78 727q0 186 54.5 332.5t152.5 240t231.5 142.5t294.5 49t294.5 -49t231.5 -142.5t152.5 -240t54.5 -332.5q0 -185 -54.5 -331.5t-152.5 -240.5t-231.5 -143t-294.5 -49t-294.5 49t-231.5 143t-152.5 240.5t-54.5 331.5zM373 1602l239 292h396l241 -292h-309l-131 143 l-129 -143h-307zM403 727q0 -232 111.5 -360.5t296.5 -128.5t296.5 128.5t111.5 360.5q0 233 -111 361.5t-297 128.5t-297 -128.5t-111 -361.5z" />
<glyph unicode="&#xd5;" horiz-adv-x="1622" d="M78 727q0 186 54.5 332.5t152.5 240t231.5 142.5t294.5 49t294.5 -49t231.5 -142.5t152.5 -240t54.5 -332.5q0 -185 -54.5 -331.5t-152.5 -240.5t-231.5 -143t-294.5 -49t-294.5 49t-231.5 143t-152.5 240.5t-54.5 331.5zM403 727q0 -232 111.5 -360.5t296.5 -128.5 t296.5 128.5t111.5 360.5q0 233 -111 361.5t-297 128.5t-297 -128.5t-111 -361.5zM406 1628q24 275 227 275q65 0 153 -31q120 -43 158 -43q32 0 49.5 19t24.5 69h196q-6 -138 -69 -211.5t-166 -73.5q-79 0 -186 41q-93 35 -125 35q-26 0 -41.5 -17.5t-22.5 -62.5h-198z" />
<glyph unicode="&#xd6;" horiz-adv-x="1622" d="M78 727q0 186 54.5 332.5t152.5 240t231.5 142.5t294.5 49t294.5 -49t231.5 -142.5t152.5 -240t54.5 -332.5q0 -185 -54.5 -331.5t-152.5 -240.5t-231.5 -143t-294.5 -49t-294.5 49t-231.5 143t-152.5 240.5t-54.5 331.5zM401 1718q0 79 46 121.5t118 42.5 q71 0 117.5 -43t46.5 -123q0 -81 -47 -122.5t-119 -41.5q-71 0 -116.5 42.5t-45.5 123.5zM403 727q0 -232 111.5 -360.5t296.5 -128.5t296.5 128.5t111.5 360.5q0 233 -111 361.5t-297 128.5t-297 -128.5t-111 -361.5zM891 1718q0 79 46 121.5t118 42.5q71 0 117.5 -43 t46.5 -123q0 -81 -47 -122.5t-119 -41.5q-71 0 -116.5 42.5t-45.5 123.5z" />
<glyph unicode="&#xd7;" horiz-adv-x="1153" d="M70 156l352 350l-352 348l155 156l350 -351l351 351l153 -158l-348 -348l350 -348l-153 -156l-350 352l-353 -352z" />
<glyph unicode="&#xd8;" horiz-adv-x="1587" d="M72 727q0 186 54.5 332.5t152.5 240t231.5 142.5t294.5 49q217 0 381 -86l88 117l137 -103l-86 -114q213 -207 213 -578q0 -185 -54.5 -331.5t-152.5 -240.5t-231.5 -143t-294.5 -49q-233 0 -404 98l-96 -129l-137 103l98 133q-194 200 -194 559zM397 727q0 -169 66 -295 l547 733q-88 52 -205 52q-186 0 -297 -128.5t-111 -361.5zM580 301q97 -63 225 -63q185 0 296 128.5t111 360.5q0 196 -79 317z" />
<glyph unicode="&#xd9;" horiz-adv-x="1499" d="M135 547v907h318v-907q0 -151 80 -230t217 -79t217 79t80 230v907h317v-907q0 -138 -46.5 -249t-129 -184t-194.5 -112t-244 -39t-244 39t-194.5 112t-129.5 184t-47 249zM403 1894h375l164 -313h-268z" />
<glyph unicode="&#xda;" horiz-adv-x="1499" d="M135 547v907h318v-907q0 -151 80 -230t217 -79t217 79t80 230v907h317v-907q0 -138 -46.5 -249t-129 -184t-194.5 -112t-244 -39t-244 39t-194.5 112t-129.5 184t-47 249zM555 1581l164 313h375l-271 -313h-268z" />
<glyph unicode="&#xdb;" horiz-adv-x="1499" d="M135 547v907h318v-907q0 -151 80 -230t217 -79t217 79t80 230v907h317v-907q0 -138 -46.5 -249t-129 -184t-194.5 -112t-244 -39t-244 39t-194.5 112t-129.5 184t-47 249zM311 1602l240 292h395l242 -292h-309l-131 143l-130 -143h-307z" />
<glyph unicode="&#xdc;" horiz-adv-x="1499" d="M135 547v907h318v-907q0 -151 80 -230t217 -79t217 79t80 230v907h317v-907q0 -138 -46.5 -249t-129 -184t-194.5 -112t-244 -39t-244 39t-194.5 112t-129.5 184t-47 249zM340 1718q0 79 46 121.5t118 42.5q71 0 117.5 -43t46.5 -123q0 -81 -47 -122.5t-119 -41.5 q-71 0 -116.5 42.5t-45.5 123.5zM829 1718q0 79 46 121.5t118 42.5q71 0 117.5 -43t46.5 -123q0 -81 -47 -122.5t-119 -41.5q-71 0 -116.5 42.5t-45.5 123.5z" />
<glyph unicode="&#xdd;" horiz-adv-x="1359" d="M-16 1454h362l342 -580l348 580h340l-538 -883v-571h-318v571zM485 1673l164 314h346l-270 -314h-240z" />
<glyph unicode="&#xde;" horiz-adv-x="1331" d="M145 0v1454h318v-209h285q142 0 248.5 -39t170 -108t94.5 -157.5t31 -195.5q0 -113 -33.5 -206.5t-99 -163.5t-170.5 -109t-241 -39h-285v-227h-318zM463 506h268q117 0 176.5 62.5t59.5 179.5q0 217 -240 217h-264v-459z" />
<glyph unicode="&#xdf;" horiz-adv-x="1300" d="M123 0v999q0 236 134 381.5t374 145.5q207 0 338 -111t131 -285q0 -89 -45.5 -167t-128.5 -136q152 -49 231.5 -151.5t79.5 -245.5q0 -135 -69 -239.5t-185.5 -160t-259.5 -55.5q-160 0 -252 54l104 217q60 -37 148 -37q100 0 162.5 58.5t62.5 162.5q0 124 -90 184.5 t-293 63.5v231q106 3 176 64t70 157q0 79 -46.5 120.5t-133.5 41.5q-105 0 -162 -73.5t-57 -219.5v-999h-289z" />
<glyph unicode="&#xe0;" d="M59 496q0 234 131.5 379t348.5 145q175 0 278 -115v88h279v-993h-279v88q-103 -115 -278 -115q-217 0 -348.5 144.5t-131.5 378.5zM289 1526h346l164 -314h-240zM348 496q0 -133 66.5 -211t181.5 -78q143 0 213 119v340q-70 118 -213 118q-115 0 -181.5 -77.5 t-66.5 -210.5z" />
<glyph unicode="&#xe1;" d="M59 496q0 234 131.5 379t348.5 145q175 0 278 -115v88h279v-993h-279v88q-103 -115 -278 -115q-217 0 -348.5 144.5t-131.5 378.5zM348 496q0 -133 66.5 -211t181.5 -78q143 0 213 119v340q-70 118 -213 118q-115 0 -181.5 -77.5t-66.5 -210.5zM414 1212l164 314h346 l-271 -314h-239z" />
<glyph unicode="&#xe2;" d="M59 496q0 234 131.5 379t348.5 145q175 0 278 -115v88h279v-993h-279v88q-103 -115 -278 -115q-217 0 -348.5 144.5t-131.5 378.5zM199 1233l239 293h338l242 -293h-281l-131 143l-129 -143h-278zM348 496q0 -133 66.5 -211t181.5 -78q143 0 213 119v340 q-70 118 -213 118q-115 0 -181.5 -77.5t-66.5 -210.5z" />
<glyph unicode="&#xe3;" d="M59 496q0 234 131.5 379t348.5 145q175 0 278 -115v88h279v-993h-279v88q-103 -115 -278 -115q-217 0 -348.5 144.5t-131.5 378.5zM203 1219q24 274 227 274q66 0 154 -31q120 -43 157 -43q32 0 49.5 19t24.5 69h197q-6 -138 -69 -211t-167 -73q-79 0 -186 41 q-90 34 -125 34q-26 0 -41.5 -17t-22.5 -62h-198zM348 496q0 -133 66.5 -211t181.5 -78q143 0 213 119v340q-70 118 -213 118q-115 0 -181.5 -77.5t-66.5 -210.5z" />
<glyph unicode="&#xe4;" d="M59 496q0 234 131.5 379t348.5 145q175 0 278 -115v88h279v-993h-279v88q-103 -115 -278 -115q-217 0 -348.5 144.5t-131.5 378.5zM225 1352q0 75 43.5 115t112.5 40q67 0 111.5 -40.5t44.5 -116.5q0 -75 -45 -114.5t-113 -39.5t-111 40t-43 116zM348 496 q0 -133 66.5 -211t181.5 -78q143 0 213 119v340q-70 118 -213 118q-115 0 -181.5 -77.5t-66.5 -210.5zM680 1352q0 75 43 115t111 40t111.5 -40.5t43.5 -116.5t-44 -115t-111 -39q-68 0 -111 40t-43 116z" />
<glyph unicode="&#xe5;" d="M59 496q0 234 131.5 379t348.5 145q175 0 278 -115v88h279v-993h-279v88q-103 -115 -278 -115q-217 0 -348.5 144.5t-131.5 378.5zM348 496q0 -133 66.5 -211t181.5 -78q143 0 213 119v340q-70 118 -213 118q-115 0 -181.5 -77.5t-66.5 -210.5zM377 1311 q0 102 61.5 162.5t167.5 60.5q107 0 168.5 -60.5t61.5 -162.5q0 -101 -62 -161t-168 -60t-167.5 60t-61.5 161zM500 1311q0 -51 27.5 -79t78.5 -28t81 28t30 79q0 52 -30 81t-81 29t-78.5 -28.5t-27.5 -81.5z" />
<glyph unicode="&#xe6;" horiz-adv-x="1921" d="M63 496q0 234 132.5 379t349.5 145q173 0 278 -117v90h260v-78q110 107 281 107q229 0 359 -141t130 -369q0 -65 -4 -96h-739q20 -109 89 -168.5t173 -59.5q160 0 252 121l203 -127q-150 -213 -438 -213q-188 0 -306 115v-84h-260v92q-104 -119 -278 -119 q-217 0 -349.5 144.5t-132.5 378.5zM354 496q0 -132 66 -210.5t180 -78.5q146 0 213 119v340q-67 118 -213 118q-114 0 -180 -78t-66 -210zM1116 616h449q-21 88 -78.5 137.5t-145.5 49.5q-89 0 -145.5 -51t-79.5 -136z" />
<glyph unicode="&#xe7;" horiz-adv-x="1075" d="M63 496q0 235 142.5 377.5t388.5 142.5q285 0 422 -211l-189 -162q-58 71 -109.5 101t-119.5 30q-118 0 -181 -74t-63 -200q0 -131 65 -207t177 -76q146 0 238 139l200 -145q-61 -107 -168 -169.5t-256 -66.5l-47 -79q38 0 67 -3t60.5 -14t52.5 -29t34.5 -50t13.5 -76 q0 -69 -41.5 -116.5t-100.5 -67t-129 -19.5q-67 0 -129.5 17.5t-103.5 47.5l47 127q71 -43 168 -43q39 0 61.5 14t22.5 40q0 34 -64 52.5t-157 18.5l71 199q-177 41 -275 174t-98 328z" />
<glyph unicode="&#xe8;" horiz-adv-x="1157" d="M59 504q0 232 140 375t381 143q239 0 374.5 -141t135.5 -369q0 -42 -7 -96h-739q20 -109 90 -168.5t174 -59.5q160 0 252 121l203 -127q-156 -213 -457 -213q-257 0 -402 146t-145 389zM256 1526h346l164 -314h-240zM350 616h449q-21 88 -77.5 137.5t-143.5 49.5 q-89 0 -147 -51t-81 -136z" />
<glyph unicode="&#xe9;" horiz-adv-x="1157" d="M59 504q0 232 140 375t381 143q239 0 374.5 -141t135.5 -369q0 -42 -7 -96h-739q20 -109 90 -168.5t174 -59.5q160 0 252 121l203 -127q-156 -213 -457 -213q-257 0 -402 146t-145 389zM350 616h449q-21 88 -77.5 137.5t-143.5 49.5q-89 0 -147 -51t-81 -136zM381 1212 l164 314h346l-270 -314h-240z" />
<glyph unicode="&#xea;" horiz-adv-x="1157" d="M59 504q0 232 140 375t381 143q239 0 374.5 -141t135.5 -369q0 -42 -7 -96h-739q20 -109 90 -168.5t174 -59.5q160 0 252 121l203 -127q-156 -213 -457 -213q-257 0 -402 146t-145 389zM166 1233l240 293h337l242 -293h-280l-132 143l-129 -143h-278zM350 616h449 q-21 88 -77.5 137.5t-143.5 49.5q-89 0 -147 -51t-81 -136z" />
<glyph unicode="&#xeb;" horiz-adv-x="1157" d="M59 504q0 232 140 375t381 143q239 0 374.5 -141t135.5 -369q0 -42 -7 -96h-739q20 -109 90 -168.5t174 -59.5q160 0 252 121l203 -127q-156 -213 -457 -213q-257 0 -402 146t-145 389zM193 1352q0 75 43 115t112 40q67 0 111.5 -40.5t44.5 -116.5q0 -75 -45 -114.5 t-113 -39.5t-110.5 40t-42.5 116zM350 616h449q-21 88 -77.5 137.5t-143.5 49.5q-89 0 -147 -51t-81 -136zM647 1352q0 75 43 115t111 40t111.5 -40.5t43.5 -116.5t-44 -115t-111 -39q-68 0 -111 40t-43 116z" />
<glyph unicode="&#xec;" horiz-adv-x="536" d="M-51 1526h346l164 -314h-240zM123 0v993h289v-993h-289z" />
<glyph unicode="&#xed;" horiz-adv-x="536" d="M74 1212l164 314h346l-271 -314h-239zM123 0v993h289v-993h-289z" />
<glyph unicode="&#xee;" horiz-adv-x="536" d="M-141 1233l239 293h338l242 -293h-281l-131 143l-129 -143h-278zM123 0v993h289v-993h-289z" />
<glyph unicode="&#xef;" horiz-adv-x="536" d="M-115 1352q0 75 43.5 115t112.5 40q67 0 111.5 -40.5t44.5 -116.5q0 -75 -45 -114.5t-113 -39.5t-111 40t-43 116zM123 0v993h289v-993h-289zM340 1352q0 75 43 115t111 40t111.5 -40.5t43.5 -116.5t-44 -115t-111 -39q-68 0 -111 40t-43 116z" />
<glyph unicode="&#xf0;" horiz-adv-x="1216" d="M63 477q0 218 147 359t374 141q135 0 225 -70l4 4q-83 143 -233 248l-340 -149l-82 182l209 92q-43 22 -125 59l104 199q162 -58 301 -133l256 113l82 -185l-143 -63q311 -268 311 -703q0 -277 -149.5 -441.5t-413.5 -164.5q-241 0 -384 143.5t-143 368.5zM354 479 q0 -133 62 -205.5t176 -72.5q123 0 197.5 86.5t74.5 259.5q0 41 -6 76q-88 131 -248 131q-120 0 -188 -72t-68 -203z" />
<glyph unicode="&#xf1;" horiz-adv-x="1245" d="M123 0v993h280v-104q109 131 299 131q209 0 324 -130t115 -364v-526h-289v494q0 125 -58 193.5t-163 68.5q-72 0 -129.5 -33t-89.5 -88v-635h-289zM217 1219q24 274 227 274q66 0 154 -31q120 -43 158 -43q32 0 49 18.5t24 69.5h197q-6 -138 -68.5 -211t-166.5 -73 q-80 0 -187 41q-90 34 -125 34q-26 0 -41 -17t-22 -62h-199z" />
<glyph unicode="&#xf2;" horiz-adv-x="1185" d="M59 496q0 238 140.5 381t392.5 143q253 0 393.5 -143t140.5 -381t-140.5 -381.5t-393.5 -143.5q-252 0 -392.5 143.5t-140.5 381.5zM272 1526h346l164 -314h-239zM348 496q0 -132 66.5 -210.5t177.5 -78.5t178.5 79t67.5 210t-67.5 209.5t-178.5 78.5t-177.5 -78 t-66.5 -210z" />
<glyph unicode="&#xf3;" horiz-adv-x="1185" d="M59 496q0 238 140.5 381t392.5 143q253 0 393.5 -143t140.5 -381t-140.5 -381.5t-393.5 -143.5q-252 0 -392.5 143.5t-140.5 381.5zM348 496q0 -132 66.5 -210.5t177.5 -78.5t178.5 79t67.5 210t-67.5 209.5t-178.5 78.5t-177.5 -78t-66.5 -210zM397 1212l164 314h346 l-270 -314h-240z" />
<glyph unicode="&#xf4;" horiz-adv-x="1185" d="M59 496q0 238 140.5 381t392.5 143q253 0 393.5 -143t140.5 -381t-140.5 -381.5t-393.5 -143.5q-252 0 -392.5 143.5t-140.5 381.5zM182 1233l240 293h338l241 -293h-280l-131 143l-129 -143h-279zM348 496q0 -132 66.5 -210.5t177.5 -78.5t178.5 79t67.5 210 t-67.5 209.5t-178.5 78.5t-177.5 -78t-66.5 -210z" />
<glyph unicode="&#xf5;" horiz-adv-x="1185" d="M59 496q0 238 140.5 381t392.5 143q253 0 393.5 -143t140.5 -381t-140.5 -381.5t-393.5 -143.5q-252 0 -392.5 143.5t-140.5 381.5zM186 1219q24 274 228 274q65 0 153 -31q120 -43 158 -43q32 0 49.5 19t24.5 69h196q-6 -138 -68.5 -211t-166.5 -73q-80 0 -187 41 q-90 34 -124 34q-26 0 -41.5 -17t-22.5 -62h-199zM348 496q0 -132 66.5 -210.5t177.5 -78.5t178.5 79t67.5 210t-67.5 209.5t-178.5 78.5t-177.5 -78t-66.5 -210z" />
<glyph unicode="&#xf6;" horiz-adv-x="1185" d="M59 496q0 238 140.5 381t392.5 143q253 0 393.5 -143t140.5 -381t-140.5 -381.5t-393.5 -143.5q-252 0 -392.5 143.5t-140.5 381.5zM211 1352q0 75 43.5 115t112.5 40q67 0 111 -40.5t44 -116.5q0 -75 -44.5 -114.5t-112.5 -39.5t-111 40t-43 116zM348 496 q0 -132 66.5 -210.5t177.5 -78.5t178.5 79t67.5 210t-67.5 209.5t-178.5 78.5t-177.5 -78t-66.5 -210zM666 1352q0 75 42.5 115t110.5 40t112 -40.5t44 -116.5t-44.5 -115t-111.5 -39q-68 0 -110.5 40t-42.5 116z" />
<glyph unicode="&#xf7;" d="M70 410v227h1079v-227h-1079zM438 141q0 80 45.5 126t126.5 46q80 0 126 -46.5t46 -125.5q0 -81 -46 -126.5t-126 -45.5q-82 0 -127 45t-45 127zM438 905q0 80 45.5 126t126.5 46q80 0 126 -46.5t46 -125.5t-46 -125.5t-126 -46.5q-81 0 -126.5 46t-45.5 126z" />
<glyph unicode="&#xf8;" horiz-adv-x="1198" d="M61 496q0 238 141 381t394 143q149 0 260 -51l66 86l122 -92l-59 -82q145 -142 145 -385q0 -238 -141 -381.5t-393 -143.5q-147 0 -254 49l-61 -83l-123 92l55 75q-152 143 -152 392zM350 496q0 -94 35 -162l317 426q-47 24 -106 24q-113 0 -179.5 -78t-66.5 -210z M496 227q41 -20 100 -20q109 0 176.5 79t67.5 210q0 77 -31 151z" />
<glyph unicode="&#xf9;" horiz-adv-x="1224" d="M104 467v526h289v-493q0 -125 55 -193.5t154 -68.5q70 0 125.5 30.5t85.5 81.5v643h289v-993h-281v96q-107 -123 -291 -123q-202 0 -314 130t-112 364zM293 1526h346l164 -314h-240z" />
<glyph unicode="&#xfa;" horiz-adv-x="1224" d="M104 467v526h289v-493q0 -125 55 -193.5t154 -68.5q70 0 125.5 30.5t85.5 81.5v643h289v-993h-281v96q-107 -123 -291 -123q-202 0 -314 130t-112 364zM418 1212l164 314h346l-271 -314h-239z" />
<glyph unicode="&#xfb;" horiz-adv-x="1224" d="M104 467v526h289v-493q0 -125 55 -193.5t154 -68.5q70 0 125.5 30.5t85.5 81.5v643h289v-993h-281v96q-107 -123 -291 -123q-202 0 -314 130t-112 364zM203 1233l239 293h338l242 -293h-281l-131 143l-129 -143h-278z" />
<glyph unicode="&#xfc;" horiz-adv-x="1224" d="M104 467v526h289v-493q0 -125 55 -193.5t154 -68.5q70 0 125.5 30.5t85.5 81.5v643h289v-993h-281v96q-107 -123 -291 -123q-202 0 -314 130t-112 364zM229 1352q0 75 43.5 115t112.5 40q67 0 111.5 -40.5t44.5 -116.5q0 -75 -45 -114.5t-113 -39.5t-111 40t-43 116z M684 1352q0 75 43 115t111 40t111.5 -40.5t43.5 -116.5t-44 -115t-111 -39q-68 0 -111 40t-43 116z" />
<glyph unicode="&#xfd;" horiz-adv-x="1183" d="M6 993h316l278 -688l266 688h310l-613 -1485h-307l199 443zM397 1212l164 314h346l-270 -314h-240z" />
<glyph unicode="&#xfe;" horiz-adv-x="1226" d="M123 -492v1952h289v-542q104 104 270 104q217 0 348 -144.5t131 -379.5t-131 -380t-348 -145q-174 0 -270 107v-572h-289zM412 328q32 -57 87.5 -88t125.5 -31q115 0 181 78t66 211t-66 210.5t-181 77.5q-147 0 -213 -120v-338z" />
<glyph unicode="&#xff;" horiz-adv-x="1183" d="M6 993h316l278 -688l266 688h310l-613 -1485h-307l199 443zM211 1352q0 75 43.5 115t112.5 40q67 0 111 -40.5t44 -116.5q0 -75 -44.5 -114.5t-112.5 -39.5t-111 40t-43 116zM666 1352q0 75 42.5 115t110.5 40t112 -40.5t44 -116.5t-44.5 -115t-111.5 -39 q-68 0 -110.5 40t-42.5 116z" />
<glyph unicode="&#x152;" horiz-adv-x="2213" d="M59 727q0 186 53.5 332.5t149.5 240t226.5 142.5t287.5 49q206 0 354 -109v72h1024v-280h-710v-293h598v-271h-598v-329h710v-281h-1024v72q-148 -109 -354 -109q-157 0 -287.5 49t-226.5 143t-149.5 240.5t-53.5 331.5zM387 727q0 -232 111.5 -360.5t296.5 -128.5 q226 0 335 184v610q-110 185 -335 185q-186 0 -297 -128.5t-111 -361.5z" />
<glyph unicode="&#x153;" horiz-adv-x="1933" d="M63 496q0 238 141.5 381t393.5 143q253 0 385 -164q63 79 158 122.5t215 43.5q239 0 374.5 -141t135.5 -369q0 -50 -6 -96h-740q20 -109 90 -168.5t174 -59.5q160 0 252 121l203 -127q-156 -213 -457 -213q-261 0 -395 170q-133 -168 -389 -168q-252 0 -393.5 143.5 t-141.5 381.5zM354 496q0 -132 66.5 -210.5t177.5 -78.5t178.5 79t67.5 210t-67.5 209.5t-178.5 78.5t-177.5 -78t-66.5 -210zM1126 616h449q-21 88 -77.5 137.5t-143.5 49.5q-89 0 -147 -51t-81 -136z" />
<glyph unicode="&#x2c6;" horiz-adv-x="905" d="M43 1233l240 293h338l241 -293h-280l-131 143l-129 -143h-279z" />
<glyph unicode="&#x2dc;" horiz-adv-x="894" d="M43 1219q24 274 227 274q66 0 154 -31q120 -43 158 -43q32 0 49 18.5t24 69.5h197q-6 -138 -69 -211t-167 -73q-79 0 -186 41q-90 34 -125 34q-26 0 -41 -17t-22 -62h-199z" />
<glyph unicode="&#x2000;" horiz-adv-x="993" />
<glyph unicode="&#x2001;" horiz-adv-x="1987" />
<glyph unicode="&#x2002;" horiz-adv-x="993" />
<glyph unicode="&#x2003;" horiz-adv-x="1987" />
<glyph unicode="&#x2004;" horiz-adv-x="662" />
<glyph unicode="&#x2005;" horiz-adv-x="496" />
<glyph unicode="&#x2006;" horiz-adv-x="331" />
<glyph unicode="&#x2007;" horiz-adv-x="331" />
<glyph unicode="&#x2008;" horiz-adv-x="248" />
<glyph unicode="&#x2009;" horiz-adv-x="397" />
<glyph unicode="&#x200a;" horiz-adv-x="110" />
<glyph unicode="&#x2010;" horiz-adv-x="806" d="M78 434v228h649v-228h-649z" />
<glyph unicode="&#x2011;" horiz-adv-x="806" d="M78 434v228h649v-228h-649z" />
<glyph unicode="&#x2012;" horiz-adv-x="806" d="M78 434v228h649v-228h-649z" />
<glyph unicode="&#x2013;" horiz-adv-x="1028" d="M2 434v228h1024v-228h-1024z" />
<glyph unicode="&#x2014;" horiz-adv-x="2052" d="M2 434v228h2048v-228h-2048z" />
<glyph unicode="&#x2018;" horiz-adv-x="598" d="M123 1042q0 152 76 267t190 174l68 -107q-118 -76 -154 -223q86 -1 126 -42.5t40 -127.5q0 -87 -45.5 -131.5t-132.5 -44.5q-89 0 -128.5 57.5t-39.5 177.5z" />
<glyph unicode="&#x2019;" horiz-adv-x="579" d="M111 1307q0 86 46 131t132 45q89 0 128.5 -58t39.5 -178q0 -152 -76 -266.5t-191 -173.5l-67 106q116 75 153 222q-86 3 -125.5 44.5t-39.5 127.5z" />
<glyph unicode="&#x201a;" horiz-adv-x="598" d="M129 170q0 86 45 131t133 45t127 -58t39 -177q0 -152 -75.5 -267t-190.5 -174l-68 107q118 76 154 221q-86 3 -125 44t-39 128z" />
<glyph unicode="&#x201c;" horiz-adv-x="1034" d="M121 1042q0 152 75.5 267t190.5 174l68 -107q-118 -76 -154 -223q86 -1 126 -42.5t40 -127.5q0 -87 -45.5 -131.5t-132.5 -44.5q-89 0 -128.5 57.5t-39.5 177.5zM557 1042q0 152 76.5 267t191.5 174l66 -107q-118 -76 -154 -223q86 -1 126 -42.5t40 -127.5 q0 -176 -178 -176q-89 0 -128.5 57.5t-39.5 177.5z" />
<glyph unicode="&#x201d;" horiz-adv-x="1034" d="M131 1307q0 86 45 131t133 45q89 0 127.5 -58t38.5 -178q0 -152 -75.5 -266.5t-190.5 -173.5l-66 106q118 78 154 222q-86 3 -126 44.5t-40 127.5zM567 1307q0 86 46 131t132 45q89 0 128.5 -58t39.5 -178q0 -152 -75.5 -266.5t-190.5 -173.5l-67 106q116 75 153 222 q-86 3 -126 44.5t-40 127.5z" />
<glyph unicode="&#x201e;" horiz-adv-x="1034" d="M129 170q0 86 45 131t133 45t127 -58t39 -177q0 -152 -75.5 -267t-190.5 -174l-68 107q118 76 154 221q-86 3 -125 44t-39 128zM565 170q0 86 46 131t132 45q89 0 128.5 -57.5t39.5 -177.5q0 -152 -76 -267t-190 -174l-67 107q117 75 153 221q-86 3 -126 44.5t-40 127.5z " />
<glyph unicode="&#x2022;" horiz-adv-x="704" d="M70 735q0 135 74 210t206 75q135 0 210 -75t75 -210q0 -133 -75 -206.5t-210 -73.5q-134 0 -207 73.5t-73 206.5z" />
<glyph unicode="&#x2026;" horiz-adv-x="1978" d="M129 152q0 79 47 126.5t125 47.5t125 -47.5t47 -126.5q0 -80 -46.5 -126t-127.5 -46q-78 0 -124 46.5t-46 125.5zM817 152q0 79 48 126.5t126 47.5t125 -47.5t47 -126.5q0 -80 -46.5 -126t-127.5 -46q-78 0 -125 46.5t-47 125.5zM1507 152q0 79 48 126.5t126 47.5 t125 -47.5t47 -126.5q0 -80 -46.5 -126t-127.5 -46q-78 0 -125 46.5t-47 125.5z" />
<glyph unicode="&#x202f;" horiz-adv-x="397" />
<glyph unicode="&#x2039;" horiz-adv-x="591" d="M90 459v196l410 338v-272l-226 -164l226 -164v-272z" />
<glyph unicode="&#x203a;" horiz-adv-x="591" d="M88 121v272l225 164l-225 164v272l410 -338v-196z" />
<glyph unicode="&#x205f;" horiz-adv-x="496" />
<glyph unicode="&#x20ac;" horiz-adv-x="1138" d="M39 444v164h88q-4 74 -4 113v18h-84v164h92q10 92 31.5 166.5t61 140t94.5 109.5t136 69t183 25q341 0 446 -270l-206 -125q-72 160 -228 160q-106 0 -158.5 -67.5t-68.5 -207.5h489v-164h-499v-41q0 -61 2 -90h497v-164h-483q23 -132 82.5 -187.5t169.5 -55.5 q83 0 132.5 28t111.5 99l174 -158q-92 -112 -196.5 -156.5t-231.5 -44.5q-442 0 -525 475h-106z" />
<glyph unicode="&#x2122;" horiz-adv-x="1701" d="M45 1274v180h649v-180h-202v-627h-197v627h-250zM743 647l21 807h268l168 -506l166 506h268l23 -807h-203l8 529l-166 -496h-194l-166 485l6 -518h-199z" />
<glyph unicode="&#x25fc;" horiz-adv-x="993" d="M0 0v993h993v-993h-993z" />
</font>
</defs>
</svg>
