<?xml version="1.0" standalone="no"?>
<!DOCTYPE svg PUBLIC "-//W3C//DTD SVG 1.1//EN" "http://www.w3.org/Graphics/SVG/1.1/DTD/svg11.dtd" >
<svg xmlns="http://www.w3.org/2000/svg" xmlns:xlink="http://www.w3.org/1999/xlink" version="1.1">
<metadata>
Created by FontForge 20160407 at Wed Aug  3 11:09:30 2016
 By Jimmy Wärting
Copyright Nationwide Building Society. All rights reserved.
</metadata>
<defs>
<font id="NBS-Medium" horiz-adv-x="1006" >
  <font-face 
    font-family="NBS Medium"
    font-weight="400"
    font-stretch="normal"
    units-per-em="2048"
    panose-1="2 11 6 3 3 3 3 2 2 4"
    ascent="1638"
    descent="-410"
    x-height="995"
    cap-height="1366"
    bbox="-182 -500 2312 1791"
    underline-thickness="115"
    underline-position="-198"
    unicode-range="U+0020-FB02"
  />
<missing-glyph horiz-adv-x="1208" 
d="M117 1366h977v-1366h-977v1366zM606 772l330 498h-664zM215 186l332 498l-332 496v-994zM666 684l333 -498v994zM606 598l-334 -500h664z" />
    <glyph glyph-name=".notdef" horiz-adv-x="1208" 
d="M117 1366h977v-1366h-977v1366zM606 772l330 498h-664zM215 186l332 498l-332 496v-994zM666 684l333 -498v994zM606 598l-334 -500h664z" />
    <glyph glyph-name=".null" horiz-adv-x="0" 
 />
    <glyph glyph-name="nonmarkingreturn" horiz-adv-x="469" 
 />
    <glyph glyph-name="space" unicode=" " horiz-adv-x="469" 
 />
    <glyph glyph-name="ring" unicode="&#x2da;" horiz-adv-x="621" 
d="M479 1231q0 -35 -13.5 -66t-36.5 -53.5t-54 -35.5t-66 -13q-37 0 -67.5 13t-53 35.5t-35 53.5t-12.5 66t13 65.5t35.5 53t53.5 35t66 12.5q37 0 68.5 -12.5t54 -35t35 -53t12.5 -65.5zM393 1231q0 37 -24.5 61.5t-59.5 24.5t-58.5 -24.5t-25.5 -61.5q0 -18 7 -34
t18.5 -28t26.5 -19t32 -7q18 0 33 7t26.5 19t18 28t6.5 34z" />
    <glyph glyph-name="hungarumlaut" unicode="&#x2dd;" horiz-adv-x="621" 
d="M688 1354q0 -10 -5 -19t-13 -18l-170 -178q-17 -17 -32.5 -24t-41.5 -7h-64q-22 0 -22 14q0 11 12 29l111 172q18 29 37 36t51 7h111q26 0 26 -12zM379 1354q0 -10 -5.5 -19t-13.5 -18l-167 -178q-17 -17 -33.5 -24t-42.5 -7h-64q-22 0 -22 14q0 11 12 29l111 172
q18 29 37 36t51 7h110q27 0 27 -12z" />
    <glyph glyph-name="ogonek" unicode="&#x2db;" horiz-adv-x="621" 
d="M510 -317q0 -10 -5.5 -16.5t-15.5 -12.5q-37 -19 -81.5 -30t-88.5 -11q-93 0 -148.5 43.5t-55.5 132.5q0 25 8 55.5t24 62t40.5 62.5t58.5 58h135q-63 -75 -90 -125t-27 -84q0 -37 20.5 -57.5t57.5 -20.5q23 0 42.5 6.5t51.5 20.5q13 6 23 4.5t18 -17.5l27 -51
q6 -15 6 -20z" />
    <glyph glyph-name="caron" unicode="&#x2c7;" horiz-adv-x="668" 
d="M633 1352q0 -10 -15 -27l-141 -174q-20 -26 -37 -34.5t-45 -8.5h-121q-23 0 -40.5 6.5t-38.5 34.5l-142 176q-6 9 -10 16.5t-4 10.5q0 14 22 14h84q14 0 23.5 -1t18 -4.5t16 -9.5t18.5 -16l121 -104l121 104q23 20 37.5 25.5t40.5 5.5h69q23 0 23 -14z" />
    <glyph glyph-name="dotlessi" unicode="&#x131;" horiz-adv-x="467" 
d="M334 59q0 -29 -12 -44t-50 -15h-77q-34 0 -47 14.5t-13 42.5v881q0 57 55 57h84q34 0 47 -14.5t13 -40.5v-881v0z" />
    <glyph glyph-name="fraction" unicode="&#x2044;" horiz-adv-x="809" 
d="M829 1374q0 -9 -3 -17.5t-9 -21.5l-655 -1327q-16 -31 -31 -44t-35 -13h-82q-14 0 -22 5.5t-8 16.5q0 10 3 18t9 19l655 1329q16 28 30.5 42t37.5 14h82q12 0 20 -6.5t8 -14.5z" />
    <glyph glyph-name="fi" unicode="&#xfb01;" horiz-adv-x="1036" 
d="M922 1288q0 -24 -9.5 -45.5t-25.5 -37.5t-37 -25t-45 -9q-25 0 -46.5 9t-37 25t-24.5 37.5t-9 45.5t9 45.5t24.5 37t37 25t46.5 9.5q24 0 45 -9.5t37 -25t25.5 -37t9.5 -45.5zM903 59q0 -29 -12 -44t-49 -15h-78q-34 0 -46.5 14.5t-12.5 42.5v881q0 57 55 57h84
q34 0 46.5 -14.5t12.5 -40.5v-881zM623 1374q0 -5 -0.5 -10.5t-4.5 -11.5l-22 -86q-6 -20 -18.5 -25t-30.5 0q-13 3 -36 11t-54 8q-30 0 -49 -12t-29.5 -32.5t-14.5 -47.5t-4 -58v-115h144q21 0 33 -11.5t12 -33.5v-80q0 -20 -11 -32.5t-34 -12.5h-144v-766q0 -29 -12 -44
t-49 -15h-78q-34 0 -46.5 14.5t-12.5 42.5v768h-105q-21 0 -33 12.5t-12 32.5v80q0 20 12 32.5t33 12.5h105v125q0 66 15.5 121.5t49 96t87 63t130.5 22.5q47 0 88 -7t64 -15q9 -3 18 -10.5t9 -16.5z" />
    <glyph glyph-name="fl" unicode="&#xfb02;" horiz-adv-x="1020" 
d="M897 59q0 -29 -12 -44t-47 -15h-80q-34 0 -46 14.5t-12 42.5v1280q0 58 54 58h86q32 0 44.5 -15t12.5 -41v-1280zM623 1374q0 -5 -0.5 -10.5t-4.5 -11.5l-22 -86q-6 -20 -18.5 -25t-30.5 0q-13 3 -36 11t-54 8q-30 0 -49 -12t-29.5 -32.5t-14.5 -47.5t-4 -58v-115h144
q21 0 33 -11.5t12 -33.5v-80q0 -20 -11 -32.5t-34 -12.5h-144v-766q0 -29 -12 -44t-49 -15h-78q-34 0 -46.5 14.5t-12.5 42.5v768h-105q-21 0 -33 12.5t-12 32.5v80q0 20 12 32.5t33 12.5h105v125q0 66 15.5 121.5t49 96t87 63t130.5 22.5q47 0 88 -7t64 -15q9 -3 18 -10.5
t9 -16.5z" />
    <glyph glyph-name="Lslash" unicode="&#x141;" horiz-adv-x="918" 
d="M893 53q0 -53 -55 -53h-639q-54 0 -54 55v422l-108 -78q-13 -10 -23 -10q-8 0 -14 7t-6 24v108q0 26 5.5 38.5t25.5 25.5l120 84v635q0 55 54 55h100q25 0 40 -13.5t15 -39.5v-504l178 125q19 12 33 12q23 0 23 -31v-94q0 -47 -27 -67l-207 -146v-418h484q55 0 55 -53
v-84v0z" />
    <glyph glyph-name="lslash" unicode="&#x142;" horiz-adv-x="446" 
d="M465 803q0 -41 -27 -62l-114 -79v-603q0 -29 -12.5 -44t-49.5 -15h-78q-34 0 -46.5 14.5t-12.5 42.5v480l-94 -66q-6 -5 -12 -6.5t-11 -1.5q-9 0 -16.5 7.5t-7.5 23.5v104q0 25 6 37t24 24l111 78v600q0 58 55 58h84q34 0 47 -15t13 -41v-479l88 64q9 5 15.5 7.5
t12.5 2.5q25 0 25 -37v-94v0z" />
    <glyph glyph-name="Zcaron" unicode="&#x17d;" horiz-adv-x="1020" 
d="M971 53q0 -53 -53 -53h-816q-24 0 -37.5 13.5t-13.5 41.5v49q0 14 1.5 24t4.5 19.5t8.5 19t14.5 23.5l616 996h-577q-53 0 -53 53v74q0 26 14 39.5t39 13.5h782q51 0 51 -53v-49q0 -25 -5.5 -43t-22.5 -45l-617 -996h611q53 0 53 -53v-74v0zM799 1717q0 -10 -15 -27
l-141 -174q-20 -26 -37 -34.5t-45 -8.5h-121q-23 0 -40.5 6.5t-38.5 34.5l-142 176q-6 9 -10 16.5t-4 10.5q0 14 22 14h84q14 0 23.5 -1t18 -4.5t16 -9.5t18.5 -16l121 -104l121 104q23 20 37.5 25.5t40.5 5.5h69q23 0 23 -14z" />
    <glyph glyph-name="zcaron" unicode="&#x17e;" horiz-adv-x="829" 
d="M774 49q0 -49 -45 -49h-620q-29 0 -40.5 11.5t-11.5 37.5v76q0 26 5.5 43t21.5 39l442 610h-407q-22 0 -34.5 12t-12.5 35v82q0 49 43 49h602q28 0 38.5 -13t10.5 -36v-74q0 -26 -6.5 -44t-22.5 -40l-442 -608h430q22 0 35.5 -11t13.5 -36v-84v0zM718 1352q0 -10 -15 -27
l-141 -174q-20 -26 -37 -34.5t-45 -8.5h-121q-23 0 -40.5 6.5t-38.5 34.5l-142 176q-6 9 -10 16.5t-4 10.5q0 14 22 14h84q14 0 23.5 -1t18 -4.5t16 -9.5t18.5 -16l121 -104l121 104q23 20 37.5 25.5t40.5 5.5h69q23 0 23 -14z" />
    <glyph glyph-name="exclam" unicode="!" horiz-adv-x="508" 
d="M334 453q-2 -26 -15 -36.5t-34 -10.5h-60q-21 0 -34 10.5t-15 36.5l-39 888q-2 29 12.5 41.5t40.5 12.5h129q25 0 40.5 -11.5t13.5 -42.5zM381 111q0 -26 -9.5 -49.5t-27 -40.5t-40.5 -27t-50 -10q-26 0 -49.5 10t-40.5 27t-27 40.5t-10 49.5t10 49t27 40.5t40.5 27.5
t49.5 10q27 0 50 -10t40.5 -27.5t27 -40.5t9.5 -49z" />
    <glyph glyph-name="quotedbl" unicode="&#x22;" horiz-adv-x="770" 
d="M291 930q-3 -23 -13.5 -34t-31.5 -11h-58q-42 0 -45 45l-30 418q-2 23 11 35t36 12h114q23 0 36.5 -11.5t11.5 -35.5zM629 930q-3 -23 -13.5 -34t-31.5 -11h-58q-23 0 -33 11t-12 34l-30 418q-3 47 47 47h114q23 0 36 -11.5t11 -35.5z" />
    <glyph glyph-name="numbersign" unicode="#" horiz-adv-x="1184" 
d="M1114 846q0 -45 -43 -45h-182l-33 -236h156q47 0 47 -43v-78q0 -21 -11 -33t-32 -12h-185l-47 -348q-3 -29 -13.5 -40t-33.5 -11h-100q-12 0 -19 5t-9.5 12.5t-2.5 17t2 18.5l49 346h-208l-50 -348q-3 -29 -13.5 -40t-33.5 -11h-100q-23 0 -26.5 17.5t-0.5 35.5l47 346
h-155q-45 0 -45 43v78q0 45 43 45h182l33 236h-160q-47 0 -47 43v78q0 21 11 33t34 12h184l51 348q5 29 15 40t33 11h100q23 0 26.5 -16.5t0.5 -36.5l-50 -346h209l49 348q5 29 15 40t35 11h98q12 0 19 -4.5t9.5 -12t2 -17t-1.5 -19.5l-50 -346h156q45 0 45 -43v-78z
M504 801l-31 -236h209l33 236h-211z" />
    <glyph glyph-name="dollar" unicode="$" horiz-adv-x="956" 
d="M557 -195q0 -55 -53 -55h-51q-52 0 -52 55v170q-100 11 -180.5 43.5t-142.5 69.5q-11 6 -19 13.5t-8 17.5q0 13 10 31l54 102q11 18 27 19.5t36 -9.5q18 -11 42 -25t53 -28t61.5 -26t66.5 -19v446q-83 37 -145.5 76.5t-104.5 87t-63.5 107t-21.5 137.5q0 81 26 145
t71 110.5t106 75.5t132 40v106q0 53 52 53h51q53 0 53 -53v-104q48 -4 89.5 -13.5t77.5 -22t67.5 -28t60.5 -31.5q25 -11 25 -28q0 -6 -3 -13.5t-6 -13.5l-49 -100q-9 -19 -25 -23.5t-34 4.5q-51 28 -100 49.5t-103 30.5v-416q75 -32 139.5 -66t111 -79.5t73 -109
t26.5 -154.5q0 -89 -26 -158.5t-72.5 -120t-110.5 -81t-141 -40.5v-172zM707 350q0 72 -39 118t-111 83v-383q71 20 110.5 68t39.5 114zM266 1040q0 -32 7.5 -58.5t23.5 -50t41.5 -44t62.5 -41.5v352q-62 -17 -98.5 -57.5t-36.5 -100.5z" />
    <glyph glyph-name="percent" unicode="%" horiz-adv-x="1622" 
d="M715 1049q0 -62 -17.5 -124t-57 -112t-103 -81.5t-154.5 -31.5q-89 0 -151.5 31t-101.5 80.5t-57 112t-18 125.5q0 64 18.5 126t58 111t102 79t149.5 30q91 0 154 -31t102.5 -80.5t57.5 -111t18 -123.5zM545 1044q0 37 -7 74.5t-25.5 68t-50 49.5t-79.5 19t-79 -19
t-49.5 -49.5t-26 -68t-7.5 -74.5q0 -35 7.5 -71.5t26.5 -66t50 -48t78 -18.5q49 0 80.5 19t49.5 48.5t25 65.5t7 71zM1237 1374q0 -17 -12 -39l-656 -1327q-15 -31 -30 -44t-35 -13h-82q-31 0 -31 22q0 10 3 18t9 19l656 1329q15 28 29.5 42t37.5 14h82q13 0 21 -6.5
t8 -14.5zM1569 299q0 -62 -17.5 -124t-56.5 -112.5t-102 -82t-154 -31.5q-89 0 -152 31t-102.5 80.5t-57.5 112t-18 126.5q0 63 19 125t59 111t102.5 79.5t149.5 30.5q90 0 153 -31t102 -80.5t57 -111.5t18 -123zM1401 295q0 36 -7.5 73.5t-26 68t-49.5 50t-79 19.5
t-79.5 -19.5t-50 -50t-25.5 -68t-7 -73.5t7.5 -73t26 -66.5t49.5 -48.5t79 -19t79.5 19t50 49t25.5 67t7 72z" />
    <glyph glyph-name="ampersand" unicode="&#x26;" horiz-adv-x="1190" 
d="M1163 16q0 -8 -6.5 -12t-23.5 -4h-144q-29 0 -44 8t-34 31l-57 65q-154 -133 -354 -133q-94 0 -171 26t-132 74t-85 115.5t-30 151.5q0 70 21 126t55.5 102.5t80 85t93.5 73.5q-45 54 -75.5 99.5t-49 85.5t-27 77.5t-8.5 75.5q0 73 24.5 134t70 105t110 68.5t145.5 24.5
q71 0 130 -21.5t101 -61.5t65.5 -96t23.5 -126q0 -54 -13.5 -103t-43.5 -96t-76.5 -92.5t-112.5 -91.5l266 -318q20 32 31.5 79t11.5 91v12q0 25 10.5 38.5t36.5 13.5h90q32 0 42 -14t10 -40q0 -89 -24.5 -174.5t-78.5 -156.5l158 -189q14 -17 14 -33zM653 1075
q0 76 -39.5 119t-101.5 43q-32 0 -58.5 -12t-46.5 -33.5t-31 -51t-11 -63.5q0 -27 6.5 -53.5t21 -55.5t38 -62.5t58.5 -74.5q44 33 75 63t51 59.5t29 59t9 62.5zM438 602q-74 -59 -110.5 -116t-36.5 -130q0 -48 16 -86t46 -64.5t72 -40t93 -13.5q50 0 109 19t114 67z" />
    <glyph glyph-name="quotesingle" unicode="'" horiz-adv-x="432" 
d="M291 930q-3 -23 -13.5 -34t-31.5 -11h-58q-42 0 -45 45l-30 418q-2 23 11 35t36 12h114q23 0 36.5 -11.5t11.5 -35.5z" />
    <glyph glyph-name="parenleft" unicode="(" horiz-adv-x="621" 
d="M590 -356q0 -8 -7 -12.5t-32 -4.5h-109q-15 0 -29 6.5t-28 22.5q-62 75 -119 169.5t-100 203t-68.5 230t-25.5 251.5t24 250t66 228t99 203t122 173q14 17 28 24t35 7h117q13 0 19 -5.5t6 -13.5t-5.5 -15.5t-15.5 -21.5q-78 -100 -134.5 -199.5t-92.5 -201.5t-53 -208
t-17 -220q0 -127 20 -236.5t57 -208.5t90.5 -191t121.5 -183q11 -14 21 -26.5t10 -20.5z" />
    <glyph glyph-name="parenright" unicode=")" horiz-adv-x="621" 
d="M551 510q0 -130 -24.5 -250.5t-66.5 -228.5t-99 -202t-121 -171q-16 -19 -29.5 -25t-32.5 -6h-112q-19 0 -26 4.5t-7 14.5q0 8 7.5 17.5t18.5 25.5q73 95 128 190t91.5 195t55 207.5t18.5 228.5q0 120 -18.5 228t-55 209t-91.5 197t-128 191q-11 14 -18.5 24.5t-7.5 18.5
t7 12.5t26 4.5h112q19 0 33.5 -7.5t28.5 -21.5q63 -78 119.5 -172.5t99 -203.5t67.5 -229.5t25 -250.5z" />
    <glyph glyph-name="asterisk" unicode="*" horiz-adv-x="797" 
d="M748 1081q0 -14 -14.5 -16.5t-39.5 -7.5l-215 -33l158 -160l19 -19t10 -18q0 -11 -19 -24l-90 -66q-6 -3 -12 -5.5t-13 -2.5q-8 0 -15.5 11t-12.5 22l-105 201l-104 -199q-6 -12 -14.5 -23.5t-16.5 -11.5q-5 0 -11 2.5t-11 5.5l-95 68q-14 11 -14 22t9.5 19t15.5 16
l159 162l-217 35q-17 3 -33 7.5t-16 16.5q0 7 1 11.5t3 9.5l33 106q5 13 11.5 19t11.5 6q8 0 19 -5.5t22 -10.5l196 -101l-33 219q-2 8 -4 18.5t-2 16.5q0 9 7.5 16t23.5 7h119q14 0 21 -6t7 -15q0 -8 -2 -17.5t-2 -17.5l-32 -221l192 99q9 5 22 11.5t21 6.5q6 0 13 -5
t10 -18l34 -106q2 -6 3.5 -12t1.5 -13z" />
    <glyph glyph-name="plus" unicode="+" horiz-adv-x="1055" 
d="M967 647q0 -25 -10.5 -38t-36.5 -13h-299v-305q0 -28 -12.5 -39.5t-37.5 -11.5h-79q-25 0 -38.5 10.5t-13.5 36.5v309h-301q-26 0 -37.5 12t-11.5 37v76q0 25 10.5 37t36.5 12h303v309q0 26 13.5 36.5t38.5 10.5h77q25 0 38.5 -10.5t13.5 -38.5v-307h299q26 0 36.5 -12
t10.5 -37v-74v0z" />
    <glyph glyph-name="comma" unicode="," horiz-adv-x="471" 
d="M362 92q0 -45 -13 -89t-34 -85t-48.5 -79.5t-55.5 -74.5q-13 -20 -31 -20q-11 0 -24 10l-37 25q-15 9 -15 24q0 13 13 29q13 17 26.5 37t25 41t21 42t15.5 40q-45 6 -70.5 40t-25.5 79q0 26 9 49t25.5 40.5t39.5 27.5t50 10q57 0 93 -40t36 -106z" />
    <glyph glyph-name="hyphen" unicode="-" horiz-adv-x="592" 
d="M543 455q0 -47 -49 -47h-394q-23 0 -36 11t-13 34v98q0 47 45 47h402q45 0 45 -47v-96v0z" />
    <glyph glyph-name="period" unicode="." horiz-adv-x="471" 
d="M362 111q0 -26 -9.5 -49.5t-26.5 -40.5t-40 -27t-50 -10q-26 0 -49.5 10t-40.5 27t-27 40.5t-10 49.5t10 49t27 40.5t40.5 27.5t49.5 10q27 0 50 -10t40 -27.5t26.5 -40.5t9.5 -49z" />
    <glyph glyph-name="slash" unicode="/" horiz-adv-x="743" 
d="M741 1401q0 -17 -10 -37l-532 -1384q-13 -32 -28.5 -45t-35.5 -13h-100q-31 0 -31 23q0 9 3.5 19t8.5 20l533 1384q11 29 26 42t39 13h99q12 0 20 -6.5t8 -15.5z" />
    <glyph glyph-name="zero" unicode="0" horiz-adv-x="1104" 
d="M1028 682q0 -188 -35.5 -323t-99 -221t-150.5 -126.5t-190 -40.5q-99 0 -185.5 39.5t-151 125t-101.5 220t-37 324.5q0 194 37 330t101.5 221.5t151 124.5t185.5 39t185.5 -39t151 -124t101.5 -221t37 -329zM813 682q0 65 -4.5 129.5t-15.5 124t-30 110t-48 88t-69 59
t-93 21.5q-80 0 -130.5 -47t-79.5 -123t-39.5 -171t-10.5 -191q0 -64 4.5 -128t15.5 -123t30 -110t48 -88.5t69 -59t93 -21.5t93 21.5t69 58.5t48 88t30 110t15.5 123t4.5 129z" />
    <glyph glyph-name="one" unicode="1" horiz-adv-x="717" 
d="M539 53q0 -25 -14 -39t-42 -14h-96q-28 0 -41.5 14t-13.5 39v1098l-215 -88q-26 -11 -42.5 -5.5t-27.5 29.5l-33 80q-5 10 -5.5 17.5t-0.5 13.5q0 12 10 21.5t25 15.5l299 125q31 12 50.5 16t47.5 4h45q54 0 54 -57v-1270v0z" />
    <glyph glyph-name="two" unicode="2" horiz-adv-x="967" 
d="M895 53q0 -53 -53 -53h-758q-25 0 -38 14t-13 39v66q0 20 4.5 33t19.5 30q27 27 64 66.5t79 84t85 91.5t82.5 90t71 78t50.5 57q49 56 81 103t50.5 87.5t25.5 77.5t7 74q0 112 -56 167.5t-153 55.5q-46 0 -92 -13t-85.5 -30t-69 -34t-41.5 -25q-29 -19 -45 -16t-31 30
l-41 78q-5 11 -7.5 20t-2.5 17q0 12 9 21t23 18q34 21 76.5 41.5t92.5 37t108.5 26.5t124.5 10q108 0 185 -32t126 -86.5t71.5 -126.5t22.5 -153q0 -75 -22.5 -143.5t-59.5 -131.5t-84.5 -121.5t-97.5 -113.5q-32 -34 -72.5 -76.5t-82 -84l-78 -78l-58.5 -58.5h529
q53 0 53 -51v-86v0z" />
    <glyph glyph-name="three" unicode="3" horiz-adv-x="1010" 
d="M907 389q0 -94 -30.5 -171t-87.5 -132t-139 -85t-185 -30q-62 0 -119 9.5t-107.5 25t-93 34.5t-73.5 38q-13 9 -18 16t-5 17q0 8 2 14.5t8 15.5l47 88q11 23 28 25.5t42 -12.5q30 -18 63 -34t70 -28.5t78.5 -20t89.5 -7.5q49 0 89 18t68.5 50.5t44 76.5t15.5 96
q0 51 -18 95t-50 76.5t-76 50.5t-97 18h-113q-28 0 -41.5 13t-13.5 42v64q0 26 12.5 40.5t40.5 14.5h119q49 0 89.5 16.5t70 46t45.5 70t16 88.5q0 88 -58 137t-161 49q-39 0 -76.5 -7.5t-72 -20t-66 -28t-58.5 -30.5q-49 -29 -69 9l-47 94q-9 13 -9 31q0 9 9.5 17.5
t23.5 16.5q29 16 69 33.5t89 32t106.5 24t122.5 9.5q94 0 169 -23.5t127.5 -68t81 -110t28.5 -149.5q0 -49 -13 -95.5t-39.5 -88t-67 -75.5t-95.5 -58q64 -23 109 -60t73 -82t40.5 -95.5t12.5 -100.5z" />
    <glyph glyph-name="four" unicode="4" horiz-adv-x="1069" 
d="M1020 391q0 -53 -55 -53h-99v-285q0 -25 -13.5 -39t-39.5 -14h-96q-53 0 -53 53v285h-562q-53 0 -53 53v90q0 23 5.5 39t19.5 33l555 772q19 28 39 41.5t55 13.5h90q25 0 39 -14.5t14 -40.5v-813h99q55 0 55 -53v-68zM664 1077l-410 -565h410v565z" />
    <glyph glyph-name="five" unicode="5" horiz-adv-x="1030" 
d="M946 436q0 -103 -31 -188.5t-91 -147t-148.5 -95.5t-202.5 -34q-66 0 -124.5 9t-109 24t-94 35t-79.5 41q-27 14 -27 33q0 6 1.5 13t6.5 15l45 88q13 23 29 27.5t41 -10.5q33 -18 68.5 -35.5t74.5 -31t82.5 -21.5t93.5 -8q58 0 104 19.5t78.5 55.5t50 87.5t17.5 115.5
q0 58 -15 109t-46.5 89t-79.5 60.5t-113 22.5t-123.5 -12t-115.5 -29q-31 -10 -46.5 -7t-29.5 23l-35 51q-11 13 -13.5 22.5t-2.5 20.5q0 8 1 19t3 26l63 490q2 23 16.5 38t43.5 15h583q31 0 44.5 -13t13.5 -44v-80q0 -28 -16 -40.5t-42 -12.5h-479l-39 -316q24 6 47 11
t48 8.5t52.5 5.5t59.5 2q101 0 182 -35.5t137.5 -96.5t86.5 -143t30 -176z" />
    <glyph glyph-name="six" unicode="6" horiz-adv-x="1112" 
d="M1034 428q0 -102 -33.5 -186t-93.5 -144.5t-143.5 -93.5t-183.5 -33q-132 0 -223.5 51.5t-149 137.5t-83.5 197.5t-26 232.5q0 199 39 349.5t109 251.5t166.5 152.5t212.5 51.5q54 0 98 -6t79 -15t62.5 -19.5t48.5 -19.5q14 -6 21.5 -13t7.5 -19q0 -7 -2.5 -15t-5.5 -16
l-39 -86q-9 -22 -24 -25t-40 8q-42 16 -90 30.5t-114 14.5q-75 0 -130.5 -36.5t-94 -98.5t-60 -145t-29.5 -176q22 21 52.5 43t68 39t82.5 28t98 11q97 0 174.5 -33.5t132 -93.5t84 -143t29.5 -181zM819 424q0 62 -17 113t-48 87t-74.5 56t-97.5 20q-43 0 -82.5 -13
t-73.5 -33t-62 -45t-49 -50v-31q0 -60 13.5 -126t44.5 -121.5t81.5 -92t123.5 -36.5q55 0 99.5 20t76 56t48.5 86t17 110z" />
    <glyph glyph-name="seven" unicode="7" horiz-adv-x="881" 
d="M895 1288q0 -18 -6 -34.5t-17 -36.5q-45 -77 -91.5 -167.5t-92 -189.5t-89.5 -203.5t-83 -209.5t-72 -208t-57 -198q-5 -22 -15.5 -38.5t-39.5 -16.5h-119q-41 0 -41 34q0 8 2 20.5t4 20.5q17 73 48 165.5t70 194t84 207.5t91.5 205.5t91 188t82.5 154.5h-602
q-55 0 -55 51v86q0 53 55 53h801q28 0 39.5 -13t11.5 -36v-29v0z" />
    <glyph glyph-name="eight" unicode="8" horiz-adv-x="1122" 
d="M1024 379q0 -105 -35 -181.5t-97 -127t-146.5 -75t-184.5 -24.5q-99 0 -183.5 25t-146 75.5t-96.5 127t-35 180.5q0 77 21 135.5t55 102t77.5 73.5t88.5 51q-49 18 -87.5 48t-65 69t-40.5 86.5t-14 99.5q0 75 27.5 139t81.5 111t133.5 74t183.5 27t184 -27t134 -73.5
t82 -110.5t28 -137q0 -107 -53 -187.5t-152 -118.5q46 -21 89.5 -51.5t77 -74t53.5 -101.5t20 -135zM786 1034q0 39 -15.5 73.5t-44.5 59.5t-70.5 39.5t-94.5 14.5q-57 0 -98.5 -16.5t-68.5 -42.5t-40.5 -60t-13.5 -68q0 -54 18.5 -94t49 -66t70.5 -38.5t83 -12.5
q45 0 85.5 13t71.5 39t49.5 65.5t18.5 93.5zM813 389q0 78 -25.5 128t-63.5 79t-82 40t-81 11q-42 0 -86.5 -13t-80.5 -43t-59.5 -79.5t-23.5 -122.5q0 -50 15.5 -94.5t47 -77.5t78.5 -52.5t109 -19.5q63 0 110 19.5t78.5 52.5t47.5 77.5t16 94.5z" />
    <glyph glyph-name="nine" unicode="9" horiz-adv-x="1112" 
d="M1016 780q0 -190 -33 -347.5t-109 -262.5q-31 -45 -71.5 -81.5t-88.5 -62.5t-102 -40.5t-112 -14.5t-107 6.5t-90.5 16t-75 21.5t-59.5 24q-14 6 -23.5 14t-9.5 21q0 6 3.5 14.5t6.5 17.5l33 80q9 25 24.5 29.5t37.5 -6.5q55 -25 117.5 -41t138.5 -16q68 0 120.5 31
t90.5 83q23 33 39.5 74t27.5 85.5t17.5 91t9.5 91.5q-23 -20 -52 -41.5t-66.5 -39t-83.5 -29t-101 -11.5q-96 0 -173.5 33.5t-131.5 93.5t-83.5 143t-29.5 181q0 100 33 184t92.5 145t142.5 94.5t184 33.5q127 0 218.5 -51t150.5 -136.5t87 -196.5t28 -231zM797 807
q2 6 2 13v14q0 29 -4.5 61t-11 63.5t-15.5 59.5t-18 49q-16 31 -37 57.5t-47 46.5t-58.5 31.5t-72.5 11.5q-56 0 -100.5 -21t-76 -57.5t-48.5 -86t-17 -107.5q0 -63 18 -114t49.5 -87t75.5 -55.5t96 -19.5q43 0 82 12.5t72.5 33t61.5 45.5t49 50z" />
    <glyph glyph-name="colon" unicode=":" horiz-adv-x="471" 
d="M362 852q0 -27 -9.5 -50t-26.5 -40.5t-40 -27t-50 -9.5q-26 0 -49.5 9.5t-40.5 27t-27 40.5t-10 50q0 26 10 49t27 40.5t40.5 27.5t49.5 10q27 0 50 -10t40 -27.5t26.5 -40.5t9.5 -49zM362 111q0 -26 -9.5 -49.5t-26.5 -40.5t-40 -27t-50 -10q-26 0 -49.5 10t-40.5 27
t-27 40.5t-10 49.5t10 49t27 40.5t40.5 27.5t49.5 10q27 0 50 -10t40 -27.5t26.5 -40.5t9.5 -49z" />
    <glyph glyph-name="semicolon" unicode=";" horiz-adv-x="471" 
d="M362 852q0 -27 -9.5 -50t-26.5 -40.5t-40 -27t-50 -9.5q-26 0 -49.5 9.5t-40.5 27t-27 40.5t-10 50q0 26 10 49t27 40.5t40.5 27.5t49.5 10q27 0 50 -10t40 -27.5t26.5 -40.5t9.5 -49zM362 92q0 -45 -13 -89t-34 -85t-48.5 -79.5t-55.5 -74.5q-25 -31 -51 -12l-41 27
q-16 11 -15.5 24.5t13.5 28.5q26 34 50.5 77t37.5 83q-45 6 -70.5 40t-25.5 79q0 26 9 49t25.5 40.5t39.5 27.5t50 10q57 0 93 -40t36 -106z" />
    <glyph glyph-name="less" unicode="&#x3c;" horiz-adv-x="1061" 
d="M950 961q0 -25 -14 -38.5t-39 -21.5l-592 -221l592 -231q25 -10 39 -22.5t14 -37.5v-98q0 -17 -8 -27t-20 -10q-8 0 -20.5 2.5t-24.5 7.5l-725 301q-28 13 -44 29t-16 45v68q0 29 15.5 46t46.5 29l723 301q12 5 24.5 8t20.5 3q12 0 20 -10t8 -27v-96z" />
    <glyph glyph-name="equal" unicode="=" horiz-adv-x="1065" 
d="M977 823q0 -23 -10.5 -36t-38.5 -13h-789q-26 0 -37.5 12.5t-11.5 36.5v76q0 25 10.5 37t36.5 12h793q26 0 36.5 -12t10.5 -37v-76zM977 461q0 -25 -10.5 -37t-38.5 -12h-789q-26 0 -37.5 11t-11.5 36v76q0 24 10.5 36.5t36.5 12.5h793q26 0 36.5 -12.5t10.5 -36.5v-74z
" />
    <glyph glyph-name="greater" unicode="&#x3e;" horiz-adv-x="1061" 
d="M971 639q0 -29 -15.5 -45t-46.5 -29l-723 -301q-12 -5 -24.5 -7.5t-20.5 -2.5q-12 0 -20 10t-8 27v96q0 25 14 37.5t39 21.5l592 222l-592 229q-25 9 -39 22t-14 37v101q0 17 8 27t20 10q8 0 20.5 -3t24.5 -8l725 -303q28 -11 44 -26.5t16 -44.5v-70z" />
    <glyph glyph-name="question" unicode="?" horiz-adv-x="827" 
d="M760 1087q0 -54 -14.5 -99t-38.5 -84t-56 -73.5t-67 -68.5q-37 -34 -63.5 -58.5t-43.5 -51t-25 -60t-8 -84.5v-41q0 -35 -13 -48t-38 -13h-69q-22 0 -36 12.5t-14 50.5v102q0 55 15 97.5t39.5 78.5t56.5 67t66 63q24 22 45 43.5t36.5 45.5t24 51.5t8.5 61.5
q0 29 -9.5 54.5t-30 44.5t-53 30t-79.5 11q-33 0 -67.5 -7.5t-67.5 -20t-63.5 -28t-55.5 -30.5q-29 -19 -45.5 -17t-30.5 27l-40 76q-5 9 -9 19.5t-4 16.5q0 10 9 18t26 19q31 17 69.5 35t84.5 33t99 25t112 10q87 0 153 -24t109.5 -65.5t65.5 -97.5t22 -121zM494 111
q0 -26 -10 -49.5t-27 -40.5t-40 -27t-50 -10q-26 0 -49.5 10t-40.5 27t-27 40.5t-10 49.5t10 49t27 40.5t40.5 27.5t49.5 10q27 0 50 -10t40 -27.5t27 -40.5t10 -49z" />
    <glyph glyph-name="at" unicode="@" horiz-adv-x="1761" 
d="M1061 727q-26 28 -63.5 52t-84.5 24q-64 0 -109.5 -37t-75 -93.5t-43 -125t-13.5 -131.5q0 -48 9 -86.5t27.5 -66.5t48.5 -43t72 -15q30 0 61 14t57.5 36.5t44.5 52t22 61.5zM1667 686q0 -75 -12.5 -152.5t-39 -150t-66 -136t-93.5 -110.5t-122.5 -74.5t-151.5 -27.5
q-27 0 -54.5 5t-51 17t-40.5 31.5t-24 48.5q-24 -24 -54 -43t-62.5 -32t-66.5 -20t-65 -7q-72 0 -126 28.5t-91 78t-55.5 115.5t-18.5 142q0 67 12 135.5t35.5 132t59 119.5t82 97.5t105 65.5t128.5 24q57 0 105.5 -23.5t82.5 -54.5q3 12 7 23.5t10.5 21t16 15.5t24.5 6h88
q23 0 33 -9.5t10 -29.5q0 -10 -1 -24.5t-3 -25.5l-72 -542q-2 -16 -4 -35t-2 -41q0 -32 17 -43.5t38 -11.5q50 0 96 38.5t81.5 104.5t57 153t21.5 185q0 119 -35 222t-103 178.5t-167.5 119t-228.5 43.5q-160 0 -289.5 -62t-221.5 -169.5t-142 -252t-50 -308.5
q0 -155 48 -279t134 -211t204.5 -133.5t258.5 -46.5q69 0 135 10.5t125.5 27.5t111.5 38.5t93 44.5q29 17 44.5 17t27.5 -21l41 -60q10 -13 10 -26t-9 -21.5t-28 -17.5q-45 -29 -107.5 -55t-134.5 -46.5t-151 -32.5t-158 -12q-179 0 -328.5 55.5t-257 161t-167.5 259
t-60 348.5q0 131 28 252t81.5 226t130 190.5t173.5 147t212 95t246 33.5q160 0 289 -53.5t220.5 -148t141 -224.5t49.5 -283z" />
    <glyph glyph-name="A" unicode="A" horiz-adv-x="1151" 
d="M1137 31q0 -16 -11 -23.5t-28 -7.5h-125q-23 0 -36.5 11.5t-21.5 37.5l-86 256h-516l-88 -254q-8 -28 -21 -39.5t-38 -11.5h-111q-17 0 -28 8t-11 21q0 14 2.5 22t6.5 19l440 1261q9 26 23 37.5t40 11.5h97q26 0 40 -11.5t23 -37.5l438 -1259q5 -11 8 -20.5t3 -20.5z
M571 1073l-198 -590h395z" />
    <glyph glyph-name="B" unicode="B" horiz-adv-x="1128" 
d="M1061 397q0 -113 -39 -189t-108.5 -122.5t-165 -66t-209.5 -19.5h-336q-56 0 -56 55v1256q0 55 56 55h358q91 0 172.5 -16.5t143 -54.5t97.5 -100.5t36 -154.5q0 -59 -15.5 -106t-45 -83.5t-71.5 -63.5t-94 -46q62 -17 113 -45.5t87.5 -71t56.5 -99t20 -128.5zM803 1012
q0 46 -16.5 80t-47.5 56t-75 33t-99 11h-209v-375h125q60 0 106.5 6.5t84.5 20.5q24 8 47.5 22t42 34t30 48t11.5 64zM840 403q0 22 -3 47.5t-13.5 51t-30 50t-52.5 44.5q-45 26 -100.5 36.5t-118.5 10.5h-166v-461h181q60 0 115 8t97 31.5t66.5 67t24.5 114.5z" />
    <glyph glyph-name="C" unicode="C" horiz-adv-x="1061" 
d="M1024 109q0 -10 -5.5 -17t-21.5 -16q-30 -18 -72 -37t-93 -34t-109.5 -24.5t-120.5 -9.5q-107 0 -203 38.5t-169 125t-115.5 225.5t-42.5 340q0 144 33 271t101 221t171 148.5t244 54.5q65 0 120 -10t98.5 -24t75 -29.5t50.5 -26.5q12 -8 16 -15.5t4 -13.5t-1 -13t-9 -20
l-49 -100q-10 -17 -25 -22t-29 3q-14 9 -39 23t-58.5 26.5t-73.5 21.5t-85 9q-65 0 -114 -22.5t-84.5 -60.5t-59.5 -89.5t-38.5 -110t-20.5 -120.5t-6 -121q0 -100 18 -193.5t56 -165.5t97 -115.5t142 -43.5q47 0 90.5 7t83.5 24q42 15 69 30t52 31q39 19 55 -10l58 -109
l6.5 -13t3.5 -13z" />
    <glyph glyph-name="D" unicode="D" horiz-adv-x="1161" 
d="M1092 670q0 -138 -35 -259.5t-110 -213t-192.5 -144.5t-283.5 -53h-268q-56 0 -56 55v1256q0 55 56 55h284q172 0 288 -54t186.5 -148t100.5 -221t30 -273zM870 680q0 150 -29.5 248t-82.5 155.5t-128.5 81t-166.5 23.5h-107v-1002h107q109 0 186.5 32t126.5 95t71.5 155
t22.5 212z" />
    <glyph glyph-name="E" unicode="E" 
d="M936 53q0 -26 -14.5 -39.5t-40.5 -13.5h-680q-54 0 -54 55v1256q0 55 54 55h657q25 0 40 -13.5t15 -39.5v-74q0 -53 -55 -53h-502v-383h422q26 0 41 -13.5t15 -39.5v-74q0 -26 -15 -39.5t-41 -13.5h-422v-433h525q26 0 40.5 -13.5t14.5 -39.5v-84v0z" />
    <glyph glyph-name="F" unicode="F" horiz-adv-x="965" 
d="M913 1239q0 -53 -55 -53h-502v-406h422q26 0 41 -13.5t15 -39.5v-74q0 -26 -15 -39.5t-41 -13.5h-422v-547q0 -53 -55 -53h-100q-54 0 -54 55v1256q0 55 54 55h657q25 0 40 -13.5t15 -39.5v-74v0z" />
    <glyph glyph-name="G" unicode="G" horiz-adv-x="1122" 
d="M1024 94q0 -38 -35 -53q-21 -10 -60 -22.5t-89.5 -23t-109.5 -17.5t-120 -7q-112 0 -211 38.5t-172.5 125t-116 225.5t-42.5 340q0 144 35.5 271t106 221t176 148.5t245.5 54.5q67 0 124.5 -10t103 -24.5t78 -30t50.5 -25.5q13 -8 18 -15t5 -12q0 -6 -2 -14t-9 -21
l-51 -100q-9 -17 -23.5 -21.5t-29.5 4.5q-28 15 -57 29.5t-61.5 25t-69 17t-78.5 6.5q-65 0 -115.5 -22.5t-88 -60.5t-64 -89.5t-42.5 -110t-23 -120.5t-7 -121q0 -109 17.5 -204.5t56.5 -166t100.5 -111t148.5 -40.5q62 0 112.5 9t92.5 21v306h-160q-27 0 -41 12t-14 41v74
q0 24 14 37.5t43 13.5h312q26 0 39.5 -14.5t13.5 -39.5v-524z" />
    <glyph glyph-name="H" unicode="H" horiz-adv-x="1214" 
d="M1069 55q0 -55 -53 -55h-103q-51 0 -51 55v566h-506v-566q0 -55 -53 -55h-102q-54 0 -54 55v1256q0 55 54 55h102q53 0 53 -55v-510h506v510q0 55 51 55h103q53 0 53 -55v-1256v0z" />
    <glyph glyph-name="I" unicode="I" horiz-adv-x="502" 
d="M356 55q0 -55 -53 -55h-102q-54 0 -54 55v1256q0 55 54 55h102q53 0 53 -55v-1256v0z" />
    <glyph glyph-name="J" unicode="J" horiz-adv-x="625" 
d="M498 283q0 -78 -20.5 -136.5t-59 -97.5t-94 -58.5t-125.5 -19.5q-60 0 -106.5 8.5t-72.5 16.5q-11 5 -17.5 11t-6.5 16q0 14 6 32l29 95q6 20 18 25.5t29 0.5q18 -8 46 -14t60 -6q61 0 84 44t23 119v992q0 55 51 55h102q54 0 54 -55v-1028v0z" />
    <glyph glyph-name="K" unicode="K" horiz-adv-x="1061" 
d="M1042 18q0 -18 -26 -18h-164q-25 0 -41.5 10t-32.5 33l-422 606v-594q0 -55 -53 -55h-102q-54 0 -54 55v1256q0 55 54 55h102q53 0 53 -55v-570l428 584q17 25 32.5 33t41.5 8h141q17 0 24 -5t7 -13t-4 -18t-10 -19l-459 -606l471 -650q6 -11 10 -19t4 -18z" />
    <glyph glyph-name="L" unicode="L" horiz-adv-x="920" 
d="M895 53q0 -26 -14.5 -39.5t-40.5 -13.5h-639q-54 0 -54 55v1256q0 55 54 55h100q25 0 40 -13.5t15 -39.5v-1123h484q26 0 40.5 -13.5t14.5 -39.5v-84v0z" />
    <glyph glyph-name="M" unicode="M" horiz-adv-x="1477" 
d="M1331 53q0 -53 -53 -53h-94q-54 0 -54 55v846l-288 -657q-11 -26 -25 -36.5t-39 -10.5h-80q-24 0 -37.5 11t-25.5 40l-287 647v-840q0 -55 -53 -55h-94q-54 0 -54 55v1256q0 26 15 40.5t41 14.5h102q23 0 37.5 -9.5t24.5 -31.5l374 -852l371 846q11 25 24.5 36t39.5 11
h100q55 0 55 -55v-1258v0z" />
    <glyph glyph-name="N" unicode="N" horiz-adv-x="1235" 
d="M1090 55q0 -55 -54 -55h-102q-26 0 -41 11t-29 36l-516 932v-924q0 -28 -14 -41.5t-39 -13.5h-94q-54 0 -54 55v1256q0 26 14.5 40.5t39.5 14.5h118q25 0 40.5 -10.5t29.5 -36.5l502 -903v895q0 55 51 55h94q54 0 54 -55v-1256v0z" />
    <glyph glyph-name="O" unicode="O" horiz-adv-x="1155" 
d="M1077 682q0 -81 -8.5 -165t-30 -163t-58 -149t-91.5 -122t-131.5 -82t-177.5 -30q-102 0 -179.5 30t-133 82t-92 122t-58.5 149t-30.5 163t-8.5 165t8.5 166t30.5 164t58 149t92 122t132.5 82t178.5 30t179 -30t132.5 -82t91.5 -122t57.5 -149t30 -164t8.5 -166zM858 682
q0 50 -3.5 108t-13.5 116t-29 111.5t-50 95t-75.5 66.5t-106.5 25q-63 0 -108 -25t-76 -66.5t-50 -95t-29.5 -111.5t-14 -116t-3.5 -108t3.5 -107.5t14 -115.5t29.5 -111.5t50 -95t76 -66t108 -24.5q62 0 106.5 25t75.5 66t50 95t29 111.5t13.5 115.5t3.5 107z" />
    <glyph glyph-name="P" unicode="P" horiz-adv-x="1044" 
d="M1004 952q0 -110 -36.5 -187.5t-98.5 -126t-145 -71t-177 -22.5h-191v-490q0 -55 -53 -55h-102q-54 0 -54 55v1256q0 55 54 55h319q99 0 187 -19.5t154 -67t104.5 -127t38.5 -200.5zM786 948q0 69 -18 116t-55.5 75.5t-95 40.5t-136.5 12h-125v-473h142q148 0 218 53.5
t70 175.5z" />
    <glyph glyph-name="Q" unicode="Q" horiz-adv-x="1155" 
d="M1077 682q0 -75 -7.5 -152.5t-25 -151t-47.5 -140.5t-75 -120t-107.5 -89t-144.5 -49v-48q0 -51 24.5 -76.5t81.5 -25.5q23 0 44.5 5.5t35.5 8.5q20 7 29.5 0t15.5 -28l19 -84q3 -8 4.5 -16t1.5 -13q0 -8 -8.5 -13.5t-22.5 -8.5q-22 -7 -57.5 -13t-89.5 -6
q-138 0 -204.5 70t-66.5 198v52q-81 14 -142 51t-105 90t-73.5 119.5t-47 139.5t-24.5 149.5t-7 150.5q0 81 8.5 166t30.5 164t58 149t92 122t132.5 82t178.5 30t179 -30t132.5 -82t91.5 -122t57.5 -149t30 -164t8.5 -166zM858 682q0 50 -3.5 108t-13.5 116t-29 111.5
t-50 95t-75.5 66.5t-106.5 25q-63 0 -108 -25t-76 -66.5t-50 -95t-29.5 -111.5t-14 -116t-3.5 -108t3.5 -107.5t14 -115.5t29.5 -111.5t50 -95t76 -66t108 -24.5q62 0 106.5 25t75.5 66t50 95t29 111.5t13.5 115.5t3.5 107z" />
    <glyph glyph-name="R" unicode="R" horiz-adv-x="1087" 
d="M1049 20q0 -20 -31 -20h-144q-29 0 -46.5 11t-34.5 42l-275 525h-162v-523q0 -55 -53 -55h-102q-54 0 -54 55v1256q0 55 54 55h315q103 0 191.5 -18.5t153 -63.5t101.5 -121t37 -192q0 -81 -22.5 -142.5t-60.5 -106.5t-87 -73.5t-102 -42.5l305 -549q8 -12 12.5 -20.5
t4.5 -16.5zM784 961q0 70 -18.5 115t-57 71t-98 35.5t-141.5 9.5h-113v-438h129q78 0 134.5 10.5t93 35t54 64t17.5 97.5z" />
    <glyph glyph-name="S" unicode="S" horiz-adv-x="954" 
d="M903 377q0 -100 -32 -176t-89 -127t-136 -77t-173 -26q-62 0 -117.5 10.5t-105.5 27t-93 37.5t-79 42q-11 6 -19 13.5t-8 17.5q0 13 10 31l54 102q11 18 27 19.5t36 -9.5q22 -13 54.5 -31t71 -34t80 -27.5t83.5 -11.5q56 0 99 14t72.5 39.5t44.5 61t15 77.5
q0 46 -14 80.5t-43 62.5t-72.5 51.5t-101.5 47.5q-99 40 -173.5 80t-124 89t-74.5 111t-25 146q0 92 33 162.5t90 118t132.5 72t159.5 24.5q64 0 116.5 -8t97 -22t82 -32t71.5 -37q25 -11 25 -28q0 -6 -3 -13.5t-6 -13.5l-49 -100q-9 -19 -25 -23.5t-34 4.5
q-66 37 -131 61.5t-144 24.5q-47 0 -86 -11t-66.5 -32.5t-43 -53t-15.5 -71.5q0 -44 14 -77t46.5 -61t85.5 -55t131 -59q77 -32 141.5 -66t111.5 -79.5t73 -109.5t26 -156z" />
    <glyph glyph-name="T" unicode="T" horiz-adv-x="946" 
d="M930 1227q0 -23 -14 -37t-42 -14h-296v-1121q0 -55 -52 -55h-104q-51 0 -51 55v1121h-299q-25 0 -39.5 13.5t-14.5 39.5v84q0 25 14.5 39t39.5 14h802q56 0 56 -51v-88v0z" />
    <glyph glyph-name="U" unicode="U" horiz-adv-x="1174" 
d="M1047 449q0 -125 -36.5 -215t-100.5 -148.5t-151 -86.5t-187 -28q-102 0 -184 32.5t-140 93.5t-89.5 147.5t-31.5 193.5v873q0 26 13.5 40.5t37.5 14.5h105q51 0 51 -55v-871q0 -70 19 -122t52.5 -86.5t79 -52t97.5 -17.5q53 0 100 16.5t82 51t55.5 87.5t20.5 127v867
q0 55 53 55h103q24 0 37.5 -13.5t13.5 -41.5v-862v0z" />
    <glyph glyph-name="V" unicode="V" horiz-adv-x="1059" 
d="M1069 1337q0 -8 -1.5 -18t-6.5 -23l-420 -1273q-9 -26 -23 -39t-40 -13h-99q-47 0 -61 49l-418 1278q-5 11 -6.5 21t-1.5 16q0 17 11 24t28 7h121q26 0 39.5 -11.5t21.5 -37.5l319 -1034l326 1032q9 28 24.5 39.5t35.5 11.5h110q41 0 41 -29z" />
    <glyph glyph-name="W" unicode="W" horiz-adv-x="1604" 
d="M1597 1339q0 -6 -1.5 -20.5t-4.5 -22.5l-315 -1267q-15 -58 -64 -58h-98q-26 0 -40.5 13.5t-22.5 42.5l-246 907l-250 -905q-9 -31 -24.5 -44.5t-41.5 -13.5h-98q-23 0 -39 13.5t-22 42.5l-312 1263q-3 10 -5.5 23.5t-2.5 21.5q0 31 41 31h111q28 0 42.5 -13t20.5 -42
l221 -1008l265 1008q8 29 22 42t39 13h76q28 0 41.5 -15.5t19.5 -39.5l256 -1008l230 1008q12 55 59 55h105q38 0 38 -27z" />
    <glyph glyph-name="X" unicode="X" horiz-adv-x="1061" 
d="M1042 23q0 -11 -9.5 -17t-26.5 -6h-142q-26 0 -40.5 11.5t-28.5 37.5l-271 481l-268 -481q-14 -26 -29 -37.5t-41 -11.5h-129q-37 0 -37 25q0 6 4.5 18t10.5 23l377 632l-361 605q-5 9 -8.5 20.5t-3.5 17.5q0 13 9.5 19t25.5 6h143q28 0 42 -11t28 -36l245 -440l244 440
q14 25 29 36t41 11h127q37 0 37 -25q0 -6 -4 -17t-11 -24l-352 -589l383 -645q16 -27 16 -43z" />
    <glyph glyph-name="Y" unicode="Y" horiz-adv-x="971" 
d="M995 1341q0 -6 -4.5 -18t-9.5 -23l-383 -749v-496q0 -55 -53 -55h-103q-51 0 -51 55v492l-395 756q-5 9 -8.5 19.5t-3.5 16.5q0 11 8 19t28 8h138q26 0 40.5 -11.5t26.5 -39.5l273 -545l268 545q12 25 27 38t43 13h120q17 0 28 -6t11 -19z" />
    <glyph glyph-name="Z" unicode="Z" horiz-adv-x="1020" 
d="M971 53q0 -53 -53 -53h-816q-24 0 -37.5 13.5t-13.5 41.5v49q0 14 1.5 24t4.5 19.5t8.5 19t14.5 23.5l616 996h-577q-53 0 -53 53v74q0 26 14 39.5t39 13.5h782q51 0 51 -53v-49q0 -25 -5.5 -43t-22.5 -45l-617 -996h611q53 0 53 -53v-74v0z" />
    <glyph glyph-name="bracketleft" unicode="[" horiz-adv-x="621" 
d="M573 -319q0 -54 -55 -54h-338q-53 0 -53 56v1628q0 55 53 55h328q55 0 55 -53v-51q0 -54 -55 -54h-195v-1417h205q55 0 55 -53v-57v0z" />
    <glyph glyph-name="backslash" unicode="\" horiz-adv-x="743" 
d="M741 -55q0 -23 -32 -23h-99q-20 0 -36.5 13t-28.5 45l-531 1384q-10 20 -10 37q0 9 8 15.5t21 6.5h98q23 0 39 -13t27 -42l532 -1384q5 -10 8.5 -20t3.5 -19z" />
    <glyph glyph-name="bracketright" unicode="]" horiz-adv-x="621" 
d="M494 -317q0 -56 -54 -56h-336q-55 0 -55 54v57q0 53 55 53h205v1417h-194q-56 0 -56 54v51q0 53 56 53h325q54 0 54 -55v-1628v0z" />
    <glyph glyph-name="asciicircum" unicode="^" horiz-adv-x="944" 
d="M895 811q0 -20 -33 -20h-98q-25 0 -38.5 10.5t-29.5 36.5l-227 393l-229 -395q-14 -25 -28 -35t-40 -10h-86q-15 0 -25 5.5t-10 14.5q0 6 3 16t9 21l291 500q13 23 26 35t42 12h100q29 0 43 -12.5t27 -36.5l289 -496q6 -11 10 -22t4 -17z" />
    <glyph glyph-name="underscore" unicode="_" horiz-adv-x="948" 
d="M965 -221q0 -20 -9 -27.5t-24 -7.5h-918q-32 0 -32 31v51q0 15 7.5 24t22.5 9h924q14 0 21.5 -9t7.5 -24v-47v0z" />
    <glyph glyph-name="grave" unicode="`" horiz-adv-x="668" 
d="M481 1122q0 -14 -20 -14h-82q-26 0 -41.5 7t-34.5 24l-203 180q-12 11 -17 18t-5 17q0 12 26 12h144q32 0 51 -7t39 -36l131 -172q5 -9 8.5 -16.5t3.5 -12.5z" />
    <glyph glyph-name="a" unicode="a" horiz-adv-x="924" 
d="M815 55q0 -24 -12 -39.5t-43 -15.5h-74q-31 0 -44 13t-13 44v56q-26 -26 -58 -49.5t-70 -41t-80.5 -28t-88.5 -10.5q-61 0 -111 20.5t-85.5 58t-55 89.5t-19.5 114q0 74 23 128.5t63 93t92.5 63t111 38.5t120 19t119.5 6h26v91q0 25 -5 49.5t-20.5 44t-45.5 31.5t-80 12
q-69 0 -133.5 -21t-114.5 -49q-17 -9 -33.5 -8.5t-25.5 20.5l-41 84q-8 15 -8 27q0 21 24 33q74 38 163.5 61t180.5 23q78 0 141 -15.5t106.5 -50t67 -89.5t23.5 -134v-668zM616 471q-65 -2 -128.5 -10.5t-113.5 -30.5t-81 -60t-31 -98q0 -22 6.5 -45.5t21.5 -43t38.5 -32
t58.5 -12.5q25 0 50.5 7.5t50.5 20.5t47 29t40 33q20 19 30.5 40t10.5 53v149z" />
    <glyph glyph-name="b" unicode="b" 
d="M942 494q0 -91 -18.5 -182t-61.5 -164t-113.5 -118.5t-175.5 -45.5q-47 0 -86.5 11t-72.5 30.5t-59.5 45.5t-47.5 56v-70q0 -28 -12.5 -42.5t-46.5 -14.5h-72q-29 0 -42 14.5t-13 42.5v1278q0 29 13.5 44.5t45.5 15.5h78q37 0 49 -14.5t12 -43.5v-460q21 27 47 51t58 43
t72 30t88 11q92 0 159.5 -41.5t111.5 -112t65.5 -164.5t21.5 -200zM737 492q0 29 -2.5 66t-9.5 75.5t-19.5 76t-34 66.5t-52.5 46.5t-74 17.5q-52 0 -94 -24t-71 -69.5t-45 -111.5t-16 -150q0 -66 14 -125.5t42 -105t70.5 -72t99.5 -26.5q55 0 92 29.5t59 77.5t31.5 108
t9.5 121z" />
    <glyph glyph-name="c" unicode="c" horiz-adv-x="860" 
d="M825 102q0 -17 -28 -34q-54 -34 -134.5 -59t-185.5 -25q-81 0 -155.5 28.5t-132 91t-92 162.5t-34.5 244q0 104 27 195.5t80 159.5t131.5 107.5t181.5 39.5q81 0 154 -20t129 -52q12 -8 18.5 -16t6.5 -19q0 -8 -3 -17.5t-8 -19.5l-39 -73q-9 -19 -24.5 -21t-32.5 6
q-42 20 -88.5 39t-97.5 19q-68 0 -112.5 -31.5t-70.5 -81t-36.5 -110t-10.5 -119.5q0 -60 11 -120.5t37.5 -108.5t69.5 -78.5t108 -30.5q31 0 61 6t57.5 15.5t51 20.5t43.5 21q47 25 65 -6l43 -80q5 -8 7.5 -15t2.5 -18z" />
    <glyph glyph-name="d" unicode="d" 
d="M887 57q0 -57 -56 -57h-69q-35 0 -48.5 14.5t-13.5 42.5v70q-20 -30 -46.5 -56t-59.5 -45.5t-73 -30.5t-87 -11q-104 0 -174.5 45.5t-113.5 118.5t-61.5 164t-18.5 182q0 105 22.5 199t68.5 165t115.5 112.5t163.5 41.5q48 0 87.5 -11.5t70 -30t54 -41.5t40.5 -46v454
q0 29 13 43.5t49 14.5h77q32 0 46 -15.5t14 -44.5v-1278zM688 485q0 84 -15 150t-43 111.5t-68 69.5t-89 24q-66 0 -106 -36t-61.5 -89t-28.5 -113.5t-7 -109.5q0 -61 9.5 -121t31.5 -108t59 -77.5t93 -29.5q57 0 99 26.5t70 72t42 105t14 125.5z" />
    <glyph glyph-name="e" unicode="e" horiz-adv-x="922" 
d="M856 508q0 -23 -11.5 -37t-37.5 -14h-537v-15q1 -31 5.5 -64.5t14.5 -65.5t26 -61t40.5 -50.5t58 -34t77.5 -12.5q34 0 66 6t59 15t48 19t35 19q25 12 43.5 14t30.5 -18l43 -78q10 -20 10 -33q0 -9 -6 -16t-20 -16q-56 -35 -139 -58.5t-173 -23.5q-117 0 -198 43.5
t-131 114.5t-72 161.5t-22 185.5q0 96 22 189.5t71.5 168t128.5 120t193 45.5q97 0 168 -37.5t117 -104.5t68 -159.5t22 -202.5zM651 606q-2 47 -11.5 90.5t-30 76.5t-54 53t-82.5 20q-48 0 -83.5 -18.5t-59.5 -51t-38 -76t-18 -94.5h377z" />
    <glyph glyph-name="f" unicode="f" horiz-adv-x="567" 
d="M627 1374q0 -5 -1 -10.5t-3 -11.5l-23 -86q-6 -20 -19.5 -25t-31.5 0q-11 3 -35 11t-55 8q-29 0 -47.5 -12t-29 -32.5t-14 -47.5t-3.5 -58v-115h143q45 0 45 -45v-80q0 -20 -11 -32.5t-34 -12.5h-143v-766q0 -29 -12.5 -44t-49.5 -15h-78q-34 0 -46.5 14.5t-12.5 42.5
v768h-105q-21 0 -33 12.5t-12 32.5v80q0 20 12 32.5t33 12.5h105v125q0 66 15.5 121.5t49 96t87.5 63t131 22.5q46 0 86 -7t65 -15q9 -3 18 -10.5t9 -16.5z" />
    <glyph glyph-name="g" unicode="g" horiz-adv-x="997" 
d="M877 8q0 -87 -17.5 -157t-61.5 -120t-118 -77t-188 -27q-56 0 -107 7t-94.5 17.5t-78.5 24t-60 25.5q-11 5 -20 13t-9 22q0 10 6 22l41 88q18 38 66 17q46 -26 109 -47t140 -21q56 0 93.5 15.5t60 43t32 65.5t9.5 83v145q-16 -22 -40.5 -45.5t-55.5 -42.5t-67 -31
t-75 -12q-96 0 -166 40t-115 108.5t-67 160t-22 195.5q0 57 9 116t28 113.5t48.5 102.5t71.5 83.5t95.5 56t121.5 20.5q45 0 84 -13t70.5 -34t55 -46.5t36.5 -50.5v64q0 32 12.5 47.5t47.5 15.5h73q28 0 40 -15t12 -46v-926zM680 510q0 75 -15.5 136t-43.5 104t-66.5 66.5
t-83.5 23.5q-50 0 -86.5 -25t-60.5 -68.5t-36 -101.5t-12 -125q0 -168 52 -250t145 -82q49 0 87.5 26.5t65 71t40.5 102.5t14 122z" />
    <glyph glyph-name="h" unicode="h" horiz-adv-x="991" 
d="M881 55q0 -55 -54 -55h-92q-51 0 -51 57v627q0 69 -24 110.5t-82 41.5q-32 0 -60.5 -9.5t-55 -26t-50.5 -38.5t-45 -47q-15 -16 -24 -30t-14.5 -30t-7.5 -36t-2 -48v-512q0 -29 -12 -44t-49 -15h-78q-34 0 -46.5 14.5t-12.5 42.5v1280q0 58 55 58h84q34 0 46.5 -15
t12.5 -41v-487q25 31 58 60t72 51.5t83.5 35.5t94.5 13q67 0 115 -19.5t79 -56t45.5 -88.5t14.5 -117v-676v0z" />
    <glyph glyph-name="i" unicode="i" horiz-adv-x="467" 
d="M350 1288q0 -24 -9 -45.5t-25 -37.5t-37 -25t-46 -9q-24 0 -45 9t-36.5 25t-25 37.5t-9.5 45.5t9.5 45.5t25 37t36.5 25t45 9.5q25 0 46 -9.5t37 -25t25 -37t9 -45.5zM334 59q0 -29 -12 -44t-50 -15h-77q-34 0 -47 14.5t-13 42.5v881q0 57 55 57h84q34 0 47 -14.5
t13 -40.5v-881z" />
    <glyph glyph-name="j" unicode="j" horiz-adv-x="463" 
d="M346 1288q0 -24 -9 -45.5t-25 -37.5t-37 -25t-46 -9q-24 0 -45 9t-36.5 25t-25 37.5t-9.5 45.5t9.5 45.5t25 37t36.5 25t45 9.5q25 0 46 -9.5t37 -25t25 -37t9 -45.5zM334 -117q0 -126 -66 -191t-180 -65q-45 0 -83.5 5.5t-65.5 15.5q-21 6 -21 24q0 14 6 29l23 84
q12 31 45 20q15 -6 35 -11t34 -5q42 0 59 30.5t17 98.5v1020q0 57 53 57h86q32 0 45 -14.5t13 -40.5v-1057z" />
    <glyph glyph-name="k" unicode="k" horiz-adv-x="911" 
d="M899 18q0 -8 -7.5 -13t-23.5 -5h-145q-26 0 -44.5 8t-35.5 33l-319 436v-418q0 -29 -12.5 -44t-49.5 -15h-78q-34 0 -46.5 14.5t-12.5 42.5v1280q0 58 55 58h84q34 0 47 -15t13 -41v-786l319 401q17 25 34 33t46 8h127q15 0 24 -4.5t9 -13.5t-5.5 -18t-11.5 -17
l-348 -420l367 -473q14 -14 14 -31z" />
    <glyph glyph-name="l" unicode="l" horiz-adv-x="446" 
d="M324 59q0 -29 -12.5 -44t-49.5 -15h-78q-34 0 -46.5 14.5t-12.5 42.5v1280q0 58 55 58h84q34 0 47 -15t13 -41v-1280v0z" />
    <glyph glyph-name="m" unicode="m" horiz-adv-x="1520" 
d="M1411 55q0 -55 -55 -55h-90q-54 0 -54 57v627q0 69 -22 110.5t-76 41.5q-29 0 -56 -10t-53 -27t-49.5 -38.5t-44.5 -45.5q-28 -29 -37.5 -60.5t-9.5 -83.5v-516q0 -26 -11.5 -40.5t-43.5 -14.5h-86q-31 0 -43 14.5t-12 42.5v627q0 69 -23.5 110.5t-77.5 41.5
q-27 0 -54 -9.5t-53 -26t-50 -38.5t-45 -47q-13 -15 -22 -30t-14 -32t-7.5 -37t-2.5 -45v-512q0 -29 -12 -44t-49 -15h-78q-34 0 -46.5 14.5t-12.5 42.5v881q0 57 55 57h74q32 0 44.5 -14.5t12.5 -40.5v-100q28 34 62 65.5t73 55t82.5 37.5t91.5 14q100 0 158 -45.5
t78 -126.5q68 81 146.5 126.5t164.5 45.5q64 0 110.5 -19.5t77 -56t45.5 -88.5t15 -117v-676v0z" />
    <glyph glyph-name="n" unicode="n" horiz-adv-x="991" 
d="M881 55q0 -55 -54 -55h-92q-51 0 -51 57v627q0 69 -24 110.5t-82 41.5q-32 0 -60.5 -9.5t-55 -26t-50.5 -38.5t-45 -47q-15 -16 -24 -30t-14.5 -30t-7.5 -36t-2 -48v-512q0 -29 -12 -44t-49 -15h-78q-34 0 -46.5 14.5t-12.5 42.5v881q0 57 55 57h74q32 0 44.5 -14.5
t12.5 -40.5v-100q28 34 62.5 65.5t74.5 55t85.5 37.5t97.5 14q67 0 115 -19.5t79 -56t45.5 -88.5t14.5 -117v-676v0z" />
    <glyph glyph-name="o" unicode="o" horiz-adv-x="961" 
d="M897 500q0 -94 -22.5 -186t-72.5 -165.5t-129.5 -119t-193.5 -45.5q-111 0 -189 44.5t-128 117.5t-73 165.5t-23 188.5q0 63 10 126t31.5 120t55 105.5t79.5 84t105 56t132 20.5q113 0 192.5 -45t129.5 -118t73 -164.5t23 -184.5zM690 496q0 60 -9 120.5t-32 110
t-64.5 80.5t-105.5 31q-63 0 -103.5 -31t-64 -80.5t-32.5 -110t-9 -120.5q0 -59 9.5 -119t33 -108.5t64 -79.5t102.5 -31q64 0 105.5 31t64.5 80t32 109t9 118z" />
    <glyph glyph-name="p" unicode="p" 
d="M942 502q0 -105 -23 -199.5t-69 -165t-115.5 -112t-163.5 -41.5q-48 0 -87 11.5t-70 30t-54.5 41.5t-40.5 46v-428q0 -29 -12 -43.5t-49 -14.5h-78q-32 0 -45.5 15.5t-13.5 44.5v1251q0 28 13 42.5t42 14.5h72q34 0 46.5 -14.5t12.5 -42.5v-70q21 30 47.5 56t59.5 45.5
t72.5 31t86.5 11.5q70 0 124.5 -21t95.5 -57.5t69.5 -86t46 -106t25.5 -118t8 -121.5zM737 504q0 61 -9.5 121t-31.5 108t-59 77.5t-92 29.5q-57 0 -99.5 -27t-70.5 -72t-42 -105t-14 -126q0 -84 15 -149.5t43.5 -111t68 -69.5t89.5 -24q44 0 76 16.5t54.5 44.5t36.5 64
t22 74.5t10.5 77t2.5 71.5z" />
    <glyph glyph-name="q" unicode="q" 
d="M887 -313q0 -29 -14 -44.5t-46 -15.5h-77q-36 0 -49 14.5t-13 43.5v434q-21 -27 -46.5 -51.5t-58 -43t-72 -29.5t-87.5 -11q-92 0 -159.5 41t-111.5 111.5t-65.5 165t-21.5 200.5q0 60 8.5 121.5t28 118t50 106t74 86t102 57.5t132.5 21q51 0 92 -9t74.5 -23.5t61 -33.5
t52.5 -39l33 56q14 24 25.5 36.5t29.5 12.5h21q20 0 28.5 -13t8.5 -34v-1278zM688 750q-18 17 -41.5 33t-50 29t-55.5 20.5t-60 7.5q-61 0 -101.5 -29.5t-65 -77.5t-34.5 -108t-10 -121q0 -29 2.5 -66.5t9.5 -76t20 -75.5t34.5 -66t52.5 -46.5t74 -17.5q52 0 93.5 24
t71 69.5t45 111t15.5 149.5v240z" />
    <glyph glyph-name="r" unicode="r" horiz-adv-x="700" 
d="M711 958q0 -6 -2 -14t-4 -14l-37 -115q-3 -11 -10 -20t-19 -9q-6 0 -12 3t-13 6q-20 9 -41.5 15.5t-44.5 6.5q-18 0 -37.5 -7.5t-39 -19.5t-37.5 -27.5t-33 -31.5q-20 -21 -32 -38.5t-19 -34.5t-9 -37t-2 -46v-520q0 -29 -14 -42t-43 -13h-84q-28 0 -42.5 13t-14.5 42
v883q0 57 53 57h80q53 0 53 -55v-104q29 36 60 68t64 56t68.5 38t73.5 14q34 0 64 -7.5t55 -21.5q19 -9 19 -25z" />
    <glyph glyph-name="s" unicode="s" horiz-adv-x="772" 
d="M733 283q0 -78 -27 -134.5t-73.5 -93t-109 -54t-134.5 -17.5q-97 0 -174.5 25.5t-134.5 56.5q-17 9 -23 17t-6 17q0 16 10 33l37 72q22 40 62 18l37 -18.5t52.5 -23t64 -19.5t71.5 -8q42 0 72 8.5t48.5 24t27 36.5t8.5 45q0 28 -8.5 48t-28 36.5t-50 31.5t-75.5 32
q-79 31 -138.5 60.5t-99.5 65t-60 80.5t-20 107q0 65 24 117.5t66.5 89t101 56.5t128.5 20q87 0 160 -20.5t121 -45.5q12 -6 19 -15t7 -16q0 -6 -2.5 -14t-5.5 -14l-37 -80q-9 -22 -26.5 -22.5t-43.5 10.5q-37 17 -87.5 34t-106.5 17q-57 0 -93 -25.5t-36 -75.5
q0 -27 9.5 -47t30.5 -36.5t55 -32t83 -33.5q60 -21 115 -46t97.5 -60t67.5 -85t25 -122z" />
    <glyph glyph-name="t" unicode="t" horiz-adv-x="637" 
d="M627 31q0 -12 -25 -21q-16 -6 -38 -11t-47 -8t-51.5 -5t-51.5 -2q-56 0 -100 14t-75.5 46t-48 84t-16.5 128v569h-106q-23 0 -34 12.5t-11 32.5v80q0 45 45 45h106v258q0 58 55 58h84q35 0 47.5 -15t12.5 -41v-260h159q20 0 33 -11.5t13 -33.5v-80q0 -20 -11.5 -32.5
t-34.5 -12.5h-159v-549q0 -62 16 -94t70 -32q25 0 50 7t42 13q20 6 30.5 0.5t16.5 -25.5l23 -88q6 -15 6 -26z" />
    <glyph glyph-name="u" unicode="u" horiz-adv-x="991" 
d="M870 57q0 -57 -53 -57h-74q-34 0 -45.5 14.5t-11.5 40.5v101q-29 -35 -63 -66t-73.5 -54.5t-85.5 -37.5t-97 -14q-67 0 -115.5 19.5t-79.5 55.5t-46 88t-15 117v676q0 55 55 55h90q53 0 53 -57v-627q0 -69 23.5 -110t83.5 -41q63 0 115 35t96 86q14 16 23 30t14.5 30
t7.5 35.5t2 47.5v512q0 29 12 44t47 15h80q32 0 44.5 -14.5t12.5 -42.5v-881v0z" />
    <glyph glyph-name="v" unicode="v" horiz-adv-x="813" 
d="M815 975q0 -6 -2.5 -18t-5.5 -21l-275 -879q-8 -26 -21.5 -41.5t-39.5 -15.5h-127q-26 0 -39 13.5t-22 41.5l-281 885q-3 8 -5.5 18.5t-2.5 16.5q0 9 9.5 14.5t23.5 5.5h133q20 0 30.5 -10.5t16.5 -32.5l207 -706l207 708q6 22 16.5 31.5t32.5 9.5h114q31 0 31 -20z" />
    <glyph glyph-name="w" unicode="w" horiz-adv-x="1348" 
d="M1352 975q0 -6 -2.5 -18t-6.5 -23l-253 -875q-8 -24 -21.5 -41.5t-42.5 -17.5h-113q-26 0 -39.5 14.5t-21.5 42.5l-178 623l-170 -623q-6 -23 -19.5 -40t-38.5 -17h-120q-25 0 -38.5 16.5t-21.5 40.5l-258 877q-3 12 -5.5 23.5t-2.5 17.5q0 20 33 20h125q37 0 49 -45
l188 -692l180 696q7 23 18.5 32t31.5 9h110q25 0 35 -10t16 -33l185 -696l188 692q8 23 19 35t32 12h111q14 0 22.5 -5.5t8.5 -14.5z" />
    <glyph glyph-name="x" unicode="x" horiz-adv-x="885" 
d="M866 18q0 -8 -6.5 -13t-23.5 -5h-146q-25 0 -39 10t-28 35l-187 303l-186 -307q-16 -25 -30.5 -33t-37.5 -8h-129q-17 0 -23.5 4.5t-6.5 15.5q0 12 12 33l293 445l-291 446q-6 9 -10 18t-4 15q0 11 8.5 14.5t23.5 3.5h144q26 0 40.5 -11t28.5 -34l176 -288l179 292
q23 41 67 41h127q19 0 26 -4.5t7 -13.5q0 -15 -14 -35l-283 -432l299 -455q6 -12 10 -20.5t4 -16.5z" />
    <glyph glyph-name="y" unicode="y" horiz-adv-x="836" 
d="M844 975q0 -6 -2.5 -18t-5.5 -21l-326 -971q-27 -80 -55.5 -142.5t-67.5 -106t-93 -66.5t-132 -23q-40 0 -73.5 7.5t-51.5 15.5q-21 6 -21 22q-2 7 0 14.5t4 12.5l29 92q3 12 12 17t21 2q18 -5 42.5 -11t47.5 -6q31 0 53 15t39 42t31 63.5t29 78.5l4 8l-318 940
q-3 8 -4.5 18.5t-1.5 16.5q0 9 9.5 14.5t23.5 5.5h129q22 0 32.5 -9.5t16.5 -31.5l215 -688l217 688q8 22 18.5 31.5t30.5 9.5h115q15 0 24 -5.5t9 -14.5z" />
    <glyph glyph-name="z" unicode="z" horiz-adv-x="829" 
d="M774 49q0 -49 -45 -49h-620q-29 0 -40.5 11.5t-11.5 37.5v76q0 26 5.5 43t21.5 39l442 610h-407q-22 0 -34.5 12t-12.5 35v82q0 49 43 49h602q28 0 38.5 -13t10.5 -36v-74q0 -26 -6.5 -44t-22.5 -40l-442 -608h430q22 0 35.5 -11t13.5 -36v-84v0z" />
    <glyph glyph-name="braceleft" unicode="{" horiz-adv-x="670" 
d="M618 -322q0 -24 -13.5 -37.5t-41.5 -13.5h-49q-37 0 -71 5.5t-68 19.5q-69 29 -108.5 103.5t-39.5 181.5v151q0 68 -5 124t-19 98.5t-39 70t-66 39.5q-26 8 -36.5 19t-10.5 34v72q0 25 12 35t35 16q41 12 66 40.5t39 70.5t19 97.5t5 123.5v155q0 103 35 174t98 103
q38 20 76 27.5t80 7.5h47q55 0 55 -52v-53q0 -53 -57 -53h-29q-41 0 -65.5 -13t-37.5 -40.5t-17 -70.5t-4 -103v-121q0 -86 -12 -149t-34 -107t-52 -72.5t-66 -46.5v-8q37 -18 67 -48t51.5 -75t33.5 -107.5t12 -146.5v-117q0 -62 4 -105.5t17 -70.5t37.5 -39t65.5 -12h29
q57 0 57 -51v-56v0z" />
    <glyph glyph-name="bar" unicode="|" horiz-adv-x="516" 
d="M346 -326q0 -23 -11.5 -35t-37.5 -12h-76q-26 0 -36.5 12t-10.5 35v1811q0 25 10.5 37t36.5 12h76q26 0 37.5 -12t11.5 -37v-1811v0z" />
    <glyph glyph-name="braceright" unicode="}" horiz-adv-x="670" 
d="M623 477q0 -25 -13 -35t-35 -16q-41 -12 -66 -40.5t-39 -70.5t-19 -98t-5 -123v-155q0 -103 -35 -174t-98 -103q-37 -20 -75 -27.5t-80 -7.5h-47q-28 0 -42 13.5t-14 37.5v54q0 53 58 53h28q41 0 65.5 12.5t38 40t17.5 70.5t4 104v121q0 86 12 148.5t34 107t52 73
t66 46.5v8q-37 18 -67 47.5t-51.5 74.5t-33.5 108t-12 147v117q0 62 -4 105.5t-17.5 70.5t-38 39t-65.5 12h-28q-58 0 -58 51v55q0 52 56 52h49q37 0 71 -5.5t68 -19.5q69 -29 108 -103.5t39 -181.5v-151q0 -68 5 -124t19 -98.5t39 -71t66 -40.5q26 -6 37 -17t11 -34v-72v0z
" />
    <glyph glyph-name="asciitilde" unicode="~" horiz-adv-x="944" 
d="M883 725q0 -11 -3.5 -37t-12.5 -58t-24.5 -66.5t-40.5 -62.5t-60 -46.5t-83 -18.5q-51 0 -102.5 19.5t-99.5 44.5l-42 21t-44 21t-42 16.5t-36 6.5q-26 0 -43.5 -10.5t-28.5 -26t-17.5 -34.5t-10.5 -37q-2 -14 -8 -21.5t-23 -7.5h-76q-23 0 -23 23q0 12 3.5 38t12.5 58
t25 66t41 62t60.5 46t83.5 18q49 0 101 -20t102 -43q20 -10 42 -21.5t44 -21.5t42.5 -16.5t36.5 -6.5q25 0 42.5 12t28 29.5t16 36t8.5 31.5q3 18 10 23.5t18 5.5h82q21 0 21 -23z" />
    <glyph glyph-name="Euro" unicode="&#x20ac;" horiz-adv-x="1077" 
d="M1061 98q0 -8 -4.5 -14.5t-20.5 -15.5q-65 -39 -156 -68t-212 -29q-89 0 -169.5 26t-145.5 86t-111 157.5t-66 240.5h-92q-26 0 -38.5 13t-12.5 36v39q0 49 49 49h82q-2 20 -2 40.5v41.5v41h-78q-51 0 -51 47v41q0 23 12 36.5t37 13.5h92q17 112 57 206.5t104 163.5
t153 107.5t204 38.5q61 0 111.5 -9t90 -22.5t68 -28.5t46.5 -26q12 -8 16 -15.5t4 -13.5t-1 -13t-9 -20l-47 -94q-8 -17 -22.5 -21.5t-28.5 5.5q-18 10 -43 22t-55 22.5t-64 17.5t-70 7q-69 0 -120.5 -26t-88 -70.5t-59 -104t-33.5 -126.5h373q28 0 39.5 -14t11.5 -36v-38
q0 -23 -11.5 -36.5t-37.5 -13.5h-387q-1 -5 -1.5 -13.5t-0.5 -17.5v-17.5v-12.5v-31t2 -31h323q28 0 40 -13t12 -36v-39q0 -23 -12 -36t-38 -13h-311q11 -62 33 -120t57.5 -102.5t86.5 -71.5t120 -27q36 0 68 4.5t63 14t62.5 24.5t66.5 35q37 19 53 -9l52 -102
q3 -6 6.5 -14.5t3.5 -14.5z" />
    <glyph glyph-name="quotesinglbase" unicode="&#x201a;" horiz-adv-x="471" 
d="M362 92q0 -45 -13 -89t-34 -85t-48.5 -79.5t-55.5 -74.5q-6 -9 -14.5 -13.5t-16.5 -4.5q-13 0 -24 8l-37 25q-15 9 -15 24q0 13 13 29q13 17 26.5 37t25 41t21 42t15.5 40q-45 6 -70.5 40t-25.5 79q0 26 9 49t25.5 40.5t39.5 27.5t50 10q57 0 93 -40t36 -106z" />
    <glyph glyph-name="florin" unicode="&#x192;" horiz-adv-x="821" 
d="M793 1370q0 -5 -0.5 -11.5t-4.5 -12.5l-28 -80q-8 -20 -21.5 -24.5t-33.5 1.5q-11 3 -34.5 10t-54.5 7q-29 0 -49 -10.5t-33.5 -30t-22 -47.5t-13.5 -62l-19 -115h144q18 0 29.5 -6t11.5 -18v-8t-2 -13l-15 -84q-6 -41 -51 -41h-143l-146 -895q-12 -71 -33.5 -128.5
t-59 -98.5t-93 -63.5t-133.5 -22.5q-50 0 -89 7.5t-61 17.5q-8 5 -14 12t-6 16q0 5 1 12t3 13l31 80q8 20 21 24.5t32 -0.5q12 -3 34.5 -10.5t53.5 -7.5q55 0 81.5 40t37.5 109l141 895h-104q-17 0 -28 7.5t-11 21.5q0 3 0.5 9.5t3.5 19.5l12 73q3 39 49 39h105l24 125
q13 71 36 127t60.5 95t92 60t131.5 21q49 0 87.5 -6.5t61.5 -17.5q8 -3 13.5 -11.5t5.5 -17.5z" />
    <glyph glyph-name="quotedblbase" unicode="&#x201e;" horiz-adv-x="836" 
d="M729 92q0 -45 -13.5 -89t-35 -85t-49.5 -79.5t-56 -74.5q-12 -18 -30 -18q-5 0 -12 1.5t-13 6.5l-35 25q-16 8 -16 24q0 7 4 14t10 15q12 17 25 37t25 41t22 42t16 40q-46 6 -71 40t-25 79q0 26 9 49t25 40.5t38.5 27.5t50.5 10q57 0 94 -40t37 -106zM362 92
q0 -45 -13 -89t-34 -85t-48.5 -79.5t-55.5 -74.5q-6 -9 -14.5 -13.5t-16.5 -4.5q-13 0 -24 8l-37 25q-15 9 -15 24q0 13 13 29q13 17 26.5 37t25 41t21 42t15.5 40q-45 6 -70.5 40t-25.5 79q0 26 9 49t25.5 40.5t39.5 27.5t50 10q57 0 93 -40t36 -106z" />
    <glyph glyph-name="ellipsis" unicode="&#x2026;" horiz-adv-x="1538" 
d="M1415 111q0 -26 -10 -49.5t-27.5 -40.5t-40.5 -27t-49 -10q-27 0 -50 10t-40 27t-27 40.5t-10 49.5t10 49t27 40.5t40 27.5t50 10q26 0 49 -10t40.5 -27.5t27.5 -40.5t10 -49zM897 111q0 -26 -9.5 -49.5t-27 -40.5t-40.5 -27t-50 -10q-26 0 -49.5 10t-40.5 27t-27 40.5
t-10 49.5t10 49t27 40.5t40.5 27.5t49.5 10q27 0 50 -10t40.5 -27.5t27 -40.5t9.5 -49zM379 111q0 -26 -9.5 -49.5t-27 -40.5t-40.5 -27t-50 -10q-26 0 -49.5 10t-40.5 27t-27 40.5t-10 49.5t10 49t27 40.5t40.5 27.5t49.5 10q27 0 50 -10t40.5 -27.5t27 -40.5t9.5 -49z" />
    <glyph glyph-name="dagger" unicode="&#x2020;" horiz-adv-x="950" 
d="M858 868q0 -49 -51 -49h-246v-1141q0 -26 -10.5 -38.5t-38.5 -12.5h-72q-49 0 -49 51v1141h-246q-51 0 -51 49v54q0 26 13.5 38.5t37.5 12.5h246v370q0 52 49 52h72q26 0 37.5 -13t11.5 -39v-370h246q26 0 38.5 -13.5t12.5 -37.5v-54v0z" />
    <glyph glyph-name="daggerdbl" unicode="&#x2021;" horiz-adv-x="950" 
d="M858 66q0 -52 -51 -52h-246v-336q0 -26 -10.5 -38.5t-38.5 -12.5h-72q-49 0 -49 51v336h-246q-24 0 -37.5 13t-13.5 39v53q0 49 51 49h246v674h-246q-51 0 -51 49v53q0 26 13.5 38.5t37.5 12.5h246v336q0 51 49 51h72q26 0 37.5 -13t11.5 -38v-336h246q51 0 51 -51v-53
q0 -26 -12.5 -37.5t-38.5 -11.5h-246v-674h246q26 0 38.5 -11.5t12.5 -37.5v-53v0z" />
    <glyph glyph-name="circumflex" unicode="&#x2c6;" horiz-adv-x="668" 
d="M633 1122q0 -14 -23 -14h-84q-14 0 -23.5 1t-17.5 4.5t-16.5 9.5t-19.5 16l-121 104l-121 -104q-23 -20 -37.5 -25.5t-40.5 -5.5h-70q-20 0 -20 14q0 5 4 12t10 15l140 174q21 26 37.5 34.5t43.5 8.5h121q23 0 40.5 -6.5t39.5 -34.5l141 -176q17 -19 17 -27z" />
    <glyph glyph-name="perthousand" unicode="&#x2030;" horiz-adv-x="2365" 
d="M715 1049q0 -62 -17.5 -124t-57 -112t-103 -81.5t-154.5 -31.5q-89 0 -151.5 31t-101.5 80.5t-57 112t-18 125.5q0 64 18.5 126t58 111t102 79t149.5 30q91 0 154 -31t102.5 -80.5t57.5 -111t18 -123.5zM545 1044q0 37 -7 74.5t-25.5 68t-50 49.5t-79.5 19t-79 -19
t-49.5 -49.5t-26 -68t-7.5 -74.5q0 -35 7.5 -71.5t26.5 -66t50 -48t78 -18.5q49 0 80.5 19t49.5 48.5t25 65.5t7 71zM1225 1374q0 -9 -2 -18.5t-9 -20.5l-655 -1327q-15 -31 -31 -44t-34 -13h-82q-14 0 -23.5 5.5t-9.5 16.5q0 10 4 18t10 19l656 1329q14 28 29 42t38 14h80
q12 0 20.5 -6.5t8.5 -14.5zM1548 299q0 -62 -17.5 -124t-57 -112.5t-102.5 -82t-154 -31.5q-89 0 -152 31t-102.5 80.5t-57.5 112t-18 126.5q0 63 18.5 125t58.5 111t102.5 79.5t150.5 30.5q90 0 153 -31t102.5 -80.5t57.5 -111.5t18 -123zM1378 295q0 36 -7.5 73.5t-26 68
t-49.5 50t-78 19.5q-48 0 -79 -19.5t-49.5 -50t-26 -68t-7.5 -73.5t7.5 -73t26.5 -66.5t50 -48.5t78 -19q48 0 79.5 19t49.5 49t25 67t7 72zM2312 299q0 -62 -17.5 -124t-57 -112.5t-103 -82t-154.5 -31.5q-89 0 -151 31t-101 80.5t-57 112t-18 126.5q0 63 18.5 125t58 111
t101.5 79.5t149 30.5q91 0 154 -31t102.5 -80.5t57.5 -111.5t18 -123zM2142 295q0 36 -7.5 73.5t-26 68t-49.5 50t-79 19.5t-79 -19.5t-49 -50t-25.5 -68t-7.5 -73.5t7.5 -73t26 -66.5t49.5 -48.5t78 -19q48 0 79.5 19t50 49t25.5 67t7 72z" />
    <glyph glyph-name="Scaron" unicode="&#x160;" horiz-adv-x="954" 
d="M903 377q0 -100 -32 -176t-89 -127t-136 -77t-173 -26q-62 0 -117.5 10.5t-105.5 27t-93 37.5t-79 42q-11 6 -19 13.5t-8 17.5q0 13 10 31l54 102q11 18 27 19.5t36 -9.5q22 -13 54.5 -31t71 -34t80 -27.5t83.5 -11.5q56 0 99 14t72.5 39.5t44.5 61t15 77.5
q0 46 -14 80.5t-43 62.5t-72.5 51.5t-101.5 47.5q-99 40 -173.5 80t-124 89t-74.5 111t-25 146q0 92 33 162.5t90 118t132.5 72t159.5 24.5q64 0 116.5 -8t97 -22t82 -32t71.5 -37q25 -11 25 -28q0 -6 -3 -13.5t-6 -13.5l-49 -100q-9 -19 -25 -23.5t-34 4.5
q-66 37 -131 61.5t-144 24.5q-47 0 -86 -11t-66.5 -32.5t-43 -53t-15.5 -71.5q0 -44 14 -77t46.5 -61t85.5 -55t131 -59q77 -32 141.5 -66t111.5 -79.5t73 -109.5t26 -156zM777 1717q0 -10 -15 -27l-141 -174q-20 -26 -37 -34.5t-45 -8.5h-121q-23 0 -40.5 6.5t-38.5 34.5
l-142 176q-6 9 -10 16.5t-4 10.5q0 14 22 14h84q14 0 23.5 -1t18 -4.5t16 -9.5t18.5 -16l121 -104l121 104q23 20 37.5 25.5t40.5 5.5h69q23 0 23 -14z" />
    <glyph glyph-name="guilsinglleft" unicode="&#x2039;" horiz-adv-x="623" 
d="M532 156q0 -15 -22 -31l-61 -37q-11 -8 -19.5 -10t-11.5 -2q-17 0 -35 24l-272 342q-10 11 -14.5 22.5t-4.5 27.5q0 15 6.5 28t14.5 23l276 342q9 15 17.5 19.5t17.5 4.5q8 0 31 -12l55 -37q9 -6 15.5 -13t6.5 -18q0 -6 -5 -15.5t-11 -18.5l-217 -297l219 -310
q5 -9 9.5 -17.5t4.5 -14.5z" />
    <glyph glyph-name="OE" unicode="&#x152;" horiz-adv-x="1642" 
d="M1573 53q0 -53 -55 -53h-695q-60 -11 -115 -17t-108 -6q-103 0 -182.5 29t-138 79.5t-98 118.5t-63.5 146.5t-34 163t-10 168.5t10 169t34 163.5t63.5 147t97.5 119t137 79.5t182 29q28 0 53.5 -1.5t52 -4t55.5 -7t64 -10.5h672q25 0 40 -13.5t15 -39.5v-74
q0 -53 -55 -53h-479v-383h399q55 0 55 -53v-74q0 -53 -55 -53h-399v-433h502q55 0 55 -53v-84zM807 1171q-37 13 -86 20t-105 7q-71 0 -123 -23t-88 -62t-58 -91t-34 -109t-16 -116.5t-4 -114.5q0 -54 5 -113.5t18 -116.5t35.5 -108.5t57.5 -90.5t84 -62t115 -23
q121 0 199 25v978z" />
    <glyph glyph-name="quoteleft" unicode="&#x2018;" horiz-adv-x="471" 
d="M362 1028q0 -26 -9 -49.5t-25 -40.5t-38.5 -27t-49.5 -10q-57 0 -94 39.5t-37 106.5q0 45 13 89t35 85t49 79.5t56 73.5q6 9 14 15t17 6q5 0 11.5 -2t12.5 -7l35 -24q10 -6 13.5 -12t3.5 -13q0 -8 -4.5 -15t-10.5 -15q-12 -16 -25 -36t-25 -41t-22 -42.5t-16 -40.5
q47 -6 71.5 -40t24.5 -79z" />
    <glyph glyph-name="quoteright" unicode="&#x2019;" horiz-adv-x="471" 
d="M362 1249q0 -45 -13 -88.5t-34 -85t-48.5 -80t-55.5 -73.5q-6 -10 -14.5 -14.5t-16.5 -4.5q-13 0 -24 8l-37 25q-15 9 -15 25q0 12 13 28q13 17 26.5 37t25 41t21 42t15.5 40q-45 6 -70.5 40t-25.5 79q0 26 9 49t25.5 40.5t39.5 27.5t50 10q57 0 93 -40t36 -106z" />
    <glyph glyph-name="quotedblleft" unicode="&#x201c;" horiz-adv-x="836" 
d="M729 1028q0 -26 -9 -49.5t-25.5 -40.5t-39.5 -27t-51 -10q-57 0 -93 39.5t-36 106.5q0 45 13 89t34.5 85t48.5 79.5t56 73.5q6 9 14 15t16 6q5 0 12 -2t13 -7l37 -24q14 -11 14 -25q0 -8 -3.5 -15t-8.5 -15q-13 -16 -26.5 -36t-25.5 -41t-22 -42.5t-16 -40.5
q46 -6 72 -40t26 -79zM362 1028q0 -26 -9 -49.5t-25 -40.5t-38.5 -27t-49.5 -10q-57 0 -94 39.5t-37 106.5q0 45 13 89t35 85t49 79.5t56 73.5q6 9 14 15t17 6q5 0 11.5 -2t12.5 -7l35 -24q10 -6 13.5 -12t3.5 -13q0 -8 -4.5 -15t-10.5 -15q-12 -16 -25 -36t-25 -41
t-22 -42.5t-16 -40.5q47 -6 71.5 -40t24.5 -79z" />
    <glyph glyph-name="quotedblright" unicode="&#x201d;" horiz-adv-x="836" 
d="M729 1249q0 -45 -13.5 -88.5t-35 -85t-49.5 -80t-56 -73.5q-12 -19 -30 -19q-5 0 -12 1.5t-13 6.5l-35 25q-9 5 -12.5 11.5t-3.5 13.5q0 6 4 13t10 15q12 17 25 37t25 41t22 42t16 40q-46 6 -71 40t-25 79q0 26 9 49t25 40.5t38.5 27.5t50.5 10q57 0 94 -40t37 -106z
M362 1249q0 -45 -13 -88.5t-34 -85t-48.5 -80t-55.5 -73.5q-6 -10 -14.5 -14.5t-16.5 -4.5q-13 0 -24 8l-37 25q-15 9 -15 25q0 12 13 28q13 17 26.5 37t25 41t21 42t15.5 40q-45 6 -70.5 40t-25.5 79q0 26 9 49t25.5 40.5t39.5 27.5t50 10q57 0 93 -40t36 -106z" />
    <glyph glyph-name="bullet" unicode="&#x2022;" horiz-adv-x="791" 
d="M680 682q0 -59 -22.5 -110.5t-61 -89.5t-90 -60.5t-109.5 -22.5q-59 0 -110.5 22.5t-90 60.5t-61 89.5t-22.5 110.5t22 111t60.5 90.5t90 61t111.5 22.5q58 0 109.5 -22.5t90 -61.5t61 -91t22.5 -110z" />
    <glyph glyph-name="endash" unicode="&#x2013;" horiz-adv-x="754" 
d="M774 465q0 -49 -49 -49h-694q-49 0 -49 47v80q0 47 45 47h702q45 0 45 -47v-78v0z" />
    <glyph glyph-name="emdash" unicode="&#x2014;" horiz-adv-x="1522" 
d="M1542 465q0 -49 -49 -49h-1462q-49 0 -49 47v78q0 23 11 36t34 13h1470q23 0 34 -13t11 -36v-76v0z" />
    <glyph glyph-name="tilde" unicode="&#x2dc;" horiz-adv-x="668" 
d="M635 1331q0 -8 -2.5 -27t-9.5 -43t-19 -49t-30.5 -46t-45.5 -34.5t-63 -13.5q-39 0 -75 13.5t-68.5 30t-60 30.5t-48.5 14q-32 0 -44.5 -18.5t-18.5 -44.5q-4 -13 -9 -19t-22 -6h-62q-22 0 -22 23q0 9 2.5 28t9 42.5t18.5 49t31 46t45.5 34t63.5 13.5t73 -14t69 -30.5
t61 -30t49 -13.5q17 0 28.5 6.5t18.5 16t10.5 20.5t5.5 20q3 14 9.5 19.5t17.5 5.5h67q21 0 21 -23z" />
    <glyph glyph-name="trademark" unicode="&#x2122;" horiz-adv-x="1352" 
d="M1241 723q0 -41 -43 -41h-49q-43 0 -43 41v377l-117 -244q-9 -19 -18.5 -26t-26.5 -7h-43q-18 0 -28.5 7t-18.5 26l-117 238v-371q0 -41 -43 -41h-51q-39 0 -39 41v602q0 41 41 41h62q17 0 28 -6.5t19 -22.5l168 -356l170 352q8 17 17.5 25t29.5 8h59q23 0 33 -9.5
t10 -31.5v-602zM532 1280q0 -39 -45 -39h-139v-518q0 -41 -43 -41h-55q-41 0 -41 41v518h-141q-43 0 -43 39v47q0 39 43 39h419q45 0 45 -39v-47z" />
    <glyph glyph-name="scaron" unicode="&#x161;" horiz-adv-x="772" 
d="M733 283q0 -78 -27 -134.5t-73.5 -93t-109 -54t-134.5 -17.5q-97 0 -174.5 25.5t-134.5 56.5q-17 9 -23 17t-6 17q0 16 10 33l37 72q22 40 62 18l37 -18.5t52.5 -23t64 -19.5t71.5 -8q42 0 72 8.5t48.5 24t27 36.5t8.5 45q0 28 -8.5 48t-28 36.5t-50 31.5t-75.5 32
q-79 31 -138.5 60.5t-99.5 65t-60 80.5t-20 107q0 65 24 117.5t66.5 89t101 56.5t128.5 20q87 0 160 -20.5t121 -45.5q12 -6 19 -15t7 -16q0 -6 -2.5 -14t-5.5 -14l-37 -80q-9 -22 -26.5 -22.5t-43.5 10.5q-37 17 -87.5 34t-106.5 17q-57 0 -93 -25.5t-36 -75.5
q0 -27 9.5 -47t30.5 -36.5t55 -32t83 -33.5q60 -21 115 -46t97.5 -60t67.5 -85t25 -122zM683 1352q0 -10 -15 -27l-141 -174q-20 -26 -37 -34.5t-45 -8.5h-121q-23 0 -40.5 6.5t-38.5 34.5l-142 176q-6 9 -10 16.5t-4 10.5q0 14 22 14h84q14 0 23.5 -1t18 -4.5t16 -9.5
t18.5 -16l121 -104l121 104q23 20 37.5 25.5t40.5 5.5h69q23 0 23 -14z" />
    <glyph glyph-name="guilsinglright" unicode="&#x203a;" horiz-adv-x="623" 
d="M532 494q0 -16 -5.5 -28.5t-14.5 -23.5l-274 -342q-23 -24 -37 -24q-3 0 -11.5 2t-19.5 10l-57 37q-21 13 -21 31q0 8 4 15.5t10 16.5l218 299l-215 308q-8 9 -12.5 18.5t-4.5 15.5q0 19 23 31l59 37q11 6 19.5 9t11.5 3q9 0 17 -4.5t18 -19.5l274 -342q8 -10 13 -22
t5 -27z" />
    <glyph glyph-name="oe" unicode="&#x153;" horiz-adv-x="1534" 
d="M1468 508q0 -23 -10.5 -37t-38.5 -14h-534v-15q1 -47 10.5 -98t34 -93t67 -69.5t109.5 -27.5q34 0 65 6t58 15t48.5 19t35.5 19q26 12 44 14t29 -18l44 -78q10 -20 10 -33q0 -9 -6.5 -16t-20.5 -16q-56 -35 -138.5 -58.5t-172.5 -23.5q-118 0 -194.5 46.5t-123.5 133.5
q-38 -82 -117.5 -131t-189.5 -49q-111 0 -189 44.5t-127.5 117.5t-72 165.5t-22.5 188.5q0 63 10 126t31.5 120t55 105.5t79.5 84t105 56t132 20.5q110 0 188.5 -49.5t118.5 -131.5q44 84 119.5 132.5t188.5 48.5q97 0 168 -37.5t116.5 -104.5t67.5 -159.5t22 -202.5z
M1264 606q-2 47 -11.5 90.5t-30 76.5t-54.5 53t-83 20q-48 0 -83.5 -18.5t-59.5 -51t-37.5 -76t-17.5 -94.5h377zM690 496q0 60 -9 120.5t-32 110t-64.5 80.5t-105.5 31q-63 0 -103.5 -31t-64 -80.5t-32.5 -110t-9 -120.5q0 -59 9.5 -119t33 -108.5t64 -79.5t102.5 -31
q64 0 105.5 31t64.5 80t32 109t9 118z" />
    <glyph glyph-name="Ydieresis" unicode="&#x178;" horiz-adv-x="971" 
d="M995 1341q0 -6 -4.5 -18t-9.5 -23l-383 -749v-496q0 -55 -53 -55h-103q-51 0 -51 55v492l-395 756q-5 9 -8.5 19.5t-3.5 16.5q0 11 8 19t28 8h138q26 0 40.5 -11.5t26.5 -39.5l273 -545l268 545q12 25 27 38t43 13h120q17 0 28 -6t11 -19zM747 1585q0 -42 -29 -71
t-71 -29q-21 0 -39.5 8t-32 21.5t-21.5 31.5t-8 39t8 39t21.5 31.5t32 21.5t39.5 8q42 0 71 -29t29 -71zM429 1585q0 -42 -29 -71t-71 -29t-71 29t-29 71t29 71t71 29t71 -29t29 -71z" />
    <glyph glyph-name="uni00A0" unicode="&#xa0;" horiz-adv-x="469" 
 />
    <glyph glyph-name="exclamdown" unicode="&#xa1;" horiz-adv-x="508" 
d="M381 885q0 -26 -9.5 -49.5t-27 -40.5t-40.5 -27t-50 -10q-26 0 -49.5 10t-40.5 27t-27 40.5t-10 49.5t10 49t27 40.5t40.5 27.5t49.5 10q27 0 50 -10t40.5 -27.5t27 -40.5t9.5 -49zM373 -319q2 -29 -13 -41.5t-41 -12.5h-129q-24 0 -39.5 12.5t-13.5 41.5l39 868
q2 28 15 38.5t34 10.5h60q21 0 34 -10.5t15 -38.5z" />
    <glyph glyph-name="cent" unicode="&#xa2;" horiz-adv-x="860" 
d="M573 -195q0 -55 -53 -55h-51q-51 0 -51 55v183q-78 8 -143 41.5t-112 96.5t-73.5 158t-26.5 226q0 95 22.5 180t67 151t111 109.5t154.5 55.5v135q0 53 51 53h51q53 0 53 -53v-135q54 -10 103.5 -26.5t89.5 -39.5q12 -8 18.5 -16t6.5 -19q0 -8 -3 -17.5t-8 -19.5l-37 -67
q-9 -19 -24.5 -21t-32.5 6q-29 14 -56.5 25.5t-56.5 17.5v-665q41 6 73 20t63 31q47 24 65 -6l41 -74q5 -8 7.5 -15t2.5 -18q0 -17 -28 -34q-42 -26 -98 -47.5t-126 -30.5v-185zM268 496q0 -131 35 -217t115 -111v668q-43 -13 -72 -44t-46 -76t-24.5 -101t-7.5 -119z" />
    <glyph glyph-name="sterling" unicode="&#xa3;" horiz-adv-x="991" 
d="M956 51q0 -51 -55 -51h-801q-26 0 -40.5 13.5t-14.5 39.5v80q0 28 15 39.5t42 11.5h115q25 54 40 119.5t15 140.5q0 47 -6.5 89.5t-15.5 76.5h-144q-26 0 -38.5 13t-12.5 36v76q0 23 11.5 37t37.5 14h109q-17 57 -27 115t-10 117q0 85 26.5 154.5t78.5 119t128.5 76.5
t176.5 27q45 0 89.5 -6.5t85 -17t76 -25t64.5 -29.5q27 -17 27 -31t-8 -31l-46 -88q-9 -18 -23 -23.5t-36 5.5q-60 29 -113.5 47t-113.5 18q-58 0 -97 -16.5t-63 -45t-34.5 -65.5t-10.5 -77q0 -23 1.5 -44.5t5 -47.5t9.5 -58t15 -74h233q28 0 39.5 -14t11.5 -37v-76
q0 -23 -11.5 -36t-39.5 -13h-196q12 -52 16 -94t4 -76q0 -68 -17 -134t-44 -122h491q26 0 40.5 -11.5t14.5 -39.5v-82v0z" />
    <glyph glyph-name="currency" unicode="&#xa4;" horiz-adv-x="1147" 
d="M973 682q0 -60 -17 -113t-49 -102l119 -117q18 -18 18 -39q0 -18 -14 -32l-49 -48q-16 -16 -35 -16q-13 0 -35 18l-120 119q-51 -34 -106 -48.5t-112 -14.5q-49 0 -105.5 14t-109.5 49l-118 -116q-21 -21 -39 -21q-19 0 -35 16l-47 48q-15 15 -15 32q0 18 21 39l119 119
q-31 46 -47.5 101t-16.5 112q0 59 15 113.5t47 99.5l-119 121q-19 19 -19 37q0 17 15 32l47 48q15 18 35 18q15 0 35 -18l122 -119q54 34 110 49.5t105 15.5q53 0 110.5 -14.5t107.5 -48.5l120 117q19 18 35 18t35 -16l47 -50q9 -8 12.5 -16t3.5 -16q0 -10 -3.5 -18.5
t-12.5 -16.5l-121 -121q35 -50 50.5 -104.5t15.5 -110.5zM801 684q0 48 -18 89.5t-49 72t-72 48t-87 17.5q-50 0 -91.5 -18t-71 -49t-46 -72.5t-16.5 -87.5q0 -47 17.5 -88.5t47.5 -73t70.5 -49.5t87.5 -18q48 0 90 18t72.5 49t48 72.5t17.5 89.5z" />
    <glyph glyph-name="yen" unicode="&#xa5;" horiz-adv-x="1038" 
d="M1026 1341q0 -6 -4.5 -18t-9.5 -23l-289 -567h162q43 0 43 -43v-51q0 -20 -10.5 -31.5t-34.5 -11.5h-232l-22 -45v-76h256q43 0 43 -43v-53q0 -19 -10.5 -30t-34.5 -11h-254v-283q0 -28 -13.5 -41.5t-37.5 -13.5h-105q-51 0 -51 55v283h-256q-43 0 -43 41v55q0 19 9.5 30
t31.5 11h258v72l-27 49h-229q-43 0 -43 43v53q0 19 9.5 30t31.5 11h162l-297 570q-5 9 -10 19.5t-5 16.5q0 11 9.5 19t27.5 8h137q26 0 41 -11.5t29 -39.5l270 -545l269 545q12 25 26.5 38t42.5 13h121q39 0 39 -25z" />
    <glyph glyph-name="brokenbar" unicode="&#xa6;" horiz-adv-x="516" 
d="M346 707q0 -25 -11.5 -37.5t-37.5 -12.5h-76q-26 0 -36.5 12.5t-10.5 37.5v628q0 23 10.5 35t36.5 12h76q26 0 37.5 -12t11.5 -35v-628zM346 -319q0 -25 -11.5 -36.5t-37.5 -11.5h-76q-26 0 -36.5 11.5t-10.5 36.5v630q0 25 10.5 36t36.5 11h76q26 0 37.5 -11t11.5 -36
v-630z" />
    <glyph glyph-name="section" unicode="&#xa7;" horiz-adv-x="913" 
d="M840 541q0 -104 -53.5 -191.5t-172.5 -163.5q50 -33 82.5 -63.5t51.5 -62t26.5 -66t7.5 -76.5q0 -64 -25 -118t-72 -93.5t-115 -61.5t-154 -22q-42 0 -84.5 7t-82 18.5t-74.5 26.5t-62 30q-31 16 -31 31q0 6 4.5 15.5t7.5 19.5l37 77q11 23 27.5 25t42.5 -12
q22 -13 50.5 -25.5t59 -22.5t61 -16t56.5 -6q78 0 121 33.5t43 89.5q0 29 -13 54t-41.5 51.5t-74 56.5t-111.5 69q-68 41 -119.5 79t-86 79.5t-52.5 89t-18 107.5q0 106 54 193t169 161q-45 30 -76 58.5t-50 58.5t-27.5 64t-8.5 75q0 64 24 116.5t67.5 90t105.5 58t137 20.5
q91 0 163 -21.5t120 -50.5q11 -5 18.5 -12t7.5 -17q0 -6 -4.5 -17t-7.5 -17l-37 -74q-12 -26 -27 -28.5t-42 11.5q-20 10 -44 20t-49.5 18t-51 13t-48.5 5q-62 0 -101.5 -30t-39.5 -81q0 -28 12 -51t39.5 -47.5t72 -53t109.5 -67.5q39 -24 70.5 -44t56.5 -38.5t45 -37
t37 -38.5q34 -40 52 -89t18 -107zM651 508q0 36 -11.5 66t-37.5 58.5t-68.5 58.5t-103.5 65q-77 -48 -121.5 -103t-44.5 -118q0 -39 12 -69t38 -57.5t68.5 -56.5t102.5 -67q35 21 65 46.5t52.5 53.5t35.5 59t13 64z" />
    <glyph glyph-name="dieresis" unicode="&#xa8;" horiz-adv-x="668" 
d="M594 1237q0 -42 -29 -71t-71 -29q-21 0 -39.5 8t-32 21.5t-21.5 31.5t-8 39t8 39t21.5 31.5t32 21.5t39.5 8q42 0 71 -29t29 -71zM276 1237q0 -42 -29 -71t-71 -29t-71 29t-29 71t29 71t71 29t71 -29t29 -71z" />
    <glyph glyph-name="copyright" unicode="&#xa9;" horiz-adv-x="1579" 
d="M1485 682q0 -98 -24 -189t-68.5 -170t-107 -144t-140 -111t-167 -71.5t-187.5 -25.5q-147 0 -274 51.5t-220.5 145.5t-147 225t-53.5 289q0 98 24.5 189t69 170t107 144t140 111t167 71.5t187.5 25.5t187.5 -25t167 -70.5t140 -109.5t107 -143t68.5 -171t24 -192z
M1348 684q0 120 -42 226t-117 185.5t-177.5 126t-223.5 46.5q-80 0 -152.5 -21t-135 -59.5t-113 -91.5t-86 -118t-55 -139.5t-19.5 -154.5q0 -81 19.5 -155.5t55 -140t86 -119.5t113 -92.5t135 -59.5t152.5 -21q121 0 223.5 46.5t177.5 126.5t117 187t42 228zM1059 373
q0 -11 -6.5 -18.5t-14.5 -12.5q-40 -25 -103 -43t-138 -18q-67 0 -126.5 21.5t-104.5 70t-71 127.5t-26 194q0 83 20 154.5t62 124t105.5 82.5t150.5 30q39 0 73 -5.5t61 -14t47 -17.5t32 -16q16 -13 16 -28q0 -12 -6 -21l-29 -55q-9 -14 -23.5 -18.5t-25.5 1.5
q-29 17 -66 30t-83 13q-54 0 -89 -24.5t-55 -63.5t-28 -87.5t-8 -96.5q0 -54 10 -103t31 -86t54.5 -59t80.5 -22q48 0 86.5 12t85.5 37q15 8 29.5 6t23.5 -21l31 -57q2 -5 3 -9t1 -7z" />
    <glyph glyph-name="ordfeminine" unicode="&#xaa;" horiz-adv-x="688" 
d="M590 768q0 -20 -10 -30.5t-33 -10.5h-58q-24 0 -34.5 10t-10.5 33v18q-35 -30 -84 -51.5t-108 -21.5q-44 0 -79.5 14t-61 39.5t-39 61t-13.5 77.5q0 75 35 120.5t89 70.5t118 33.5t123 9.5h12v47q0 15 -3 29t-12.5 25.5t-27.5 18.5t-49 7q-46 0 -89 -14t-77 -31
q-17 -10 -31 -8.5t-22 18.5l-25 55q-3 6 -5.5 12t-2.5 11q0 9 6.5 16t16.5 12q18 9 43 18.5t55.5 18t65.5 14t73 5.5q54 0 98 -10.5t75 -34t48 -61t17 -91.5v-430zM436 1028q-45 -1 -85 -6.5t-71 -19t-49 -35.5t-18 -56q0 -13 3.5 -26t12.5 -24t23.5 -18t36.5 -7
q32 0 66.5 16.5t56.5 36.5q14 11 19 23t5 32v84z" />
    <glyph glyph-name="guillemotleft" unicode="&#xab;" horiz-adv-x="1014" 
d="M924 156q0 -8 -6 -15.5t-15 -15.5l-61 -37q-13 -8 -20.5 -10t-12.5 -2q-17 0 -35 24l-272 342q-10 11 -14.5 22.5t-4.5 27.5q0 15 6.5 28t14.5 23l276 342q11 15 19 19.5t16 4.5t31 -12l55 -37q9 -6 16 -13.5t7 -17.5q0 -6 -4.5 -15.5t-12.5 -18.5l-215 -297l217 -310
q15 -20 15 -32zM532 156q0 -15 -22 -31l-61 -37q-11 -8 -19.5 -10t-11.5 -2q-17 0 -35 24l-272 342q-10 11 -14.5 22.5t-4.5 27.5q0 15 6.5 28t14.5 23l276 342q9 15 17.5 19.5t17.5 4.5q8 0 31 -12l55 -37q9 -6 15.5 -13.5t6.5 -17.5q0 -6 -5 -15.5t-11 -18.5l-217 -297
l219 -310q5 -9 9.5 -17.5t4.5 -14.5z" />
    <glyph glyph-name="logicalnot" unicode="&#xac;" horiz-adv-x="1055" 
d="M967 455q0 -26 -12.5 -37.5t-36.5 -11.5h-80q-25 0 -38.5 10.5t-13.5 36.5v282h-647q-26 0 -37.5 12.5t-11.5 36.5v76q0 25 10.5 37t36.5 12h781q27 0 38 -12t11 -37v-405v0z" />
    <glyph glyph-name="minus" unicode="&#x2212;" horiz-adv-x="1065" 
d="M977 641q0 -25 -10.5 -37t-38.5 -12h-789q-26 0 -37.5 12t-11.5 37v76q0 25 10.5 37t36.5 12h793q26 0 36.5 -12t10.5 -37v-76v0z" />
    <glyph glyph-name="registered" unicode="&#xae;" horiz-adv-x="1579" 
d="M1090 328q0 -14 -10 -20.5t-25 -6.5h-80q-20 0 -33 7.5t-24 29.5l-156 278h-90v-272q0 -20 -11.5 -31.5t-31.5 -11.5h-56q-43 0 -43 43v684q0 43 43 43h185q64 0 119 -10t96 -35.5t64.5 -70t23.5 -113.5q0 -43 -13 -77t-35 -59.5t-50.5 -42.5t-59.5 -26l174 -283
q5 -8 9 -14.5t4 -11.5zM918 838q0 35 -10.5 57.5t-33 35.5t-57 18t-82.5 5h-63v-221h73q91 0 132 23t41 82zM1485 682q0 -98 -24 -189t-68.5 -170t-107 -144t-140 -111t-167 -71.5t-187.5 -25.5t-187.5 25t-167 70.5t-140 109.5t-107 143t-69 171t-24.5 192q0 98 24.5 189
t69 170t107 144t140 111t167 71.5t187.5 25.5t187.5 -25t167 -70.5t140 -109.5t107 -143t68.5 -171t24 -192zM1348 684q0 120 -42 226t-117 185.5t-177.5 126t-223.5 46.5q-80 0 -152.5 -21t-135 -59.5t-113 -91.5t-86 -118t-55 -139.5t-19.5 -154.5q0 -81 19.5 -155.5
t55 -140t86 -119.5t113 -92.5t135 -59.5t152.5 -21q121 0 223.5 46.5t177.5 126.5t117 187t42 228z" />
    <glyph glyph-name="macron" unicode="&#xaf;" horiz-adv-x="674" 
d="M639 1208q0 -20 -10.5 -32.5t-32.5 -12.5h-512q-23 0 -35 12t-12 33v56q0 21 11 33t34 12h514q22 0 32.5 -12t10.5 -33v-56v0z" />
    <glyph glyph-name="degree" unicode="&#xb0;" horiz-adv-x="707" 
d="M616 1130q0 -55 -20.5 -103t-56 -84t-83 -56.5t-102.5 -20.5q-56 0 -104 20.5t-83 56.5t-55 84t-20 103q0 56 20.5 104.5t56 84t83.5 56t102 20.5q57 0 105 -20.5t83 -56t54.5 -84t19.5 -104.5zM494 1130q0 30 -10.5 56t-29 45t-44 30t-56.5 11t-57 -11t-44.5 -30
t-29 -45t-10.5 -56q0 -29 11 -54.5t29.5 -45t44.5 -30.5t56 -11q31 0 56.5 11t44 30t29 44.5t10.5 55.5z" />
    <glyph glyph-name="plusminus" unicode="&#xb1;" horiz-adv-x="1055" 
d="M967 760q0 -25 -10.5 -37t-36.5 -12h-299v-289q0 -26 -12.5 -37.5t-37.5 -11.5h-79q-25 0 -38.5 10.5t-13.5 36.5v291h-301q-26 0 -37.5 12t-11.5 37v76q0 24 10.5 36.5t36.5 12.5h303v289q0 26 13.5 36.5t38.5 10.5h77q25 0 38.5 -11t13.5 -39v-286h299q26 0 36.5 -12.5
t10.5 -36.5v-76zM967 106q0 -24 -10.5 -36.5t-36.5 -12.5h-781q-26 0 -37.5 12.5t-11.5 36.5v76q0 25 10.5 37t36.5 12h783q26 0 36.5 -12t10.5 -37v-76z" />
    <glyph glyph-name="twosuperior" unicode="&#xb2;" horiz-adv-x="696" 
d="M627 686q0 -22 -10.5 -30.5t-30.5 -8.5h-477q-41 0 -41 37v49q0 14 6 24t18 21q28 25 62.5 55.5t69.5 61t67 59t53 50.5q28 27 47 49t29.5 41.5t15 36.5t4.5 34q0 48 -30.5 73.5t-85.5 25.5q-26 0 -50 -4.5t-45 -11t-38 -14t-29 -13.5q-23 -13 -37 -10t-25 22l-20 43
q-3 6 -5.5 11.5t-2.5 10.5q0 10 5.5 19t20.5 18q17 9 40.5 19.5t54.5 19.5t68.5 15t82.5 6q66 0 115 -17.5t81 -47.5t48 -70t16 -84q0 -39 -13 -74.5t-34 -67.5t-48 -61.5t-54 -57.5q-15 -15 -35.5 -32t-42.5 -34.5l-44 -35t-40 -33.5h291q43 0 43 -41v-53v0z" />
    <glyph glyph-name="threesuperior" unicode="&#xb3;" horiz-adv-x="705" 
d="M616 858q0 -53 -20.5 -96.5t-58 -75t-89.5 -48.5t-116 -17q-69 0 -130.5 16t-103.5 41q-11 6 -19.5 15.5t-8.5 23.5q0 6 2.5 12t7.5 14l20 37q13 25 29 28t39 -9q34 -17 71.5 -30t90.5 -13q59 0 90 27t31 75q0 27 -10 46t-27.5 31t-40.5 17.5t-49 5.5h-58q-23 0 -37 11.5
t-14 36.5v41q0 21 12.5 33t38.5 12h60q24 0 44.5 6t36 17.5t24.5 28t9 38.5q0 42 -33 60t-85 18q-42 0 -77.5 -12t-66.5 -27q-21 -11 -37 -10t-30 26q-2 2 -5.5 8.5t-7.5 13t-7.5 13t-4.5 8.5q-6 12 -6 25q0 12 9 21t22 17q11 8 33 17t51.5 17t65 13t73.5 5q60 0 109.5 -13
t85.5 -38t55.5 -61.5t19.5 -84.5q0 -24 -6.5 -48.5t-21.5 -46.5t-39 -40.5t-58 -30.5q37 -10 63 -27.5t42.5 -40.5t24 -50.5t7.5 -55.5z" />
    <glyph glyph-name="acute" unicode="&#xb4;" horiz-adv-x="668" 
d="M592 1354q0 -10 -5 -17t-18 -18l-202 -180q-19 -17 -34.5 -24t-41.5 -7h-82q-21 0 -21 14q0 9 13 29l131 172q19 29 38.5 36t51.5 7h143q27 0 27 -12z" />
    <glyph glyph-name="mu" unicode="&#xb5;" horiz-adv-x="995" 
d="M877 57q0 -57 -56 -57h-71q-34 0 -47 14.5t-13 40.5v101q-24 -36 -55.5 -67t-67 -54.5t-74.5 -37t-79 -13.5q-63 0 -99 26v-327q0 -28 -12.5 -42t-44.5 -14h-86q-55 0 -55 58v1255q0 55 55 55h90q53 0 53 -57v-666q0 -25 10.5 -44t27.5 -32t37.5 -19.5t41.5 -6.5
q51 0 104 30t97 81q14 16 22.5 30t13.5 30t7 35.5t2 47.5v512q0 29 12 44t49 15h78q34 0 47 -14.5t13 -42.5v-881v0z" />
    <glyph glyph-name="paragraph" unicode="&#xb6;" horiz-adv-x="1208" 
d="M1180 1241q0 -23 -10.5 -36t-36.5 -13h-105v-1514q0 -24 -12 -37.5t-37 -13.5h-66q-24 0 -36.5 13.5t-12.5 37.5v1514h-133v-1514q0 -24 -12 -37.5t-37 -13.5h-66q-24 0 -37.5 13.5t-13.5 37.5v824q-50 -8 -79 -10.5t-58 -2.5q-87 0 -157 32.5t-119 90t-75 138t-26 176.5
q0 101 32.5 182.5t97 138.5t160.5 88t222 31h572q24 0 34.5 -13t10.5 -36v-76v0z" />
    <glyph glyph-name="periodcentered" unicode="&#xb7;" horiz-adv-x="471" 
d="M362 684q0 -27 -9.5 -50t-26.5 -40.5t-40 -27t-50 -9.5q-26 0 -49.5 9.5t-40.5 27t-27 40.5t-10 50q0 26 10 49t27 40t40.5 26.5t49.5 9.5q27 0 50 -9.5t40 -26.5t26.5 -40t9.5 -49z" />
    <glyph glyph-name="cedilla" unicode="&#xb8;" horiz-adv-x="621" 
d="M514 -215q0 -43 -17.5 -75.5t-49 -54t-75.5 -32t-98 -10.5q-42 0 -79.5 4.5t-77.5 20.5q-14 6 -21.5 12.5t-7.5 17.5q0 3 1 7.5t3 9.5l25 55q6 15 16 17.5t29 -5.5q28 -9 55.5 -13.5t50.5 -4.5q42 0 67 10.5t25 38.5t-19 40t-56 15q-14 2 -26 3t-28 1q-24 -2 -37.5 4.5
t-13.5 26.5q0 8 6 25l47 116h140l-31 -86q14 0 21.5 -1t15.5 -3q28 -5 53 -15t43 -27t28.5 -41t10.5 -56z" />
    <glyph glyph-name="onesuperior" unicode="&#xb9;" horiz-adv-x="696" 
d="M455 686q0 -41 -47 -41h-68q-47 0 -47 41v541l-113 -37q-20 -6 -33.5 -3t-21.5 23l-19 45q-6 16 -6 25q0 14 9 22.5t26 14.5l180 65q17 8 31.5 10.5t28.5 2.5h33q47 0 47 -45v-664v0z" />
    <glyph glyph-name="ordmasculine" unicode="&#xba;" horiz-adv-x="702" 
d="M645 1057q0 -61 -16 -122t-51.5 -110t-91.5 -79.5t-136 -30.5q-78 0 -133 30t-90 78t-51.5 109.5t-16.5 124.5q0 62 16.5 122.5t52 108.5t90.5 77.5t132 29.5q80 0 136 -30t91.5 -78t51.5 -108.5t16 -121.5zM487 1055q0 37 -6 74.5t-21 67.5t-41.5 48.5t-68.5 18.5
q-40 0 -65.5 -18.5t-40.5 -48.5t-21 -67.5t-6 -74.5q0 -38 6 -75.5t21.5 -67t41 -48t64.5 -18.5q42 0 68.5 18.5t41.5 48.5t21 67.5t6 74.5z" />
    <glyph glyph-name="guillemotright" unicode="&#xbb;" horiz-adv-x="1014" 
d="M924 494q0 -16 -5.5 -28.5t-13.5 -23.5l-276 -342q-20 -24 -35 -24q-5 0 -12.5 2t-20.5 10l-55 37q-23 16 -23 31q0 6 5 14.5t10 17.5l219 299l-217 308q-6 9 -11.5 18.5t-5.5 15.5q0 10 7 17.5t16 13.5l61 37q22 12 31 12q8 0 16 -4.5t19 -19.5l272 -342q8 -10 13.5 -22
t5.5 -27zM532 494q0 -16 -5.5 -28.5t-14.5 -23.5l-274 -342q-23 -24 -37 -24q-3 0 -11.5 2t-19.5 10l-57 37q-21 16 -21 31q0 6 4 14.5t10 17.5l218 299l-215 308q-8 9 -12.5 18.5t-4.5 15.5q0 10 6.5 17.5t16.5 13.5l59 37q11 6 19.5 9t11.5 3q9 0 17 -4.5t18 -19.5
l274 -342q8 -10 13 -22t5 -27z" />
    <glyph glyph-name="onequarter" unicode="&#xbc;" horiz-adv-x="1561" 
d="M446 686q0 -41 -47 -41h-67q-47 0 -47 41v541l-113 -37q-20 -6 -33.5 -3t-21.5 23l-19 45q-6 16 -6 25q0 25 35 37l180 65q17 8 31 10.5t27 2.5h34q47 0 47 -45v-664zM1163 1374q0 -9 -2 -17.5t-8 -21.5l-657 -1327q-14 -31 -30 -44t-36 -13h-80q-15 0 -24 5.5t-9 16.5
q0 10 3.5 18t9.5 19l657 1329q14 28 29.5 42t38.5 14h80q12 0 20 -6.5t8 -14.5zM1473 186q0 -45 -48 -45h-51v-127q0 -43 -47 -43h-61q-45 0 -45 43v127h-338q-22 0 -33.5 10.5t-11.5 34.5v41q0 27 20 54l340 405q12 16 27.5 25.5t38.5 9.5h63q47 0 47 -45v-410h51
q22 0 35 -10t13 -33v-37zM1227 520l-219 -254h213z" />
    <glyph glyph-name="onehalf" unicode="&#xbd;" horiz-adv-x="1561" 
d="M1487 39q0 -22 -10.5 -30.5t-32.5 -8.5h-477q-22 0 -30.5 9.5t-8.5 29.5v47q0 14 5.5 24t16.5 21q28 25 63 56t70.5 61.5t67.5 58.5t53 49q28 27 46.5 49.5t29 42t14.5 36.5t4 34q0 48 -30 73t-84 25q-26 0 -50 -4.5t-45.5 -11t-39 -14t-29.5 -13.5q-23 -12 -35.5 -9
t-23.5 22l-23 43q-3 6 -5.5 11.5t-2.5 10.5q0 10 6.5 19.5t21.5 17.5q16 9 39.5 19.5t54 19.5t68 15t82.5 6q66 0 115 -17.5t81 -47.5t48 -70t16 -85q0 -38 -12.5 -73t-33.5 -67t-48 -61.5t-55 -56.5q-15 -16 -35.5 -33.5t-42 -35t-43.5 -35t-41 -33.5h293q20 0 31.5 -9.5
t11.5 -31.5v-53zM1141 1374q0 -9 -2 -17.5t-9 -21.5l-655 -1327q-15 -31 -31 -44t-36 -13h-80q-14 0 -23.5 5.5t-9.5 16.5q0 10 4 18t10 19l656 1329q14 28 29 42t38 14h80q12 0 20.5 -6.5t8.5 -14.5zM455 686q0 -41 -47 -41h-66q-47 0 -47 41v541l-115 -37q-20 -6 -33 -3
t-22 23l-16 45q-7 15 -7 25q0 14 9 22.5t26 14.5l178 65q33 13 60 13h35q45 0 45 -45v-664z" />
    <glyph glyph-name="threequarters" unicode="&#xbe;" horiz-adv-x="1561" 
d="M602 858q0 -53 -20.5 -96.5t-58 -75t-90 -48.5t-116.5 -17q-69 0 -130 16t-103 41q-11 6 -20 15.5t-9 23.5q0 10 11 26l20 37q12 25 28.5 28t39.5 -9q34 -17 71.5 -30t89.5 -13q59 0 90 27t31 75q0 27 -10 46t-27.5 31t-40.5 17.5t-49 5.5h-57q-23 0 -37 11.5t-14 36.5
v41q0 21 12.5 33t38.5 12h59q48 0 81.5 23t33.5 67q0 42 -33 60t-86 18q-42 0 -77 -12t-66 -27q-22 -11 -38 -10t-30 26q-2 2 -5 8.5t-7 13t-7.5 13t-4.5 8.5q-6 12 -6 25q0 12 9 21t21 17t34.5 17t52 17t64 13t72.5 5q60 0 110 -13t85.5 -38t55.5 -61.5t20 -84.5
q0 -24 -6.5 -48.5t-21.5 -46.5t-39 -40.5t-58 -30.5q37 -10 63 -27.5t42.5 -40.5t24 -50.5t7.5 -55.5zM1206 1374q0 -9 -3 -17.5t-9 -21.5l-655 -1327q-16 -31 -31 -44t-35 -13h-82q-14 0 -22.5 5.5t-8.5 16.5q0 10 3.5 18t9.5 19l655 1329q16 28 30.5 42t39.5 14h80
q12 0 20 -6.5t8 -14.5zM1481 186q0 -23 -12 -34t-33 -11h-54v-127q0 -43 -47 -43h-59q-47 0 -47 43v127h-336q-22 0 -33.5 10.5t-11.5 34.5v41q0 27 20 54l340 405q13 16 28 25.5t38 9.5h61q47 0 47 -45v-410h54q21 0 33 -10t12 -33v-37zM1235 520l-217 -254h211z" />
    <glyph glyph-name="questiondown" unicode="&#xbf;" horiz-adv-x="827" 
d="M590 885q0 -26 -10 -49.5t-27.5 -40.5t-40.5 -27t-49 -10t-49.5 10t-40.5 27t-27 40.5t-10 49.5t10 49t27 40.5t40.5 27.5t49.5 10t49 -10t40.5 -27.5t27.5 -40.5t10 -49zM819 -244q0 -9 -9 -17t-26 -18q-31 -18 -69 -36.5t-83.5 -33.5t-98.5 -24.5t-113 -9.5
q-88 0 -153.5 24t-109 65t-65.5 97t-22 121q0 55 14.5 99.5t38.5 82.5t56.5 71.5t68.5 66.5q36 34 62 58.5t42.5 50t24.5 59.5t8 88v35q0 37 13 50t38 13h70q22 0 35.5 -13.5t13.5 -52.5v-98q0 -53 -13.5 -94t-36.5 -75t-53 -63.5t-63 -60.5q-26 -23 -49 -45.5t-40 -47
t-26.5 -53t-9.5 -63.5q0 -29 9.5 -54.5t30 -44t53 -29.5t79.5 -11q33 0 67.5 8t67.5 20.5t63.5 27.5t55.5 30q29 19 45.5 17.5t30.5 -27.5l41 -74q5 -9 8.5 -21t3.5 -18z" />
    <glyph glyph-name="Agrave" unicode="&#xc0;" horiz-adv-x="1151" 
d="M1137 31q0 -16 -11 -23.5t-28 -7.5h-125q-23 0 -36.5 11.5t-21.5 37.5l-86 256h-516l-88 -254q-8 -28 -21 -39.5t-38 -11.5h-111q-17 0 -28 8t-11 21q0 14 2.5 22t6.5 19l440 1261q9 26 23 37.5t40 11.5h97q26 0 40 -11.5t23 -37.5l438 -1259q5 -11 8 -20.5t3 -20.5z
M571 1073l-198 -590h395zM693 1487q0 -14 -20 -14h-82q-26 0 -41.5 7t-34.5 24l-203 180q-12 11 -17 18t-5 17q0 12 26 12h144q32 0 51 -7t39 -36l131 -172q5 -9 8.5 -16.5t3.5 -12.5z" />
    <glyph glyph-name="Aacute" unicode="&#xc1;" horiz-adv-x="1151" 
d="M1137 31q0 -16 -11 -23.5t-28 -7.5h-125q-23 0 -36.5 11.5t-21.5 37.5l-86 256h-516l-88 -254q-8 -28 -21 -39.5t-38 -11.5h-111q-17 0 -28 8t-11 21q0 14 2.5 22t6.5 19l440 1261q9 26 23 37.5t40 11.5h97q26 0 40 -11.5t23 -37.5l438 -1259q5 -11 8 -20.5t3 -20.5z
M571 1073l-198 -590h395zM847 1719q0 -10 -5 -17t-18 -18l-202 -180q-19 -17 -34.5 -24t-41.5 -7h-82q-21 0 -21 14q0 9 13 29l131 172q19 29 38.5 36t51.5 7h143q27 0 27 -12z" />
    <glyph glyph-name="Acircumflex" unicode="&#xc2;" horiz-adv-x="1151" 
d="M1137 31q0 -16 -11 -23.5t-28 -7.5h-125q-23 0 -36.5 11.5t-21.5 37.5l-86 256h-516l-88 -254q-8 -28 -21 -39.5t-38 -11.5h-111q-17 0 -28 8t-11 21q0 14 2.5 22t6.5 19l440 1261q9 26 23 37.5t40 11.5h97q26 0 40 -11.5t23 -37.5l438 -1259q5 -11 8 -20.5t3 -20.5z
M571 1073l-198 -590h395zM873 1487q0 -14 -23 -14h-84q-14 0 -23.5 1t-17.5 4.5t-16.5 9.5t-19.5 16l-121 104l-121 -104q-23 -20 -37.5 -25.5t-40.5 -5.5h-70q-20 0 -20 14q0 5 4 12t10 15l140 174q21 26 37.5 34.5t43.5 8.5h121q23 0 40.5 -6.5t39.5 -34.5l141 -176
q17 -19 17 -27z" />
    <glyph glyph-name="Atilde" unicode="&#xc3;" horiz-adv-x="1151" 
d="M1137 31q0 -16 -11 -23.5t-28 -7.5h-125q-23 0 -36.5 11.5t-21.5 37.5l-86 256h-516l-88 -254q-8 -28 -21 -39.5t-38 -11.5h-111q-17 0 -28 8t-11 21q0 14 2.5 22t6.5 19l440 1261q9 26 23 37.5t40 11.5h97q26 0 40 -11.5t23 -37.5l438 -1259q5 -11 8 -20.5t3 -20.5z
M571 1073l-198 -590h395zM889 1687q0 -8 -2.5 -27t-9.5 -43t-19 -49t-30.5 -46t-45.5 -34.5t-63 -13.5q-39 0 -75 13.5t-68.5 30t-60 30.5t-48.5 14q-32 0 -44.5 -18.5t-18.5 -44.5q-4 -13 -9 -19t-22 -6h-62q-22 0 -22 23q0 9 2.5 28t9 42.5t18.5 49t31 46t45.5 34
t63.5 13.5t73 -14t69 -30.5t61 -30t49 -13.5q17 0 28.5 6.5t18.5 16t10.5 20.5t5.5 20q3 14 9.5 19.5t17.5 5.5h67q21 0 21 -23z" />
    <glyph glyph-name="Adieresis" unicode="&#xc4;" horiz-adv-x="1151" 
d="M1137 31q0 -16 -11 -23.5t-28 -7.5h-125q-23 0 -36.5 11.5t-21.5 37.5l-86 256h-516l-88 -254q-8 -28 -21 -39.5t-38 -11.5h-111q-17 0 -28 8t-11 21q0 14 2.5 22t6.5 19l440 1261q9 26 23 37.5t40 11.5h97q26 0 40 -11.5t23 -37.5l438 -1259q5 -11 8 -20.5t3 -20.5z
M571 1073l-198 -590h395zM832 1585q0 -42 -29 -71t-71 -29q-21 0 -39.5 8t-32 21.5t-21.5 31.5t-8 39t8 39t21.5 31.5t32 21.5t39.5 8q42 0 71 -29t29 -71zM514 1585q0 -42 -29 -71t-71 -29t-71 29t-29 71t29 71t71 29t71 -29t29 -71z" />
    <glyph glyph-name="Aring" unicode="&#xc5;" horiz-adv-x="1151" 
d="M1137 31q0 -16 -11 -23.5t-28 -7.5h-125q-23 0 -36.5 11.5t-21.5 37.5l-86 256h-516l-88 -254q-8 -28 -21 -39.5t-38 -11.5h-111q-17 0 -28 8t-11 21q0 14 2.5 22t6.5 19l440 1261q9 26 23 37.5t40 11.5h97q26 0 40 -11.5t23 -37.5l438 -1259q5 -11 8 -20.5t3 -20.5z
M571 1073l-198 -590h395zM743 1625q0 -35 -13.5 -66t-36.5 -53.5t-54 -35.5t-66 -13q-37 0 -67.5 13t-53 35.5t-35 53.5t-12.5 66t13 65.5t35.5 53t53.5 35t66 12.5q37 0 68.5 -12.5t54 -35t35 -53t12.5 -65.5zM657 1625q0 37 -24.5 61.5t-59.5 24.5t-58.5 -24.5
t-25.5 -61.5q0 -18 7 -34t18.5 -28t26.5 -19t32 -7q18 0 33 7t26.5 19t18 28t6.5 34z" />
    <glyph glyph-name="AE" unicode="&#xc6;" horiz-adv-x="1542" 
d="M1473 53q0 -53 -54 -53h-659q-51 0 -51 55v279h-359l-121 -283q-11 -26 -24 -38.5t-35 -12.5h-113q-43 0 -43 29q0 6 2 18t7 23l530 1233q15 34 31 48.5t47 14.5h766q25 0 39 -13.5t14 -39.5v-74q0 -53 -53 -53h-482v-383h402q53 0 53 -53v-74q0 -53 -53 -53h-402v-433
h504q54 0 54 -53v-84zM709 1171h-11l-274 -657h285v657z" />
    <glyph glyph-name="Ccedilla" unicode="&#xc7;" horiz-adv-x="1061" 
d="M1024 109q0 -10 -5.5 -17t-21.5 -16q-27 -17 -66 -35t-86 -33t-102.5 -25.5t-115.5 -11.5l-19 -53q13 0 20 -1t15 -3q28 -5 53 -15t43 -27t28.5 -41t10.5 -56q0 -43 -17 -75.5t-48.5 -54t-75.5 -32t-98 -10.5q-42 0 -80 4.5t-76 21.5q-14 5 -22.5 11.5t-8.5 17.5
q0 3 1 7.5t3 10.5l25 54q6 17 17 18.5t28 -4.5q28 -9 55.5 -14.5t50.5 -5.5q42 0 67.5 11.5t25.5 39.5q0 26 -19.5 39t-56.5 16q-13 2 -25.5 2h-27.5q-23 0 -36.5 6.5t-13.5 26.5q0 8 7 22l39 97q-86 18 -162 64t-133.5 131t-91 213t-33.5 308q0 144 33 271t101 221
t171 148.5t244 54.5q65 0 120 -10t98.5 -24t75 -29.5t50.5 -26.5q12 -8 16 -15.5t4 -13.5t-1 -13t-9 -20l-49 -100q-10 -17 -25 -22t-29 3q-14 9 -39 23t-58.5 26.5t-73.5 21.5t-85 9q-65 0 -114 -22.5t-84.5 -60.5t-59.5 -89.5t-38.5 -110t-20.5 -120.5t-6 -121
q0 -100 18 -193.5t56 -165.5t97 -115.5t142 -43.5q47 0 90.5 7t83.5 24q42 15 69 30t52 31q39 19 55 -10l58 -109l6.5 -13t3.5 -13z" />
    <glyph glyph-name="Egrave" unicode="&#xc8;" 
d="M936 53q0 -26 -14.5 -39.5t-40.5 -13.5h-680q-54 0 -54 55v1256q0 55 54 55h657q25 0 40 -13.5t15 -39.5v-74q0 -53 -55 -53h-502v-383h422q26 0 41 -13.5t15 -39.5v-74q0 -26 -15 -39.5t-41 -13.5h-422v-433h525q26 0 40.5 -13.5t14.5 -39.5v-84v0zM659 1487
q0 -14 -20 -14h-82q-26 0 -41.5 7t-34.5 24l-203 180q-12 11 -17 18t-5 17q0 12 26 12h144q32 0 51 -7t39 -36l131 -172q5 -9 8.5 -16.5t3.5 -12.5z" />
    <glyph glyph-name="Eacute" unicode="&#xc9;" 
d="M936 53q0 -26 -14.5 -39.5t-40.5 -13.5h-680q-54 0 -54 55v1256q0 55 54 55h657q25 0 40 -13.5t15 -39.5v-74q0 -53 -55 -53h-502v-383h422q26 0 41 -13.5t15 -39.5v-74q0 -26 -15 -39.5t-41 -13.5h-422v-433h525q26 0 40.5 -13.5t14.5 -39.5v-84v0zM782 1719
q0 -10 -5 -17t-18 -18l-202 -180q-19 -17 -34.5 -24t-41.5 -7h-82q-21 0 -21 14q0 9 13 29l131 172q19 29 38.5 36t51.5 7h143q27 0 27 -12z" />
    <glyph glyph-name="Ecircumflex" unicode="&#xca;" 
d="M936 53q0 -26 -14.5 -39.5t-40.5 -13.5h-680q-54 0 -54 55v1256q0 55 54 55h657q25 0 40 -13.5t15 -39.5v-74q0 -53 -55 -53h-502v-383h422q26 0 41 -13.5t15 -39.5v-74q0 -26 -15 -39.5t-41 -13.5h-422v-433h525q26 0 40.5 -13.5t14.5 -39.5v-84v0zM822 1487
q0 -14 -23 -14h-84q-14 0 -23.5 1t-17.5 4.5t-16.5 9.5t-19.5 16l-121 104l-121 -104q-23 -20 -37.5 -25.5t-40.5 -5.5h-70q-20 0 -20 14q0 5 4 12t10 15l140 174q21 26 37.5 34.5t43.5 8.5h121q23 0 40.5 -6.5t39.5 -34.5l141 -176q17 -19 17 -27z" />
    <glyph glyph-name="Edieresis" unicode="&#xcb;" 
d="M936 53q0 -26 -14.5 -39.5t-40.5 -13.5h-680q-54 0 -54 55v1256q0 55 54 55h657q25 0 40 -13.5t15 -39.5v-74q0 -53 -55 -53h-502v-383h422q26 0 41 -13.5t15 -39.5v-74q0 -26 -15 -39.5t-41 -13.5h-422v-433h525q26 0 40.5 -13.5t14.5 -39.5v-84v0zM780 1585
q0 -42 -29 -71t-71 -29q-21 0 -39.5 8t-32 21.5t-21.5 31.5t-8 39t8 39t21.5 31.5t32 21.5t39.5 8q42 0 71 -29t29 -71zM462 1585q0 -42 -29 -71t-71 -29t-71 29t-29 71t29 71t71 29t71 -29t29 -71z" />
    <glyph glyph-name="Igrave" unicode="&#xcc;" horiz-adv-x="502" 
d="M356 55q0 -55 -53 -55h-102q-54 0 -54 55v1256q0 55 54 55h102q53 0 53 -55v-1256v0zM377 1487q0 -14 -20 -14h-82q-26 0 -41.5 7t-34.5 24l-203 180q-12 11 -17 18t-5 17q0 12 26 12h144q32 0 51 -7t39 -36l131 -172q5 -9 8.5 -16.5t3.5 -12.5z" />
    <glyph glyph-name="Iacute" unicode="&#xcd;" horiz-adv-x="502" 
d="M356 55q0 -55 -53 -55h-102q-54 0 -54 55v1256q0 55 54 55h102q53 0 53 -55v-1256v0zM524 1719q0 -10 -5 -17t-18 -18l-202 -180q-19 -17 -34.5 -24t-41.5 -7h-82q-21 0 -21 14q0 9 13 29l131 172q19 29 38.5 36t51.5 7h143q27 0 27 -12z" />
    <glyph glyph-name="Icircumflex" unicode="&#xce;" horiz-adv-x="502" 
d="M356 55q0 -55 -53 -55h-102q-54 0 -54 55v1256q0 55 54 55h102q53 0 53 -55v-1256v0zM551 1487q0 -14 -23 -14h-84q-14 0 -23.5 1t-17.5 4.5t-16.5 9.5t-19.5 16l-121 104l-121 -104q-23 -20 -37.5 -25.5t-40.5 -5.5h-70q-20 0 -20 14q0 5 4 12t10 15l140 174
q21 26 37.5 34.5t43.5 8.5h121q23 0 40.5 -6.5t39.5 -34.5l141 -176q17 -19 17 -27z" />
    <glyph glyph-name="Idieresis" unicode="&#xcf;" horiz-adv-x="502" 
d="M356 55q0 -55 -53 -55h-102q-54 0 -54 55v1256q0 55 54 55h102q53 0 53 -55v-1256v0zM511 1585q0 -42 -29 -71t-71 -29q-21 0 -39.5 8t-32 21.5t-21.5 31.5t-8 39t8 39t21.5 31.5t32 21.5t39.5 8q42 0 71 -29t29 -71zM193 1585q0 -42 -29 -71t-71 -29t-71 29t-29 71
t29 71t71 29t71 -29t29 -71z" />
    <glyph glyph-name="Eth" unicode="&#xd0;" horiz-adv-x="1167" 
d="M1092 670q0 -138 -35 -259.5t-110 -213t-192.5 -144.5t-283.5 -53h-268q-56 0 -56 55v561h-104q-26 0 -37.5 12.5t-11.5 37.5v86q0 24 10.5 36.5t36.5 12.5h106v510q0 55 56 55h284q172 0 288 -54t186.5 -148t100.5 -221t30 -273zM870 680q0 150 -29.5 248t-82.5 155.5
t-128.5 81t-166.5 23.5h-107v-387h185q26 0 36.5 -12.5t10.5 -36.5v-86q0 -25 -11 -37.5t-38 -12.5h-183v-430h107q109 0 186.5 32t126.5 95t71.5 155t22.5 212z" />
    <glyph glyph-name="Ntilde" unicode="&#xd1;" horiz-adv-x="1235" 
d="M1090 55q0 -55 -54 -55h-102q-26 0 -41 11t-29 36l-516 932v-924q0 -28 -14 -41.5t-39 -13.5h-94q-54 0 -54 55v1256q0 26 14.5 40.5t39.5 14.5h118q25 0 40.5 -10.5t29.5 -36.5l502 -903v895q0 55 51 55h94q54 0 54 -55v-1256v0zM911 1687q0 -8 -2.5 -27t-9.5 -43
t-19 -49t-30.5 -46t-45.5 -34.5t-63 -13.5q-39 0 -75 13.5t-68.5 30t-60 30.5t-48.5 14q-32 0 -44.5 -18.5t-18.5 -44.5q-4 -13 -9 -19t-22 -6h-62q-22 0 -22 23q0 9 2.5 28t9 42.5t18.5 49t31 46t45.5 34t63.5 13.5t73 -14t69 -30.5t61 -30t49 -13.5q17 0 28.5 6.5t18.5 16
t10.5 20.5t5.5 20q3 14 9.5 19.5t17.5 5.5h67q21 0 21 -23z" />
    <glyph glyph-name="Ograve" unicode="&#xd2;" horiz-adv-x="1155" 
d="M1077 682q0 -81 -8.5 -165t-30 -163t-58 -149t-91.5 -122t-131.5 -82t-177.5 -30q-102 0 -179.5 30t-133 82t-92 122t-58.5 149t-30.5 163t-8.5 165t8.5 166t30.5 164t58 149t92 122t132.5 82t178.5 30t179 -30t132.5 -82t91.5 -122t57.5 -149t30 -164t8.5 -166zM858 682
q0 50 -3.5 108t-13.5 116t-29 111.5t-50 95t-75.5 66.5t-106.5 25q-63 0 -108 -25t-76 -66.5t-50 -95t-29.5 -111.5t-14 -116t-3.5 -108t3.5 -107.5t14 -115.5t29.5 -111.5t50 -95t76 -66t108 -24.5q62 0 106.5 25t75.5 66t50 95t29 111.5t13.5 115.5t3.5 107zM698 1487
q0 -14 -20 -14h-82q-26 0 -41.5 7t-34.5 24l-203 180q-12 11 -17 18t-5 17q0 12 26 12h144q32 0 51 -7t39 -36l131 -172q5 -9 8.5 -16.5t3.5 -12.5z" />
    <glyph glyph-name="Oacute" unicode="&#xd3;" horiz-adv-x="1155" 
d="M1077 682q0 -81 -8.5 -165t-30 -163t-58 -149t-91.5 -122t-131.5 -82t-177.5 -30q-102 0 -179.5 30t-133 82t-92 122t-58.5 149t-30.5 163t-8.5 165t8.5 166t30.5 164t58 149t92 122t132.5 82t178.5 30t179 -30t132.5 -82t91.5 -122t57.5 -149t30 -164t8.5 -166zM858 682
q0 50 -3.5 108t-13.5 116t-29 111.5t-50 95t-75.5 66.5t-106.5 25q-63 0 -108 -25t-76 -66.5t-50 -95t-29.5 -111.5t-14 -116t-3.5 -108t3.5 -107.5t14 -115.5t29.5 -111.5t50 -95t76 -66t108 -24.5q62 0 106.5 25t75.5 66t50 95t29 111.5t13.5 115.5t3.5 107zM840 1719
q0 -10 -5 -17t-18 -18l-202 -180q-19 -17 -34.5 -24t-41.5 -7h-82q-21 0 -21 14q0 9 13 29l131 172q19 29 38.5 36t51.5 7h143q27 0 27 -12z" />
    <glyph glyph-name="Ocircumflex" unicode="&#xd4;" horiz-adv-x="1155" 
d="M1077 682q0 -81 -8.5 -165t-30 -163t-58 -149t-91.5 -122t-131.5 -82t-177.5 -30q-102 0 -179.5 30t-133 82t-92 122t-58.5 149t-30.5 163t-8.5 165t8.5 166t30.5 164t58 149t92 122t132.5 82t178.5 30t179 -30t132.5 -82t91.5 -122t57.5 -149t30 -164t8.5 -166zM858 682
q0 50 -3.5 108t-13.5 116t-29 111.5t-50 95t-75.5 66.5t-106.5 25q-63 0 -108 -25t-76 -66.5t-50 -95t-29.5 -111.5t-14 -116t-3.5 -108t3.5 -107.5t14 -115.5t29.5 -111.5t50 -95t76 -66t108 -24.5q62 0 106.5 25t75.5 66t50 95t29 111.5t13.5 115.5t3.5 107zM874 1487
q0 -14 -23 -14h-84q-14 0 -23.5 1t-17.5 4.5t-16.5 9.5t-19.5 16l-121 104l-121 -104q-23 -20 -37.5 -25.5t-40.5 -5.5h-70q-20 0 -20 14q0 5 4 12t10 15l140 174q21 26 37.5 34.5t43.5 8.5h121q23 0 40.5 -6.5t39.5 -34.5l141 -176q17 -19 17 -27z" />
    <glyph glyph-name="Otilde" unicode="&#xd5;" horiz-adv-x="1155" 
d="M1077 682q0 -81 -8.5 -165t-30 -163t-58 -149t-91.5 -122t-131.5 -82t-177.5 -30q-102 0 -179.5 30t-133 82t-92 122t-58.5 149t-30.5 163t-8.5 165t8.5 166t30.5 164t58 149t92 122t132.5 82t178.5 30t179 -30t132.5 -82t91.5 -122t57.5 -149t30 -164t8.5 -166zM858 682
q0 50 -3.5 108t-13.5 116t-29 111.5t-50 95t-75.5 66.5t-106.5 25q-63 0 -108 -25t-76 -66.5t-50 -95t-29.5 -111.5t-14 -116t-3.5 -108t3.5 -107.5t14 -115.5t29.5 -111.5t50 -95t76 -66t108 -24.5q62 0 106.5 25t75.5 66t50 95t29 111.5t13.5 115.5t3.5 107zM883 1687
q0 -8 -2.5 -27t-9.5 -43t-19 -49t-30.5 -46t-45.5 -34.5t-63 -13.5q-39 0 -75 13.5t-68.5 30t-60 30.5t-48.5 14q-32 0 -44.5 -18.5t-18.5 -44.5q-4 -13 -9 -19t-22 -6h-62q-22 0 -22 23q0 9 2.5 28t9 42.5t18.5 49t31 46t45.5 34t63.5 13.5t73 -14t69 -30.5t61 -30
t49 -13.5q17 0 28.5 6.5t18.5 16t10.5 20.5t5.5 20q3 14 9.5 19.5t17.5 5.5h67q21 0 21 -23z" />
    <glyph glyph-name="Odieresis" unicode="&#xd6;" horiz-adv-x="1155" 
d="M1077 682q0 -81 -8.5 -165t-30 -163t-58 -149t-91.5 -122t-131.5 -82t-177.5 -30q-102 0 -179.5 30t-133 82t-92 122t-58.5 149t-30.5 163t-8.5 165t8.5 166t30.5 164t58 149t92 122t132.5 82t178.5 30t179 -30t132.5 -82t91.5 -122t57.5 -149t30 -164t8.5 -166zM858 682
q0 50 -3.5 108t-13.5 116t-29 111.5t-50 95t-75.5 66.5t-106.5 25q-63 0 -108 -25t-76 -66.5t-50 -95t-29.5 -111.5t-14 -116t-3.5 -108t3.5 -107.5t14 -115.5t29.5 -111.5t50 -95t76 -66t108 -24.5q62 0 106.5 25t75.5 66t50 95t29 111.5t13.5 115.5t3.5 107zM838 1585
q0 -42 -29 -71t-71 -29q-21 0 -39.5 8t-32 21.5t-21.5 31.5t-8 39t8 39t21.5 31.5t32 21.5t39.5 8q42 0 71 -29t29 -71zM520 1585q0 -42 -29 -71t-71 -29t-71 29t-29 71t29 71t71 29t71 -29t29 -71z" />
    <glyph glyph-name="multiply" unicode="&#xd7;" horiz-adv-x="1004" 
d="M881 418q16 -19 16 -33q0 -8 -4 -15.5t-12 -17.5l-56 -55q-18 -18 -32 -18q-8 0 -15 3.5t-16 12.5l-260 258l-256 -254q-20 -18 -31 -18q-15 0 -33 16l-55 55q-18 19 -18 33q0 16 14 33l260 256l-256 256q-9 8 -12.5 15t-3.5 13q0 8 3.5 16.5t12.5 16.5l55 56
q19 18 31 18q9 0 17.5 -3.5t17.5 -14.5l254 -252l258 256q9 9 16 12.5t15 3.5q14 0 32 -18l54 -56q9 -9 13.5 -15.5t4.5 -14.5t-3.5 -16t-14.5 -17l-254 -256z" />
    <glyph glyph-name="Oslash" unicode="&#xd8;" horiz-adv-x="1155" 
d="M1073 1374q0 -9 -3 -17.5t-9 -21.5l-94 -151q31 -53 52.5 -113.5t34 -125.5t18 -132t5.5 -131q0 -81 -8.5 -165t-30 -163t-58 -149t-91.5 -122t-131.5 -82t-177.5 -30q-96 0 -169.5 26t-127.5 73l-25 -41q-19 -31 -33 -44.5t-32 -13.5h-82q-31 0 -31 23q0 9 3 17.5
t11 21.5l92 151q-32 52 -52.5 112.5t-33 124.5t-17.5 130t-5 131q0 81 8.5 166t30.5 164t58 149t92 122t132.5 82t178.5 30q94 0 166 -26t126 -73l27 43q17 28 31 42t37 14h82q12 0 19 -6.5t7 -14.5zM858 682q0 60 -6 132.5t-25 141.5l-432 -704q31 -40 76.5 -65t108.5 -25
q62 0 106.5 25t75.5 66t50 95t29 111.5t13.5 115.5t3.5 107zM299 682q0 -59 5 -130.5t24 -139.5l430 702q-31 42 -74.5 66t-103.5 24q-63 0 -108 -25t-76 -66.5t-50 -95t-29.5 -111.5t-14 -116t-3.5 -108z" />
    <glyph glyph-name="Ugrave" unicode="&#xd9;" horiz-adv-x="1174" 
d="M1047 449q0 -125 -36.5 -215t-100.5 -148.5t-151 -86.5t-187 -28q-102 0 -184 32.5t-140 93.5t-89.5 147.5t-31.5 193.5v873q0 26 13.5 40.5t37.5 14.5h105q51 0 51 -55v-871q0 -70 19 -122t52.5 -86.5t79 -52t97.5 -17.5q53 0 100 16.5t82 51t55.5 87.5t20.5 127v867
q0 55 53 55h103q24 0 37.5 -13.5t13.5 -41.5v-862v0zM721 1487q0 -14 -20 -14h-82q-26 0 -41.5 7t-34.5 24l-203 180q-12 11 -17 18t-5 17q0 12 26 12h144q32 0 51 -7t39 -36l131 -172q5 -9 8.5 -16.5t3.5 -12.5z" />
    <glyph glyph-name="Uacute" unicode="&#xda;" horiz-adv-x="1174" 
d="M1047 449q0 -125 -36.5 -215t-100.5 -148.5t-151 -86.5t-187 -28q-102 0 -184 32.5t-140 93.5t-89.5 147.5t-31.5 193.5v873q0 26 13.5 40.5t37.5 14.5h105q51 0 51 -55v-871q0 -70 19 -122t52.5 -86.5t79 -52t97.5 -17.5q53 0 100 16.5t82 51t55.5 87.5t20.5 127v867
q0 55 53 55h103q24 0 37.5 -13.5t13.5 -41.5v-862v0zM855 1719q0 -10 -5 -17t-18 -18l-202 -180q-19 -17 -34.5 -24t-41.5 -7h-82q-21 0 -21 14q0 9 13 29l131 172q19 29 38.5 36t51.5 7h143q27 0 27 -12z" />
    <glyph glyph-name="Ucircumflex" unicode="&#xdb;" horiz-adv-x="1174" 
d="M1047 449q0 -125 -36.5 -215t-100.5 -148.5t-151 -86.5t-187 -28q-102 0 -184 32.5t-140 93.5t-89.5 147.5t-31.5 193.5v873q0 26 13.5 40.5t37.5 14.5h105q51 0 51 -55v-871q0 -70 19 -122t52.5 -86.5t79 -52t97.5 -17.5q53 0 100 16.5t82 51t55.5 87.5t20.5 127v867
q0 55 53 55h103q24 0 37.5 -13.5t13.5 -41.5v-862v0zM893 1487q0 -14 -23 -14h-84q-14 0 -23.5 1t-17.5 4.5t-16.5 9.5t-19.5 16l-121 104l-121 -104q-23 -20 -37.5 -25.5t-40.5 -5.5h-70q-20 0 -20 14q0 5 4 12t10 15l140 174q21 26 37.5 34.5t43.5 8.5h121q23 0 40.5 -6.5
t39.5 -34.5l141 -176q17 -19 17 -27z" />
    <glyph glyph-name="Udieresis" unicode="&#xdc;" horiz-adv-x="1174" 
d="M1047 449q0 -125 -36.5 -215t-100.5 -148.5t-151 -86.5t-187 -28q-102 0 -184 32.5t-140 93.5t-89.5 147.5t-31.5 193.5v873q0 26 13.5 40.5t37.5 14.5h105q51 0 51 -55v-871q0 -70 19 -122t52.5 -86.5t79 -52t97.5 -17.5q53 0 100 16.5t82 51t55.5 87.5t20.5 127v867
q0 55 53 55h103q24 0 37.5 -13.5t13.5 -41.5v-862v0zM853 1585q0 -42 -29 -71t-71 -29q-21 0 -39.5 8t-32 21.5t-21.5 31.5t-8 39t8 39t21.5 31.5t32 21.5t39.5 8q42 0 71 -29t29 -71zM535 1585q0 -42 -29 -71t-71 -29t-71 29t-29 71t29 71t71 29t71 -29t29 -71z" />
    <glyph glyph-name="Yacute" unicode="&#xdd;" horiz-adv-x="971" 
d="M995 1341q0 -6 -4.5 -18t-9.5 -23l-383 -749v-496q0 -55 -53 -55h-103q-51 0 -51 55v492l-395 756q-5 9 -8.5 19.5t-3.5 16.5q0 11 8 19t28 8h138q26 0 40.5 -11.5t26.5 -39.5l273 -545l268 545q12 25 27 38t43 13h120q17 0 28 -6t11 -19zM768 1719q0 -10 -5 -17t-18 -18
l-202 -180q-19 -17 -34.5 -24t-41.5 -7h-82q-21 0 -21 14q0 9 13 29l131 172q19 29 38.5 36t51.5 7h143q27 0 27 -12z" />
    <glyph glyph-name="Thorn" unicode="&#xde;" horiz-adv-x="1044" 
d="M1004 692q0 -111 -36.5 -188t-98.5 -126t-145 -71t-177 -22h-191v-230q0 -55 -53 -55h-102q-54 0 -54 55v1256q0 55 54 55h102q53 0 53 -55v-205h164q99 0 187 -19.5t154 -67t104.5 -127t38.5 -200.5zM786 688q0 69 -18 115.5t-55.5 74.5t-95 40t-136.5 12h-125v-471h142
q148 0 218 53.5t70 175.5z" />
    <glyph glyph-name="germandbls" unicode="&#xdf;" horiz-adv-x="1053" 
d="M997 274q0 -74 -25 -128.5t-70.5 -90.5t-108.5 -53.5t-138 -17.5q-27 0 -54 2.5t-52.5 6.5t-47.5 9.5t-38 11.5q-29 14 -29 31q0 8 1.5 13.5t4.5 13.5l31 88q9 24 27 24q6 0 14.5 -1.5t17.5 -6.5q9 -3 25 -7t35 -7t38 -5.5t34 -2.5q31 0 57.5 6t46 19.5t30.5 35t11 53.5
q0 28 -9.5 53.5t-31.5 51.5t-56.5 55t-84.5 64q-36 24 -67 48t-54 52.5t-36 62.5t-13 78q0 30 6 55.5t19.5 50.5t34.5 50.5t50 54.5q54 53 83.5 94t29.5 86q0 60 -45.5 95.5t-122.5 35.5q-46 0 -81 -11.5t-58 -37.5t-35 -68.5t-12 -103.5v-981q0 -25 -13 -39t-39 -14h-96
q-26 0 -38.5 14t-12.5 39v971q0 106 27 181.5t78 124t123.5 71t164.5 22.5q62 0 125 -15t111 -46q60 -37 89 -91.5t29 -111.5q0 -42 -8.5 -76.5t-24.5 -65.5t-39 -60t-52 -60q-27 -29 -46 -49.5t-30.5 -35.5t-17 -27t-5.5 -25q0 -21 6.5 -37t25.5 -34.5t52 -44t86 -64.5
q89 -68 133.5 -141t44.5 -165z" />
    <glyph glyph-name="agrave" unicode="&#xe0;" horiz-adv-x="924" 
d="M815 55q0 -24 -12 -39.5t-43 -15.5h-74q-31 0 -44 13t-13 44v56q-26 -26 -58 -49.5t-70 -41t-80.5 -28t-88.5 -10.5q-61 0 -111 20.5t-85.5 58t-55 89.5t-19.5 114q0 74 23 128.5t63 93t92.5 63t111 38.5t120 19t119.5 6h26v91q0 25 -5 49.5t-20.5 44t-45.5 31.5t-80 12
q-69 0 -133.5 -21t-114.5 -49q-17 -9 -33.5 -8.5t-25.5 20.5l-41 84q-8 15 -8 27q0 21 24 33q74 38 163.5 61t180.5 23q78 0 141 -15.5t106.5 -50t67 -89.5t23.5 -134v-668zM616 471q-65 -2 -128.5 -10.5t-113.5 -30.5t-81 -60t-31 -98q0 -22 6.5 -45.5t21.5 -43t38.5 -32
t58.5 -12.5q25 0 50.5 7.5t50.5 20.5t47 29t40 33q20 19 30.5 40t10.5 53v149zM604 1122q0 -14 -20 -14h-82q-26 0 -41.5 7t-34.5 24l-203 180q-12 11 -17 18t-5 17q0 12 26 12h144q32 0 51 -7t39 -36l131 -172q5 -9 8.5 -16.5t3.5 -12.5z" />
    <glyph glyph-name="aacute" unicode="&#xe1;" horiz-adv-x="924" 
d="M815 55q0 -24 -12 -39.5t-43 -15.5h-74q-31 0 -44 13t-13 44v56q-26 -26 -58 -49.5t-70 -41t-80.5 -28t-88.5 -10.5q-61 0 -111 20.5t-85.5 58t-55 89.5t-19.5 114q0 74 23 128.5t63 93t92.5 63t111 38.5t120 19t119.5 6h26v91q0 25 -5 49.5t-20.5 44t-45.5 31.5t-80 12
q-69 0 -133.5 -21t-114.5 -49q-17 -9 -33.5 -8.5t-25.5 20.5l-41 84q-8 15 -8 27q0 21 24 33q74 38 163.5 61t180.5 23q78 0 141 -15.5t106.5 -50t67 -89.5t23.5 -134v-668zM616 471q-65 -2 -128.5 -10.5t-113.5 -30.5t-81 -60t-31 -98q0 -22 6.5 -45.5t21.5 -43t38.5 -32
t58.5 -12.5q25 0 50.5 7.5t50.5 20.5t47 29t40 33q20 19 30.5 40t10.5 53v149zM754 1354q0 -10 -5 -17t-18 -18l-202 -180q-19 -17 -34.5 -24t-41.5 -7h-82q-21 0 -21 14q0 9 13 29l131 172q19 29 38.5 36t51.5 7h143q27 0 27 -12z" />
    <glyph glyph-name="acircumflex" unicode="&#xe2;" horiz-adv-x="924" 
d="M815 55q0 -24 -12 -39.5t-43 -15.5h-74q-31 0 -44 13t-13 44v56q-26 -26 -58 -49.5t-70 -41t-80.5 -28t-88.5 -10.5q-61 0 -111 20.5t-85.5 58t-55 89.5t-19.5 114q0 74 23 128.5t63 93t92.5 63t111 38.5t120 19t119.5 6h26v91q0 25 -5 49.5t-20.5 44t-45.5 31.5t-80 12
q-69 0 -133.5 -21t-114.5 -49q-17 -9 -33.5 -8.5t-25.5 20.5l-41 84q-8 15 -8 27q0 21 24 33q74 38 163.5 61t180.5 23q78 0 141 -15.5t106.5 -50t67 -89.5t23.5 -134v-668zM616 471q-65 -2 -128.5 -10.5t-113.5 -30.5t-81 -60t-31 -98q0 -22 6.5 -45.5t21.5 -43t38.5 -32
t58.5 -12.5q25 0 50.5 7.5t50.5 20.5t47 29t40 33q20 19 30.5 40t10.5 53v149zM768 1122q0 -14 -23 -14h-84q-14 0 -23.5 1t-17.5 4.5t-16.5 9.5t-19.5 16l-121 104l-121 -104q-23 -20 -37.5 -25.5t-40.5 -5.5h-70q-20 0 -20 14q0 5 4 12t10 15l140 174q21 26 37.5 34.5
t43.5 8.5h121q23 0 40.5 -6.5t39.5 -34.5l141 -176q17 -19 17 -27z" />
    <glyph glyph-name="atilde" unicode="&#xe3;" horiz-adv-x="924" 
d="M815 55q0 -24 -12 -39.5t-43 -15.5h-74q-31 0 -44 13t-13 44v56q-26 -26 -58 -49.5t-70 -41t-80.5 -28t-88.5 -10.5q-61 0 -111 20.5t-85.5 58t-55 89.5t-19.5 114q0 74 23 128.5t63 93t92.5 63t111 38.5t120 19t119.5 6h26v91q0 25 -5 49.5t-20.5 44t-45.5 31.5t-80 12
q-69 0 -133.5 -21t-114.5 -49q-17 -9 -33.5 -8.5t-25.5 20.5l-41 84q-8 15 -8 27q0 21 24 33q74 38 163.5 61t180.5 23q78 0 141 -15.5t106.5 -50t67 -89.5t23.5 -134v-668zM616 471q-65 -2 -128.5 -10.5t-113.5 -30.5t-81 -60t-31 -98q0 -22 6.5 -45.5t21.5 -43t38.5 -32
t58.5 -12.5q25 0 50.5 7.5t50.5 20.5t47 29t40 33q20 19 30.5 40t10.5 53v149zM758 1331q0 -8 -2.5 -27t-9.5 -43t-19 -49t-30.5 -46t-45.5 -34.5t-63 -13.5q-39 0 -75 13.5t-68.5 30t-60 30.5t-48.5 14q-32 0 -44.5 -18.5t-18.5 -44.5q-4 -13 -9 -19t-22 -6h-62
q-22 0 -22 23q0 9 2.5 28t9 42.5t18.5 49t31 46t45.5 34t63.5 13.5t73 -14t69 -30.5t61 -30t49 -13.5q17 0 28.5 6.5t18.5 16t10.5 20.5t5.5 20q3 14 9.5 19.5t17.5 5.5h67q21 0 21 -23z" />
    <glyph glyph-name="adieresis" unicode="&#xe4;" horiz-adv-x="924" 
d="M815 55q0 -24 -12 -39.5t-43 -15.5h-74q-31 0 -44 13t-13 44v56q-26 -26 -58 -49.5t-70 -41t-80.5 -28t-88.5 -10.5q-61 0 -111 20.5t-85.5 58t-55 89.5t-19.5 114q0 74 23 128.5t63 93t92.5 63t111 38.5t120 19t119.5 6h26v91q0 25 -5 49.5t-20.5 44t-45.5 31.5t-80 12
q-69 0 -133.5 -21t-114.5 -49q-17 -9 -33.5 -8.5t-25.5 20.5l-41 84q-8 15 -8 27q0 21 24 33q74 38 163.5 61t180.5 23q78 0 141 -15.5t106.5 -50t67 -89.5t23.5 -134v-668zM616 471q-65 -2 -128.5 -10.5t-113.5 -30.5t-81 -60t-31 -98q0 -22 6.5 -45.5t21.5 -43t38.5 -32
t58.5 -12.5q25 0 50.5 7.5t50.5 20.5t47 29t40 33q20 19 30.5 40t10.5 53v149zM721 1237q0 -42 -29 -71t-71 -29q-21 0 -39.5 8t-32 21.5t-21.5 31.5t-8 39t8 39t21.5 31.5t32 21.5t39.5 8q42 0 71 -29t29 -71zM403 1237q0 -42 -29 -71t-71 -29t-71 29t-29 71t29 71t71 29
t71 -29t29 -71z" />
    <glyph glyph-name="aring" unicode="&#xe5;" horiz-adv-x="924" 
d="M815 55q0 -24 -12 -39.5t-43 -15.5h-74q-31 0 -44 13t-13 44v56q-26 -26 -58 -49.5t-70 -41t-80.5 -28t-88.5 -10.5q-61 0 -111 20.5t-85.5 58t-55 89.5t-19.5 114q0 74 23 128.5t63 93t92.5 63t111 38.5t120 19t119.5 6h26v91q0 25 -5 49.5t-20.5 44t-45.5 31.5t-80 12
q-69 0 -133.5 -21t-114.5 -49q-17 -9 -33.5 -8.5t-25.5 20.5l-41 84q-8 15 -8 27q0 21 24 33q74 38 163.5 61t180.5 23q78 0 141 -15.5t106.5 -50t67 -89.5t23.5 -134v-668zM616 471q-65 -2 -128.5 -10.5t-113.5 -30.5t-81 -60t-31 -98q0 -22 6.5 -45.5t21.5 -43t38.5 -32
t58.5 -12.5q25 0 50.5 7.5t50.5 20.5t47 29t40 33q20 19 30.5 40t10.5 53v149zM633 1258q0 -35 -13.5 -66t-36.5 -53.5t-54 -35.5t-66 -13q-37 0 -67.5 13t-53 35.5t-35 53.5t-12.5 66t13 65.5t35.5 53t53.5 35t66 12.5q37 0 68.5 -12.5t54 -35t35 -53t12.5 -65.5zM547 1258
q0 37 -24.5 61.5t-59.5 24.5t-58.5 -24.5t-25.5 -61.5q0 -18 7 -34t18.5 -28t26.5 -19t32 -7q18 0 33 7t26.5 19t18 28t6.5 34z" />
    <glyph glyph-name="ae" unicode="&#xe6;" horiz-adv-x="1458" 
d="M1395 514q0 -23 -11.5 -37t-37.5 -14h-537v-17q0 -46 10 -97t34.5 -94.5t67.5 -72t109 -28.5q34 0 65.5 6t59 15t49 19t35.5 19q25 12 43 14t31 -18l43 -78q10 -20 10 -33q0 -9 -6.5 -16t-20.5 -16q-27 -17 -62.5 -32t-76 -26t-84 -17.5t-88.5 -6.5q-58 0 -107 12.5
t-89 34.5t-70 50t-49 60q-69 -77 -164 -117t-195 -40q-68 0 -122.5 20.5t-92.5 58t-58 89.5t-20 114q0 74 23.5 128.5t63 93t92.5 63t112 38t120.5 18.5t119.5 5h24v93q0 25 -5 49.5t-20.5 44t-45.5 31.5t-80 12q-69 0 -133.5 -21t-114.5 -49q-17 -9 -33.5 -8.5t-25.5 20.5
l-41 84q-8 15 -8 27q0 21 24 33q74 38 163.5 61t180.5 23q100 0 170.5 -30t102.5 -99q45 62 114 95.5t154 33.5q98 0 169.5 -37t117.5 -103t68 -157.5t22 -200.5zM1190 610q-2 47 -11.5 89.5t-30 75t-54 52t-82.5 19.5q-48 0 -84 -18t-60 -49.5t-37.5 -74.5t-17.5 -94h377z
M616 469q-66 0 -129.5 -8.5t-113.5 -30t-80.5 -60t-30.5 -98.5q0 -21 7 -44.5t22 -42.5t38.5 -31.5t57.5 -12.5q54 0 102 20t86 52q20 19 30.5 41.5t10.5 56.5v158z" />
    <glyph glyph-name="ccedilla" unicode="&#xe7;" horiz-adv-x="860" 
d="M825 102q0 -17 -28 -34q-50 -32 -123 -55.5t-166 -28.5l-21 -52q14 0 21.5 -1t15.5 -3q57 -9 96 -42.5t39 -96.5q0 -43 -17 -75.5t-48.5 -54t-75.5 -32t-98 -10.5q-42 0 -80 4.5t-78 20.5q-14 5 -21.5 11t-7.5 17q0 3 1.5 8.5t3.5 10.5l24 55q11 28 45 12q28 -9 56 -14.5
t51 -5.5q42 0 67 11.5t25 39.5q0 26 -19.5 39t-56.5 16q-14 2 -26 3t-27 -1q-25 0 -38 6.5t-13 26.5q0 8 6 25l39 94q-64 16 -120 53.5t-98 99.5t-66 151.5t-24 209.5q0 104 27 195.5t80 159.5t131.5 107.5t181.5 39.5q48 0 87.5 -6t73.5 -15.5t63.5 -22.5t58.5 -28
q12 -8 18.5 -16t6.5 -19q0 -8 -2.5 -17.5t-8.5 -19.5l-39 -73q-9 -19 -24.5 -21t-32.5 6q-19 10 -39 20.5t-42.5 18.5t-48 13.5t-56.5 5.5q-68 0 -112.5 -31.5t-70.5 -81t-36.5 -110t-10.5 -119.5q0 -60 11 -120.5t37.5 -108.5t69.5 -78.5t108 -30.5q37 0 67.5 6t56.5 15
t47.5 20t41.5 22q47 25 65 -6l43 -80q5 -8 7.5 -15t2.5 -18z" />
    <glyph glyph-name="egrave" unicode="&#xe8;" horiz-adv-x="922" 
d="M856 508q0 -23 -11.5 -37t-37.5 -14h-537v-15q1 -31 5.5 -64.5t14.5 -65.5t26 -61t40.5 -50.5t58 -34t77.5 -12.5q34 0 66 6t59 15t48 19t35 19q25 12 43.5 14t30.5 -18l43 -78q10 -20 10 -33q0 -9 -6 -16t-20 -16q-56 -35 -139 -58.5t-173 -23.5q-117 0 -198 43.5
t-131 114.5t-72 161.5t-22 185.5q0 96 22 189.5t71.5 168t128.5 120t193 45.5q97 0 168 -37.5t117 -104.5t68 -159.5t22 -202.5zM651 606q-2 47 -11.5 90.5t-30 76.5t-54 53t-82.5 20q-48 0 -83.5 -18.5t-59.5 -51t-38 -76t-18 -94.5h377zM621 1122q0 -14 -20 -14h-82
q-26 0 -41.5 7t-34.5 24l-203 180q-12 11 -17 18t-5 17q0 12 26 12h144q32 0 51 -7t39 -36l131 -172q5 -9 8.5 -16.5t3.5 -12.5z" />
    <glyph glyph-name="eacute" unicode="&#xe9;" horiz-adv-x="922" 
d="M856 508q0 -23 -11.5 -37t-37.5 -14h-537v-15q1 -31 5.5 -64.5t14.5 -65.5t26 -61t40.5 -50.5t58 -34t77.5 -12.5q34 0 66 6t59 15t48 19t35 19q25 12 43.5 14t30.5 -18l43 -78q10 -20 10 -33q0 -9 -6 -16t-20 -16q-56 -35 -139 -58.5t-173 -23.5q-117 0 -198 43.5
t-131 114.5t-72 161.5t-22 185.5q0 96 22 189.5t71.5 168t128.5 120t193 45.5q97 0 168 -37.5t117 -104.5t68 -159.5t22 -202.5zM651 606q-2 47 -11.5 90.5t-30 76.5t-54 53t-82.5 20q-48 0 -83.5 -18.5t-59.5 -51t-38 -76t-18 -94.5h377zM742 1354q0 -10 -5 -17t-18 -18
l-202 -180q-19 -17 -34.5 -24t-41.5 -7h-82q-21 0 -21 14q0 9 13 29l131 172q19 29 38.5 36t51.5 7h143q27 0 27 -12z" />
    <glyph glyph-name="ecircumflex" unicode="&#xea;" horiz-adv-x="922" 
d="M856 508q0 -23 -11.5 -37t-37.5 -14h-537v-15q1 -31 5.5 -64.5t14.5 -65.5t26 -61t40.5 -50.5t58 -34t77.5 -12.5q34 0 66 6t59 15t48 19t35 19q25 12 43.5 14t30.5 -18l43 -78q10 -20 10 -33q0 -9 -6 -16t-20 -16q-56 -35 -139 -58.5t-173 -23.5q-117 0 -198 43.5
t-131 114.5t-72 161.5t-22 185.5q0 96 22 189.5t71.5 168t128.5 120t193 45.5q97 0 168 -37.5t117 -104.5t68 -159.5t22 -202.5zM651 606q-2 47 -11.5 90.5t-30 76.5t-54 53t-82.5 20q-48 0 -83.5 -18.5t-59.5 -51t-38 -76t-18 -94.5h377zM774 1122q0 -14 -23 -14h-84
q-14 0 -23.5 1t-17.5 4.5t-16.5 9.5t-19.5 16l-121 104l-121 -104q-23 -20 -37.5 -25.5t-40.5 -5.5h-70q-20 0 -20 14q0 5 4 12t10 15l140 174q21 26 37.5 34.5t43.5 8.5h121q23 0 40.5 -6.5t39.5 -34.5l141 -176q17 -19 17 -27z" />
    <glyph glyph-name="edieresis" unicode="&#xeb;" horiz-adv-x="922" 
d="M856 508q0 -23 -11.5 -37t-37.5 -14h-537v-15q1 -31 5.5 -64.5t14.5 -65.5t26 -61t40.5 -50.5t58 -34t77.5 -12.5q34 0 66 6t59 15t48 19t35 19q25 12 43.5 14t30.5 -18l43 -78q10 -20 10 -33q0 -9 -6 -16t-20 -16q-56 -35 -139 -58.5t-173 -23.5q-117 0 -198 43.5
t-131 114.5t-72 161.5t-22 185.5q0 96 22 189.5t71.5 168t128.5 120t193 45.5q97 0 168 -37.5t117 -104.5t68 -159.5t22 -202.5zM651 606q-2 47 -11.5 90.5t-30 76.5t-54 53t-82.5 20q-48 0 -83.5 -18.5t-59.5 -51t-38 -76t-18 -94.5h377zM735 1237q0 -42 -29 -71t-71 -29
q-21 0 -39.5 8t-32 21.5t-21.5 31.5t-8 39t8 39t21.5 31.5t32 21.5t39.5 8q42 0 71 -29t29 -71zM417 1237q0 -42 -29 -71t-71 -29t-71 29t-29 71t29 71t71 29t71 -29t29 -71z" />
    <glyph glyph-name="igrave" unicode="&#xec;" horiz-adv-x="467" 
d="M334 59q0 -29 -12 -44t-50 -15h-77q-34 0 -47 14.5t-13 42.5v881q0 57 55 57h84q34 0 47 -14.5t13 -40.5v-881v0zM391 1122q0 -14 -20 -14h-82q-26 0 -41.5 7t-34.5 24l-203 180q-12 11 -17 18t-5 17q0 12 26 12h144q32 0 51 -7t39 -36l131 -172q5 -9 8.5 -16.5
t3.5 -12.5z" />
    <glyph glyph-name="iacute" unicode="&#xed;" horiz-adv-x="467" 
d="M334 59q0 -29 -12 -44t-50 -15h-77q-34 0 -47 14.5t-13 42.5v881q0 57 55 57h84q34 0 47 -14.5t13 -40.5v-881v0zM479 1354q0 -10 -5 -17t-18 -18l-202 -180q-19 -17 -34.5 -24t-41.5 -7h-82q-21 0 -21 14q0 9 13 29l131 172q19 29 38.5 36t51.5 7h143q27 0 27 -12z" />
    <glyph glyph-name="icircumflex" unicode="&#xee;" horiz-adv-x="467" 
d="M334 59q0 -29 -12 -44t-50 -15h-77q-34 0 -47 14.5t-13 42.5v881q0 57 55 57h84q34 0 47 -14.5t13 -40.5v-881v0zM532 1122q0 -14 -23 -14h-84q-14 0 -23.5 1t-17.5 4.5t-16.5 9.5t-19.5 16l-121 104l-121 -104q-23 -20 -37.5 -25.5t-40.5 -5.5h-70q-20 0 -20 14
q0 5 4 12t10 15l140 174q21 26 37.5 34.5t43.5 8.5h121q23 0 40.5 -6.5t39.5 -34.5l141 -176q17 -19 17 -27z" />
    <glyph glyph-name="idieresis" unicode="&#xef;" horiz-adv-x="467" 
d="M334 59q0 -29 -12 -44t-50 -15h-77q-34 0 -47 14.5t-13 42.5v881q0 57 55 57h84q34 0 47 -14.5t13 -40.5v-881v0zM493 1237q0 -42 -29 -71t-71 -29q-21 0 -39.5 8t-32 21.5t-21.5 31.5t-8 39t8 39t21.5 31.5t32 21.5t39.5 8q42 0 71 -29t29 -71zM175 1237q0 -42 -29 -71
t-71 -29t-71 29t-29 71t29 71t71 29t71 -29t29 -71z" />
    <glyph glyph-name="eth" unicode="&#xf0;" horiz-adv-x="969" 
d="M897 489q0 -94 -22.5 -184.5t-72.5 -162t-129.5 -115t-193.5 -43.5q-111 0 -189 40t-128 109t-73 160.5t-23 195.5q0 91 23 177.5t72 153t124 107t180 40.5q38 0 78.5 -11t68.5 -28q-8 23 -20 51t-28 58.5t-34 61.5t-36 60l-158 -82q-19 -9 -30 -5t-19 20l-29 51
q-21 33 12 51l150 76q-20 29 -44.5 60t-45.5 59q-5 6 -8 12t-3 12t5.5 10t13.5 4h119q21 0 34.5 -8t24.5 -20q11 -13 25.5 -28t23.5 -28l137 68q19 9 30 5.5t18 -17.5l30 -53q8 -17 5 -28.5t-21 -21.5l-117 -57q58 -81 104 -165.5t78.5 -176t50 -192.5t17.5 -216zM690 485
q0 60 -9 116t-32 99.5t-64.5 70t-105.5 26.5q-63 0 -103.5 -26.5t-64 -70t-32.5 -99.5t-9 -116q0 -58 9.5 -116.5t33 -105t64 -76t102.5 -29.5q64 0 105.5 29.5t64.5 76t32 105t9 116.5z" />
    <glyph glyph-name="ntilde" unicode="&#xf1;" horiz-adv-x="991" 
d="M881 55q0 -55 -54 -55h-92q-51 0 -51 57v627q0 69 -24 110.5t-82 41.5q-32 0 -60.5 -9.5t-55 -26t-50.5 -38.5t-45 -47q-15 -16 -24 -30t-14.5 -30t-7.5 -36t-2 -48v-512q0 -29 -12 -44t-49 -15h-78q-34 0 -46.5 14.5t-12.5 42.5v881q0 57 55 57h74q32 0 44.5 -14.5
t12.5 -40.5v-100q28 34 62.5 65.5t74.5 55t85.5 37.5t97.5 14q67 0 115 -19.5t79 -56t45.5 -88.5t14.5 -117v-676v0zM799 1331q0 -8 -2.5 -27t-9.5 -43t-19 -49t-30.5 -46t-45.5 -34.5t-63 -13.5q-39 0 -75 13.5t-68.5 30t-60 30.5t-48.5 14q-32 0 -44.5 -18.5t-18.5 -44.5
q-4 -13 -9 -19t-22 -6h-62q-22 0 -22 23q0 9 2.5 28t9 42.5t18.5 49t31 46t45.5 34t63.5 13.5t73 -14t69 -30.5t61 -30t49 -13.5q17 0 28.5 6.5t18.5 16t10.5 20.5t5.5 20q3 14 9.5 19.5t17.5 5.5h67q21 0 21 -23z" />
    <glyph glyph-name="ograve" unicode="&#xf2;" horiz-adv-x="961" 
d="M897 500q0 -94 -22.5 -186t-72.5 -165.5t-129.5 -119t-193.5 -45.5q-111 0 -189 44.5t-128 117.5t-73 165.5t-23 188.5q0 63 10 126t31.5 120t55 105.5t79.5 84t105 56t132 20.5q113 0 192.5 -45t129.5 -118t73 -164.5t23 -184.5zM690 496q0 60 -9 120.5t-32 110
t-64.5 80.5t-105.5 31q-63 0 -103.5 -31t-64 -80.5t-32.5 -110t-9 -120.5q0 -59 9.5 -119t33 -108.5t64 -79.5t102.5 -31q64 0 105.5 31t64.5 80t32 109t9 118zM614 1122q0 -14 -20 -14h-82q-26 0 -41.5 7t-34.5 24l-203 180q-12 11 -17 18t-5 17q0 12 26 12h144q32 0 51 -7
t39 -36l131 -172q5 -9 8.5 -16.5t3.5 -12.5z" />
    <glyph glyph-name="oacute" unicode="&#xf3;" horiz-adv-x="961" 
d="M897 500q0 -94 -22.5 -186t-72.5 -165.5t-129.5 -119t-193.5 -45.5q-111 0 -189 44.5t-128 117.5t-73 165.5t-23 188.5q0 63 10 126t31.5 120t55 105.5t79.5 84t105 56t132 20.5q113 0 192.5 -45t129.5 -118t73 -164.5t23 -184.5zM690 496q0 60 -9 120.5t-32 110
t-64.5 80.5t-105.5 31q-63 0 -103.5 -31t-64 -80.5t-32.5 -110t-9 -120.5q0 -59 9.5 -119t33 -108.5t64 -79.5t102.5 -31q64 0 105.5 31t64.5 80t32 109t9 118zM756 1354q0 -10 -5 -17t-18 -18l-202 -180q-19 -17 -34.5 -24t-41.5 -7h-82q-21 0 -21 14q0 9 13 29l131 172
q19 29 38.5 36t51.5 7h143q27 0 27 -12z" />
    <glyph glyph-name="ocircumflex" unicode="&#xf4;" horiz-adv-x="961" 
d="M897 500q0 -94 -22.5 -186t-72.5 -165.5t-129.5 -119t-193.5 -45.5q-111 0 -189 44.5t-128 117.5t-73 165.5t-23 188.5q0 63 10 126t31.5 120t55 105.5t79.5 84t105 56t132 20.5q113 0 192.5 -45t129.5 -118t73 -164.5t23 -184.5zM690 496q0 60 -9 120.5t-32 110
t-64.5 80.5t-105.5 31q-63 0 -103.5 -31t-64 -80.5t-32.5 -110t-9 -120.5q0 -59 9.5 -119t33 -108.5t64 -79.5t102.5 -31q64 0 105.5 31t64.5 80t32 109t9 118zM778 1122q0 -14 -23 -14h-84q-14 0 -23.5 1t-17.5 4.5t-16.5 9.5t-19.5 16l-121 104l-121 -104
q-23 -20 -37.5 -25.5t-40.5 -5.5h-70q-20 0 -20 14q0 5 4 12t10 15l140 174q21 26 37.5 34.5t43.5 8.5h121q23 0 40.5 -6.5t39.5 -34.5l141 -176q17 -19 17 -27z" />
    <glyph glyph-name="otilde" unicode="&#xf5;" horiz-adv-x="961" 
d="M897 500q0 -94 -22.5 -186t-72.5 -165.5t-129.5 -119t-193.5 -45.5q-111 0 -189 44.5t-128 117.5t-73 165.5t-23 188.5q0 63 10 126t31.5 120t55 105.5t79.5 84t105 56t132 20.5q113 0 192.5 -45t129.5 -118t73 -164.5t23 -184.5zM690 496q0 60 -9 120.5t-32 110
t-64.5 80.5t-105.5 31q-63 0 -103.5 -31t-64 -80.5t-32.5 -110t-9 -120.5q0 -59 9.5 -119t33 -108.5t64 -79.5t102.5 -31q64 0 105.5 31t64.5 80t32 109t9 118zM790 1331q0 -8 -2.5 -27t-9.5 -43t-19 -49t-30.5 -46t-45.5 -34.5t-63 -13.5q-39 0 -75 13.5t-68.5 30t-60 30.5
t-48.5 14q-32 0 -44.5 -18.5t-18.5 -44.5q-4 -13 -9 -19t-22 -6h-62q-22 0 -22 23q0 9 2.5 28t9 42.5t18.5 49t31 46t45.5 34t63.5 13.5t73 -14t69 -30.5t61 -30t49 -13.5q17 0 28.5 6.5t18.5 16t10.5 20.5t5.5 20q3 14 9.5 19.5t17.5 5.5h67q21 0 21 -23z" />
    <glyph glyph-name="odieresis" unicode="&#xf6;" horiz-adv-x="961" 
d="M897 500q0 -94 -22.5 -186t-72.5 -165.5t-129.5 -119t-193.5 -45.5q-111 0 -189 44.5t-128 117.5t-73 165.5t-23 188.5q0 63 10 126t31.5 120t55 105.5t79.5 84t105 56t132 20.5q113 0 192.5 -45t129.5 -118t73 -164.5t23 -184.5zM690 496q0 60 -9 120.5t-32 110
t-64.5 80.5t-105.5 31q-63 0 -103.5 -31t-64 -80.5t-32.5 -110t-9 -120.5q0 -59 9.5 -119t33 -108.5t64 -79.5t102.5 -31q64 0 105.5 31t64.5 80t32 109t9 118zM739 1237q0 -42 -29 -71t-71 -29q-21 0 -39.5 8t-32 21.5t-21.5 31.5t-8 39t8 39t21.5 31.5t32 21.5t39.5 8
q42 0 71 -29t29 -71zM421 1237q0 -42 -29 -71t-71 -29t-71 29t-29 71t29 71t71 29t71 -29t29 -71z" />
    <glyph glyph-name="divide" unicode="&#xf7;" horiz-adv-x="1065" 
d="M653 1020q0 -26 -9.5 -48t-25.5 -38t-38.5 -25.5t-47.5 -9.5t-47 9.5t-38 25.5t-25.5 38t-9.5 48q0 25 9.5 47t25.5 38.5t38 26t47 9.5t47.5 -9.5t38.5 -26t25.5 -38.5t9.5 -47zM977 639q0 -23 -10.5 -36t-38.5 -13h-789q-26 0 -37.5 12t-11.5 37v76q0 25 10.5 37
t36.5 12h793q26 0 36.5 -12t10.5 -37v-76zM653 334q0 -26 -9.5 -48t-25.5 -38t-38.5 -25.5t-47.5 -9.5t-47 9.5t-38 25.5t-25.5 38t-9.5 48q0 25 9.5 47t25.5 38.5t38 26t47 9.5t47.5 -9.5t38.5 -26t25.5 -38.5t9.5 -47z" />
    <glyph glyph-name="oslash" unicode="&#xf8;" horiz-adv-x="961" 
d="M897 991q0 -18 -14 -39l-78 -110q48 -73 70 -162t22 -180q0 -94 -22.5 -186t-72.5 -165.5t-129.5 -119t-193.5 -45.5q-71 0 -127 18.5t-102 50.5l-17 -20q-17 -25 -30.5 -37t-30.5 -12h-78q-14 0 -22.5 5.5t-8.5 16.5q0 18 15 39l78 111q-48 72 -69 161t-21 183
q0 63 10 126t31.5 120t55 105.5t79.5 84t105 56t132 20.5q71 0 128 -19t102 -51l16 23q15 23 30.5 35t37.5 12h75q13 0 21 -6.5t8 -14.5zM696 496q0 37 -6 83.5t-18 84.5l-320 -455q48 -51 127 -51q64 0 106 31t67 80t34.5 109t9.5 118zM266 496q0 -38 5 -83t18 -79l317 452
q-25 25 -56 38.5t-71 13.5q-63 0 -104 -31t-65.5 -80.5t-34 -110t-9.5 -120.5z" />
    <glyph glyph-name="ugrave" unicode="&#xf9;" horiz-adv-x="991" 
d="M870 57q0 -57 -53 -57h-74q-34 0 -45.5 14.5t-11.5 40.5v101q-29 -35 -63 -66t-73.5 -54.5t-85.5 -37.5t-97 -14q-67 0 -115.5 19.5t-79.5 55.5t-46 88t-15 117v676q0 55 55 55h90q53 0 53 -57v-627q0 -69 23.5 -110t83.5 -41q63 0 115 35t96 86q14 16 23 30t14.5 30
t7.5 35.5t2 47.5v512q0 29 12 44t47 15h80q32 0 44.5 -14.5t12.5 -42.5v-881v0zM618 1122q0 -14 -20 -14h-82q-26 0 -41.5 7t-34.5 24l-203 180q-12 11 -17 18t-5 17q0 12 26 12h144q32 0 51 -7t39 -36l131 -172q5 -9 8.5 -16.5t3.5 -12.5z" />
    <glyph glyph-name="uacute" unicode="&#xfa;" horiz-adv-x="991" 
d="M870 57q0 -57 -53 -57h-74q-34 0 -45.5 14.5t-11.5 40.5v101q-29 -35 -63 -66t-73.5 -54.5t-85.5 -37.5t-97 -14q-67 0 -115.5 19.5t-79.5 55.5t-46 88t-15 117v676q0 55 55 55h90q53 0 53 -57v-627q0 -69 23.5 -110t83.5 -41q63 0 115 35t96 86q14 16 23 30t14.5 30
t7.5 35.5t2 47.5v512q0 29 12 44t47 15h80q32 0 44.5 -14.5t12.5 -42.5v-881v0zM765 1354q0 -10 -5 -17t-18 -18l-202 -180q-19 -17 -34.5 -24t-41.5 -7h-82q-21 0 -21 14q0 9 13 29l131 172q19 29 38.5 36t51.5 7h143q27 0 27 -12z" />
    <glyph glyph-name="ucircumflex" unicode="&#xfb;" horiz-adv-x="991" 
d="M870 57q0 -57 -53 -57h-74q-34 0 -45.5 14.5t-11.5 40.5v101q-29 -35 -63 -66t-73.5 -54.5t-85.5 -37.5t-97 -14q-67 0 -115.5 19.5t-79.5 55.5t-46 88t-15 117v676q0 55 55 55h90q53 0 53 -57v-627q0 -69 23.5 -110t83.5 -41q63 0 115 35t96 86q14 16 23 30t14.5 30
t7.5 35.5t2 47.5v512q0 29 12 44t47 15h80q32 0 44.5 -14.5t12.5 -42.5v-881v0zM792 1122q0 -14 -23 -14h-84q-14 0 -23.5 1t-17.5 4.5t-16.5 9.5t-19.5 16l-121 104l-121 -104q-23 -20 -37.5 -25.5t-40.5 -5.5h-70q-20 0 -20 14q0 5 4 12t10 15l140 174q21 26 37.5 34.5
t43.5 8.5h121q23 0 40.5 -6.5t39.5 -34.5l141 -176q17 -19 17 -27z" />
    <glyph glyph-name="udieresis" unicode="&#xfc;" horiz-adv-x="991" 
d="M870 57q0 -57 -53 -57h-74q-34 0 -45.5 14.5t-11.5 40.5v101q-29 -35 -63 -66t-73.5 -54.5t-85.5 -37.5t-97 -14q-67 0 -115.5 19.5t-79.5 55.5t-46 88t-15 117v676q0 55 55 55h90q53 0 53 -57v-627q0 -69 23.5 -110t83.5 -41q63 0 115 35t96 86q14 16 23 30t14.5 30
t7.5 35.5t2 47.5v512q0 29 12 44t47 15h80q32 0 44.5 -14.5t12.5 -42.5v-881v0zM749 1237q0 -42 -29 -71t-71 -29q-21 0 -39.5 8t-32 21.5t-21.5 31.5t-8 39t8 39t21.5 31.5t32 21.5t39.5 8q42 0 71 -29t29 -71zM431 1237q0 -42 -29 -71t-71 -29t-71 29t-29 71t29 71t71 29
t71 -29t29 -71z" />
    <glyph glyph-name="yacute" unicode="&#xfd;" horiz-adv-x="836" 
d="M844 975q0 -6 -2.5 -18t-5.5 -21l-326 -971q-27 -80 -55.5 -142.5t-67.5 -106t-93 -66.5t-132 -23q-40 0 -73.5 7.5t-51.5 15.5q-21 6 -21 22q-2 7 0 14.5t4 12.5l29 92q3 12 12 17t21 2q18 -5 42.5 -11t47.5 -6q31 0 53 15t39 42t31 63.5t29 78.5l4 8l-318 940
q-3 8 -4.5 18.5t-1.5 16.5q0 9 9.5 14.5t23.5 5.5h129q22 0 32.5 -9.5t16.5 -31.5l215 -688l217 688q8 22 18.5 31.5t30.5 9.5h115q15 0 24 -5.5t9 -14.5zM701 1354q0 -10 -5 -17t-18 -18l-202 -180q-19 -17 -34.5 -24t-41.5 -7h-82q-21 0 -21 14q0 9 13 29l131 172
q19 29 38.5 36t51.5 7h143q27 0 27 -12z" />
    <glyph glyph-name="thorn" unicode="&#xfe;" 
d="M942 498q0 -103 -22 -196.5t-67.5 -164t-116.5 -112t-169 -41.5q-42 0 -79 10.5t-68.5 28t-56.5 41t-44 49.5v-428q0 -29 -12.5 -43.5t-46.5 -14.5h-78q-35 0 -48 15t-13 43v1652q0 29 13 43.5t44 14.5h80q37 0 49 -15t12 -43v-458q20 25 45.5 49t57.5 42.5t72 30
t90 11.5q100 0 168.5 -45.5t110.5 -119t60.5 -165t18.5 -184.5zM737 498q0 65 -9.5 126.5t-32 109.5t-59.5 77t-91 29q-56 0 -98 -26.5t-70.5 -72.5t-43 -108.5t-14.5 -134.5q0 -80 16 -143.5t45 -107.5t70 -67.5t91 -23.5q43 0 74.5 17t53.5 45t35.5 64t20.5 74t9.5 75
t2.5 67z" />
    <glyph glyph-name="ydieresis" unicode="&#xff;" horiz-adv-x="836" 
d="M844 975q0 -6 -2.5 -18t-5.5 -21l-326 -971q-27 -80 -55.5 -142.5t-67.5 -106t-93 -66.5t-132 -23q-40 0 -73.5 7.5t-51.5 15.5q-21 6 -21 22q-2 7 0 14.5t4 12.5l29 92q3 12 12 17t21 2q18 -5 42.5 -11t47.5 -6q31 0 53 15t39 42t31 63.5t29 78.5l4 8l-318 940
q-3 8 -4.5 18.5t-1.5 16.5q0 9 9.5 14.5t23.5 5.5h129q22 0 32.5 -9.5t16.5 -31.5l215 -688l217 688q8 22 18.5 31.5t30.5 9.5h115q15 0 24 -5.5t9 -14.5zM688 1237q0 -42 -29 -71t-71 -29q-21 0 -39.5 8t-32 21.5t-21.5 31.5t-8 39t8 39t21.5 31.5t32 21.5t39.5 8
q42 0 71 -29t29 -71zM370 1237q0 -42 -29 -71t-71 -29t-71 29t-29 71t29 71t71 29t71 -29t29 -71z" />
    <glyph glyph-name="notequal" unicode="&#x2260;" horiz-adv-x="1065" 
d="M977 461q0 -25 -10.5 -37t-38.5 -12h-398l-65 -201q-9 -29 -24 -42t-38 -13h-102q-11 0 -18 6.5t-7 15.5q0 13 9 37l63 197h-209q-26 0 -37.5 11t-11.5 36v76q0 24 10.5 36.5t36.5 12.5h271l63 190h-332q-26 0 -37.5 12.5t-11.5 36.5v76q0 25 10.5 37t36.5 12h393l66 195
q11 29 24.5 42t36.5 13h103q12 0 19 -6t7 -14t-2.5 -17t-5.5 -20l-65 -193h217q26 0 36.5 -12t10.5 -37v-76q0 -23 -10.5 -36t-38.5 -13h-275l-63 -190h340q26 0 36.5 -12.5t10.5 -36.5v-74v0z" />
    <glyph glyph-name="approxequal" unicode="&#x2248;" horiz-adv-x="1032" 
d="M944 838q0 -14 -7 -29.5t-19 -26.5q-13 -10 -32.5 -21t-46 -20.5t-61.5 -15.5t-80 -6q-54 0 -108.5 16.5t-104.5 36.5q-40 17 -80 31t-94 14q-92 0 -174 -63q-6 -5 -12 -9t-14 -4t-14.5 5t-6.5 16v98q0 16 8 31.5t21 26.5q12 9 31 20t45.5 20.5t61 16t79.5 6.5
q54 0 108.5 -17.5t104.5 -37.5q40 -16 80 -29.5t94 -13.5q48 0 90 14.5t84 46.5q12 12 27 12q8 0 14 -4.5t6 -15.5v-98zM944 498q0 -16 -7 -31t-19 -25q-13 -10 -32.5 -21.5t-46 -21t-61.5 -16t-80 -6.5q-54 0 -108.5 17.5t-104.5 37.5q-40 16 -80 30.5t-94 14.5
q-92 0 -174 -63q-6 -5 -12 -9t-14 -4t-14.5 5t-6.5 16v98q0 16 8 31t21 24q12 10 31 21.5t45.5 21.5t61 16.5t79.5 6.5q54 0 109.5 -17.5t103.5 -37.5q21 -8 40.5 -16t40 -14.5t43.5 -10.5t50 -4q93 0 174 63q6 5 12.5 8.5t14.5 3.5t14 -4.5t6 -15.5v-98z" />
    <glyph glyph-name="Omega" unicode="&#x2126;" horiz-adv-x="1161" 
d="M1110 43q0 -20 -12.5 -31.5t-32.5 -11.5h-365q-21 0 -33 11.5t-12 31.5v68q0 21 4.5 38t20.5 37q21 26 51 79t58.5 124.5t48.5 158t20 181.5q0 50 -3.5 105t-13.5 107.5t-28.5 100t-49.5 84t-76 57.5t-107 21q-63 0 -107.5 -21t-75.5 -57.5t-49.5 -84t-28.5 -100
t-13 -107.5t-3 -105q0 -95 20 -181.5t48.5 -158t58.5 -124.5t51 -79q16 -20 20.5 -37t4.5 -38v-68q0 -20 -12 -31.5t-33 -11.5h-363q-21 0 -34 11.5t-13 31.5v94q0 22 12.5 33.5t30.5 11.5h191q-63 78 -102.5 153.5t-62 147.5t-30.5 139t-8 128q0 67 8.5 141t30.5 145.5
t58 136.5t92 114.5t132.5 78.5t178.5 29q101 0 177.5 -28t131.5 -76t91.5 -111.5t58 -133.5t30 -143.5t8.5 -140.5q0 -61 -8.5 -130t-31.5 -143t-63 -151.5t-102 -155.5h195q19 0 30 -11.5t11 -33.5v-94v0z" />
    <glyph glyph-name="infinity" unicode="&#x221e;" horiz-adv-x="1618" 
d="M1559 612q0 -80 -25 -148t-72.5 -118t-115.5 -78t-154 -28q-105 0 -204 51t-179 164q-43 -49 -86.5 -89t-89 -68t-94.5 -43t-103 -15q-77 0 -145 23.5t-119 70t-81 115.5t-30 159q0 86 30 154t81 115.5t119 72.5t145 25q59 0 111 -15.5t98 -44t88 -68.5t82 -89
q30 37 69 76t86 70t101 51t113 20q87 0 156.5 -27.5t118 -76.5t74.5 -115t26 -144zM1378 610q0 41 -12 77t-36 62.5t-60.5 42t-85.5 15.5q-79 0 -145.5 -53.5t-123.5 -143.5q28 -46 60.5 -83.5t67.5 -64.5t72 -41.5t73 -14.5q48 0 83.5 16.5t59 45t35.5 65t12 77.5zM436 406
q39 0 75.5 16t71 43t65.5 64t59 79q-30 44 -62 80.5t-66.5 63t-70.5 41t-74 14.5q-47 0 -83.5 -16.5t-61.5 -44t-38 -64.5t-13 -78q0 -42 14 -78t40 -63t62.5 -42t81.5 -15z" />
    <glyph glyph-name="partialdiff" unicode="&#x2202;" horiz-adv-x="1124" 
d="M1055 846q0 -85 -10.5 -168t-32.5 -178q-29 -114 -77 -211t-115.5 -167.5t-154.5 -110.5t-194 -40q-95 0 -168.5 31t-124.5 86t-77.5 130t-26.5 163q0 127 36 228t98.5 171t145.5 107t176 37q43 0 88.5 -10t87.5 -29.5t77.5 -49t58.5 -69.5q5 26 6.5 53.5t1.5 59.5
q0 73 -15 134t-48 105t-84 69t-123 25q-59 0 -114 -15t-93 -34q-34 -15 -50.5 -10.5t-27.5 33.5l-21 65q-8 28 -3 43t30 27q20 11 51.5 23.5t70 23.5t82 18t87.5 7q120 0 207 -42t144 -115.5t84.5 -173.5t27.5 -216zM801 553q-17 42 -42.5 78t-59 62t-74 40.5t-86.5 14.5
q-61 0 -109 -28t-81.5 -77.5t-51.5 -117.5t-18 -148q0 -50 12.5 -92.5t37 -73.5t60.5 -48.5t84 -17.5q58 0 105 24.5t84.5 66.5t66 97.5t49.5 117.5q10 29 15.5 57t7.5 45z" />
    <glyph glyph-name="summation" unicode="&#x2211;" horiz-adv-x="1112" 
d="M1012 -184q0 -54 -54 -54h-815q-24 0 -37.5 15t-13.5 41v51q0 13 1.5 22.5t4.5 18.5t8.5 19t14.5 24l366 631l-352 592q-17 27 -23 45t-6 43v49q0 26 14.5 39.5t37.5 13.5h782q25 0 39 -13.5t14 -39.5v-74q0 -53 -53 -53h-575l288 -486q11 -18 23 -45.5t12 -50.5v-39
q0 -25 -12 -52t-23 -44l-305 -526h610q54 0 54 -52v-75z" />
    <glyph glyph-name="product" unicode="&#x220f;" horiz-adv-x="1243" 
d="M1098 -182q0 -26 -14 -41t-40 -15h-102q-26 0 -38.5 15t-12.5 41v1368h-537v-1368q0 -26 -13 -41t-38 -15h-104q-25 0 -38.5 15t-13.5 41v1493q0 55 52 55h845q54 0 54 -55v-1493v0z" />
    <glyph glyph-name="pi" unicode="&#x3c0;" horiz-adv-x="1255" 
d="M1141 864q0 -20 -12 -33.5t-33 -13.5h-148v-571q0 -34 9.5 -56t37.5 -22q13 0 19.5 1.5t15.5 4.5q37 9 45 -29l17 -86q3 -15 0 -28t-19 -19q-25 -9 -59 -15.5t-74 -6.5q-42 0 -77 12.5t-59.5 40t-38 73t-13.5 111.5v590h-252v-538q0 -79 -5 -136t-10 -82q-12 -61 -69 -61
h-113q-17 0 -25 7.5t-8 17.5q0 9 2 20t4 21q13 54 20 123t7 137v491h-139q-23 0 -35 12.5t-12 32.5v86q0 22 11.5 34.5t31.5 12.5h936q20 0 32.5 -11.5t12.5 -33.5v-86v0z" />
    <glyph glyph-name="integral" unicode="&#x222b;" horiz-adv-x="891" 
d="M524 -139q0 -74 -17 -139.5t-54 -115t-95 -78t-139 -28.5q-46 0 -86.5 7.5t-64.5 15.5q-32 11 -23 49l23 96q6 20 19 25t32 0q11 -3 31.5 -9t48.5 -6q33 0 56 13.5t37 37.5t20.5 57.5t6.5 74.5v1245q0 75 17.5 140.5t54 114t94 77t138.5 28.5q48 0 88 -6t65 -14
q32 -11 23 -51l-23 -97q-6 -20 -19 -24.5t-32 0.5q-11 3 -31.5 8.5t-48.5 5.5q-33 0 -56 -13t-37.5 -37t-21 -57t-6.5 -73v-1247z" />
    <glyph glyph-name="radical" unicode="&#x221a;" horiz-adv-x="971" 
d="M944 1366q16 0 23 -11.5t4 -27.5l-312 -1298q-3 -13 -12.5 -21t-23.5 -8h-121q-17 0 -27.5 11.5t-13.5 21.5l-234 551l-67 -43q-25 -13 -41 12l-56 84q-6 9 -3 22t14 19l207 133q12 8 29.5 6t23.5 -16l217 -529l250 1063q2 11 12.5 21t26.5 10h104z" />
    <glyph glyph-name="Delta" unicode="&#x2206;" horiz-adv-x="1151" 
d="M1137 31q0 -16 -11 -23.5t-28 -7.5h-1043q-17 0 -28 8t-11 21q0 14 2.5 22t6.5 19l440 1261q9 26 23 37.5t40 11.5h97q26 0 40 -11.5t23 -37.5l438 -1259q5 -11 8 -20.5t3 -20.5zM571 1094l-303 -914h604z" />
    <glyph glyph-name="lozenge" unicode="&#x25ca;" horiz-adv-x="940" 
d="M881 561q0 -23 -3 -36.5t-8 -24.5l-278 -688q-9 -28 -22.5 -42t-39.5 -14h-120q-25 0 -38 14t-24 42l-276 688q-5 11 -8 24.5t-3 36.5q0 19 3 34t8 26l276 690q9 26 22.5 40.5t39.5 14.5h125q24 0 38 -14.5t23 -40.5l274 -690q11 -24 11 -60zM471 1161l-215 -588
l215 -600l215 600z" />
    <glyph glyph-name="lessequal" unicode="&#x2264;" horiz-adv-x="1053" 
d="M952 416q0 -17 -8 -27t-20 -10q-8 0 -20.5 2.5t-24.5 7.5l-725 301q-29 13 -44.5 28t-15.5 44v69q0 29 15.5 46.5t44.5 29.5l725 301q12 5 24.5 8t20.5 3q12 0 20 -10t8 -27v-101q0 -24 -14 -37t-39 -22l-592 -227l592 -224q25 -9 39 -21.5t14 -37.5v-96zM952 106
q0 -24 -10.5 -36.5t-38.5 -12.5h-762q-26 0 -37.5 12.5t-11.5 36.5v76q0 25 10.5 37t36.5 12h766q26 0 36.5 -12t10.5 -37v-76z" />
    <glyph glyph-name="greaterequal" unicode="&#x2265;" horiz-adv-x="1053" 
d="M963 762q0 -29 -15.5 -44t-44.5 -28l-725 -301q-12 -5 -24.5 -7.5t-20.5 -2.5q-12 0 -20.5 10t-8.5 27v96q0 25 14.5 37.5t39.5 21.5l592 224l-592 227q-25 9 -39.5 22t-14.5 37v101q0 17 8.5 27t20.5 10q8 0 20.5 -3t24.5 -8l725 -301q29 -12 44.5 -29.5t15.5 -46.5v-69
zM963 106q0 -24 -11 -36.5t-37 -12.5h-761q-28 0 -39 12.5t-11 36.5v76q0 25 10 37t38 12h763q26 0 37 -12t11 -37v-76z" />
    <glyph glyph-name="apple" unicode="&#xf8ff;" horiz-adv-x="1208" 
d="M117 1366h977v-1366h-977v1366zM606 772l330 498h-664zM215 186l332 498l-332 496v-994zM666 684l333 -498v994zM606 598l-334 -500h664z" />
    <glyph glyph-name="uni2215" unicode="&#x2215;" horiz-adv-x="809" 
d="M829 1374q0 -9 -3 -17.5t-9 -21.5l-655 -1327q-16 -31 -31 -44t-35 -13h-82q-14 0 -22 5.5t-8 16.5q0 10 3 18t9 19l655 1329q16 28 30.5 42t37.5 14h82q12 0 20 -6.5t8 -14.5z" />
    <glyph glyph-name="uni00ad" unicode="&#xad;" horiz-adv-x="592" 
d="M543 455q0 -47 -49 -47h-394q-23 0 -36 11t-13 34v98q0 47 45 47h402q45 0 45 -47v-96v0z" />
    <glyph glyph-name="uni03a9" unicode="&#x3a9;" horiz-adv-x="1161" 
d="M1110 43q0 -20 -12.5 -31.5t-32.5 -11.5h-365q-21 0 -33 11.5t-12 31.5v68q0 21 4.5 38t20.5 37q21 26 51 79t58.5 124.5t48.5 158t20 181.5q0 50 -3.5 105t-13.5 107.5t-28.5 100t-49.5 84t-76 57.5t-107 21q-63 0 -107.5 -21t-75.5 -57.5t-49.5 -84t-28.5 -100
t-13 -107.5t-3 -105q0 -95 20 -181.5t48.5 -158t58.5 -124.5t51 -79q16 -20 20.5 -37t4.5 -38v-68q0 -20 -12 -31.5t-33 -11.5h-363q-21 0 -34 11.5t-13 31.5v94q0 22 12.5 33.5t30.5 11.5h191q-63 78 -102.5 153.5t-62 147.5t-30.5 139t-8 128q0 67 8.5 141t30.5 145.5
t58 136.5t92 114.5t132.5 78.5t178.5 29q101 0 177.5 -28t131.5 -76t91.5 -111.5t58 -133.5t30 -143.5t8.5 -140.5q0 -61 -8.5 -130t-31.5 -143t-63 -151.5t-102 -155.5h195q19 0 30 -11.5t11 -33.5v-94v0z" />
    <glyph glyph-name="uni03bc" unicode="&#x3bc;" horiz-adv-x="995" 
d="M877 57q0 -57 -56 -57h-71q-34 0 -47 14.5t-13 40.5v101q-24 -36 -55.5 -67t-67 -54.5t-74.5 -37t-79 -13.5q-63 0 -99 26v-327q0 -28 -12.5 -42t-44.5 -14h-86q-55 0 -55 58v1255q0 55 55 55h90q53 0 53 -57v-666q0 -25 10.5 -44t27.5 -32t37.5 -19.5t41.5 -6.5
q51 0 104 30t97 81q14 16 22.5 30t13.5 30t7 35.5t2 47.5v512q0 29 12 44t49 15h78q34 0 47 -14.5t13 -42.5v-881v0z" />
    <glyph glyph-name="uni02c9" unicode="&#x2c9;" horiz-adv-x="674" 
d="M639 1208q0 -20 -10.5 -32.5t-32.5 -12.5h-512q-23 0 -35 12t-12 33v56q0 21 11 33t34 12h514q22 0 32.5 -12t10.5 -33v-56v0z" />
    <glyph glyph-name="uni2219" unicode="&#x2219;" horiz-adv-x="715" 
d="M479 1233q0 -26 -9.5 -48t-25.5 -39t-38.5 -26.5t-47.5 -9.5t-47 9.5t-38 26.5t-25.5 39t-9.5 48q0 25 9.5 47t25.5 38.5t38 26t47 9.5t47.5 -9.5t38.5 -26t25.5 -38.5t9.5 -47z" />
    <glyph glyph-name="dotaccent" unicode="&#x2d9;" horiz-adv-x="715" 
d="M479 1233q0 -26 -9.5 -48t-25.5 -39t-38.5 -26.5t-47.5 -9.5t-47 9.5t-38 26.5t-25.5 39t-9.5 48q0 25 9.5 47t25.5 38.5t38 26t47 9.5t47.5 -9.5t38.5 -26t25.5 -38.5t9.5 -47z" />
    <glyph glyph-name="breve" unicode="&#x2d8;" horiz-adv-x="684" 
d="M612 1366q13 0 19.5 -6t3.5 -19q-20 -112 -95 -175.5t-208 -63.5q-116 0 -190 61.5t-91 173.5q-3 11 2.5 20t22.5 9h55q22 0 30.5 -5.5t14.5 -21.5q25 -54 65 -76t99 -22q63 0 105 21.5t65 76.5q6 14 13.5 20.5t29.5 6.5h59v0z" />
    </font>
</defs>
</svg>
