<?xml version="1.0" standalone="no"?>
<!DOCTYPE svg PUBLIC "-//W3C//DTD SVG 1.1//EN" "http://www.w3.org/Graphics/SVG/1.1/DTD/svg11.dtd" >
<svg>
<metadata>
Created by FontForge 20120731 at Wed Oct 14 21:54:40 2020
 By www
Digital Outlines Copyright \(C\)2003/2016 Jason Walcott/Jukebox. All Rights Reserved.
</metadata>
<defs>
<font id="CabernetJFPro-Regular" horiz-adv-x="799" >
  <font-face 
    font-family="CabernetJFPro"
    font-weight="400"
    font-stretch="normal"
    units-per-em="1000"
    panose-1="0 0 0 0 0 0 0 0 0 0"
    ascent="740"
    descent="-260"
    x-height="484"
    cap-height="761"
    bbox="-279 -533 1855 1089"
    underline-thickness="20"
    underline-position="-113"
    stemh="20"
    stemv="119"
    unicode-range="U+000D-FB04"
  />
<missing-glyph horiz-adv-x="300" 
 />
    <glyph glyph-name="fi" unicode="fi" horiz-adv-x="758" 
d="M733 12v-12h-304v12c13 1 57 24 57 73v252c0 62 -39 72 -55 72v11l232 74c13 4 25 5 25 -16v-395c0 -54 31 -70 45 -71zM690 621c0 -61 -50 -112 -112 -112s-112 50 -112 112c0 38 19 71 47 92c-3 14 -29 52 -97 52c-48 0 -109 -45 -109 -106v-172h107c11 0 13 -4 10 -9
l-27 -46c-4 -6 -12 -12 -19 -12h-71v-321c0 -50 52 -87 71 -87v-12h-353v12c14 0 78 30 78 90v318h-70c-5 0 -10 6 -8 10l29 48c5 8 9 9 16 9h33v65c0 171 165 245 319 245c137 0 268 -65 268 -176z" />
    <glyph glyph-name="fl" unicode="fl" horiz-adv-x="745" 
d="M733 12v-12h-303v12c13 1 57 24 57 73c0 644 0 499 0 499c0 85 -30 159 -90 159c-35 0 -90 -23 -90 -151v-105h107c11 0 13 -4 10 -9l-27 -46c-4 -6 -12 -12 -19 -12h-71v-321c0 -50 52 -87 71 -87v-12h-353v12c14 0 78 30 78 90v318h-70c-5 0 -10 6 -8 10l29 48
c5 8 9 9 16 9h33v80c0 156 98 227 246 227c84 0 136 -25 163 -57l146 47c13 4 25 5 25 -16v-685c0 -54 31 -71 50 -71z" />
    <glyph glyph-name="ff" unicode="ff" horiz-adv-x="801" 
d="M902 676c0 -64 -47 -97 -96 -97c-46 0 -84 36 -84 82c0 63 46 75 46 93c0 9 -11 16 -25 16c-16 0 -69 -18 -69 -79v-204h107c11 0 13 -4 10 -9l-27 -46c-4 -6 -12 -12 -19 -12h-71v-321c0 -50 52 -87 71 -87v-12h-353v12c14 0 78 30 78 90v318h-163v-321
c0 -50 52 -87 71 -87v-12h-353v12c14 0 78 30 78 90v318h-70c-5 0 -10 6 -8 10l29 48c5 8 9 9 16 9h33v80c0 156 98 227 246 227c95 0 149 -32 172 -71c43 48 111 71 195 71c132 0 186 -61 186 -118zM470 487v130c0 116 -22 153 -82 153c-40 0 -81 -40 -81 -137v-146h163z
" />
    <glyph glyph-name="ffi" unicode="ffi" horiz-adv-x="1123" 
d="M1055 621c0 -61 -50 -112 -112 -112s-112 50 -112 112c0 38 19 71 47 92c-3 14 -29 59 -95 59c-72 0 -111 -52 -111 -113v-172h107c11 0 13 -4 10 -9l-27 -46c-4 -6 -12 -12 -19 -12h-71v-321c0 -50 52 -87 71 -87v-12h-353v12c14 0 78 30 78 90v318h-161v-321
c0 -50 52 -87 71 -87v-12h-353v12c14 0 78 30 78 90v318h-70c-5 0 -10 6 -8 10l29 48c5 8 9 9 16 9h33v80c0 156 98 227 246 227c93 0 151 -33 176 -93c61 66 164 96 262 96c137 0 268 -65 268 -176zM1098 12v-12h-304v12c13 1 57 24 57 73v252c0 62 -39 72 -55 72v11
l232 74c13 4 25 5 25 -16v-395c0 -54 31 -70 45 -71zM468 487l1 145c2 99 -28 137 -82 137s-81 -40 -81 -137l1 -145h124h4h33z" />
    <glyph glyph-name="ffl" unicode="ffl" horiz-adv-x="1128" 
d="M520 703l-1 -4c41 64 116 95 213 95c84 0 136 -25 163 -57l146 47c13 4 25 5 25 -16v-685c0 -54 31 -71 50 -71v-12h-303v12c13 1 57 24 57 73v515c0 85 -30 159 -90 159c-35 0 -90 -23 -90 -151v-121h107c11 0 13 -4 10 -9l-27 -46c-4 -6 -12 -12 -19 -12h-71v-321
c0 -50 52 -87 71 -87v-12h-353v12c14 0 78 30 78 90v318h-70h-1h-108v-321c0 -50 52 -87 71 -87v-12h-353v12c14 0 78 30 78 90v318h-70c-5 0 -10 6 -8 10l29 48c5 8 9 9 16 9h33v80c0 156 98 227 246 227c106 0 150 -54 171 -91zM486 583c0 19 1 37 4 53
c-9 65 -35 123 -93 123c-35 0 -90 -23 -90 -151v-121h142h4h33v96z" />
    <glyph glyph-name=".notdef" horiz-adv-x="300" 
 />
    <glyph glyph-name="NULL" horiz-adv-x="0" 
 />
    <glyph glyph-name="NULL" horiz-adv-x="0" 
 />
    <glyph glyph-name="CR" unicode="&#xd;" horiz-adv-x="300" 
 />
    <glyph glyph-name="space" unicode=" " horiz-adv-x="300" 
 />
    <glyph glyph-name="numbersign" unicode="#" horiz-adv-x="618" 
d="M464 494h139l-10 -38h-139l-34 -129h139l-10 -37h-139l-74 -290h-41l74 290h-156l-75 -290h-41l75 290h-139l10 37h139l34 129h-139l9 38h140l69 266h41l-69 -266h156l69 266h41zM379 327l34 129h-156l-34 -129h156z" />
    <glyph glyph-name="dollar" unicode="$" horiz-adv-x="536" 
d="M488 278c0 -108 -93 -191 -207 -203v-78c0 -10 -8 -15 -17 -15c-8 0 -15 7 -15 15v76c-65 1 -97 34 -149 34c-27 0 -50 -20 -54 -20s-6 1 -6 14v242c0 8 7 15 10 0c5 -26 25 -90 59 -148c34 -57 80 -107 139 -107h1v185c-24 13 -50 26 -75 40c-69 38 -134 86 -134 175
c0 110 106 187 209 191v88c0 10 8 15 17 15c8 0 15 -7 15 -15v-89c58 -5 100 -28 130 -28c33 0 39 12 44 12s7 -3 7 -9v-193c0 -14 -12 -15 -15 1c-6 26 -29 77 -61 121c-29 40 -66 74 -105 80v-173c20 -11 42 -21 64 -32c72 -36 143 -82 143 -179zM249 507v153
c-34 -8 -59 -34 -59 -66c0 -38 24 -64 59 -87zM332 180c0 30 -21 53 -51 73v-157c29 13 51 45 51 84z" />
    <glyph glyph-name="percent" unicode="%" horiz-adv-x="879" 
d="M829 213c0 -126 -86 -227 -192 -227s-192 101 -192 227s86 227 192 227s192 -101 192 -227zM769 743l-605 -737c-6 -6 -20 -15 -28 -15h-13c-8 0 -20 9 -15 15l606 737c5 7 19 15 27 15h13c9 0 21 -8 15 -15zM434 548c0 -126 -86 -228 -192 -228s-192 102 -192 228
c0 125 86 227 192 227s192 -102 192 -227zM698 212c0 120 -5 218 -64 218c-52 0 -63 -98 -63 -218c0 -121 3 -218 63 -218c55 0 64 97 64 218zM303 546c0 121 -5 218 -63 218c-52 0 -64 -97 -64 -218c0 -120 4 -218 64 -218c55 0 63 98 63 218z" />
    <glyph glyph-name="ampersand" unicode="&#x26;" horiz-adv-x="918" 
d="M902 98c0 -1 -14 -21 -16 -23c-42 -60 -102 -99 -177 -99c-94 0 -161 65 -216 134c-63 -63 -159 -126 -252 -126c-100 0 -205 71 -205 180c0 126 146 211 247 257c-25 42 -68 122 -68 173c0 110 81 185 190 185c76 0 157 -36 157 -123c0 -58 -45 -107 -89 -140
c43 -76 92 -148 143 -218c42 50 106 127 177 127c44 0 91 -34 91 -81c0 -44 -31 -82 -78 -82c-46 0 -72 25 -76 70c-1 7 0 25 -13 25c-25 0 -71 -62 -84 -80c25 -34 141 -196 193 -196c24 0 52 7 65 28c8 1 11 -4 11 -11zM513 663c0 28 -12 80 -47 80c-41 0 -50 -55 -50 -85
c0 -31 29 -92 43 -120c38 31 54 78 54 125zM474 135c-63 84 -124 173 -178 263c-45 -23 -66 -62 -66 -112c0 -75 66 -193 150 -193c36 0 68 20 94 42z" />
    <glyph glyph-name="quoteright" unicode="&#x2019;" horiz-adv-x="303" 
d="M271 753c0 -73 -43 -130 -93 -170c-9 -6 -29 -23 -41 -23c-7 0 -15 5 -15 13c0 3 1 6 3 7c28 17 90 69 90 122c-22 -12 -47 -22 -73 -22c-51 0 -89 40 -89 90c0 59 47 101 105 101c67 0 113 -53 113 -118z" />
    <glyph glyph-name="parenleft" unicode="(" horiz-adv-x="454" 
d="M408 907c0 -10 -8 -14 -12 -17c-40 -27 -69 -61 -95 -115c-46 -97 -59 -275 -59 -393c0 -142 16 -336 83 -442c19 -30 45 -51 70 -66c5 -3 12 -8 12 -19c0 -16 -19 -15 -26 -15c-133 0 -295 287 -295 542c0 240 161 540 296 540c7 0 26 2 26 -15z" />
    <glyph glyph-name="parenright" unicode=")" horiz-adv-x="451" 
d="M404 385c0 -255 -161 -542 -304 -542c-6 0 -26 -1 -26 15c0 11 7 16 13 19c25 16 51 36 71 66c69 106 86 300 86 443c0 117 -13 296 -61 392c-27 54 -56 88 -97 115c-5 3 -13 8 -13 18c0 16 20 15 26 15c127 0 305 -301 305 -541z" />
    <glyph glyph-name="asterisk" unicode="*" horiz-adv-x="423" 
d="M378 669c0 -26 -24 -50 -50 -50c-13 0 -27 5 -40 5c-20 0 -37 -9 -55 -17c18 -8 35 -17 55 -17c14 0 27 5 41 5c26 0 49 -25 49 -50c0 -30 -26 -51 -54 -51c-40 0 -42 37 -57 62c-10 17 -26 28 -41 39c2 -19 3 -39 13 -56c11 -20 30 -31 30 -58c0 -29 -22 -49 -51 -49
c-28 0 -50 21 -50 49s19 37 31 58c10 17 11 37 13 56c-16 -11 -32 -22 -42 -39c-15 -25 -17 -62 -57 -62c-28 0 -53 21 -53 51c0 25 23 50 49 50c13 0 27 -5 41 -5c20 0 37 9 55 17c-18 8 -35 17 -55 17c-14 0 -27 -5 -41 -5c-26 0 -50 24 -50 50c0 29 26 51 54 51
c40 0 42 -36 57 -62c10 -17 26 -28 42 -39c-2 19 -3 38 -13 55c-12 21 -31 31 -31 59s23 49 50 49c28 0 52 -21 52 -49c0 -26 -20 -38 -31 -59c-10 -17 -11 -36 -13 -55c15 11 31 22 41 39c15 26 17 62 58 62c28 0 53 -22 53 -51z" />
    <glyph glyph-name="plus" unicode="+" horiz-adv-x="764" 
d="M674 400v-49h-268v-273h-48v273h-270v49h270v274h48v-274h268z" />
    <glyph glyph-name="comma" unicode="," horiz-adv-x="331" 
d="M273 55c0 -73 -43 -130 -93 -170c-9 -6 -29 -23 -41 -23c-7 0 -15 5 -15 13c0 3 1 6 3 7c28 17 90 69 90 122c-22 -12 -47 -22 -73 -22c-51 0 -89 40 -89 90c0 59 47 101 105 101c67 0 113 -53 113 -118z" />
    <glyph glyph-name="hyphen" unicode="-" horiz-adv-x="357" 
d="M304 332v-47c0 -8 -7 -15 -15 -15h-222c-8 0 -15 7 -15 15v47c0 8 7 15 15 15h222c8 0 15 -7 15 -15z" />
    <glyph glyph-name="period" unicode="." horiz-adv-x="312" 
d="M268 78c0 -57 -51 -95 -105 -95s-105 38 -105 95s52 94 105 94s105 -38 105 -94z" />
    <glyph glyph-name="slash" unicode="/" horiz-adv-x="353" 
d="M340 795h59l-297 -887h-59z" />
    <glyph glyph-name="zero" unicode="0" horiz-adv-x="720" 
d="M696 382c0 -219 -150 -397 -336 -397c-185 0 -335 178 -335 397c0 220 150 398 335 398c186 0 336 -178 336 -398zM467 380c0 210 -9 381 -111 381c-91 0 -111 -171 -111 -381c0 -211 6 -381 111 -381c96 0 111 170 111 381z" />
    <glyph glyph-name="one" unicode="1" horiz-adv-x="417" 
d="M386 12v-12h-352v12c26 0 73 20 73 73v475c0 46 -25 88 -77 88v11l268 115c13 5 25 5 25 -16v-675c0 -54 43 -71 63 -71z" />
    <glyph glyph-name="two" unicode="2" horiz-adv-x="621" 
d="M594 250l-54 -240c-2 -7 -5 -10 -14 -10h-438c-7 0 -11 4 -11 10c0 0 0 41 2 62c12 111 94 153 162 224c51 53 93 123 93 249c0 147 -49 193 -125 193c-55 0 -91 -29 -91 -43c0 -13 16 -2 41 -2c66 0 113 -40 113 -105s-50 -109 -106 -109c-58 0 -112 43 -112 120
c0 96 81 179 237 179c167 0 276 -86 276 -209c0 -156 -130 -199 -250 -262c-58 -32 -115 -69 -151 -127c-5 -7 0 -11 7 -11h270c71 0 115 36 140 86c7 14 13 7 11 -5z" />
    <glyph glyph-name="three" unicode="3" horiz-adv-x="629" 
d="M594 203c0 -115 -128 -217 -295 -217c-156 0 -250 75 -250 179c0 73 54 116 109 116c58 0 105 -44 105 -97c0 -74 -53 -95 -82 -98c-23 -3 -40 -7 -40 -18c0 -26 46 -55 90 -55c80 0 135 32 135 203c0 151 -66 176 -172 176c-8 2 -8 16 -4 18c80 0 145 18 145 169
c0 110 -49 153 -104 153c-42 0 -72 -23 -72 -36c0 -6 2 -8 6 -7c5 0 15 3 29 3c45 0 105 -40 105 -106s-53 -105 -104 -105s-114 38 -114 117c0 112 100 178 225 178c131 0 243 -70 243 -184c0 -121 -107 -175 -167 -175v-8c91 0 212 -78 212 -206z" />
    <glyph glyph-name="four" unicode="4" horiz-adv-x="653" 
d="M606 282v-33c0 -10 -6 -14 -13 -14h-89v-131c0 -54 42 -88 84 -88v-16h-407v16c52 0 105 28 105 88v131h-262c-8 0 -14 7 -7 19l328 496c3 4 8 10 16 10h132c6 0 11 -8 11 -16v-447h87c9 0 15 -7 15 -15zM104 297h182v287c0 9 -4 18 -12 7l-185 -278c-5 -7 -5 -16 15 -16
z" />
    <glyph glyph-name="five" unicode="5" horiz-adv-x="609" 
d="M572 267c0 -163 -146 -282 -305 -282c-158 0 -226 94 -226 171c0 76 50 129 113 129s106 -53 106 -104c0 -67 -53 -105 -109 -105c-18 0 -35 6 -39 6c-3 0 -10 0 -10 -5c0 -20 47 -58 97 -58c108 0 140 79 140 221s-20 214 -109 214c-77 0 -111 -49 -131 -83
c-10 -7 -26 -1 -22 17l77 355c2 9 4 16 19 16h304c19 0 49 5 53 9s13 3 10 -8l-22 -91c-11 -46 -41 -60 -79 -60h-239c-16 0 -48 -6 -55 -39c0 0 -24 -122 -26 -129l4 -1c7 8 73 68 179 68c135 0 270 -79 270 -241z" />
    <glyph glyph-name="six" unicode="6" horiz-adv-x="639" 
d="M606 260c0 -163 -107 -275 -274 -275c-166 0 -295 128 -295 378c0 251 164 415 336 415c127 0 192 -69 192 -149c0 -67 -40 -109 -95 -109c-54 0 -95 43 -95 101c0 56 36 76 59 91c10 6 18 11 18 18c0 13 -20 29 -61 29c-99 0 -137 -132 -137 -288c0 -11 0 -19 1 -24
c2 -8 5 -8 12 -1c18 19 54 47 129 47c84 0 210 -70 210 -233zM407 237c0 136 -19 221 -73 221s-83 -81 -83 -223s15 -235 74 -235c54 0 82 100 82 237z" />
    <glyph glyph-name="seven" unicode="7" horiz-adv-x="559" 
d="M547 746c0 -9 4 -72 -31 -163c-21 -53 -71 -109 -117 -181c-46 -74 -87 -166 -87 -291c0 -62 12 -94 14 -102c3 -8 -2 -9 -11 -9h-226c-6 0 -7 6 -7 16s7 146 63 236c49 78 140 146 222 201c74 48 128 115 128 139c0 9 -4 16 -16 16h-314c-74 0 -123 -41 -123 -74h-13
l18 207c1 9 3 18 10 18h475c6 0 15 -3 15 -13z" />
    <glyph glyph-name="eight" unicode="8" horiz-adv-x="644" 
d="M608 235c0 -172 -185 -248 -319 -248c-129 0 -246 71 -246 197c0 86 74 137 143 166c-61 43 -111 100 -111 197c0 140 113 229 247 229c119 0 220 -57 220 -163c0 -65 -50 -116 -103 -148c86 -41 169 -94 169 -230zM477 612c0 87 -51 139 -118 139s-110 -37 -110 -102
c0 -97 78 -132 161 -170c39 22 67 64 67 133zM418 152c0 89 -109 122 -204 180c-54 -25 -84 -78 -84 -152c0 -105 52 -175 139 -175c88 0 149 53 149 147z" />
    <glyph glyph-name="nine" unicode="9" horiz-adv-x="643" 
d="M606 400c0 -251 -164 -415 -335 -415c-128 0 -193 69 -193 149c0 67 40 110 95 110s95 -44 95 -102c0 -56 -36 -76 -59 -91c-10 -6 -18 -11 -18 -18c0 -13 20 -29 61 -29c99 0 137 132 137 288c0 11 0 19 -1 24c-1 8 -5 8 -12 1c-18 -19 -54 -47 -129 -47
c-84 0 -210 70 -210 233s108 275 274 275c167 0 295 -128 295 -378zM393 528c0 142 -16 235 -75 235c-53 0 -81 -100 -81 -237c0 -136 18 -221 72 -221c55 0 84 81 84 223z" />
    <glyph glyph-name="colon" unicode=":" horiz-adv-x="334" 
d="M276 402c0 -56 -52 -94 -105 -94s-104 38 -104 94c0 57 50 95 104 95s105 -38 105 -95zM276 78c0 -57 -51 -95 -105 -95s-104 38 -104 95c0 56 51 94 104 94s105 -38 105 -94z" />
    <glyph glyph-name="semicolon" unicode=";" horiz-adv-x="343" 
d="M280 402c0 -56 -52 -94 -105 -94s-105 37 -105 94s51 95 105 95s105 -38 105 -95zM287 55c0 -73 -43 -130 -93 -170c-9 -6 -29 -23 -41 -23c-7 0 -15 5 -15 13c0 3 1 6 3 7c28 17 90 69 90 122c-22 -12 -47 -22 -73 -22c-51 0 -89 40 -89 90c0 59 47 101 105 101
c67 0 113 -53 113 -118z" />
    <glyph glyph-name="less" unicode="&#x3c;" horiz-adv-x="704" 
d="M633 96v-53l-574 234v41l574 237v-53l-498 -203z" />
    <glyph glyph-name="equal" unicode="=" horiz-adv-x="764" 
d="M681 474v-47h-586v47h586zM681 292v-46h-586v46h586z" />
    <glyph glyph-name="greater" unicode="&#x3e;" horiz-adv-x="725" 
d="M664 318v-41l-574 -234v53l500 203l-500 203v53z" />
    <glyph glyph-name="question" unicode="?" horiz-adv-x="522" 
d="M499 591c0 -106 -74 -157 -137 -204c-48 -36 -90 -69 -90 -122c0 -21 14 -38 28 -53l-15 -15c-24 22 -41 47 -41 80c0 40 25 91 49 148c22 53 44 112 44 172c0 72 -26 157 -119 157c-71 0 -117 -52 -133 -77c22 12 39 22 65 22c54 0 93 -41 93 -99
c0 -61 -46 -110 -107 -110s-104 52 -104 111c0 95 92 181 240 181c134 0 227 -80 227 -191zM377 78c0 -56 -52 -95 -105 -95c-54 0 -105 38 -105 95c0 56 52 94 105 94s105 -38 105 -94z" />
    <glyph glyph-name="at" unicode="@" horiz-adv-x="958" 
d="M930 377c0 -190 -132 -327 -250 -327v-1c-44 0 -93 23 -110 88c-31 -44 -75 -85 -142 -85c-84 0 -154 60 -154 173c0 107 95 280 255 280c33 0 83 -10 108 -73l17 62h110l-89 -312c-5 -18 -8 -33 -8 -46c0 -27 10 -38 30 -38c55 0 186 82 186 278
c0 173 -130 294 -323 294c-224 0 -410 -173 -410 -419c0 -211 140 -348 370 -348c177 0 309 103 309 103l30 -34c-77 -59 -174 -118 -345 -118c-289 0 -474 160 -474 404c0 208 156 461 506 461c250 0 384 -153 384 -342zM599 379c0 55 -19 78 -53 78
c-58 0 -153 -134 -153 -275c0 -38 9 -83 50 -83c72 0 156 166 156 280z" />
    <glyph glyph-name="A" unicode="A" horiz-adv-x="786" 
d="M804 12v-12h-442v12c14 0 74 33 74 104c0 15 -3 32 -10 50l-43 121h-201l-28 -80c-6 -19 -13 -48 -13 -69c0 -82 59 -126 89 -126v-12h-239v12c19 0 74 41 107 132l168 471l-14 40c-4 11 -3 22 9 27c66 27 133 86 165 135c8 12 17 14 21 2l243 -663
c31 -86 81 -144 114 -144zM191 315h182l-92 250z" />
    <glyph glyph-name="B" unicode="B" horiz-adv-x="802" 
d="M781 215c0 -139 -116 -215 -251 -215h-512v12c38 0 104 52 104 148v466c0 72 -63 121 -98 121v13h480c114 0 230 -51 230 -177c0 -123 -130 -175 -172 -175v-6c46 0 219 -26 219 -187zM500 563c0 124 -31 180 -88 180c-50 0 -59 -38 -59 -74v-250c0 -11 5 -14 10 -14h54
c40 0 83 34 83 158zM541 206c0 132 -69 181 -124 181h-49c-8 0 -15 -7 -15 -13v-279c0 -43 29 -72 75 -72c53 0 113 52 113 183z" />
    <glyph glyph-name="C" unicode="C" horiz-adv-x="794" 
d="M727 323v-299c0 -12 -10 -19 -17 -19c-8 0 -28 28 -53 28c-43 0 -103 -51 -239 -51c-229 0 -392 158 -392 407c0 251 230 390 403 390c143 0 180 -52 224 -52c39 0 57 34 64 34c8 0 10 0 10 -11v-264c0 -19 -17 -25 -24 -2c-13 41 -44 119 -91 181c-38 51 -86 91 -144 91
c-107 0 -183 -121 -183 -389c0 -279 61 -363 167 -363c71 0 135 74 181 154c36 61 61 127 72 167c8 30 22 15 22 -2z" />
    <glyph glyph-name="D" unicode="D" horiz-adv-x="846" 
d="M825 385c0 -234 -169 -385 -371 -385h-429v12c21 0 86 31 86 106v516c0 82 -64 113 -85 113v13h430c205 0 369 -142 369 -375zM565 400c0 229 -31 340 -140 340c-58 0 -77 -32 -77 -73v-561c0 -56 32 -80 76 -80c103 0 141 145 141 374z" />
    <glyph glyph-name="E" unicode="E" 
d="M763 341l-36 -325c-1 -12 -22 -16 -22 -16h-675v13c34 0 118 40 118 142v453c0 95 -72 139 -109 139v12h672s17 -1 18 -13l15 -295c1 -14 -11 -24 -19 0c-13 37 -54 112 -106 175c-49 59 -108 108 -161 108c-39 0 -72 -26 -72 -83v-238h23c105 0 159 117 159 159l12 -1
v-353h-16c0 42 -50 168 -155 168h-23v-282c0 -38 20 -75 60 -75c69 0 135 58 188 124c59 75 102 160 112 185c8 17 19 21 17 3z" />
    <glyph glyph-name="F" unicode="F" horiz-adv-x="781" 
d="M729 746l15 -295c1 -14 -11 -24 -19 0c-13 37 -54 112 -106 175c-49 59 -108 108 -161 108c-39 0 -72 -26 -72 -83v-238h23c105 0 159 117 159 159l12 -1v-353h-16c0 42 -50 168 -155 168h-23v-232c0 -100 64 -138 103 -138v-16h-459v13c34 0 118 40 118 142v453
c0 95 -72 139 -109 139v12h672s17 -1 18 -13z" />
    <glyph glyph-name="G" unicode="G" horiz-adv-x="815" 
d="M817 399v-12c-42 0 -92 -41 -92 -105v-256c0 -10 -2 -16 -8 -16c-7 0 -37 34 -74 34c-53 0 -143 -60 -249 -60c-186 0 -368 134 -368 383s190 412 387 412c87 0 177 -36 211 -36s51 18 58 18c8 0 8 -1 8 -14l18 -267c2 -17 -10 -15 -18 7c-20 59 -133 268 -255 268
c-100 0 -152 -147 -152 -401c0 -226 29 -352 112 -352c84 0 92 88 92 210c0 119 -40 175 -101 175v12h431z" />
    <glyph glyph-name="H" unicode="H" horiz-adv-x="921" 
d="M897 759v-13c-34 0 -92 -40 -92 -128v-488c0 -87 71 -118 89 -118v-12h-414v12c29 0 91 32 91 118v267h-221v-267c0 -87 71 -118 89 -118v-12h-414v12c29 0 91 32 91 118v488c0 88 -52 128 -92 128v13h418v-13c-34 0 -92 -40 -92 -128v-192h221v192c0 88 -52 128 -92 128
v13h418z" />
    <glyph glyph-name="I" unicode="I" horiz-adv-x="499" 
d="M458 761v-13c-34 0 -92 -40 -92 -128v-490c0 -87 71 -118 89 -118v-12h-414v12c29 0 91 32 91 118v490c0 88 -51 128 -91 128l-1 13h418z" />
    <glyph glyph-name="J" unicode="J" horiz-adv-x="670" 
d="M672 760v-9c-28 0 -101 -35 -101 -123v-393c0 -178 -120 -268 -286 -268c-156 0 -259 62 -259 173c0 66 44 107 102 107s101 -43 101 -99c0 -57 -41 -92 -97 -92c-11 0 -18 5 -24 5s-11 -2 -11 -8c0 -20 50 -45 103 -45c95 0 134 77 134 194v426c0 89 -62 123 -100 123v9
h438z" />
    <glyph glyph-name="K" unicode="K" horiz-adv-x="900" 
d="M909 16v-16h-271c-23 0 -38 10 -48 27c0 0 -7 13 -184 316l-47 -53v-161c0 -86 106 -117 125 -117v-12h-465v12c28 0 107 31 107 117v491c0 88 -53 128 -92 128v13h423v-13c-34 0 -98 -40 -98 -128v-291c174 192 222 254 222 254c24 28 34 58 34 85c0 43 -29 79 -65 79
v14h288v-14c-23 0 -111 -33 -212 -152c0 0 -16 -21 -59 -69c219 -383 244 -420 244 -420c36 -61 78 -90 98 -90z" />
    <glyph glyph-name="L" unicode="L" 
d="M763 341l-36 -325c-1 -12 -22 -16 -22 -16h-675v13c34 0 118 40 118 142v453c0 95 -72 139 -109 139v12h459v-14c-44 0 -112 -42 -112 -129v-512c0 -38 20 -75 60 -75c69 0 135 58 188 124c59 75 102 160 112 185c8 17 19 21 17 3z" />
    <glyph glyph-name="M" unicode="M" horiz-adv-x="1055" 
d="M1014 761v-14c-25 0 -82 -28 -82 -96v-515c0 -70 50 -122 78 -122v-14h-397v13c22 0 81 40 81 132v524l-216 -660c-4 -14 -14 -19 -24 4l-274 625v-350c0 -150 83 -275 136 -275v-13h-301v11c32 0 142 93 142 263v400c0 17 -53 73 -82 73v14h287c13 0 21 -5 26 -18
l163 -389c4 -11 11 -12 15 2l131 396c1 2 5 9 17 9h300z" />
    <glyph glyph-name="N" unicode="N" horiz-adv-x="859" 
d="M854 760v-14c-36 0 -150 -96 -150 -284v-462h-146l-359 593v-303c0 -212 138 -277 183 -277v-13h-365v14c45 0 155 67 155 275v281c0 105 -89 179 -127 179v11h325c12 0 11 0 17 -9l291 -472v184c0 201 -136 285 -174 285v12h350z" />
    <glyph glyph-name="O" unicode="O" horiz-adv-x="866" 
d="M838 382c0 -221 -181 -400 -405 -400s-405 179 -405 400s181 400 405 400s405 -179 405 -400zM576 380c0 210 -25 380 -144 380c-131 0 -144 -170 -144 -380s9 -380 144 -380c122 0 144 170 144 380z" />
    <glyph glyph-name="P" unicode="P" horiz-adv-x="753" 
d="M748 548c0 -150 -146 -211 -288 -211h-104v-196c0 -79 62 -128 118 -128v-13h-458v13c50 0 114 46 114 128v470c0 77 -36 136 -83 136v13h445c152 0 256 -83 256 -212zM519 562c0 164 -61 173 -94 173c-32 0 -69 -14 -69 -64v-309h64c44 0 99 43 99 200z" />
    <glyph glyph-name="Q" unicode="Q" horiz-adv-x="895" 
d="M877 49c0 -162 -44 -324 -171 -324c-94 0 -137 69 -171 135c-32 62 -57 122 -109 122c-39 0 -73 -33 -73 -54c0 -5 3 -9 11 -9c27 0 77 -31 77 -90c0 -52 -47 -86 -89 -86c-44 0 -86 43 -86 96c0 70 47 129 103 151c-186 36 -326 198 -326 392c0 220 181 399 405 399
s405 -179 405 -399c0 -192 -136 -351 -318 -391c54 -21 132 -75 193 -75c111 0 129 112 129 137c6 6 18 5 20 -4zM588 380c0 209 -13 379 -141 379c-131 0 -144 -170 -144 -379c0 -210 9 -380 144 -380c115 0 141 155 141 380z" />
    <glyph glyph-name="R" unicode="R" horiz-adv-x="825" 
d="M831 12v-12h-267c-12 0 -18 6 -23 18l-104 302c-12 36 -36 39 -48 39c-9 0 -21 -7 -21 -23v-187c0 -100 85 -136 116 -136v-13h-477v13c61 0 126 45 126 136v476c0 79 -67 121 -101 121v12h463c127 0 251 -64 251 -192c0 -129 -118 -175 -181 -187v-4
c44 0 76 -24 101 -57c56 -73 76 -200 109 -251c22 -33 48 -55 56 -55zM514 563c0 104 -34 168 -92 168c-39 0 -54 -35 -54 -74v-269h40c66 0 106 71 106 175z" />
    <glyph glyph-name="S" unicode="S" horiz-adv-x="698" 
d="M657 252c0 -154 -144 -270 -312 -270c-87 0 -129 45 -198 45c-35 0 -66 -26 -71 -26c-6 0 -8 1 -8 18v318c0 11 10 20 13 0c6 -33 33 -119 78 -195c44 -74 105 -140 183 -140c58 0 110 52 110 121c0 78 -107 118 -208 175c-90 50 -176 114 -176 230
c0 149 147 252 286 252c92 0 158 -38 202 -38s52 15 58 15c7 0 9 -3 9 -12v-254c0 -18 -15 -20 -20 1c-7 35 -37 101 -79 159s-97 107 -154 107s-104 -41 -104 -90c0 -91 103 -131 203 -181c95 -48 188 -107 188 -235z" />
    <glyph glyph-name="T" unicode="T" horiz-adv-x="803" 
d="M752 760l32 -307h-16c0 25 -33 109 -100 181c-40 43 -91 82 -155 100v-589c0 -102 119 -133 137 -133v-12h-518v12c28 0 146 27 146 139v583c-60 -20 -110 -59 -148 -103c-65 -74 -97 -158 -97 -180h-11l30 311c0 8 5 19 14 16c8 -4 20 -19 42 -19h590c19 0 38 14 42 14
c5 0 11 -4 12 -13z" />
    <glyph glyph-name="U" unicode="U" horiz-adv-x="794" 
d="M792 759v-12c-45 0 -134 -65 -134 -183v-358c0 -147 -95 -223 -269 -223c-170 0 -286 81 -286 245v398c0 87 -57 121 -83 121v12h411v-12c-25 0 -98 -37 -98 -118v-420c0 -120 74 -174 148 -174c75 0 149 61 149 173v351c0 121 -80 188 -132 188v12h294z" />
    <glyph glyph-name="V" unicode="V" horiz-adv-x="707" 
d="M756 759v-14c-21 0 -107 -60 -142 -168l-184 -577h-133l-233 661c-19 57 -70 84 -92 84v14h458v-14c-62 0 -116 -63 -93 -131l135 -390l107 332c36 113 -26 189 -78 189v14h255z" />
    <glyph glyph-name="W" unicode="W" horiz-adv-x="1096" 
d="M1140 759v-14c-19 0 -99 -60 -131 -168l-177 -577h-146l-116 366l-143 -366h-147l-226 661c-19 57 -72 84 -92 84v14h409v-14c-36 0 -67 -57 -44 -131l139 -437l91 232l-80 252c-18 57 -52 84 -76 84v14h406v-14c-35 0 -92 -57 -70 -131l125 -423l112 365
c28 92 -15 189 -72 189l-1 14h239z" />
    <glyph glyph-name="X" unicode="X" horiz-adv-x="844" 
d="M856 13v-13h-501v13c56 0 111 70 71 135l-92 147l-75 -95c-78 -98 -46 -187 30 -187v-13h-297v13c53 0 161 103 223 178l106 125l-217 345c-26 42 -71 87 -100 87v12h459v-12c-55 0 -88 -64 -60 -112l76 -129l70 86c73 91 22 155 -27 155v12h265v-12
c-51 0 -141 -70 -189 -129l-107 -131l238 -377c24 -38 101 -98 127 -98z" />
    <glyph glyph-name="Y" unicode="Y" horiz-adv-x="785" 
d="M803 760v-14c-59 0 -159 -127 -199 -202l-95 -179v-244c0 -74 69 -108 103 -108v-13h-456v13c42 0 114 34 114 108v231l-126 257c-36 75 -107 137 -152 137v14h455v-14c-31 0 -61 -36 -61 -78c0 -15 3 -30 10 -45l105 -213l65 121c15 28 20 57 20 85
c0 69 -42 130 -81 130v14h298z" />
    <glyph glyph-name="Z" unicode="Z" horiz-adv-x="730" 
d="M688 362l-35 -348c-2 -13 0 -14 -12 -14h-589c-8 0 -13 16 -6 30l326 649c18 35 4 64 -27 64c-55 0 -113 -46 -161 -103c-58 -67 -103 -150 -117 -192c-3 -5 -13 -4 -12 8l26 289c2 13 4 14 14 14h548c13 0 20 -5 13 -18l-320 -645c-17 -34 -18 -69 28 -69
c71 0 148 71 208 150c53 70 93 146 104 187c5 6 13 6 12 -2z" />
    <glyph glyph-name="bracketleft" unicode="[" horiz-adv-x="360" 
d="M300 -121v-29h-204v843h204v-29h-57c-32 0 -43 -9 -43 -45v-693c0 -30 14 -47 41 -47h59z" />
    <glyph glyph-name="backslash" unicode="\" horiz-adv-x="337" 
d="M50 795l297 -887h-59l-297 887h59z" />
    <glyph glyph-name="bracketright" unicode="]" horiz-adv-x="360" 
d="M287 693v-843h-204v29h59c27 0 41 17 41 47v693c0 36 -11 45 -43 45h-57v29h204z" />
    <glyph glyph-name="asciicircum" unicode="^" horiz-adv-x="665" 
d="M374 799l258 -277h-68l-231 220l-232 -220h-65l258 277h80z" />
    <glyph glyph-name="underscore" unicode="_" horiz-adv-x="490" 
d="M490 -43v-86h-490v86h490z" />
    <glyph glyph-name="quoteleft" unicode="&#x2018;" horiz-adv-x="315" 
d="M270 665c0 -59 -47 -101 -105 -101c-68 0 -113 53 -113 119c0 72 42 130 93 169c8 7 28 24 40 24c8 0 16 -6 16 -14c0 -2 -1 -6 -3 -7c-28 -17 -90 -69 -90 -122c22 13 47 22 73 22c51 0 89 -39 89 -90z" />
    <glyph glyph-name="a" unicode="a" horiz-adv-x="571" 
d="M571 126c-15 -38 -72 -137 -163 -137c-49 0 -87 28 -105 72c-28 -34 -74 -72 -144 -72c-85 0 -132 49 -132 111c0 73 68 103 115 119c33 11 71 18 103 31c18 7 34 16 47 28v107c0 39 -24 71 -56 71c-31 0 -48 -14 -48 -24c0 -12 11 -18 23 -26c12 -10 25 -22 25 -48
c0 -55 -55 -108 -112 -108c-43 0 -72 25 -72 69c0 69 112 174 302 174c71 0 134 -42 134 -124v-260c0 -19 11 -28 22 -28c17 0 36 30 44 49c4 5 16 4 17 -4zM295 87c-2 11 -3 23 -3 36v115c-5 2 -10 3 -15 3c-24 0 -59 -41 -59 -95c0 -55 24 -85 45 -85c14 0 25 10 32 26z
" />
    <glyph glyph-name="b" unicode="b" horiz-adv-x="599" 
d="M587 251c0 -157 -118 -263 -227 -263c-79 0 -140 44 -204 44c-56 0 -88 -35 -96 -35c-9 0 -9 3 -9 14v616c0 63 -39 72 -55 72v11l228 74c14 4 27 5 27 -16v-332c32 39 76 61 125 61c111 0 211 -89 211 -246zM386 250c0 128 -26 196 -73 196c-22 0 -45 -20 -62 -54v-292
c0 -48 13 -82 43 -82c64 0 92 113 92 232z" />
    <glyph glyph-name="c" unicode="c" horiz-adv-x="503" 
d="M491 192c-26 -85 -100 -206 -234 -206c-119 0 -230 77 -230 240c0 173 136 268 264 268c107 0 164 -50 164 -116c0 -53 -39 -93 -94 -93s-88 47 -88 86c0 65 47 74 47 89c0 9 -8 16 -23 16c-30 0 -96 -60 -96 -171s60 -195 146 -195c76 0 122 63 132 85c4 3 9 2 12 -3z
" />
    <glyph glyph-name="d" unicode="d" horiz-adv-x="618" 
d="M606 12v-12h-235c-11 0 -13 6 -13 13v53c-34 -48 -85 -78 -154 -78c-91 0 -186 83 -186 225c0 165 123 281 236 281c46 0 80 -12 104 -35v168c0 63 -40 72 -55 72v11l228 74c14 4 25 5 25 -16v-685c0 -54 31 -71 50 -71zM358 111v304c-15 31 -36 51 -61 51
c-45 0 -76 -51 -76 -193s38 -208 82 -208c22 0 41 17 55 46z" />
    <glyph glyph-name="e" unicode="e" horiz-adv-x="559" 
d="M530 188c-9 -42 -84 -200 -254 -200c-145 0 -250 94 -250 244c0 155 122 265 273 265c135 0 227 -97 227 -192c0 -12 -2 -20 -18 -20h-294c11 -113 56 -183 149 -183c86 0 142 71 155 91c6 3 12 1 12 -5zM341 357c0 62 -17 121 -57 121c-30 0 -72 -36 -72 -143
c0 -9 1 -18 1 -28h108c18 0 20 14 20 50z" />
    <glyph glyph-name="f" unicode="f" horiz-adv-x="434" 
d="M535 676c0 -64 -47 -97 -96 -97c-46 0 -84 36 -84 82c0 63 46 75 46 93c0 9 -11 16 -25 16c-16 0 -69 -18 -69 -79v-204h107c11 0 13 -4 10 -9l-27 -46c-4 -6 -12 -12 -19 -12h-71v-321c0 -50 52 -87 71 -87v-12h-353v12c14 0 78 30 78 90v318h-70c-5 0 -10 6 -8 10
l29 48c5 8 9 9 16 9h33v80c0 156 98 227 246 227c132 0 186 -61 186 -118z" />
    <glyph glyph-name="g" unicode="g" horiz-adv-x="581" 
d="M573 542c0 -39 -25 -68 -69 -68c-46 0 -52 34 -76 34c-11 0 -16 -8 -16 -15s3 -15 7 -20c73 -27 122 -77 122 -134c0 -87 -114 -157 -255 -157c-21 0 -41 1 -60 4c-32 -7 -49 -20 -49 -34c0 -32 114 -23 200 -23s189 -46 189 -154c0 -123 -120 -219 -293 -219
c-159 0 -260 35 -260 117c0 38 33 69 90 88c-42 13 -70 46 -70 94c0 80 91 122 153 139c-92 24 -156 80 -156 145c0 87 114 158 256 158c37 0 72 -5 104 -14c-2 11 -4 23 -4 38c0 54 44 95 104 95c49 0 83 -32 83 -74zM348 340c0 76 -14 137 -62 137c-43 0 -62 -61 -62 -137
s16 -138 62 -138c42 0 62 62 62 138zM449 -120c0 60 -71 79 -170 79c-38 0 -66 -3 -117 -4c-38 -15 -58 -40 -58 -75c0 -55 50 -102 167 -102c97 0 178 32 178 102z" />
    <glyph glyph-name="h" unicode="h" horiz-adv-x="677" 
d="M657 12v-12h-292v12c15 0 45 22 45 64v267c0 39 -24 66 -62 66c-32 0 -57 -28 -68 -45c1 -105 0 -281 0 -281c0 -54 32 -70 46 -71v-12h-305v12c13 1 58 24 58 73v544c0 63 -40 72 -55 72v11l231 74c14 4 25 5 25 -16v-367c36 39 91 90 175 90c87 0 151 -49 151 -152
v-264c0 -48 26 -65 51 -65z" />
    <glyph glyph-name="i" unicode="i" horiz-adv-x="350" 
d="M282 687c0 -62 -50 -112 -112 -112c-61 0 -112 50 -112 112c0 61 51 112 112 112c62 0 112 -51 112 -112zM326 12v-12h-305v12c13 1 58 24 58 73v252c0 62 -40 72 -55 72v11l231 74c14 4 25 5 25 -16v-395c0 -54 32 -70 46 -71z" />
    <glyph glyph-name="j" unicode="j" horiz-adv-x="347" 
d="M286 687c0 -62 -51 -112 -112 -112c-62 0 -113 50 -113 112c0 61 51 112 113 112c61 0 112 -51 112 -112zM282 484v-477c0 -166 -113 -256 -259 -256c-108 0 -162 45 -162 113c0 54 45 89 89 89c53 0 89 -37 89 -81c0 -55 -37 -61 -37 -83c0 -11 7 -19 22 -19
c14 0 55 24 55 85v499c0 28 -18 57 -58 57v10l250 75c7 2 11 0 11 -12z" />
    <glyph glyph-name="k" unicode="k" horiz-adv-x="648" 
d="M653 14v-13c-221 0 -413 -1 -634 -1v12c13 1 58 24 58 73v542c0 63 -40 72 -55 72v11l225 74c14 4 25 5 25 -16v-517c47 46 109 109 109 109c44 43 3 103 -35 114v10h255v-10c-42 0 -124 -51 -171 -92l-15 -13l172 -305c17 -30 54 -50 66 -50zM355 72l-73 144l-10 -11
v-122c0 -49 18 -69 43 -69c28 0 56 28 40 58z" />
    <glyph glyph-name="l" unicode="l" horiz-adv-x="334" 
d="M323 12v-12h-304v12c13 1 58 24 58 73v542c0 63 -40 72 -55 72v11l225 74c14 4 25 5 25 -16v-685c0 -54 31 -71 51 -71z" />
    <glyph glyph-name="m" unicode="m" horiz-adv-x="985" 
d="M964 12v-12h-292v12c15 0 46 22 46 64v267c0 39 -25 66 -63 66c-34 0 -57 -31 -57 -68v-264c0 -48 26 -65 51 -65v-12h-292v12c15 0 45 22 45 64v267c0 39 -24 66 -62 66c-32 0 -49 -28 -60 -45c1 -105 0 -281 0 -281c0 -54 32 -70 46 -71v-12h-305v12c13 1 58 24 58 73
v251c0 62 -40 72 -55 72v11l231 74c14 4 25 5 25 -16v-74c19 26 79 90 167 90c67 0 120 -29 141 -89c25 31 81 89 172 89c89 0 154 -49 154 -152v-264c0 -48 26 -65 50 -65z" />
    <glyph glyph-name="n" unicode="n" horiz-adv-x="677" 
d="M657 12v-12h-292v12c15 0 45 22 45 64v267c0 39 -24 66 -62 66c-32 0 -57 -28 -68 -45c1 -105 0 -281 0 -281c0 -54 24 -71 46 -71v-12h-305v12c25 0 58 24 58 73v250c0 62 -40 72 -55 72v11l231 74c14 4 25 5 25 -16v-73c36 39 91 90 175 90c87 0 151 -49 151 -152v-264
c0 -48 26 -65 51 -65z" />
    <glyph glyph-name="o" unicode="o" horiz-adv-x="599" 
d="M575 244c0 -140 -123 -253 -275 -253c-153 0 -276 113 -276 253c0 139 123 253 276 253c152 0 275 -114 275 -253zM367 245c0 128 -8 230 -65 230c-56 0 -72 -102 -72 -230c0 -129 3 -233 69 -233c60 0 68 104 68 233z" />
    <glyph glyph-name="p" unicode="p" horiz-adv-x="625" 
d="M601 277c0 -172 -111 -288 -230 -288c-38 0 -77 10 -109 30v-142c0 -72 51 -97 81 -97v-12h-365v12c29 0 88 29 88 99v455c0 63 -37 79 -57 79v11l228 67c13 4 25 5 25 -16v-55c39 45 90 75 151 75c89 0 188 -65 188 -218zM395 227c0 153 -42 188 -77 188
c-21 0 -41 -15 -56 -45v-304c18 -32 42 -45 65 -45c46 0 68 52 68 206z" />
    <glyph glyph-name="q" unicode="q" horiz-adv-x="599" 
d="M623 -218v-12h-340v12c13 0 73 15 73 71v195c-33 -38 -76 -61 -125 -61c-110 0 -211 89 -211 246s118 263 227 263c79 0 140 -44 204 -44c56 0 88 35 97 35s9 -3 9 -14v-621c0 -55 54 -70 66 -70zM356 92v293c0 47 -13 81 -43 81c-64 0 -92 -112 -92 -232
c0 -128 26 -196 73 -196c22 0 44 20 62 54z" />
    <glyph glyph-name="r" unicode="r" horiz-adv-x="535" 
d="M528 390c0 -54 -42 -105 -102 -105c-53 0 -75 33 -88 60c-9 19 -13 36 -21 36s-20 -10 -35 -41v-257c0 -54 32 -70 46 -71v-12h-305v12c13 1 58 24 58 73v252c0 62 -40 72 -55 72v11l231 74c14 4 25 5 25 -16v-81c35 45 85 93 144 93c58 0 102 -45 102 -100z" />
    <glyph glyph-name="s" unicode="s" horiz-adv-x="480" 
d="M454 165c0 -94 -95 -174 -195 -174c-80 0 -87 16 -150 16c-34 0 -50 -12 -56 -12s-7 3 -7 14v191c0 10 11 18 16 1c7 -24 24 -67 51 -107c31 -46 74 -86 128 -86c50 0 77 30 77 62c0 53 -83 67 -156 102c-59 27 -113 67 -113 150c0 109 102 173 205 173
c55 0 101 -13 122 -13s36 7 43 7s10 0 10 -11v-132c0 -13 -8 -20 -14 1c-6 18 -22 50 -46 77c-24 28 -58 51 -98 51c-49 0 -72 -32 -72 -57c0 -54 67 -74 132 -103c62 -29 123 -66 123 -150z" />
    <glyph glyph-name="t" unicode="t" horiz-adv-x="409" 
d="M400 123c-14 -41 -77 -135 -186 -135c-87 0 -148 56 -148 138v291h-40c-8 0 -17 9 -3 22l226 200c7 6 15 8 15 -8v-146h109c3 0 7 -2 6 -5l-28 -57c-2 -3 -5 -7 -10 -7h-77v-262c0 -40 20 -72 54 -72c36 0 66 33 75 48c5 3 8 -1 7 -7z" />
    <glyph glyph-name="u" unicode="u" horiz-adv-x="673" 
d="M649 11v-11h-230c-21 0 -25 9 -25 26v55c-27 -32 -82 -89 -174 -89c-87 0 -152 48 -152 152v263c0 49 -26 66 -50 66v12h244v-343c0 -39 27 -66 65 -66c32 0 57 28 67 45v281c0 64 -41 70 -55 71v12h255v-398c0 -63 39 -76 55 -76z" />
    <glyph glyph-name="v" unicode="v" horiz-adv-x="488" 
d="M532 485v-13c-28 0 -96 -64 -136 -180l-100 -292h-108l-164 402c-20 49 -42 70 -54 70v13h300v-13c-11 0 -43 -25 -29 -62l85 -227l41 115c12 33 17 63 17 88c0 53 -22 86 -53 86v13h201z" />
    <glyph glyph-name="w" unicode="w" horiz-adv-x="823" 
d="M867 485v-13c-28 0 -96 -64 -136 -180l-100 -292h-107l-122 299l-102 -299h-108l-164 402c-20 49 -42 70 -54 70v13h300v-13c-11 0 -43 -24 -29 -62l85 -227l55 158l-26 61c-19 49 -50 70 -67 70v13h324v-13c-12 0 -42 -24 -29 -62l75 -227l40 115c12 33 17 63 17 88
c0 53 -22 86 -53 86v13h201z" />
    <glyph glyph-name="x" unicode="x" horiz-adv-x="582" 
d="M627 12v-12h-371v12c20 0 36 24 36 47c0 9 -3 19 -10 29l-51 75l-6 -6c-30 -35 -42 -70 -42 -97s13 -48 33 -48v-12h-230v12c54 0 154 87 205 145l25 28l-116 170c-42 61 -106 119 -135 119v11h370v-11c-18 0 -39 -18 -39 -44c0 -9 3 -19 10 -29l44 -66l15 18
c24 26 34 56 34 80s-12 41 -33 41v11h222v-11c-45 0 -155 -80 -202 -133l-22 -26l138 -206c32 -48 95 -97 125 -97z" />
    <glyph glyph-name="y" unicode="y" horiz-adv-x="519" 
d="M551 485v-14c-40 0 -90 -59 -133 -176l-163 -444c-28 -75 -75 -121 -145 -121c-59 0 -99 42 -99 96c0 52 44 89 85 89c83 0 86 -83 101 -83c22 0 33 19 46 55l40 113h-86l-152 407c-19 51 -47 64 -79 64v14h351v-14c-31 0 -44 -34 -32 -67l71 -202l45 126
c5 15 10 41 10 66c0 43 -17 77 -54 77v14h194z" />
    <glyph glyph-name="z" unicode="z" horiz-adv-x="573" 
d="M547 232l-47 -218c-3 -10 -1 -14 -15 -14h-445c-12 0 -17 10 -9 24l229 374c9 15 15 26 15 36s-5 33 -36 33c-34 0 -76 -32 -111 -68c-41 -41 -74 -88 -79 -96c-9 -16 -17 -13 -16 2l13 163c1 10 8 16 22 16h458c11 0 14 -6 8 -17l-237 -379c-6 -10 -14 -33 -14 -43
c0 -16 4 -28 26 -28c32 0 90 53 139 108c40 45 74 90 84 110c9 19 17 10 15 -3z" />
    <glyph glyph-name="braceleft" unicode="{" horiz-adv-x="500" 
d="M412 -94v-23c-54 0 -149 3 -181 22c-36 22 -56 64 -56 146v105c0 52 -3 88 -37 111c-21 14 -53 24 -102 30v27c34 5 65 7 89 19c30 15 50 47 50 122v105c0 79 14 123 56 146c29 16 121 22 181 24v-23c-46 -3 -75 -10 -93 -25c-28 -23 -30 -63 -30 -129v-47
c0 -84 4 -139 -62 -176c-20 -11 -47 -21 -82 -29c35 -8 63 -16 84 -29c45 -28 60 -76 60 -185v-48c0 -67 1 -106 36 -126c18 -10 46 -16 87 -17z" />
    <glyph glyph-name="bar" unicode="|" horiz-adv-x="500" 
d="M277 764v-998h-52v998h52z" />
    <glyph glyph-name="braceright" unicode="}" horiz-adv-x="500" 
d="M482 324v-27c-49 -6 -81 -16 -102 -30c-34 -23 -37 -59 -37 -111v-105c0 -82 -20 -124 -56 -146c-32 -19 -127 -22 -181 -22v23c41 1 69 7 87 17c35 20 36 59 36 126v48c0 109 15 157 60 185c21 13 49 21 84 29c-35 8 -62 18 -82 29c-66 37 -62 92 -62 176v47
c0 66 -1 106 -30 129c-18 15 -47 22 -93 25v23c60 -2 152 -8 181 -24c42 -23 56 -67 56 -146v-105c0 -75 20 -107 50 -122c24 -12 55 -14 89 -19z" />
    <glyph glyph-name="asciitilde" unicode="~" horiz-adv-x="647" 
d="M600 768l25 -16c-19 -48 -68 -107 -156 -107c-93 0 -192 61 -282 61c-50 0 -91 -26 -125 -77l-27 15c49 83 95 115 165 115c96 0 183 -60 278 -60c49 0 88 20 122 69z" />
    <glyph glyph-name="exclamdown" unicode="&#xa1;" horiz-adv-x="333" 
d="M272 686c0 -57 -52 -94 -105 -94s-105 38 -105 94s52 95 105 95c54 0 105 -38 105 -95zM255 97c0 -52 -28 -114 -89 -114c-63 0 -92 47 -92 105c0 23 3 45 7 68l65 397h37l66 -397c3 -20 6 -39 6 -59z" />
    <glyph glyph-name="cent" unicode="&#xa2;" horiz-adv-x="652" 
d="M595 329v-243c0 -9 -9 -15 -15 -15s-22 23 -42 23c-31 0 -72 -31 -155 -40v-57c0 -10 -8 -15 -17 -15c-8 0 -15 7 -15 15v56h-7c-187 -2 -319 128 -319 330c0 203 185 315 326 316v68c0 10 8 15 17 15c8 0 15 -7 15 -15v-69c91 -6 119 -40 151 -40s46 27 52 27
c7 0 9 0 9 -9v-214c0 -15 -14 -21 -20 -2c-10 33 -36 97 -74 147c-31 41 -70 74 -117 74h-1v-610c53 8 100 64 135 125c29 49 50 102 59 135c6 24 18 12 18 -2zM351 72v603c-69 -23 -116 -121 -116 -310c0 -208 42 -283 116 -293z" />
    <glyph glyph-name="sterling" unicode="&#xa3;" horiz-adv-x="599" 
d="M447 379v-7c0 -8 -7 -15 -15 -15h-82c2 -14 3 -27 3 -39c0 -50 -18 -109 -42 -159c29 -11 59 -26 84 -26c81 0 116 39 132 104h18c1 -10 1 -19 1 -29c0 -105 -58 -212 -170 -212c-41 0 -82 28 -123 65c-19 -30 -65 -60 -107 -60c-70 0 -101 46 -101 99
c0 54 43 111 112 111c25 0 47 -9 80 -21v8c0 46 -27 100 -57 159h-64c-8 0 -15 7 -15 15v7c0 8 7 16 15 16h45c-30 59 -58 122 -58 182c0 122 104 194 216 194c83 0 195 -45 195 -142c0 -46 -28 -81 -74 -81c-40 0 -65 29 -65 69c0 26 24 56 24 84c0 29 -14 46 -39 46
c-47 0 -80 -44 -80 -110c0 -69 43 -157 63 -242h89c8 0 15 -8 15 -16zM222 86c-22 22 -60 68 -92 68c-37 0 -62 -34 -62 -66s28 -65 69 -65c47 0 76 42 85 63z" />
    <glyph glyph-name="yen" unicode="&#xa5;" horiz-adv-x="785" 
d="M622 332v-8v-2c0 -1 -1 -2 -1 -2c-1 -3 -2 -6 -5 -8c-1 0 -1 -1 -2 -1l-3 -2h-4h-98v-74h98c8 0 15 -7 15 -15v-8c0 -8 -7 -15 -15 -15h-98v-76c0 -74 69 -108 103 -108v-13h-456v13c42 0 114 34 114 108v76h-104c-8 0 -15 7 -15 15v8c0 8 7 15 15 15h104v74h-104h-2
c-2 0 -4 1 -5 2c-4 2 -7 5 -8 9v4v8c0 5 3 10 8 13c1 0 2 1 3 1c1 1 2 1 4 1h104v5l-126 257c-36 75 -107 137 -152 137v14h455v-14c-31 0 -61 -36 -61 -78c0 -15 3 -30 10 -45l105 -213l65 121c15 28 20 57 20 85c0 69 -42 130 -81 130v14h298v-14
c-59 0 -159 -127 -199 -202l-95 -179v-18h98c1 0 2 0 4 -1c3 -1 5 -2 7 -5l2 -2c1 -2 2 -5 2 -7z" />
    <glyph glyph-name="section" unicode="&#xa7;" horiz-adv-x="398" 
d="M372 375c0 -54 -38 -120 -145 -120c65 -50 97 -97 97 -144c0 -56 -43 -123 -159 -123c-94 0 -131 52 -131 100c0 20 11 55 45 55c13 0 47 -3 47 -44c0 -28 -29 -47 -29 -59s28 -32 73 -32c29 0 94 10 94 70c0 39 -13 65 -86 128l-88 77c-35 31 -86 84 -86 140
c0 52 40 121 143 121c-59 51 -96 88 -96 145c0 80 68 126 146 126c63 0 129 -42 129 -100c0 -31 -20 -55 -53 -55c-23 0 -43 17 -43 36c0 17 10 24 20 34c7 7 13 16 13 33s-38 30 -69 30c-34 0 -82 -14 -82 -69c0 -35 3 -63 88 -133l88 -72c58 -47 84 -97 84 -144zM315 357
c-6 65 -114 147 -142 166c-67 0 -111 -25 -111 -67c0 -45 113 -160 144 -178c37 0 109 14 109 79z" />
    <glyph glyph-name="quotesingle" unicode="'" horiz-adv-x="278" 
d="M257 751c0 -73 -43 -130 -93 -170c-9 -6 -29 -23 -41 -23c-7 0 -15 5 -15 13c0 3 1 6 3 7c28 17 90 69 90 122c-22 -12 -47 -22 -73 -22c-51 0 -89 40 -89 90c0 59 47 101 105 101c67 0 113 -53 113 -118z" />
    <glyph glyph-name="quotedblleft" unicode="&#x201c;" horiz-adv-x="560" 
d="M515 665c0 -59 -47 -101 -105 -101c-68 0 -113 53 -113 119c0 72 42 130 93 169c8 7 28 24 40 24c8 0 16 -6 16 -14c0 -2 -1 -6 -3 -7c-28 -17 -90 -69 -90 -122c22 13 47 22 73 22c51 0 89 -39 89 -90zM268 665c0 -59 -47 -101 -105 -101c-68 0 -113 53 -113 119
c0 72 42 130 93 169c8 7 28 24 40 24c8 0 16 -6 16 -14c0 -2 -1 -6 -3 -7c-28 -17 -90 -69 -90 -122c22 13 47 22 73 22c51 0 89 -39 89 -90z" />
    <glyph glyph-name="guillemotleft" unicode="&#xab;" horiz-adv-x="471" 
d="M206 276l230 151l-111 -154l108 -159zM37 276l230 151l-111 -154l108 -159z" />
    <glyph glyph-name="guilsinglleft" unicode="&#x2039;" horiz-adv-x="295" 
d="M37 276l230 151l-111 -154l108 -159z" />
    <glyph glyph-name="guilsinglright" unicode="&#x203a;" horiz-adv-x="288" 
d="M33 433l227 -162l-230 -151l111 153z" />
    <glyph glyph-name="endash" unicode="&#x2013;" horiz-adv-x="467" 
d="M412 332v-47c0 -8 -7 -15 -15 -15h-330c-8 0 -15 7 -15 15v47c0 8 7 15 15 15h330c8 0 15 -7 15 -15z" />
    <glyph glyph-name="dagger" unicode="&#x2020;" horiz-adv-x="542" 
d="M519 474c0 -31 -36 -56 -80 -56c-74 0 -50 39 -153 44l-7 -463h-26l-8 463c-70 -6 -74 -44 -144 -44c-43 0 -79 25 -79 56s36 56 79 56c67 0 84 -37 140 -45l-30 165c-8 46 0 119 55 119c60 0 68 -70 58 -119l-34 -166c90 6 76 46 149 46c44 0 80 -25 80 -56z" />
    <glyph glyph-name="daggerdbl" unicode="&#x2021;" horiz-adv-x="542" 
d="M519 206c0 -30 -36 -55 -80 -55c-70 0 -68 39 -157 43l-3 -195h-26l-4 194c-57 -7 -85 -42 -148 -42c-43 0 -79 25 -79 55c0 31 36 56 79 56c59 0 100 -35 148 -44l-4 244c-70 -6 -74 -44 -144 -44c-43 0 -79 25 -79 56s36 56 79 56c67 0 84 -37 140 -45l-30 165
c-8 46 0 119 55 119c60 0 68 -70 58 -119l-34 -166c90 6 76 46 149 46c44 0 80 -25 80 -56s-36 -56 -80 -56c-74 0 -50 39 -153 44l-4 -245c80 4 88 45 157 45c44 0 80 -25 80 -56z" />
    <glyph glyph-name="periodcentered" unicode="&#xb7;" horiz-adv-x="290" 
d="M262 272c0 -57 -51 -95 -105 -95s-105 38 -105 95s52 94 105 94s105 -38 105 -94z" />
    <glyph glyph-name="paragraph" unicode="&#xb6;" horiz-adv-x="538" 
d="M505 760v-60h-52v-700h-85v700h-74v-700h-85v421c-109 4 -177 73 -177 169c0 100 72 170 190 170h283z" />
    <glyph glyph-name="bullet" unicode="&#x2022;" horiz-adv-x="485" 
d="M401 368c0 -88 -71 -158 -158 -158s-158 70 -158 158c0 87 71 158 158 158s158 -71 158 -158z" />
    <glyph glyph-name="quotesinglbase" unicode="&#x201a;" horiz-adv-x="371" 
d="M289 55c0 -73 -43 -130 -93 -170c-9 -6 -29 -23 -41 -23c-7 0 -15 5 -15 13c0 3 1 6 3 7c28 17 90 69 90 122c-22 -12 -47 -22 -73 -22c-51 0 -89 40 -89 90c0 59 47 101 105 101c67 0 113 -53 113 -118z" />
    <glyph glyph-name="quotedblbase" unicode="&#x201e;" horiz-adv-x="541" 
d="M504 55c0 -73 -42 -130 -93 -170c-8 -6 -28 -23 -40 -23c-8 0 -16 5 -16 13c0 3 1 6 3 7c28 17 90 69 90 122c-22 -12 -47 -22 -73 -22c-51 0 -89 40 -89 90c0 59 47 101 105 101c68 0 113 -53 113 -118zM265 55c0 -73 -43 -130 -93 -170c-9 -6 -29 -23 -41 -23
c-7 0 -15 5 -15 13c0 3 1 6 3 7c28 17 90 69 90 122c-22 -12 -47 -22 -73 -22c-51 0 -89 40 -89 90c0 59 47 101 105 101c67 0 113 -53 113 -118z" />
    <glyph glyph-name="quotedblright" unicode="&#x201d;" horiz-adv-x="542" 
d="M518 753c0 -73 -43 -130 -93 -170c-9 -6 -29 -23 -41 -23c-7 0 -15 5 -15 13c0 3 1 6 3 7c28 17 90 69 90 122c-22 -12 -47 -22 -73 -22c-51 0 -89 40 -89 90c0 59 47 101 105 101c67 0 113 -53 113 -118zM271 753c0 -73 -43 -130 -93 -170c-9 -6 -29 -23 -41 -23
c-7 0 -15 5 -15 13c0 3 1 6 3 7c28 17 90 69 90 122c-22 -12 -47 -22 -73 -22c-51 0 -89 40 -89 90c0 59 47 101 105 101c67 0 113 -53 113 -118z" />
    <glyph glyph-name="guillemotright" unicode="&#xbb;" horiz-adv-x="464" 
d="M202 427l227 -162l-230 -151l111 153zM33 427l227 -162l-230 -151l111 153z" />
    <glyph glyph-name="ellipsis" unicode="&#x2026;" horiz-adv-x="1031" 
d="M971 78c0 -57 -51 -95 -105 -95s-105 38 -105 95s52 94 105 94s105 -38 105 -94zM622 78c0 -57 -51 -95 -105 -95s-105 38 -105 95s52 94 105 94s105 -38 105 -94zM273 78c0 -57 -51 -95 -105 -95s-105 38 -105 95s52 94 105 94s105 -38 105 -94z" />
    <glyph glyph-name="perthousand" unicode="&#x2030;" horiz-adv-x="1289" 
d="M1247 213c0 -126 -86 -227 -192 -227s-192 101 -192 227s86 227 192 227s192 -101 192 -227zM829 213c0 -126 -86 -227 -192 -227s-192 101 -192 227s86 227 192 227s192 -101 192 -227zM769 743l-605 -737c-6 -6 -20 -15 -28 -15h-13c-8 0 -20 9 -15 15l606 737
c5 7 19 15 27 15h13c9 0 21 -8 15 -15zM434 548c0 -126 -86 -228 -192 -228s-192 102 -192 228c0 125 86 227 192 227s192 -102 192 -227zM1116 212c0 120 -5 218 -63 218c-53 0 -64 -98 -64 -218c0 -121 3 -218 64 -218c54 0 63 97 63 218zM698 212c0 120 -5 218 -64 218
c-52 0 -63 -98 -63 -218c0 -121 3 -218 63 -218c55 0 64 97 64 218zM303 546c0 121 -5 218 -63 218c-52 0 -64 -97 -64 -218c0 -120 4 -218 64 -218c55 0 63 98 63 218z" />
    <glyph glyph-name="questiondown" unicode="&#xbf;" horiz-adv-x="541" 
d="M362 686c0 -56 -52 -94 -105 -94c-52 0 -105 38 -105 94s52 95 105 95c54 0 105 -38 105 -95zM497 163c0 -95 -92 -181 -240 -181c-134 0 -227 80 -227 191c0 106 74 157 137 204c48 36 90 69 90 122c0 21 -14 38 -28 53l15 15c24 -22 41 -47 41 -80
c0 -40 -24 -91 -48 -148c-23 -54 -45 -112 -45 -172c0 -72 27 -157 119 -157c72 0 117 52 133 77c-21 -13 -39 -22 -65 -22c-54 0 -93 41 -93 99c0 61 46 110 107 110s104 -52 104 -111z" />
    <glyph glyph-name="grave" unicode="`" horiz-adv-x="280" 
d="M153 710l95 -128l-14 -18l-161 80c-36 18 -51 35 -51 59c0 31 23 54 54 54c25 0 47 -8 77 -47z" />
    <glyph glyph-name="acute" unicode="&#xb4;" horiz-adv-x="292" 
d="M269 703c0 -24 -15 -41 -51 -59l-161 -80l-14 18l95 128c30 39 52 47 77 47c31 0 54 -23 54 -54z" />
    <glyph glyph-name="circumflex" unicode="&#x2c6;" horiz-adv-x="355" 
d="M334 561l-159 95l-158 -95l143 193c3 4 8 6 13 6s11 -2 14 -6z" />
    <glyph glyph-name="tilde" unicode="&#x2dc;" horiz-adv-x="347" 
d="M305 741l19 -3c-14 -52 -35 -114 -96 -114c-54 0 -92 51 -144 51c-22 0 -35 -18 -45 -38l-21 5c12 45 36 113 99 113c55 0 94 -50 144 -50c22 0 33 17 44 36z" />
    <glyph glyph-name="macron" unicode="&#xaf;" horiz-adv-x="346" 
d="M319 757v-64h-292v64h292z" />
    <glyph glyph-name="breve" unicode="&#x2d8;" horiz-adv-x="364" 
d="M297 758h46c-17 -91 -59 -151 -161 -151c-101 0 -142 61 -160 151h46c21 -54 61 -60 115 -60c51 0 97 6 114 60z" />
    <glyph glyph-name="dotaccent" unicode="&#x2d9;" horiz-adv-x="192" 
d="M158 696c0 -33 -25 -62 -59 -62c-36 0 -64 27 -64 63c0 32 31 61 62 61c34 0 61 -29 61 -62z" />
    <glyph glyph-name="dieresis" unicode="&#xa8;" horiz-adv-x="384" 
d="M346 699c0 -32 -25 -60 -58 -60c-35 0 -62 26 -62 61c0 31 30 59 61 59c32 0 59 -27 59 -60zM154 699c0 -32 -24 -60 -57 -60c-35 0 -62 26 -62 61c0 31 30 59 60 59c33 0 59 -27 59 -60z" />
    <glyph glyph-name="ring" unicode="&#x2da;" horiz-adv-x="300" 
d="M266 659c0 -65 -52 -118 -115 -118c-68 0 -118 52 -118 119c0 62 54 115 117 115c64 0 116 -52 116 -116zM211 658c0 34 -28 62 -62 62c-33 0 -61 -28 -61 -61c0 -36 26 -62 62 -62c34 0 61 27 61 61z" />
    <glyph glyph-name="cedilla" unicode="&#xb8;" horiz-adv-x="312" 
d="M269 -130c0 -50 -46 -87 -108 -87c-41 0 -75 11 -118 37l11 26c25 -16 46 -24 64 -24c27 0 49 22 49 48s-19 41 -50 41c-8 0 -15 -1 -29 -3l36 92h36l-20 -53c15 2 21 2 30 2c59 0 99 -32 99 -79z" />
    <glyph glyph-name="hungarumlaut" unicode="&#x2dd;" horiz-adv-x="490" 
d="M453 703c0 -24 -15 -41 -51 -59l-161 -80l-14 18l96 128c29 39 51 47 76 47c31 0 54 -23 54 -54zM269 703c0 -24 -15 -41 -51 -59l-161 -80l-14 18l95 128c30 39 52 47 77 47c31 0 54 -23 54 -54z" />
    <glyph glyph-name="ogonek" unicode="&#x2db;" horiz-adv-x="322" 
d="M242 -146l17 -10c-28 -60 -66 -88 -117 -88c-52 0 -83 29 -83 76c0 58 45 111 140 169h29c-27 -24 -35 -31 -46 -42c-22 -24 -36 -59 -36 -88c0 -32 15 -51 43 -51c22 0 32 7 53 34z" />
    <glyph glyph-name="caron" unicode="&#x2c7;" horiz-adv-x="355" 
d="M175 665l159 95l-147 -193c-3 -4 -9 -6 -14 -6s-10 2 -13 6l-143 193z" />
    <glyph glyph-name="emdash" unicode="&#x2014;" horiz-adv-x="798" 
d="M733 332v-47c0 -8 -7 -15 -15 -15h-651c-8 0 -15 7 -15 15v47c0 8 7 15 15 15h651c8 0 15 -7 15 -15z" />
    <glyph glyph-name="AE" unicode="&#xc6;" horiz-adv-x="1129" 
d="M1093 341l-36 -325c-1 -12 -22 -16 -22 -16h-675v13c34 0 118 40 118 142v132h-201l-90 -126c-39 -54 -43 -149 36 -149l-5 -12h-275l5 12c62 0 119 41 185 132l341 471v28c-15 71 -73 104 -105 104v12h672s17 -1 18 -13l15 -295c1 -14 -11 -24 -19 0
c-13 37 -54 112 -106 175c-49 59 -108 108 -161 108c-39 0 -72 -26 -72 -83v-238h23c105 0 159 117 159 159l12 -1v-353h-16c0 42 -50 168 -155 168h-23v-282c0 -38 20 -75 60 -75c69 0 135 58 188 124c59 75 102 160 112 185c8 17 19 21 17 3zM297 315h181v253z" />
    <glyph glyph-name="ordfeminine" unicode="&#xaa;" horiz-adv-x="396" 
d="M389 553c-11 -26 -50 -95 -113 -95c-34 0 -60 20 -73 50c-19 -23 -51 -50 -99 -50c-59 0 -91 34 -91 77c0 50 47 69 79 82l104 41v73c0 27 -17 49 -39 49c-21 0 -33 -9 -33 -16c0 -8 8 -12 16 -18c8 -7 17 -15 17 -33c0 -38 -38 -74 -77 -74c-30 0 -50 17 -50 47
c0 47 78 120 209 120c49 0 92 -29 92 -85v-180c0 -13 8 -20 15 -20c12 0 25 22 31 35c3 3 10 2 12 -3zM198 526c-1 7 -2 16 -2 25v79c-4 1 -7 2 -11 2c-16 0 -40 -28 -40 -66c0 -37 16 -58 31 -58c10 0 17 7 22 18zM376 410v-7c0 -8 -7 -15 -15 -15h-320c-8 0 -15 7 -15 15
v7c0 8 7 15 15 15h320c8 0 15 -7 15 -15z" />
    <glyph glyph-name="Lslash" unicode="&#x141;" 
d="M763 341l-36 -325c-1 -12 -22 -16 -22 -16h-675v13c34 0 118 40 118 142v86l-106 -96v38l106 96v329c0 95 -72 139 -109 139v12h459v-14c-44 0 -112 -42 -112 -129v-119l112 102v-38l-112 -102v-355c0 -38 20 -75 60 -75c69 0 135 58 188 124c59 75 102 160 112 185
c8 17 19 21 17 3z" />
    <glyph glyph-name="Oslash" unicode="&#xd8;" horiz-adv-x="866" 
d="M838 382c0 -221 -181 -400 -405 -400c-113 0 -215 46 -289 119l-122 -119v39l103 101c-60 70 -97 161 -97 260c0 221 181 400 405 400c103 0 196 -38 268 -100l113 111v-39l-93 -91c73 -72 117 -171 117 -281zM289 282l278 271c-14 123 -51 207 -135 207
c-131 0 -144 -170 -144 -380c0 -34 0 -67 1 -98zM576 380c0 48 -2 94 -5 137l-280 -273c8 -143 37 -244 141 -244c122 0 144 170 144 380z" />
    <glyph glyph-name="OE" unicode="&#x152;" horiz-adv-x="1229" 
d="M1193 341l-35 -325c-2 -12 -23 -16 -23 -16h-581c-38 -12 -79 -18 -121 -18c-224 0 -405 179 -405 400s181 400 405 400c47 0 92 -8 134 -23h574s17 -1 18 -13l15 -295c1 -14 -11 -24 -19 0c-12 37 -54 112 -106 175c-49 59 -107 108 -160 108c-40 0 -72 -26 -72 -83
v-238h22c105 0 159 117 159 159l12 -1v-353h-15c0 42 -51 168 -156 168h-22v-282c0 -38 19 -75 59 -75c69 0 135 58 188 124c59 75 102 160 113 185c7 17 18 21 16 3zM576 380c0 210 -25 380 -144 380c-131 0 -144 -170 -144 -380s9 -380 144 -380c122 0 144 170 144 380z
" />
    <glyph glyph-name="ordmasculine" unicode="&#xba;" horiz-adv-x="409" 
d="M396 631c0 -96 -85 -174 -190 -174s-190 78 -190 174c0 97 85 175 190 175s190 -78 190 -175zM252 632c0 89 -5 159 -45 159c-38 0 -49 -70 -49 -159s2 -161 47 -161c42 0 47 72 47 161zM376 410v-7c0 -8 -7 -15 -15 -15h-320c-8 0 -15 7 -15 15v7c0 8 7 15 15 15h320
c8 0 15 -7 15 -15z" />
    <glyph glyph-name="ae" unicode="&#xe6;" horiz-adv-x="829" 
d="M800 189c-10 -42 -84 -200 -254 -200c-85 0 -156 32 -201 89c-17 -25 -73 -89 -186 -89c-85 0 -132 49 -132 111c0 73 68 103 115 119c33 11 71 18 103 31c18 7 34 16 47 28v107c0 39 -24 71 -56 71c-31 0 -48 -14 -48 -24c0 -12 11 -18 23 -26c12 -10 25 -22 25 -48
c0 -55 -55 -108 -112 -108c-43 0 -72 25 -72 69c0 69 112 174 302 174c33 0 64 -8 87 -24c38 19 82 29 128 29c135 0 227 -97 227 -192c0 -12 -3 -20 -18 -20h-294c10 -113 56 -183 148 -183c86 0 143 71 156 91c6 3 12 1 12 -5zM611 358c0 62 -18 121 -57 121
c-30 0 -72 -36 -72 -143c0 -9 0 -18 1 -28h108c18 0 20 14 20 50zM292 123v115c-5 2 -10 3 -15 3c-24 0 -59 -41 -59 -95c0 -53 16 -85 45 -85s29 38 29 62z" />
    <glyph glyph-name="dotlessi" unicode="&#x131;" horiz-adv-x="350" 
d="M326 12v-12h-305v12c13 1 58 24 58 73v252c0 62 -40 72 -55 72v11l231 74c14 4 25 5 25 -16v-395c0 -54 32 -70 46 -71z" />
    <glyph glyph-name="lslash" unicode="&#x142;" horiz-adv-x="334" 
d="M326 586v-38l-54 -49v-416c0 -54 32 -70 46 -71v-12h-299v12c13 1 58 24 58 73v233l-59 -54v38l59 54v271c0 63 -40 72 -55 72v11l225 74c14 4 25 5 25 -16v-231z" />
    <glyph glyph-name="oslash" unicode="&#xf8;" horiz-adv-x="581" 
d="M566 244c0 -140 -123 -253 -275 -253c-71 0 -136 24 -184 65l-73 -69v39l52 49c-44 45 -71 104 -71 169c0 139 123 253 276 253c67 0 129 -23 177 -60l82 78v-39l-60 -57c47 -46 76 -107 76 -175zM222 204l134 127c-5 85 -20 144 -63 144c-56 0 -72 -102 -72 -230
c0 -14 0 -28 1 -41zM358 245v49l-136 -128c4 -90 16 -154 68 -154c60 0 68 104 68 233z" />
    <glyph glyph-name="oe" unicode="&#x153;" horiz-adv-x="903" 
d="M875 189c-10 -42 -84 -200 -254 -200c-63 0 -118 17 -161 49c-45 -29 -100 -47 -160 -47c-153 0 -276 113 -276 253c0 139 123 253 276 253c65 0 124 -21 171 -55c47 35 107 56 172 56c135 0 227 -97 227 -192c0 -12 -2 -20 -17 -20h-294c10 -113 56 -183 148 -183
c86 0 143 71 155 91c7 3 12 1 13 -5zM685 358c0 62 -17 121 -56 121c-30 0 -72 -36 -72 -143v-28h109c17 0 19 14 19 50zM367 245c0 128 -8 230 -65 230c-56 0 -72 -102 -72 -230c0 -129 3 -233 69 -233c60 0 68 104 68 233z" />
    <glyph glyph-name="germandbls" unicode="&#xdf;" horiz-adv-x="649" 
d="M629 178c0 -103 -91 -193 -217 -193c-83 0 -127 41 -127 102c0 47 29 79 71 79c32 0 57 -29 57 -61c0 -45 -29 -52 -29 -74c0 -14 10 -24 24 -24c31 0 39 41 39 124c0 86 -9 144 -58 191c-45 45 -77 65 -77 98c0 45 78 108 78 221c0 74 -36 112 -70 112
c-35 0 -61 -39 -61 -84v-669h-248v13c24 0 79 27 79 95v285h-66v43h66v80c0 189 139 262 258 262c95 0 170 -65 170 -163c0 -74 -41 -113 -121 -147c-39 -16 -61 -26 -61 -45c0 -18 18 -23 45 -29c160 -33 248 -79 248 -216z" />
    <glyph glyph-name="onesuperior" unicode="&#xb9;" horiz-adv-x="264" 
d="M240 307v-7h-216v7c16 0 45 13 45 45v291c0 28 -15 53 -47 53v7l164 71c8 3 15 3 15 -10v-413c0 -33 26 -44 39 -44z" />
    <glyph glyph-name="trademark" unicode="&#x2122;" horiz-adv-x="634" 
d="M597 763v-9c-16 0 -27 -14 -27 -29v-169c0 -13 10 -37 26 -37v-10h-135v10c18 0 26 26 26 41v155c-7 -21 -62 -203 -71 -206c-4 0 -6 3 -7 6l-85 194v-103c0 -21 15 -87 45 -87v-10h-104v9c29 0 47 62 47 84v130c0 8 -20 22 -27 22v9h96c5 0 9 -2 11 -7l53 -127
c15 11 30 134 51 134h101zM277 658h-10c-1 34 -48 80 -79 91v-189c0 -23 24 -42 45 -42v-9h-175v9c24 0 48 18 48 44v187c-30 -11 -75 -59 -75 -92h-9l10 105c0 2 2 7 5 7c6 0 9 -6 16 -6h193c4 0 10 3 14 4c12 0 15 -88 17 -109z" />
    <glyph glyph-name="Eth" unicode="&#xd0;" horiz-adv-x="846" 
d="M825 385c0 -234 -169 -385 -371 -385h-429v12c21 0 86 31 86 106v250h-87v27h87v239c0 82 -64 113 -85 113v13h430c205 0 369 -142 369 -375zM565 400c0 229 -31 340 -140 340c-58 0 -77 -32 -77 -73v-272h108v-27h-108v-262c0 -56 32 -80 76 -80c103 0 141 145 141 374z
" />
    <glyph glyph-name="onehalf" unicode="&#xbd;" horiz-adv-x="758" 
d="M456 754h38l-286 -754h-38zM240 307v-7h-216v7c16 0 45 13 45 45v291c0 28 -15 53 -47 53v7l164 71c8 3 15 3 15 -10v-413c0 -33 26 -44 39 -44zM735 153l-33 -147c-1 -4 -3 -6 -9 -6h-268c-4 0 -6 2 -6 6c0 0 0 25 1 38c7 68 57 93 99 137c31 32 57 75 57 152
c0 90 -30 118 -77 118c-33 0 -55 -17 -55 -26c0 -8 10 -1 25 -1c40 0 69 -25 69 -64c0 -40 -31 -67 -65 -67c-35 0 -68 26 -68 73c0 59 49 110 145 110c102 0 169 -53 169 -128c0 -96 -80 -122 -153 -160c-36 -20 -71 -43 -93 -78c-3 -4 0 -7 4 -7h166c43 0 70 22 85 53
c5 8 8 4 7 -3z" />
    <glyph glyph-name="Thorn" unicode="&#xde;" horiz-adv-x="773" 
d="M748 390c0 -151 -146 -212 -288 -212h-104v-37c0 -79 62 -128 118 -128v-13h-458v13c50 0 114 46 114 128v470c0 77 -36 136 -83 136v13h388v-17c-35 0 -79 -35 -79 -141h136c153 0 256 -84 256 -212zM519 393c0 165 -53 182 -106 182h-57v-372h52c54 0 111 33 111 190z
" />
    <glyph glyph-name="onequarter" unicode="&#xbc;" horiz-adv-x="716" 
d="M456 754h38l-286 -754h-38zM240 307v-7h-216v7c16 0 45 13 45 45v291c0 28 -15 53 -47 53v7l164 71c8 3 15 3 15 -10v-413c0 -33 26 -44 39 -44zM687 177v-21c0 -6 -4 -9 -8 -9h-56v-81c0 -34 26 -55 53 -55v-10h-254v10c32 0 65 17 65 55v81h-163c-5 0 -9 5 -5 12
l205 310c2 2 5 6 10 6h82c4 0 7 -5 7 -10v-279h55c5 0 9 -4 9 -9zM374 186h113v179c0 6 -2 11 -7 5l-116 -174c-3 -4 -3 -10 10 -10z" />
    <glyph glyph-name="divide" unicode="&#xf7;" horiz-adv-x="764" 
d="M681 371v-46h-586v46h586zM319 495c0 36 30 66 66 66s66 -30 66 -66s-30 -66 -66 -66s-66 30 -66 66zM319 198c0 36 30 66 66 66s66 -30 66 -66s-30 -66 -66 -66s-66 30 -66 66z" />
    <glyph glyph-name="degree" unicode="&#xb0;" horiz-adv-x="484" 
d="M63 593c0 104 85 189 189 189s189 -85 189 -189s-85 -189 -189 -189s-189 85 -189 189zM120 592c0 -73 59 -132 132 -132s132 59 132 132s-59 133 -132 133s-132 -60 -132 -133z" />
    <glyph glyph-name="thorn" unicode="&#xfe;" horiz-adv-x="625" 
d="M601 277c0 -172 -111 -288 -230 -288c-38 0 -77 10 -109 30v-142c0 -72 51 -97 81 -97v-12h-365v12c29 0 88 29 88 99v648c0 63 -37 79 -57 79v11l228 67c13 4 25 6 25 -16v-248c39 45 90 75 151 75c89 0 188 -65 188 -218zM395 227c0 153 -42 188 -77 188
c-21 0 -41 -15 -56 -45v-304c18 -32 42 -45 65 -45c46 0 68 52 68 206z" />
    <glyph glyph-name="threequarters" unicode="&#xbe;" horiz-adv-x="787" 
d="M527 754h38l-286 -754h-38zM758 177v-21c0 -6 -4 -9 -8 -9h-56v-81c0 -34 26 -55 53 -55v-10h-254v10c32 0 65 17 65 55v81h-163c-5 0 -9 5 -5 12l205 310c2 2 5 6 10 6h82c4 0 7 -5 7 -10v-279h55c5 0 9 -4 9 -9zM445 186h113v179c0 6 -2 11 -7 5l-116 -174
c-3 -4 -3 -10 10 -10zM349 423c0 -71 -79 -134 -182 -134c-96 0 -154 46 -154 110c0 45 33 72 67 72c36 0 65 -27 65 -60c0 -46 -33 -59 -51 -60c-14 -2 -24 -5 -24 -12c0 -16 28 -33 55 -33c49 0 83 19 83 125c0 93 -40 108 -106 108c-5 1 -5 10 -2 11c49 0 89 11 89 104
c0 68 -30 94 -64 94c-26 0 -44 -14 -44 -22c0 -3 1 -5 3 -4c4 0 10 2 18 2c28 0 65 -25 65 -65c0 -41 -33 -65 -64 -65s-70 23 -70 72c0 69 61 110 138 110c81 0 150 -44 150 -114c0 -74 -66 -108 -103 -108v-5c56 0 131 -48 131 -126z" />
    <glyph glyph-name="twosuperior" unicode="&#xb2;" horiz-adv-x="377" 
d="M352 452l-33 -147c-1 -4 -3 -6 -9 -6h-268c-4 0 -6 2 -6 6c0 0 0 25 1 38c7 68 57 93 99 137c31 32 57 75 57 152c0 90 -30 118 -77 118c-33 0 -55 -17 -55 -26c0 -8 10 -1 25 -1c40 0 69 -25 69 -64c0 -40 -31 -67 -65 -67c-35 0 -68 26 -68 73c0 59 49 110 145 110
c102 0 169 -53 169 -128c0 -96 -80 -122 -153 -160c-36 -20 -71 -43 -93 -78c-3 -4 0 -7 4 -7h166c43 0 70 22 85 53c5 8 8 4 7 -3z" />
    <glyph glyph-name="registered" unicode="&#xae;" horiz-adv-x="569" 
d="M547 518c0 -138 -123 -252 -258 -252c-143 0 -258 115 -258 257c0 143 117 259 259 259c147 0 257 -119 257 -264zM514 523c0 123 -100 227 -224 227c-126 0 -226 -102 -226 -227s100 -226 225 -226c124 0 225 102 225 226zM439 401v-4h-95c-4 0 -7 2 -8 6l-37 108
c-5 12 -13 14 -17 14s-8 -3 -8 -9v-66c0 -36 30 -48 41 -48v-5h-169v5c22 0 45 16 45 48v169c0 28 -24 43 -36 43v4h164c45 0 90 -23 90 -68c0 -46 -42 -62 -65 -67v-1c16 0 27 -9 36 -20c20 -26 27 -71 39 -89c7 -12 17 -20 20 -20zM326 597c0 37 -12 59 -33 59
c-13 0 -19 -12 -19 -26v-95h14c24 0 38 25 38 62z" />
    <glyph glyph-name="minus" unicode="&#x2212;" horiz-adv-x="764" 
d="M681 378v-46h-586v46h586z" />
    <glyph glyph-name="eth" unicode="&#xf0;" horiz-adv-x="599" 
d="M575 244c0 -140 -123 -253 -275 -253c-153 0 -276 113 -276 253c0 139 123 253 276 253c3 0 7 0 10 -1c-15 30 -48 72 -85 113l-46 -51l-22 19l49 54c-52 55 -96 96 -119 108c-4 3 -3 9 5 9h65c26 -9 64 -27 106 -54l42 47l22 -19l-40 -44c40 -27 82 -61 122 -99
c90 -89 166 -197 166 -335zM367 245c0 128 -8 230 -65 230c-56 0 -72 -102 -72 -230c0 -129 3 -233 69 -233c60 0 68 104 68 233z" />
    <glyph glyph-name="multiply" unicode="&#xd7;" horiz-adv-x="764" 
d="M605 164l-35 -35l-189 190l-193 -193l-34 34l193 193l-191 191l34 34l191 -191l194 194l34 -34l-194 -194z" />
    <glyph glyph-name="threesuperior" unicode="&#xb3;" horiz-adv-x="372" 
d="M360 423c0 -71 -79 -134 -182 -134c-96 0 -154 46 -154 110c0 45 33 72 67 72c36 0 65 -27 65 -60c0 -46 -33 -59 -51 -60c-14 -2 -24 -5 -24 -12c0 -16 28 -33 55 -33c49 0 83 19 83 125c0 93 -40 108 -106 108c-5 1 -5 10 -2 11c49 0 89 11 89 104c0 68 -30 94 -64 94
c-26 0 -44 -14 -44 -22c0 -3 1 -5 3 -4c4 0 10 2 18 2c28 0 65 -25 65 -65c0 -41 -33 -65 -64 -65s-70 23 -70 72c0 69 61 110 138 110c81 0 150 -44 150 -114c0 -74 -66 -108 -103 -108v-5c56 0 131 -48 131 -126z" />
    <glyph glyph-name="copyright" unicode="&#xa9;" horiz-adv-x="848" 
d="M807 372c0 -211 -173 -383 -384 -383s-383 172 -383 383c0 212 173 385 385 385c211 0 382 -174 382 -385zM773 372c0 192 -155 352 -349 352s-351 -159 -351 -352c0 -195 155 -352 350 -352c193 0 350 159 350 352zM599 343v-173c0 -7 -6 -11 -10 -11
c-5 0 -16 16 -31 16c-25 0 -59 -29 -138 -29c-133 0 -227 91 -227 235c0 146 133 226 233 226c83 0 105 -30 130 -30c22 0 33 20 37 20s6 0 6 -6v-153c0 -11 -10 -15 -14 -2c-8 24 -26 69 -53 105c-22 30 -50 53 -83 53c-62 0 -106 -70 -106 -225c0 -162 35 -211 96 -211
c42 0 78 43 105 90c21 35 36 73 42 96c5 17 13 9 13 -1z" />
    <glyph glyph-name="Aacute" unicode="&#xc1;" horiz-adv-x="786" 
d="M536 960c0 -24 -15 -42 -51 -60l-161 -80l-14 18l95 128c29 40 52 47 77 47c31 0 54 -23 54 -53zM804 12v-12h-442v12c14 0 74 33 74 104c0 15 -3 32 -10 50l-43 121h-201l-28 -80c-6 -19 -13 -48 -13 -69c0 -82 59 -126 89 -126v-12h-239v12c19 0 74 41 107 132l168 471
l-14 40c-4 11 -3 22 9 27c66 27 133 86 165 135c8 12 17 14 21 2l243 -663c31 -86 81 -144 114 -144zM191 315h182l-92 250z" />
    <glyph glyph-name="Acircumflex" unicode="&#xc2;" horiz-adv-x="786" 
d="M555 810l-159 95l-158 -95l143 193c3 4 8 6 13 6s11 -2 14 -6zM804 12v-12h-442v12c14 0 74 33 74 104c0 15 -3 32 -10 50l-43 121h-201l-28 -80c-6 -19 -13 -48 -13 -69c0 -82 59 -126 89 -126v-12h-239v12c19 0 74 41 107 132l168 471l-14 40c-4 11 -3 22 9 27
c66 27 133 86 165 135c8 12 17 14 21 2l243 -663c31 -86 81 -144 114 -144zM191 315h182l-92 250z" />
    <glyph glyph-name="Adieresis" unicode="&#xc4;" horiz-adv-x="786" 
d="M535 934c0 -33 -24 -60 -57 -60c-35 0 -62 25 -62 60c0 32 30 59 60 59c33 0 59 -27 59 -59zM344 934c0 -33 -24 -60 -57 -60c-35 0 -62 25 -62 60c0 32 29 59 60 59c33 0 59 -27 59 -59zM804 12v-12h-442v12c14 0 74 33 74 104c0 15 -3 32 -10 50l-43 121h-201l-28 -80
c-6 -19 -13 -48 -13 -69c0 -82 59 -126 89 -126v-12h-239v12c19 0 74 41 107 132l168 471l-14 40c-4 11 -3 22 9 27c66 27 133 86 165 135c8 12 17 14 21 2l243 -663c31 -86 81 -144 114 -144zM191 315h182l-92 250z" />
    <glyph glyph-name="Agrave" unicode="&#xc0;" horiz-adv-x="786" 
d="M314 970l96 -128l-14 -18l-161 80c-36 17 -51 35 -51 59c0 31 23 54 54 54c25 0 47 -8 76 -47zM804 12v-12h-442v12c14 0 74 33 74 104c0 15 -3 32 -10 50l-43 121h-201l-28 -80c-6 -19 -13 -48 -13 -69c0 -82 59 -126 89 -126v-12h-239v12c19 0 74 41 107 132l168 471
l-14 40c-4 11 -3 22 9 27c66 27 133 86 165 135c8 12 17 14 21 2l243 -663c31 -86 81 -144 114 -144zM191 315h182l-92 250z" />
    <glyph glyph-name="Aring" unicode="&#xc5;" horiz-adv-x="786" 
d="M494 972c0 -64 -53 -117 -116 -117c-68 0 -118 51 -118 119c0 62 54 115 117 115c64 0 117 -52 117 -117zM438 972c0 33 -28 62 -62 62c-33 0 -61 -29 -61 -61c0 -36 26 -63 62 -63c34 0 61 28 61 62zM804 12v-12h-442v12c14 0 74 33 74 104c0 15 -3 32 -10 50l-43 121
h-201l-28 -80c-6 -19 -13 -48 -13 -69c0 -82 59 -126 89 -126v-12h-239v12c19 0 74 41 107 132l168 471l-14 40c-4 11 -3 22 9 27c66 27 133 86 165 135c8 12 17 14 21 2l243 -663c31 -86 81 -144 114 -144zM191 315h182l-92 250z" />
    <glyph glyph-name="Atilde" unicode="&#xc3;" horiz-adv-x="786" 
d="M515 989l19 -4c-14 -52 -35 -114 -96 -114c-53 0 -93 51 -145 51c-21 0 -34 -18 -43 -37l-22 4c13 45 36 113 99 113c54 0 93 -50 144 -50c22 0 32 17 44 37zM804 12v-12h-442v12c14 0 74 33 74 104c0 15 -3 32 -10 50l-43 121h-201l-28 -80c-6 -19 -13 -48 -13 -69
c0 -82 59 -126 89 -126v-12h-239v12c19 0 74 41 107 132l168 471l-14 40c-4 11 -3 22 9 27c66 27 133 86 165 135c8 12 17 14 21 2l243 -663c31 -86 81 -144 114 -144zM191 315h182l-92 250z" />
    <glyph glyph-name="Ccedilla" unicode="&#xc7;" horiz-adv-x="794" 
d="M727 326v-299c0 -12 -10 -19 -17 -19c-8 0 -28 28 -53 28c-43 0 -102 -50 -236 -51l-14 -38c15 2 21 2 30 2c59 0 99 -32 99 -79c0 -50 -46 -87 -108 -87c-41 0 -75 11 -118 37l11 26c25 -16 46 -24 64 -24c27 0 49 22 49 48s-19 41 -50 41c-8 0 -15 -1 -29 -3l31 78
c-212 14 -360 166 -360 403c0 248 230 387 403 387c143 0 180 -52 224 -52c39 0 57 34 64 34c8 0 10 0 10 -11v-264c0 -19 -17 -25 -24 -2c-13 41 -44 119 -91 181c-38 51 -86 91 -144 91c-107 0 -183 -118 -183 -386c0 -279 61 -360 167 -360c71 0 135 74 181 154
c36 61 61 127 72 167c8 30 22 15 22 -2z" />
    <glyph glyph-name="Eacute" unicode="&#xc9;" 
d="M551 945c0 -24 -15 -42 -51 -60l-161 -80l-14 18l95 128c29 40 52 47 77 47c31 0 54 -23 54 -53zM763 341l-36 -325c-1 -12 -22 -16 -22 -16h-675v13c34 0 118 40 118 142v453c0 95 -72 139 -109 139v12h672s17 -1 18 -13l15 -295c1 -14 -11 -24 -19 0
c-13 37 -54 112 -106 175c-49 59 -108 108 -161 108c-39 0 -72 -26 -72 -83v-238h23c105 0 159 117 159 159l12 -1v-353h-16c0 42 -50 168 -155 168h-23v-282c0 -38 20 -75 60 -75c69 0 135 58 188 124c59 75 102 160 112 185c8 17 19 21 17 3z" />
    <glyph glyph-name="Ecircumflex" unicode="&#xca;" 
d="M572 803l-159 95l-158 -95l143 193c3 4 8 6 13 6s11 -2 14 -6zM763 341l-36 -325c-1 -12 -22 -16 -22 -16h-675v13c34 0 118 40 118 142v453c0 95 -72 139 -109 139v12h672s17 -1 18 -13l15 -295c1 -14 -11 -24 -19 0c-13 37 -54 112 -106 175c-49 59 -108 108 -161 108
c-39 0 -72 -26 -72 -83v-238h23c105 0 159 117 159 159l12 -1v-353h-16c0 42 -50 168 -155 168h-23v-282c0 -38 20 -75 60 -75c69 0 135 58 188 124c59 75 102 160 112 185c8 17 19 21 17 3z" />
    <glyph glyph-name="Edieresis" unicode="&#xcb;" 
d="M557 893c0 -33 -25 -60 -58 -60c-34 0 -61 25 -61 60c0 32 29 59 60 59c33 0 59 -27 59 -59zM365 893c0 -33 -24 -60 -57 -60c-35 0 -62 25 -62 60c0 32 30 59 60 59c33 0 59 -27 59 -59zM763 341l-36 -325c-1 -12 -22 -16 -22 -16h-675v13c34 0 118 40 118 142v453
c0 95 -72 139 -109 139v12h672s17 -1 18 -13l15 -295c1 -14 -11 -24 -19 0c-13 37 -54 112 -106 175c-49 59 -108 108 -161 108c-39 0 -72 -26 -72 -83v-238h23c105 0 159 117 159 159l12 -1v-353h-16c0 42 -50 168 -155 168h-23v-282c0 -38 20 -75 60 -75
c69 0 135 58 188 124c59 75 102 160 112 185c8 17 19 21 17 3z" />
    <glyph glyph-name="Egrave" unicode="&#xc8;" 
d="M377 957l96 -128l-14 -18l-161 80c-36 17 -51 35 -51 59c0 31 23 54 54 54c25 0 47 -8 76 -47zM763 341l-36 -325c-1 -12 -22 -16 -22 -16h-675v13c34 0 118 40 118 142v453c0 95 -72 139 -109 139v12h672s17 -1 18 -13l15 -295c1 -14 -11 -24 -19 0
c-13 37 -54 112 -106 175c-49 59 -108 108 -161 108c-39 0 -72 -26 -72 -83v-238h23c105 0 159 117 159 159l12 -1v-353h-16c0 42 -50 168 -155 168h-23v-282c0 -38 20 -75 60 -75c69 0 135 58 188 124c59 75 102 160 112 185c8 17 19 21 17 3z" />
    <glyph glyph-name="Iacute" unicode="&#xcd;" horiz-adv-x="499" 
d="M383 943c0 -24 -15 -42 -51 -59l-161 -80l-14 18l96 128c29 39 51 47 76 47c31 0 54 -23 54 -54zM458 761v-13c-34 0 -92 -40 -92 -128v-490c0 -87 71 -118 89 -118v-12h-414v12c29 0 91 32 91 118v490c0 88 -51 128 -91 128l-1 13h418z" />
    <glyph glyph-name="Icircumflex" unicode="&#xce;" horiz-adv-x="499" 
d="M410 803l-159 95l-158 -95l143 193c3 4 8 6 13 6s11 -2 14 -6zM458 761v-13c-34 0 -92 -40 -92 -128v-490c0 -87 71 -118 89 -118v-12h-414v12c29 0 91 32 91 118v490c0 88 -51 128 -91 128l-1 13h418z" />
    <glyph glyph-name="Idieresis" unicode="&#xcf;" horiz-adv-x="499" 
d="M407 897c0 -33 -25 -60 -58 -60c-34 0 -61 25 -61 60c0 32 29 59 60 59c33 0 59 -27 59 -59zM215 897c0 -33 -24 -60 -57 -60c-35 0 -62 25 -62 60c0 32 30 59 60 59c33 0 59 -27 59 -59zM458 761v-13c-34 0 -92 -40 -92 -128v-490c0 -87 71 -118 89 -118v-12h-414v12
c29 0 91 32 91 118v490c0 88 -51 128 -91 128l-1 13h418z" />
    <glyph glyph-name="Igrave" unicode="&#xcc;" horiz-adv-x="499" 
d="M255 950l96 -128l-14 -18l-161 80c-36 17 -51 35 -51 59c0 31 23 54 54 54c25 0 47 -8 76 -47zM458 761v-13c-34 0 -92 -40 -92 -128v-490c0 -87 71 -118 89 -118v-12h-414v12c29 0 91 32 91 118v490c0 88 -51 128 -91 128l-1 13h418z" />
    <glyph glyph-name="Ntilde" unicode="&#xd1;" horiz-adv-x="856" 
d="M569 937l19 -3c-15 -52 -36 -114 -96 -114c-53 0 -93 51 -144 51c-22 0 -35 -18 -45 -38l-22 5c13 45 37 113 100 113c53 0 93 -50 144 -50c21 0 33 17 44 36zM854 760v-14c-36 0 -150 -96 -150 -284v-462h-146l-359 593v-303c0 -212 138 -277 183 -277v-13h-365v14
c45 0 155 67 155 275v281c0 105 -89 179 -127 179v11h325c12 0 11 0 17 -9l291 -472v184c0 201 -136 285 -174 285v12h350z" />
    <glyph glyph-name="Oacute" unicode="&#xd3;" horiz-adv-x="866" 
d="M591 958c0 -24 -15 -42 -51 -60l-161 -80l-14 18l95 128c29 40 52 47 77 47c31 0 54 -23 54 -53zM838 382c0 -221 -181 -400 -405 -400s-405 179 -405 400s181 400 405 400s405 -179 405 -400zM576 380c0 210 -25 380 -144 380c-131 0 -144 -170 -144 -380
s9 -380 144 -380c122 0 144 170 144 380z" />
    <glyph glyph-name="Ocircumflex" unicode="&#xd4;" horiz-adv-x="866" 
d="M596 791l-159 95l-158 -95l143 193c3 4 8 6 13 6s11 -2 14 -6zM838 382c0 -221 -181 -400 -405 -400s-405 179 -405 400s181 400 405 400s405 -179 405 -400zM576 380c0 210 -25 380 -144 380c-131 0 -144 -170 -144 -380s9 -380 144 -380c122 0 144 170 144 380z" />
    <glyph glyph-name="Odieresis" unicode="&#xd6;" horiz-adv-x="866" 
d="M586 901c0 -33 -24 -60 -57 -60c-35 0 -62 25 -62 60c0 32 30 59 60 59c33 0 59 -27 59 -59zM395 901c0 -33 -24 -60 -57 -60c-35 0 -62 25 -62 60c0 32 29 59 60 59c33 0 59 -27 59 -59zM838 382c0 -221 -181 -400 -405 -400s-405 179 -405 400s181 400 405 400
s405 -179 405 -400zM576 380c0 210 -25 380 -144 380c-131 0 -144 -170 -144 -380s9 -380 144 -380c122 0 144 170 144 380z" />
    <glyph glyph-name="Ograve" unicode="&#xd2;" horiz-adv-x="866" 
d="M390 964l96 -128l-14 -18l-161 80c-36 17 -51 35 -51 59c0 31 23 54 54 54c25 0 47 -8 76 -47zM838 382c0 -221 -181 -400 -405 -400s-405 179 -405 400s181 400 405 400s405 -179 405 -400zM576 380c0 210 -25 380 -144 380c-131 0 -144 -170 -144 -380s9 -380 144 -380
c122 0 144 170 144 380z" />
    <glyph glyph-name="Otilde" unicode="&#xd5;" horiz-adv-x="866" 
d="M568 956l19 -4c-14 -52 -36 -114 -96 -114c-54 0 -93 51 -146 51c-21 0 -33 -18 -43 -37l-22 4c13 45 37 113 100 113c55 0 92 -50 144 -50c21 0 32 18 44 37zM838 382c0 -221 -181 -400 -405 -400s-405 179 -405 400s181 400 405 400s405 -179 405 -400zM576 380
c0 210 -25 380 -144 380c-131 0 -144 -170 -144 -380s9 -380 144 -380c122 0 144 170 144 380z" />
    <glyph glyph-name="Scaron" unicode="&#x160;" horiz-adv-x="698" 
d="M357 920l159 95l-147 -193c-3 -4 -9 -6 -14 -6s-10 2 -13 6l-143 193zM657 252c0 -154 -144 -270 -312 -270c-87 0 -129 45 -198 45c-35 0 -66 -26 -71 -26c-6 0 -8 1 -8 18v318c0 11 10 20 13 0c6 -33 33 -119 78 -195c44 -74 105 -140 183 -140c58 0 110 52 110 121
c0 78 -107 118 -208 175c-90 50 -176 114 -176 230c0 149 147 252 286 252c92 0 158 -38 202 -38s52 15 58 15c7 0 9 -3 9 -12v-254c0 -18 -15 -20 -20 1c-7 35 -37 101 -79 159s-97 107 -154 107s-104 -41 -104 -90c0 -91 103 -131 203 -181c95 -48 188 -107 188 -235z" />
    <glyph glyph-name="Uacute" unicode="&#xda;" horiz-adv-x="794" 
d="M580 945c0 -24 -15 -42 -51 -60l-161 -80l-14 18l95 128c29 40 52 47 77 47c31 0 54 -23 54 -53zM792 759v-12c-45 0 -134 -65 -134 -183v-358c0 -147 -95 -223 -269 -223c-170 0 -286 81 -286 245v398c0 87 -57 121 -83 121v12h411v-12c-25 0 -98 -37 -98 -118v-420
c0 -120 74 -174 148 -174c75 0 149 61 149 173v351c0 121 -80 188 -132 188v12h294z" />
    <glyph glyph-name="Ucircumflex" unicode="&#xdb;" horiz-adv-x="794" 
d="M576 791l-159 95l-158 -95l143 193c3 4 8 6 13 6s11 -2 14 -6zM792 759v-12c-45 0 -134 -65 -134 -183v-358c0 -147 -95 -223 -269 -223c-170 0 -286 81 -286 245v398c0 87 -57 121 -83 121v12h411v-12c-25 0 -98 -37 -98 -118v-420c0 -120 74 -174 148 -174
c75 0 149 61 149 173v351c0 121 -80 188 -132 188v12h294z" />
    <glyph glyph-name="Udieresis" unicode="&#xdc;" horiz-adv-x="794" 
d="M577 896c0 -33 -24 -60 -57 -60c-35 0 -62 25 -62 60c0 32 30 59 60 59c33 0 59 -27 59 -59zM386 896c0 -33 -24 -60 -57 -60c-35 0 -62 25 -62 60c0 32 29 59 60 59c33 0 59 -27 59 -59zM792 759v-12c-45 0 -134 -65 -134 -183v-358c0 -147 -95 -223 -269 -223
c-170 0 -286 81 -286 245v398c0 87 -57 121 -83 121v12h411v-12c-25 0 -98 -37 -98 -118v-420c0 -120 74 -174 148 -174c75 0 149 61 149 173v351c0 121 -80 188 -132 188v12h294z" />
    <glyph glyph-name="Ugrave" unicode="&#xd9;" horiz-adv-x="794" 
d="M406 952l96 -128l-14 -18l-161 80c-36 17 -51 35 -51 59c0 31 23 54 54 54c25 0 47 -8 76 -47zM792 759v-12c-45 0 -134 -65 -134 -183v-358c0 -147 -95 -223 -269 -223c-170 0 -286 81 -286 245v398c0 87 -57 121 -83 121v12h411v-12c-25 0 -98 -37 -98 -118v-420
c0 -120 74 -174 148 -174c75 0 149 61 149 173v351c0 121 -80 188 -132 188v12h294z" />
    <glyph glyph-name="Yacute" unicode="&#xdd;" horiz-adv-x="785" 
d="M611 952c0 -24 -15 -42 -51 -59l-161 -80l-14 18l96 128c29 39 51 47 76 47c31 0 54 -23 54 -54zM803 760v-14c-59 0 -159 -127 -199 -202l-95 -179v-244c0 -74 69 -108 103 -108v-13h-456v13c42 0 114 34 114 108v231l-126 257c-36 75 -107 137 -152 137v14h455v-14
c-31 0 -61 -36 -61 -78c0 -15 3 -30 10 -45l105 -213l65 121c15 28 20 57 20 85c0 69 -42 130 -81 130v14h298z" />
    <glyph glyph-name="Ydieresis" unicode="&#x178;" horiz-adv-x="785" 
d="M578 901c0 -33 -24 -60 -57 -60c-35 0 -62 25 -62 60c0 32 30 59 60 59c33 0 59 -27 59 -59zM387 901c0 -33 -24 -60 -57 -60c-35 0 -62 25 -62 60c0 32 29 59 60 59c33 0 59 -27 59 -59zM803 760v-14c-59 0 -159 -127 -199 -202l-95 -179v-244c0 -74 69 -108 103 -108
v-13h-456v13c42 0 114 34 114 108v231l-126 257c-36 75 -107 137 -152 137v14h455v-14c-31 0 -61 -36 -61 -78c0 -15 3 -30 10 -45l105 -213l65 121c15 28 20 57 20 85c0 69 -42 130 -81 130v14h298z" />
    <glyph glyph-name="Zcaron" unicode="&#x17d;" horiz-adv-x="730" 
d="M372 903l159 95l-147 -193c-3 -4 -9 -6 -14 -6s-10 2 -13 6l-143 193zM688 362l-35 -348c-2 -13 0 -14 -12 -14h-589c-8 0 -13 16 -6 30l326 649c18 35 4 64 -27 64c-55 0 -113 -46 -161 -103c-58 -67 -103 -150 -117 -192c-3 -5 -13 -4 -12 8l26 289c2 13 4 14 14 14
h548c13 0 20 -5 13 -18l-320 -645c-17 -34 -18 -69 28 -69c71 0 148 71 208 150c53 70 93 146 104 187c5 6 13 6 12 -2z" />
    <glyph glyph-name="aacute" unicode="&#xe1;" horiz-adv-x="571" 
d="M467 667c0 -24 -15 -42 -51 -59l-161 -80l-14 18l95 128c30 39 52 47 77 47c31 0 54 -23 54 -54zM571 126c-15 -38 -72 -137 -163 -137c-49 0 -87 28 -105 72c-28 -34 -74 -72 -144 -72c-85 0 -132 49 -132 111c0 73 68 103 115 119c33 11 71 18 103 31c18 7 34 16 47 28
v107c0 39 -24 71 -56 71c-31 0 -48 -14 -48 -24c0 -12 11 -18 23 -26c12 -10 25 -22 25 -48c0 -55 -55 -108 -112 -108c-43 0 -72 25 -72 69c0 69 112 174 302 174c71 0 134 -42 134 -124v-260c0 -19 11 -28 22 -28c17 0 36 30 44 49c4 5 16 4 17 -4zM295 87
c-2 11 -3 23 -3 36v115c-5 2 -10 3 -15 3c-24 0 -59 -41 -59 -95c0 -55 24 -85 45 -85c14 0 25 10 32 26z" />
    <glyph glyph-name="acircumflex" unicode="&#xe2;" horiz-adv-x="571" 
d="M449 509l-159 95l-158 -95l143 193c3 4 8 6 13 6s11 -2 14 -6zM571 126c-15 -38 -72 -137 -163 -137c-49 0 -87 28 -105 72c-28 -34 -74 -72 -144 -72c-85 0 -132 49 -132 111c0 73 68 103 115 119c33 11 71 18 103 31c18 7 34 16 47 28v107c0 39 -24 71 -56 71
c-31 0 -48 -14 -48 -24c0 -12 11 -18 23 -26c12 -10 25 -22 25 -48c0 -55 -55 -108 -112 -108c-43 0 -72 25 -72 69c0 69 112 174 302 174c71 0 134 -42 134 -124v-260c0 -19 11 -28 22 -28c17 0 36 30 44 49c4 5 16 4 17 -4zM295 87c-2 11 -3 23 -3 36v115
c-5 2 -10 3 -15 3c-24 0 -59 -41 -59 -95c0 -55 24 -85 45 -85c14 0 25 10 32 26z" />
    <glyph glyph-name="adieresis" unicode="&#xe4;" horiz-adv-x="571" 
d="M473 635c0 -33 -24 -60 -57 -60c-35 0 -62 25 -62 60c0 32 30 59 60 59c33 0 59 -27 59 -59zM282 635c0 -33 -24 -60 -57 -60c-35 0 -62 25 -62 60c0 32 29 59 60 59c33 0 59 -27 59 -59zM571 126c-15 -38 -72 -137 -163 -137c-49 0 -87 28 -105 72
c-28 -34 -74 -72 -144 -72c-85 0 -132 49 -132 111c0 73 68 103 115 119c33 11 71 18 103 31c18 7 34 16 47 28v107c0 39 -24 71 -56 71c-31 0 -48 -14 -48 -24c0 -12 11 -18 23 -26c12 -10 25 -22 25 -48c0 -55 -55 -108 -112 -108c-43 0 -72 25 -72 69
c0 69 112 174 302 174c71 0 134 -42 134 -124v-260c0 -19 11 -28 22 -28c17 0 36 30 44 49c4 5 16 4 17 -4zM295 87c-2 11 -3 23 -3 36v115c-5 2 -10 3 -15 3c-24 0 -59 -41 -59 -95c0 -55 24 -85 45 -85c14 0 25 10 32 26z" />
    <glyph glyph-name="agrave" unicode="&#xe0;" horiz-adv-x="571" 
d="M289 680l96 -128l-14 -18l-161 80c-36 17 -51 35 -51 59c0 31 23 54 54 54c25 0 47 -8 76 -47zM571 126c-15 -38 -72 -137 -163 -137c-49 0 -87 28 -105 72c-28 -34 -74 -72 -144 -72c-85 0 -132 49 -132 111c0 73 68 103 115 119c33 11 71 18 103 31c18 7 34 16 47 28
v107c0 39 -24 71 -56 71c-31 0 -48 -14 -48 -24c0 -12 11 -18 23 -26c12 -10 25 -22 25 -48c0 -55 -55 -108 -112 -108c-43 0 -72 25 -72 69c0 69 112 174 302 174c71 0 134 -42 134 -124v-260c0 -19 11 -28 22 -28c17 0 36 30 44 49c4 5 16 4 17 -4zM295 87
c-2 11 -3 23 -3 36v115c-5 2 -10 3 -15 3c-24 0 -59 -41 -59 -95c0 -55 24 -85 45 -85c14 0 25 10 32 26z" />
    <glyph glyph-name="aring" unicode="&#xe5;" horiz-adv-x="571" 
d="M427 659c0 -65 -53 -118 -116 -118c-68 0 -118 52 -118 119c0 62 54 115 117 115c64 0 117 -52 117 -116zM371 658c0 34 -28 62 -62 62c-33 0 -61 -28 -61 -61c0 -36 26 -62 62 -62c34 0 61 27 61 61zM571 126c-15 -38 -72 -137 -163 -137c-49 0 -87 28 -105 72
c-28 -34 -74 -72 -144 -72c-85 0 -132 49 -132 111c0 73 68 103 115 119c33 11 71 18 103 31c18 7 34 16 47 28v107c0 39 -24 71 -56 71c-31 0 -48 -14 -48 -24c0 -12 11 -18 23 -26c12 -10 25 -22 25 -48c0 -55 -55 -108 -112 -108c-43 0 -72 25 -72 69
c0 69 112 174 302 174c71 0 134 -42 134 -124v-260c0 -19 11 -28 22 -28c17 0 36 30 44 49c4 5 16 4 17 -4zM295 87c-2 11 -3 23 -3 36v115c-5 2 -10 3 -15 3c-24 0 -59 -41 -59 -95c0 -55 24 -85 45 -85c14 0 25 10 32 26z" />
    <glyph glyph-name="atilde" unicode="&#xe3;" horiz-adv-x="571" 
d="M442 666l19 -4c-15 -52 -36 -114 -96 -114c-54 0 -93 51 -146 51c-21 0 -33 -18 -43 -37l-22 4c13 45 37 113 100 113c53 0 92 -50 144 -50c21 0 32 18 44 37zM571 126c-15 -38 -72 -137 -163 -137c-49 0 -87 28 -105 72c-28 -34 -74 -72 -144 -72
c-85 0 -132 49 -132 111c0 73 68 103 115 119c33 11 71 18 103 31c18 7 34 16 47 28v107c0 39 -24 71 -56 71c-31 0 -48 -14 -48 -24c0 -12 11 -18 23 -26c12 -10 25 -22 25 -48c0 -55 -55 -108 -112 -108c-43 0 -72 25 -72 69c0 69 112 174 302 174c71 0 134 -42 134 -124
v-260c0 -19 11 -28 22 -28c17 0 36 30 44 49c4 5 16 4 17 -4zM295 87c-2 11 -3 23 -3 36v115c-5 2 -10 3 -15 3c-24 0 -59 -41 -59 -95c0 -55 24 -85 45 -85c14 0 25 10 32 26z" />
    <glyph glyph-name="ccedilla" unicode="&#xe7;" horiz-adv-x="503" 
d="M491 192c-26 -84 -98 -203 -230 -206l-14 -39c15 2 21 2 30 2c59 0 99 -32 99 -79c0 -50 -46 -87 -108 -87c-41 0 -75 11 -118 37l11 26c25 -16 46 -24 64 -24c27 0 49 22 49 48s-19 41 -50 41c-8 0 -15 -1 -29 -3l31 80c-107 12 -199 90 -199 238c0 173 136 268 264 268
c107 0 164 -50 164 -116c0 -53 -39 -93 -94 -93s-88 47 -88 86c0 65 47 74 47 89c0 9 -8 16 -23 16c-30 0 -96 -60 -96 -171s60 -195 146 -195c76 0 122 63 132 85c4 3 9 2 12 -3z" />
    <glyph glyph-name="eacute" unicode="&#xe9;" horiz-adv-x="559" 
d="M432 667c0 -24 -15 -42 -51 -59l-161 -80l-14 18l96 128c29 39 51 47 76 47c31 0 54 -23 54 -54zM536 188c-9 -42 -84 -200 -254 -200c-145 0 -250 94 -250 244c0 155 122 265 273 265c135 0 227 -97 227 -192c0 -12 -2 -20 -18 -20h-294c11 -113 56 -183 149 -183
c86 0 142 71 155 91c6 3 12 1 12 -5zM347 357c0 62 -17 121 -57 121c-30 0 -72 -36 -72 -143c0 -9 1 -18 1 -28h108c18 0 20 14 20 50z" />
    <glyph glyph-name="ecircumflex" unicode="&#xea;" horiz-adv-x="559" 
d="M444 516l-159 95l-158 -95l143 193c3 4 8 6 13 6s11 -2 14 -6zM536 188c-9 -42 -84 -200 -254 -200c-145 0 -250 94 -250 244c0 155 122 265 273 265c135 0 227 -97 227 -192c0 -12 -2 -20 -18 -20h-294c11 -113 56 -183 149 -183c86 0 142 71 155 91c6 3 12 1 12 -5z
M347 357c0 62 -17 121 -57 121c-30 0 -72 -36 -72 -143c0 -9 1 -18 1 -28h108c18 0 20 14 20 50z" />
    <glyph glyph-name="edieresis" unicode="&#xeb;" horiz-adv-x="559" 
d="M445 635c0 -33 -24 -60 -57 -60c-35 0 -62 25 -62 60c0 32 30 59 60 59c33 0 59 -27 59 -59zM254 635c0 -33 -24 -60 -57 -60c-35 0 -62 25 -62 60c0 32 29 59 60 59c33 0 59 -27 59 -59zM536 188c-9 -42 -84 -200 -254 -200c-145 0 -250 94 -250 244
c0 155 122 265 273 265c135 0 227 -97 227 -192c0 -12 -2 -20 -18 -20h-294c11 -113 56 -183 149 -183c86 0 142 71 155 91c6 3 12 1 12 -5zM347 357c0 62 -17 121 -57 121c-30 0 -72 -36 -72 -143c0 -9 1 -18 1 -28h108c18 0 20 14 20 50z" />
    <glyph glyph-name="egrave" unicode="&#xe8;" horiz-adv-x="559" 
d="M254 680l96 -128l-14 -18l-161 80c-36 17 -51 35 -51 59c0 31 23 54 54 54c25 0 47 -8 76 -47zM536 188c-9 -42 -84 -200 -254 -200c-145 0 -250 94 -250 244c0 155 122 265 273 265c135 0 227 -97 227 -192c0 -12 -2 -20 -18 -20h-294c11 -113 56 -183 149 -183
c86 0 142 71 155 91c6 3 12 1 12 -5zM347 357c0 62 -17 121 -57 121c-30 0 -72 -36 -72 -143c0 -9 1 -18 1 -28h108c18 0 20 14 20 50z" />
    <glyph glyph-name="iacute" unicode="&#xed;" horiz-adv-x="350" 
d="M307 667c0 -24 -15 -42 -51 -59l-161 -80l-14 18l96 128c29 39 51 47 76 47c31 0 54 -23 54 -54zM326 12v-12h-305v12c13 1 58 24 58 73v252c0 62 -40 72 -55 72v11l231 74c14 4 25 5 25 -16v-395c0 -54 32 -70 46 -71z" />
    <glyph glyph-name="icircumflex" unicode="&#xee;" horiz-adv-x="350" 
d="M330 515l-159 95l-158 -95l143 193c3 4 8 6 13 6s11 -2 14 -6zM326 12v-12h-305v12c13 1 58 24 58 73v252c0 62 -40 72 -55 72v11l231 74c14 4 25 5 25 -16v-395c0 -54 32 -70 46 -71z" />
    <glyph glyph-name="idieresis" unicode="&#xef;" horiz-adv-x="350" 
d="M325 635c0 -33 -24 -60 -57 -60c-35 0 -62 25 -62 60c0 32 30 59 60 59c33 0 59 -27 59 -59zM134 635c0 -33 -24 -60 -57 -60c-35 0 -62 25 -62 60c0 32 29 59 60 59c33 0 59 -27 59 -59zM326 12v-12h-305v12c13 1 58 24 58 73v252c0 62 -40 72 -55 72v11l231 74
c14 4 25 5 25 -16v-395c0 -54 32 -70 46 -71z" />
    <glyph glyph-name="igrave" unicode="&#xec;" horiz-adv-x="350" 
d="M157 680l96 -128l-14 -18l-161 80c-36 17 -51 35 -51 59c0 31 23 54 54 54c25 0 47 -8 76 -47zM326 12v-12h-305v12c13 1 58 24 58 73v252c0 62 -40 72 -55 72v11l231 74c14 4 25 5 25 -16v-395c0 -54 32 -70 46 -71z" />
    <glyph glyph-name="ntilde" unicode="&#xf1;" horiz-adv-x="677" 
d="M479 666l19 -4c-14 -52 -36 -114 -96 -114c-54 0 -93 51 -146 51c-21 0 -33 -18 -43 -37l-22 4c13 45 37 113 100 113c55 0 92 -50 144 -50c21 0 32 18 44 37zM657 12v-12h-292v12c15 0 45 22 45 64v267c0 39 -24 66 -62 66c-32 0 -57 -28 -68 -45c1 -105 0 -281 0 -281
c0 -54 24 -71 46 -71v-12h-305v12c25 0 58 24 58 73v250c0 62 -40 72 -55 72v11l231 74c14 4 25 5 25 -16v-73c36 39 91 90 175 90c87 0 151 -49 151 -152v-264c0 -48 26 -65 51 -65z" />
    <glyph glyph-name="oacute" unicode="&#xf3;" horiz-adv-x="599" 
d="M445 666c0 -24 -15 -42 -50 -59l-162 -80l-13 18l95 128c29 39 52 47 77 47c30 0 53 -23 53 -54zM575 244c0 -140 -123 -253 -275 -253c-153 0 -276 113 -276 253c0 139 123 253 276 253c152 0 275 -114 275 -253zM367 245c0 128 -8 230 -65 230c-56 0 -72 -102 -72 -230
c0 -129 3 -233 69 -233c60 0 68 104 68 233z" />
    <glyph glyph-name="ocircumflex" unicode="&#xf4;" horiz-adv-x="599" 
d="M461 501l-159 95l-158 -95l143 193c3 4 8 6 13 6s11 -2 14 -6zM575 244c0 -140 -123 -253 -275 -253c-153 0 -276 113 -276 253c0 139 123 253 276 253c152 0 275 -114 275 -253zM367 245c0 128 -8 230 -65 230c-56 0 -72 -102 -72 -230c0 -129 3 -233 69 -233
c60 0 68 104 68 233z" />
    <glyph glyph-name="odieresis" unicode="&#xf6;" horiz-adv-x="599" 
d="M454 611c0 -33 -24 -60 -57 -60c-35 0 -62 25 -62 60c0 32 30 59 60 59c33 0 59 -27 59 -59zM263 611c0 -33 -24 -60 -57 -60c-35 0 -62 25 -62 60c0 32 29 59 60 59c33 0 59 -27 59 -59zM575 244c0 -140 -123 -253 -275 -253c-153 0 -276 113 -276 253
c0 139 123 253 276 253c152 0 275 -114 275 -253zM367 245c0 128 -8 230 -65 230c-56 0 -72 -102 -72 -230c0 -129 3 -233 69 -233c60 0 68 104 68 233z" />
    <glyph glyph-name="ograve" unicode="&#xf2;" horiz-adv-x="599" 
d="M267 676l96 -128l-14 -18l-161 80c-36 17 -51 35 -51 59c0 31 23 54 54 54c25 0 47 -8 76 -47zM575 244c0 -140 -123 -253 -275 -253c-153 0 -276 113 -276 253c0 139 123 253 276 253c152 0 275 -114 275 -253zM367 245c0 128 -8 230 -65 230c-56 0 -72 -102 -72 -230
c0 -129 3 -233 69 -233c60 0 68 104 68 233z" />
    <glyph glyph-name="otilde" unicode="&#xf5;" horiz-adv-x="599" 
d="M428 660l19 -3c-15 -52 -36 -114 -96 -114c-53 0 -93 51 -144 51c-22 0 -35 -18 -45 -38l-22 5c13 45 37 113 100 113c53 0 93 -50 144 -50c21 0 33 17 44 36zM575 244c0 -140 -123 -253 -275 -253c-153 0 -276 113 -276 253c0 139 123 253 276 253
c152 0 275 -114 275 -253zM367 245c0 128 -8 230 -65 230c-56 0 -72 -102 -72 -230c0 -129 3 -233 69 -233c60 0 68 104 68 233z" />
    <glyph glyph-name="scaron" unicode="&#x161;" horiz-adv-x="480" 
d="M258 633l159 95l-147 -193c-3 -4 -9 -6 -14 -6s-10 2 -13 6l-143 193zM454 165c0 -94 -95 -174 -195 -174c-80 0 -87 16 -150 16c-34 0 -50 -12 -56 -12s-7 3 -7 14v191c0 10 11 18 16 1c7 -24 24 -67 51 -107c31 -46 74 -86 128 -86c50 0 77 30 77 62
c0 53 -83 67 -156 102c-59 27 -113 67 -113 150c0 109 102 173 205 173c55 0 101 -13 122 -13s36 7 43 7s10 0 10 -11v-132c0 -13 -8 -20 -14 1c-6 18 -22 50 -46 77c-24 28 -58 51 -98 51c-49 0 -72 -32 -72 -57c0 -54 67 -74 132 -103c62 -29 123 -66 123 -150z" />
    <glyph glyph-name="uacute" unicode="&#xfa;" horiz-adv-x="673" 
d="M480 675c0 -24 -15 -42 -51 -60l-161 -80l-14 18l95 128c29 40 52 47 77 47c31 0 54 -23 54 -53zM649 11v-11h-230c-21 0 -25 9 -25 26v55c-27 -32 -82 -89 -174 -89c-87 0 -152 48 -152 152v263c0 49 -26 66 -50 66v12h244v-343c0 -39 27 -66 65 -66c32 0 57 28 67 45
v281c0 64 -41 70 -55 71v12h255v-398c0 -63 39 -76 55 -76z" />
    <glyph glyph-name="ucircumflex" unicode="&#xfb;" horiz-adv-x="673" 
d="M465 523l-159 95l-158 -95l143 193c3 4 8 6 13 6s11 -2 14 -6zM649 11v-11h-230c-21 0 -25 9 -25 26v55c-27 -32 -82 -89 -174 -89c-87 0 -152 48 -152 152v263c0 49 -26 66 -50 66v12h244v-343c0 -39 27 -66 65 -66c32 0 57 28 67 45v281c0 64 -41 70 -55 71v12h255
v-398c0 -63 39 -76 55 -76z" />
    <glyph glyph-name="udieresis" unicode="&#xfc;" horiz-adv-x="673" 
d="M472 613c0 -32 -24 -59 -57 -59c-35 0 -62 25 -62 60c0 31 29 59 60 59c33 0 59 -27 59 -60zM280 613c0 -32 -24 -59 -57 -59c-35 0 -62 25 -62 60c0 31 30 59 61 59c32 0 58 -27 58 -60zM649 11v-11h-230c-21 0 -25 9 -25 26v55c-27 -32 -82 -89 -174 -89
c-87 0 -152 48 -152 152v263c0 49 -26 66 -50 66v12h244v-343c0 -39 27 -66 65 -66c32 0 57 28 67 45v281c0 64 -41 70 -55 71v12h255v-398c0 -63 39 -76 55 -76z" />
    <glyph glyph-name="ugrave" unicode="&#xf9;" horiz-adv-x="673" 
d="M285 673l96 -128l-14 -18l-161 80c-36 17 -51 35 -51 59c0 31 23 54 54 54c25 0 47 -8 76 -47zM649 11v-11h-230c-21 0 -25 9 -25 26v55c-27 -32 -82 -89 -174 -89c-87 0 -152 48 -152 152v263c0 49 -26 66 -50 66v12h244v-343c0 -39 27 -66 65 -66c32 0 57 28 67 45v281
c0 64 -41 70 -55 71v12h255v-398c0 -63 39 -76 55 -76z" />
    <glyph glyph-name="yacute" unicode="&#xfd;" horiz-adv-x="519" 
d="M462 672c0 -24 -15 -42 -51 -59l-161 -80l-14 18l96 128c29 39 51 47 76 47c31 0 54 -23 54 -54zM551 485v-14c-40 0 -90 -59 -133 -176l-163 -444c-28 -75 -75 -121 -145 -121c-59 0 -99 42 -99 96c0 52 44 89 85 89c83 0 86 -83 101 -83c22 0 33 19 46 55l40 113h-86
l-152 407c-19 51 -47 64 -79 64v14h351v-14c-31 0 -44 -34 -32 -67l71 -202l45 126c5 15 10 41 10 66c0 43 -17 77 -54 77v14h194z" />
    <glyph glyph-name="ydieresis" unicode="&#xff;" horiz-adv-x="519" 
d="M433 607c0 -33 -24 -60 -57 -60c-35 0 -62 25 -62 60c0 32 30 59 60 59c33 0 59 -27 59 -59zM242 607c0 -33 -24 -60 -57 -60c-35 0 -62 25 -62 60c0 32 29 59 60 59c33 0 59 -27 59 -59zM551 485v-14c-40 0 -90 -59 -133 -176l-163 -444c-28 -75 -75 -121 -145 -121
c-59 0 -99 42 -99 96c0 52 44 89 85 89c83 0 86 -83 101 -83c22 0 33 19 46 55l40 113h-86l-152 407c-19 51 -47 64 -79 64v14h351v-14c-31 0 -44 -34 -32 -67l71 -202l45 126c5 15 10 41 10 66c0 43 -17 77 -54 77v14h194z" />
    <glyph glyph-name="zcaron" unicode="&#x17e;" horiz-adv-x="573" 
d="M292 630l159 95l-147 -193c-3 -4 -9 -6 -14 -6s-10 2 -13 6l-143 193zM547 232l-47 -218c-3 -10 -1 -14 -15 -14h-445c-12 0 -17 10 -9 24l229 374c9 15 15 26 15 36s-5 33 -36 33c-34 0 -76 -32 -111 -68c-41 -41 -74 -88 -79 -96c-9 -16 -17 -13 -16 2l13 163
c1 10 8 16 22 16h458c11 0 14 -6 8 -17l-237 -379c-6 -10 -14 -33 -14 -43c0 -16 4 -28 26 -28c32 0 90 53 139 108c40 45 74 90 84 110c9 19 17 10 15 -3z" />
    <glyph glyph-name="zerooldstyle" unicode="&#xf730;" horiz-adv-x="719" 
d="M696 282c0 -163 -150 -295 -336 -295c-185 0 -335 132 -335 295c0 164 150 296 335 296c186 0 336 -132 336 -296zM467 280c0 157 -9 274 -111 274c-91 0 -111 -117 -111 -274s6 -269 111 -269c96 0 111 112 111 269z" />
    <glyph glyph-name="oneoldstyle" unicode="&#xf731;" horiz-adv-x="404" 
d="M302 583c1 -3 -5 -7 -5 -10v-490c0 -35 25 -71 62 -71v-12h-351l-1 12c42 0 74 33 74 73v290c0 64 -20 91 -73 88v11c29 13 269 118 283 118c6 0 10 -3 11 -9z" />
    <glyph glyph-name="twooldstyle" unicode="&#xf732;" horiz-adv-x="586" 
d="M547 401c0 -209 -355 -159 -408 -221c0 -2 -1 -3 -1 -5c0 -4 7 -6 9 -6h265c112 0 139 93 148 94c2 -2 3 -5 3 -7c0 -15 -51 -224 -56 -246c-1 -7 -5 -10 -13 -10h-439c-9 0 -11 3 -11 22c0 131 71 173 157 233c60 42 115 84 115 158c0 83 -45 139 -128 139
c-43 0 -84 -20 -84 -43c0 -6 5 -6 7 -6c12 0 23 4 35 4c56 0 111 -32 111 -105c0 -59 -46 -109 -107 -109c-65 0 -112 47 -112 117c0 112 86 183 241 183c164 0 268 -92 268 -192z" />
    <glyph glyph-name="threeoldstyle" unicode="&#xf733;" horiz-adv-x="606" 
d="M571 14c0 -115 -128 -217 -295 -217c-156 0 -250 75 -250 179c0 73 54 116 109 116c58 0 105 -44 105 -97c0 -74 -53 -95 -82 -98c-23 -3 -40 -7 -40 -18c0 -26 46 -55 90 -55c80 0 135 32 135 203c0 151 -66 176 -172 176c-8 2 -8 16 -4 18c80 0 145 18 145 169
c0 110 -49 153 -104 153c-42 0 -72 -23 -72 -36c0 -6 2 -8 6 -7c5 0 15 3 29 3c45 0 105 -40 105 -106s-53 -105 -104 -105s-114 38 -114 117c0 112 100 178 225 178c131 0 243 -70 243 -184c0 -121 -107 -175 -167 -175v-8c91 0 212 -78 212 -206z" />
    <glyph glyph-name="fouroldstyle" unicode="&#xf734;" horiz-adv-x="633" 
d="M606 101v-33c0 -10 -6 -14 -13 -14h-89v-131c0 -54 42 -88 84 -88v-16h-407v16c52 0 105 28 105 88v131h-262c-8 0 -14 7 -7 19l328 496c3 4 8 10 16 10h132c6 0 11 -8 11 -16v-447h87c9 0 15 -7 15 -15zM104 116h182v287c0 9 -4 18 -12 7l-185 -278c-5 -7 -5 -16 15 -16
z" />
    <glyph glyph-name="fiveoldstyle" unicode="&#xf735;" horiz-adv-x="594" 
d="M572 87c0 -163 -146 -282 -305 -282c-158 0 -226 94 -226 171c0 76 50 129 113 129s106 -53 106 -104c0 -67 -53 -105 -109 -105c-18 0 -35 6 -39 6c-3 0 -10 0 -10 -5c0 -20 47 -58 97 -58c108 0 140 79 140 221s-20 214 -109 214c-77 0 -111 -49 -131 -83
c-10 -7 -26 -1 -22 17l77 355c2 9 4 16 19 16h304c19 0 49 5 53 9s13 3 10 -8l-22 -91c-11 -46 -41 -60 -79 -60h-239c-16 0 -48 -6 -55 -39c0 0 -24 -122 -26 -129l4 -1c7 8 73 68 179 68c135 0 270 -79 270 -241z" />
    <glyph glyph-name="sixoldstyle" unicode="&#xf736;" horiz-adv-x="639" 
d="M606 260c0 -163 -107 -275 -274 -275c-166 0 -295 128 -295 378c0 251 164 415 336 415c127 0 192 -69 192 -149c0 -67 -40 -109 -95 -109c-54 0 -95 43 -95 101c0 56 36 76 59 91c10 6 18 11 18 18c0 13 -20 29 -61 29c-99 0 -137 -132 -137 -288c0 -11 0 -19 1 -24
c2 -8 5 -8 12 -1c18 19 54 47 129 47c84 0 210 -70 210 -233zM407 237c0 136 -19 221 -73 221s-83 -81 -83 -223s15 -235 74 -235c54 0 82 100 82 237z" />
    <glyph glyph-name="sevenoldstyle" unicode="&#xf737;" horiz-adv-x="559" 
d="M547 566c0 -9 4 -72 -31 -163c-21 -53 -71 -109 -117 -181c-46 -74 -87 -166 -87 -291c0 -62 12 -94 14 -102c3 -8 -2 -9 -11 -9h-226c-6 0 -7 6 -7 16s7 146 63 236c49 78 140 146 222 201c74 48 128 115 128 139c0 9 -4 16 -16 16h-314c-74 0 -123 -41 -123 -74h-13
l18 207c1 9 3 18 10 18h475c6 0 15 -3 15 -13z" />
    <glyph glyph-name="eightoldstyle" unicode="&#xf738;" horiz-adv-x="644" 
d="M608 235c0 -172 -185 -248 -319 -248c-129 0 -246 71 -246 197c0 86 74 137 143 166c-61 43 -111 100 -111 197c0 140 113 229 247 229c119 0 220 -57 220 -163c0 -65 -50 -116 -103 -148c86 -41 169 -94 169 -230zM477 612c0 87 -51 139 -118 139s-110 -37 -110 -102
c0 -97 78 -132 161 -170c39 22 67 64 67 133zM418 152c0 89 -109 122 -204 180c-54 -25 -84 -78 -84 -152c0 -105 52 -175 139 -175c88 0 149 53 149 147z" />
    <glyph glyph-name="nineoldstyle" unicode="&#xf739;" horiz-adv-x="643" 
d="M606 208c0 -251 -164 -415 -335 -415c-128 0 -193 69 -193 149c0 67 40 110 95 110s95 -44 95 -102c0 -56 -36 -76 -59 -91c-10 -6 -18 -11 -18 -18c0 -13 20 -29 61 -29c99 0 137 132 137 288c0 11 0 19 -1 24c-1 8 -5 8 -12 1c-18 -19 -54 -47 -129 -47
c-84 0 -210 70 -210 233s108 275 274 275c167 0 295 -128 295 -378zM393 336c0 142 -16 235 -75 235c-53 0 -81 -100 -81 -237c0 -136 18 -221 72 -221c55 0 84 81 84 223z" />
    <glyph glyph-name="oneeighth" unicode="&#x215b;" horiz-adv-x="758" 
d="M456 754h38l-286 -754h-38zM240 307v-7h-216v7c16 0 45 13 45 45v291c0 28 -15 53 -47 53v7l164 71c8 3 15 3 15 -10v-413c0 -33 26 -44 39 -44zM729 141c0 -106 -114 -152 -197 -152c-79 0 -151 43 -151 121c0 53 45 84 88 102c-38 27 -69 62 -69 121
c0 87 70 142 153 142c73 0 135 -36 135 -101c0 -40 -31 -71 -63 -91c53 -25 104 -58 104 -142zM648 374c0 53 -31 85 -73 85c-41 0 -67 -23 -67 -63c0 -59 48 -81 99 -104c24 13 41 39 41 82zM612 90c0 55 -67 75 -126 111c-33 -15 -52 -48 -52 -94c0 -64 32 -107 86 -107
s92 32 92 90z" />
    <glyph glyph-name="threeeighths" unicode="&#x215c;" horiz-adv-x="856" 
d="M554 754h38l-286 -754h-38zM827 141c0 -106 -114 -152 -197 -152c-79 0 -151 43 -151 121c0 53 45 84 88 102c-38 27 -69 62 -69 121c0 87 70 142 153 142c73 0 135 -36 135 -101c0 -40 -31 -71 -63 -91c53 -25 104 -58 104 -142zM746 374c0 53 -31 85 -73 85
c-41 0 -67 -23 -67 -63c0 -59 48 -81 99 -104c24 13 41 39 41 82zM710 90c0 55 -67 75 -126 111c-33 -15 -52 -48 -52 -94c0 -64 32 -107 86 -107s92 32 92 90zM360 423c0 -71 -79 -134 -182 -134c-96 0 -154 46 -154 110c0 45 33 72 67 72c36 0 65 -27 65 -60
c0 -46 -33 -59 -51 -60c-14 -2 -24 -5 -24 -12c0 -16 28 -33 55 -33c49 0 83 19 83 125c0 93 -40 108 -106 108c-5 1 -5 10 -2 11c49 0 89 11 89 104c0 68 -30 94 -64 94c-26 0 -44 -14 -44 -22c0 -3 1 -5 3 -4c4 0 10 2 18 2c28 0 65 -25 65 -65c0 -41 -33 -65 -64 -65
s-70 23 -70 72c0 69 61 110 138 110c81 0 150 -44 150 -114c0 -74 -66 -108 -103 -108v-5c56 0 131 -48 131 -126z" />
    <glyph glyph-name="fiveeighths" unicode="&#x215d;" horiz-adv-x="824" 
d="M522 754h38l-286 -754h-38zM795 141c0 -106 -114 -152 -197 -152c-79 0 -151 43 -151 121c0 53 45 84 88 102c-38 27 -69 62 -69 121c0 87 70 142 153 142c73 0 135 -36 135 -101c0 -40 -31 -71 -63 -91c53 -25 104 -58 104 -142zM714 374c0 53 -31 85 -73 85
c-41 0 -67 -23 -67 -63c0 -59 48 -81 99 -104c24 13 41 39 41 82zM678 90c0 55 -67 75 -126 111c-33 -15 -52 -48 -52 -94c0 -64 32 -107 86 -107s92 32 92 90zM347 470c0 -99 -89 -171 -185 -171c-97 0 -138 57 -138 104c0 46 31 78 69 78s64 -32 64 -63
c0 -41 -32 -64 -66 -64c-11 0 -21 4 -24 4c-2 0 -6 0 -6 -3c0 -12 29 -36 59 -36c66 0 85 49 85 135s-12 130 -66 130c-47 0 -67 -30 -80 -51c-6 -4 -15 0 -13 11l47 216c1 5 2 9 11 9h185c12 0 30 3 32 6c3 2 8 2 7 -5l-14 -55c-7 -28 -25 -37 -48 -37h-145
c-10 0 -29 -3 -34 -24c0 0 -14 -74 -15 -78l2 -1c4 5 44 42 109 42c82 0 164 -48 164 -147z" />
    <glyph glyph-name="seveneighths" unicode="&#x215e;" horiz-adv-x="738" 
d="M436 754h38l-286 -754h-38zM709 141c0 -106 -114 -152 -197 -152c-79 0 -151 43 -151 121c0 53 45 84 88 102c-38 27 -69 62 -69 121c0 87 70 142 153 142c73 0 135 -36 135 -101c0 -40 -31 -71 -63 -91c53 -25 104 -58 104 -142zM628 374c0 53 -31 85 -73 85
c-41 0 -67 -23 -67 -63c0 -59 48 -81 99 -104c24 13 41 39 41 82zM592 90c0 55 -67 75 -126 111c-33 -15 -52 -48 -52 -94c0 -64 32 -107 86 -107s92 32 92 90zM338 752c0 -6 3 -44 -19 -99c-12 -32 -42 -66 -70 -109c-28 -45 -53 -100 -53 -176c0 -37 7 -57 9 -62
c1 -4 -2 -5 -7 -5h-136c-4 0 -5 4 -5 10s5 88 38 142c30 47 85 88 134 122c45 29 78 69 78 84c0 5 -3 9 -10 9h-190c-44 0 -74 -25 -74 -45h-8l11 126c1 5 2 10 6 10h287c4 0 9 -1 9 -7z" />
    <glyph glyph-name="onethird" unicode="&#x2153;" horiz-adv-x="758" 
d="M456 754h38l-286 -754h-38zM240 307v-7h-216v7c16 0 45 13 45 45v291c0 28 -15 53 -47 53v7l164 71c8 3 15 3 15 -10v-413c0 -33 26 -44 39 -44zM722 122c0 -71 -79 -134 -182 -134c-96 0 -154 46 -154 110c0 45 33 72 67 72c36 0 65 -27 65 -60c0 -46 -33 -59 -51 -60
c-14 -2 -24 -5 -24 -12c0 -16 28 -33 55 -33c49 0 83 19 83 125c0 93 -40 108 -106 108c-5 1 -5 10 -2 11c49 0 89 11 89 104c0 68 -30 94 -64 94c-26 0 -44 -14 -44 -22c0 -3 1 -5 3 -4c4 0 10 2 18 2c28 0 65 -25 65 -65c0 -41 -33 -65 -64 -65s-70 23 -70 72
c0 69 61 110 138 110c81 0 150 -44 150 -114c0 -74 -66 -108 -103 -108v-5c56 0 131 -48 131 -126z" />
    <glyph glyph-name="twothirds" unicode="&#x2154;" horiz-adv-x="845" 
d="M543 754h38l-286 -754h-38zM809 122c0 -71 -79 -134 -182 -134c-96 0 -154 46 -154 110c0 45 33 72 67 72c36 0 65 -27 65 -60c0 -46 -33 -59 -51 -60c-14 -2 -24 -5 -24 -12c0 -16 28 -33 55 -33c49 0 83 19 83 125c0 93 -40 108 -106 108c-5 1 -5 10 -2 11
c49 0 89 11 89 104c0 68 -30 94 -64 94c-26 0 -44 -14 -44 -22c0 -3 1 -5 3 -4c4 0 10 2 18 2c28 0 65 -25 65 -65c0 -41 -33 -65 -64 -65s-70 23 -70 72c0 69 61 110 138 110c81 0 150 -44 150 -114c0 -74 -66 -108 -103 -108v-5c56 0 131 -48 131 -126zM352 452l-33 -147
c-1 -4 -3 -6 -9 -6h-268c-4 0 -6 2 -6 6c0 0 0 25 1 38c7 68 57 93 99 137c31 32 57 75 57 152c0 90 -30 118 -77 118c-33 0 -55 -17 -55 -26c0 -8 10 -1 25 -1c40 0 69 -25 69 -64c0 -40 -31 -67 -65 -67c-35 0 -68 26 -68 73c0 59 49 110 145 110c102 0 169 -53 169 -128
c0 -96 -80 -122 -153 -160c-36 -20 -71 -43 -93 -78c-3 -4 0 -7 4 -7h166c43 0 70 22 85 53c5 8 8 4 7 -3z" />
    <glyph glyph-name="quotedbl" unicode="&#x22;" horiz-adv-x="542" 
d="M518 753c0 -73 -43 -130 -93 -170c-9 -6 -29 -23 -41 -23c-7 0 -15 5 -15 13c0 3 1 6 3 7c28 17 90 69 90 122c-22 -12 -47 -22 -73 -22c-51 0 -89 40 -89 90c0 59 47 101 105 101c67 0 113 -53 113 -118zM271 753c0 -73 -43 -130 -93 -170c-9 -6 -29 -23 -41 -23
c-7 0 -15 5 -15 13c0 3 1 6 3 7c28 17 90 69 90 122c-22 -12 -47 -22 -73 -22c-51 0 -89 40 -89 90c0 59 47 101 105 101c67 0 113 -53 113 -118z" />
    <glyph glyph-name="exclam" unicode="!" horiz-adv-x="328" 
d="M250 676c0 -23 -3 -46 -7 -68l-65 -397h-37l-66 397c-3 19 -6 39 -6 59c0 52 28 114 89 114c63 0 92 -47 92 -105zM262 78c0 -56 -52 -95 -105 -95c-54 0 -105 38 -105 95c0 56 52 94 105 94s105 -38 105 -94z" />
    <glyph glyph-name="nbspace" unicode="&#xa0;" horiz-adv-x="320" 
 />
    <glyph glyph-name="apple" unicode="&#xf8ff;" horiz-adv-x="1690" 
d="M1661 532c0 -8 -3 -9 -10 -10c-12 -1 -38 -2 -84 -35c-22 -16 -64 -57 -83 -71c-7 -5 -16 -8 -24 -8c-25 0 -26 34 -26 51c0 1 0 2 -1 2c-17 -8 -88 -98 -93 -98c-2 2 -3 5 -3 8c0 18 82 97 97 112c0 5 1 9 1 13c0 7 0 13 -9 13c-11 0 -29 -24 -49 -45
c-17 -17 -35 -33 -51 -33c-5 0 -10 2 -15 3c-12 -14 -34 -27 -53 -27c-32 0 -45 33 -42 55c-15 -16 -33 -33 -51 -33c-5 0 -9 1 -14 3c-7 -7 -24 -25 -51 -25c-29 0 -36 27 -36 49v2c-25 -25 -51 -50 -83 -50c-31 0 -46 22 -46 50c0 4 0 8 1 11c-15 -17 -47 -59 -69 -59
c-30 0 -44 37 -46 62c17 7 67 47 67 67c0 3 -1 3 -4 3c-9 0 -21 -11 -27 -16c-37 -34 -63 -78 -78 -125c-13 5 -21 8 -21 22c0 9 4 23 10 40c-25 -27 -46 -55 -69 -55c-18 0 -22 16 -22 31c0 2 1 20 3 31c-8 -14 -40 -62 -68 -62c-18 0 -24 16 -24 31c0 35 21 81 41 109
c5 6 14 19 22 19c7 0 35 -7 35 -14c-1 -6 -55 -63 -55 -102c0 -2 1 -6 4 -6c14 0 44 44 67 78c14 22 26 40 30 41c10 3 39 -9 40 -21c-7 -6 -18 -20 -28 -35c-13 -20 -25 -43 -25 -54c0 -4 1 -9 6 -9c14 0 34 29 55 51c14 38 35 81 55 118c21 39 39 65 52 72c4 2 8 3 13 3
c9 0 26 -2 33 -10c4 -3 6 -7 5 -10c0 -3 -1 -5 -4 -7c-22 -15 -74 -81 -102 -138c11 12 45 48 61 48c27 0 38 -25 38 -44c0 -24 -40 -57 -62 -60c0 -6 4 -29 12 -29c12 0 39 37 62 61c15 42 42 73 80 73c19 0 40 -17 40 -38c0 -39 -54 -62 -81 -58c-3 -7 -4 -15 -4 -22
c0 -10 2 -26 15 -26c25 0 51 25 73 48c7 52 39 115 66 152c15 21 38 49 64 49c8 0 21 -4 28 -9c3 -2 5 -4 6 -6c1 -3 -1 -7 -6 -10c-49 -31 -76 -77 -89 -104c0 -2 -1 -2 1 -1c7 6 15 9 25 9c23 0 34 -17 34 -37c0 -25 -15 -54 -31 -74c3 -2 7 -1 12 1c15 8 36 33 43 41
c14 48 55 93 98 93c18 0 45 -11 45 -39c0 -26 -21 -70 -37 -90c1 -1 4 -2 6 -2c16 0 32 22 45 38c21 27 63 66 81 66c17 0 20 -6 20 -21c0 -6 -1 -11 -1 -17v-1l15 15c10 10 59 54 70 54c6 0 18 -10 18 -16h-1c-8 -6 -18 -11 -28 -17c-26 -17 -52 -37 -75 -59
c-2 -9 -3 -18 -3 -27c0 -6 1 -25 10 -25c12 0 39 32 72 61c28 25 60 48 89 48c4 0 18 -3 18 -17zM590 907c0 -6 -6 -11 -12 -11h-5c-4 -11 -14 -37 -14 -37c-5 -13 -33 -23 -74 -23c-40 -1 -71 9 -78 26l-12 33h-1c-7 0 -12 5 -12 11s5 11 12 11s13 -5 13 -11
c0 -2 -1 -4 -2 -5l18 -12l8 40c-6 1 -11 6 -11 12s6 11 13 11c6 0 12 -5 12 -11c0 -5 -2 -8 -6 -10l22 -35l22 66c-5 1 -9 6 -9 11c0 6 6 11 13 11s12 -5 12 -11s-4 -10 -9 -11l18 -68l23 36c-4 2 -6 5 -6 10c0 6 5 11 12 11s13 -5 13 -11s-5 -11 -12 -12l2 -39l26 14
c-1 1 -1 3 -1 4c0 6 6 11 13 11c6 0 12 -5 12 -11zM1038 233l460 120l-460 -271l-472 269zM527 525c1 3 1 5 0 6c-2 3 -7 1 -13 -3c-10 -6 -127 -56 -213 -54c-106 3 -135 42 -143 89c-20 105 211 249 355 245c158 -5 109 -268 -25 -482c-129 -206 -354 -382 -445 -309
c-74 59 49 175 144 249c93 74 248 150 283 162c5 2 8 4 11 7s5 7 7 11c6 9 38 67 39 79zM1341 534c0 4 -1 7 -5 7c-17 0 -35 -52 -35 -67c0 -6 2 -13 8 -16c11 12 32 60 32 76zM1297 445c-13 10 -16 27 -16 43c0 10 1 20 4 30c-1 1 -1 1 -2 1c-14 -15 -25 -48 -25 -68
c0 -9 2 -20 14 -20c8 0 21 7 25 14zM1152 517c0 5 -1 10 -7 10c-13 0 -18 -37 -18 -46s0 -20 8 -25c8 12 17 48 17 61zM1126 442c-11 7 -15 23 -15 36c0 8 3 17 3 25c-2 -2 -1 -1 -4 -3c-7 -16 -13 -37 -13 -53c0 -7 2 -21 12 -21c7 0 14 10 17 16zM1044 529
c0 6 -2 11 -9 11c-25 0 -42 -30 -48 -47c20 1 57 21 57 36zM1038 93l399 231l-399 -168v-63zM635 328l403 -169v65zM553 595c3 11 36 118 -2 141c-38 24 -123 -8 -209 -53c-86 -46 -152 -106 -137 -131c15 -24 127 -8 197 8c72 17 108 38 118 39c11 1 17 -8 20 -12
c2 -1 3 -2 5 -2c3 1 5 3 8 10zM424 347c-8 3 -132 -72 -213 -135c-100 -76 -163 -155 -147 -167c23 -15 134 54 216 133c76 73 154 165 144 169z" />
    <glyph glyph-name="Euro" unicode="&#x20ac;" horiz-adv-x="834" 
d="M575 328v-6c0 -8 -6 -15 -14 -15h-192c2 -253 59 -292 156 -292c66 0 126 72 168 148c34 60 57 123 68 162c7 29 20 14 20 -2v-289c0 -12 -9 -18 -16 -18s-26 27 -49 27c-40 0 -96 -49 -223 -49c-189 0 -329 119 -359 313h-110c-7 0 -14 7 -14 15v6c0 7 7 14 14 14h105
c-1 14 -1 29 -1 44c0 13 0 27 2 40h-106c-7 0 -14 7 -14 15v5c0 8 7 15 14 15h111c38 194 224 301 368 301c134 0 168 -49 209 -49c36 0 53 32 60 32s9 0 9 -10v-255c0 -18 -16 -24 -22 -2c-12 39 -41 115 -85 174c-35 50 -80 88 -134 88c-81 0 -143 -104 -164 -279h227
c8 0 14 -7 14 -15v-5c0 -8 -6 -15 -14 -15h-231c-2 -27 -3 -55 -3 -84h192c8 0 14 -7 14 -14z" />
    <glyph glyph-name="Aogonek" unicode="&#x104;" horiz-adv-x="786" 
d="M560 -146l17 -10c-28 -60 -66 -88 -117 -88c-52 0 -83 29 -83 76c0 58 44 111 138 168h-153v12c14 0 74 33 74 104c0 15 -3 32 -10 50l-43 121h-201l-28 -80c-6 -19 -13 -48 -13 -69c0 -82 59 -126 89 -126v-12h-239v12c19 0 74 41 107 132l168 471l-14 40
c-4 11 -3 22 9 27c66 27 133 86 165 135c8 12 17 14 21 2l243 -663c31 -86 81 -144 114 -144v-12h-259c-26 -23 -34 -30 -45 -41c-22 -24 -36 -59 -36 -88c0 -32 15 -51 43 -51c22 0 32 7 53 34zM191 315h182l-92 250z" />
    <glyph glyph-name="Abreve" unicode="&#x102;" horiz-adv-x="786" 
d="M493 1000h46c-17 -91 -59 -151 -161 -151c-101 0 -142 61 -160 151h46c21 -54 61 -60 115 -60c51 0 97 6 114 60zM804 12v-12h-442v12c14 0 74 33 74 104c0 15 -3 32 -10 50l-43 121h-201l-28 -80c-6 -19 -13 -48 -13 -69c0 -82 59 -126 89 -126v-12h-239v12
c19 0 74 41 107 132l168 471l-14 40c-4 11 -3 22 9 27c66 27 133 86 165 135c8 12 17 14 21 2l243 -663c31 -86 81 -144 114 -144zM191 315h182l-92 250z" />
    <glyph glyph-name="Cacute" unicode="&#x106;" horiz-adv-x="794" 
d="M566 960c0 -18 -7 -41 -33 -60l-121 -89l-18 14l43 124c21 51 48 65 76 65c31 0 53 -26 53 -54zM727 323v-299c0 -12 -10 -19 -17 -19c-8 0 -28 28 -53 28c-43 0 -103 -51 -239 -51c-229 0 -392 158 -392 407c0 251 230 390 403 390c143 0 180 -52 224 -52
c39 0 57 34 64 34c8 0 10 0 10 -11v-264c0 -19 -17 -25 -24 -2c-13 41 -44 119 -91 181c-38 51 -86 91 -144 91c-107 0 -183 -121 -183 -389c0 -279 61 -363 167 -363c71 0 135 74 181 154c36 61 61 127 72 167c8 30 22 15 22 -2z" />
    <glyph glyph-name="Ccaron" unicode="&#x10c;" horiz-adv-x="794" 
d="M422 920l159 95l-147 -193c-3 -4 -9 -6 -14 -6s-10 2 -13 6l-143 193zM727 323v-299c0 -12 -10 -19 -17 -19c-8 0 -28 28 -53 28c-43 0 -103 -51 -239 -51c-229 0 -392 158 -392 407c0 251 230 390 403 390c143 0 180 -52 224 -52c39 0 57 34 64 34c8 0 10 0 10 -11v-264
c0 -19 -17 -25 -24 -2c-13 41 -44 119 -91 181c-38 51 -86 91 -144 91c-107 0 -183 -121 -183 -389c0 -279 61 -363 167 -363c71 0 135 74 181 154c36 61 61 127 72 167c8 30 22 15 22 -2z" />
    <glyph glyph-name="Dcroat" unicode="&#x110;" horiz-adv-x="846" 
d="M825 385c0 -234 -169 -385 -371 -385h-429v12c21 0 86 31 86 106v250h-87v27h87v239c0 82 -64 113 -85 113v13h430c205 0 369 -142 369 -375zM565 400c0 229 -31 340 -140 340c-58 0 -77 -32 -77 -73v-272h108v-27h-108v-262c0 -56 32 -80 76 -80c103 0 141 145 141 374z
" />
    <glyph glyph-name="Dcaron" unicode="&#x10e;" horiz-adv-x="846" 
d="M398 908l159 95l-147 -193c-3 -4 -9 -6 -14 -6s-10 2 -13 6l-143 193zM825 385c0 -234 -169 -385 -371 -385h-429v12c21 0 86 31 86 106v516c0 82 -64 113 -85 113v13h430c205 0 369 -142 369 -375zM565 400c0 229 -31 340 -140 340c-58 0 -77 -32 -77 -73v-561
c0 -56 32 -80 76 -80c103 0 141 145 141 374z" />
    <glyph glyph-name="Eogonek" unicode="&#x118;" 
d="M701 -146l17 -10c-28 -60 -66 -88 -117 -88c-52 0 -83 29 -83 76c0 58 44 111 138 168h-626v13c34 0 118 40 118 142v453c0 95 -72 139 -109 139v12h672s17 -1 18 -13l15 -295c1 -14 -11 -24 -19 0c-13 37 -54 112 -106 175c-49 59 -108 108 -161 108
c-39 0 -72 -26 -72 -83v-238h23c105 0 159 117 159 159l12 -1v-353h-16c0 42 -50 168 -155 168h-23v-282c0 -38 20 -75 60 -75c69 0 135 58 188 124c59 75 102 160 112 185c8 17 19 21 17 3l-36 -325c-1 -12 -22 -16 -22 -16h-19c-26 -23 -34 -30 -45 -41
c-22 -24 -36 -59 -36 -88c0 -32 15 -51 43 -51c22 0 32 7 53 34z" />
    <glyph glyph-name="Ecaron" unicode="&#x11a;" 
d="M437 910l159 95l-147 -193c-3 -4 -9 -6 -14 -6s-10 2 -13 6l-143 193zM763 341l-36 -325c-1 -12 -22 -16 -22 -16h-675v13c34 0 118 40 118 142v453c0 95 -72 139 -109 139v12h672s17 -1 18 -13l15 -295c1 -14 -11 -24 -19 0c-13 37 -54 112 -106 175
c-49 59 -108 108 -161 108c-39 0 -72 -26 -72 -83v-238h23c105 0 159 117 159 159l12 -1v-353h-16c0 42 -50 168 -155 168h-23v-282c0 -38 20 -75 60 -75c69 0 135 58 188 124c59 75 102 160 112 185c8 17 19 21 17 3z" />
    <glyph glyph-name="Lcaron" unicode="&#x13d;" 
d="M756 727c0 -64 -37 -113 -81 -148c-7 -5 -25 -20 -35 -20c-6 0 -13 4 -13 11c0 3 1 6 2 6c25 15 79 60 79 106c-19 -10 -41 -19 -64 -19c-44 0 -77 35 -77 78c0 52 41 88 91 88c58 0 98 -46 98 -102zM763 341l-36 -325c-1 -12 -22 -16 -22 -16h-675v13
c34 0 118 40 118 142v453c0 95 -72 139 -109 139v12h459v-14c-44 0 -112 -42 -112 -129v-512c0 -38 20 -75 60 -75c69 0 135 58 188 124c59 75 102 160 112 185c8 17 19 21 17 3z" />
    <glyph glyph-name="Lacute" unicode="&#x139;" 
d="M426 960c0 -18 -7 -41 -33 -60l-121 -89l-18 14l43 124c21 51 48 65 76 65c31 0 53 -26 53 -54zM763 341l-36 -325c-1 -12 -22 -16 -22 -16h-675v13c34 0 118 40 118 142v453c0 95 -72 139 -109 139v12h459v-14c-44 0 -112 -42 -112 -129v-512c0 -38 20 -75 60 -75
c69 0 135 58 188 124c59 75 102 160 112 185c8 17 19 21 17 3z" />
    <glyph glyph-name="Nacute" unicode="&#x143;" horiz-adv-x="859" 
d="M601 960c0 -18 -7 -41 -33 -60l-121 -89l-18 14l43 124c21 51 48 65 76 65c31 0 53 -26 53 -54zM854 760v-14c-36 0 -150 -96 -150 -284v-462h-146l-359 593v-303c0 -212 138 -277 183 -277v-13h-365v14c45 0 155 67 155 275v281c0 105 -89 179 -127 179v11h325
c12 0 11 0 17 -9l291 -472v184c0 201 -136 285 -174 285v12h350z" />
    <glyph glyph-name="Ncaron" unicode="&#x147;" horiz-adv-x="859" 
d="M442 908l159 95l-147 -193c-3 -4 -9 -6 -14 -6s-10 2 -13 6l-143 193zM854 760v-14c-36 0 -150 -96 -150 -284v-462h-146l-359 593v-303c0 -212 138 -277 183 -277v-13h-365v14c45 0 155 67 155 275v281c0 105 -89 179 -127 179v11h325c12 0 11 0 17 -9l291 -472v184
c0 201 -136 285 -174 285v12h350z" />
    <glyph glyph-name="Ohungarumlaut" unicode="&#x150;" horiz-adv-x="866" 
d="M672 960c0 -24 -15 -41 -51 -59l-161 -80l-14 18l96 128c29 39 51 47 76 47c31 0 54 -23 54 -54zM488 960c0 -24 -15 -41 -51 -59l-161 -80l-14 18l95 128c30 39 52 47 77 47c31 0 54 -23 54 -54zM838 382c0 -221 -181 -400 -405 -400s-405 179 -405 400s181 400 405 400
s405 -179 405 -400zM576 380c0 210 -25 380 -144 380c-131 0 -144 -170 -144 -380s9 -380 144 -380c122 0 144 170 144 380z" />
    <glyph glyph-name="Racute" unicode="&#x154;" horiz-adv-x="825" 
d="M520 960c0 -18 -7 -41 -33 -60l-121 -89l-18 14l43 124c21 51 48 65 76 65c31 0 53 -26 53 -54zM831 12v-12h-267c-12 0 -18 6 -23 18l-104 302c-12 36 -36 39 -48 39c-9 0 -21 -7 -21 -23v-187c0 -100 85 -136 116 -136v-13h-477v13c61 0 126 45 126 136v476
c0 79 -67 121 -101 121v12h463c127 0 251 -64 251 -192c0 -129 -118 -175 -181 -187v-4c44 0 76 -24 101 -57c56 -73 76 -200 109 -251c22 -33 48 -55 56 -55zM514 563c0 104 -34 168 -92 168c-39 0 -54 -35 -54 -74v-269h40c66 0 106 71 106 175z" />
    <glyph glyph-name="Rcaron" unicode="&#x158;" horiz-adv-x="825" 
d="M402 905l159 95l-147 -193c-3 -4 -9 -6 -14 -6s-10 2 -13 6l-143 193zM831 12v-12h-267c-12 0 -18 6 -23 18l-104 302c-12 36 -36 39 -48 39c-9 0 -21 -7 -21 -23v-187c0 -100 85 -136 116 -136v-13h-477v13c61 0 126 45 126 136v476c0 79 -67 121 -101 121v12h463
c127 0 251 -64 251 -192c0 -129 -118 -175 -181 -187v-4c44 0 76 -24 101 -57c56 -73 76 -200 109 -251c22 -33 48 -55 56 -55zM514 563c0 104 -34 168 -92 168c-39 0 -54 -35 -54 -74v-269h40c66 0 106 71 106 175z" />
    <glyph glyph-name="Sacute" unicode="&#x15a;" horiz-adv-x="698" 
d="M499 960c0 -18 -7 -41 -33 -60l-121 -89l-18 14l43 124c21 51 48 65 76 65c31 0 53 -26 53 -54zM657 252c0 -154 -144 -270 -312 -270c-87 0 -129 45 -198 45c-35 0 -66 -26 -71 -26c-6 0 -8 1 -8 18v318c0 11 10 20 13 0c6 -33 33 -119 78 -195
c44 -74 105 -140 183 -140c58 0 110 52 110 121c0 78 -107 118 -208 175c-90 50 -176 114 -176 230c0 149 147 252 286 252c92 0 158 -38 202 -38s52 15 58 15c7 0 9 -3 9 -12v-254c0 -18 -15 -20 -20 1c-7 35 -37 101 -79 159s-97 107 -154 107s-104 -41 -104 -90
c0 -91 103 -131 203 -181c95 -48 188 -107 188 -235z" />
    <glyph glyph-name="Scedilla" unicode="&#x15e;" horiz-adv-x="698" 
d="M473 -139c0 -50 -46 -87 -108 -87c-41 0 -75 11 -118 37l11 26c25 -16 46 -24 64 -24c27 0 49 22 49 48s-19 41 -50 41c-8 0 -15 -1 -29 -3l32 84c-73 6 -114 44 -177 44c-35 0 -66 -26 -71 -26c-6 0 -8 1 -8 18v318c0 11 10 20 13 0c6 -33 33 -119 78 -195
c44 -74 105 -140 183 -140c58 0 110 52 110 121c0 78 -107 118 -208 175c-90 50 -176 114 -176 230c0 149 147 252 286 252c92 0 158 -38 202 -38s52 15 58 15c7 0 9 -3 9 -12v-254c0 -18 -15 -20 -20 1c-7 35 -37 101 -79 159s-97 107 -154 107s-104 -41 -104 -90
c0 -91 103 -131 203 -181c95 -48 188 -107 188 -235c0 -149 -136 -262 -297 -269l-16 -45c15 2 21 2 30 2c59 0 99 -32 99 -79z" />
    <glyph glyph-name="Tcaron" unicode="&#x164;" horiz-adv-x="803" 
d="M396 913l159 95l-147 -193c-3 -4 -9 -6 -14 -6s-10 2 -13 6l-143 193zM752 760l32 -307h-16c0 25 -33 109 -100 181c-40 43 -91 82 -155 100v-589c0 -102 119 -133 137 -133v-12h-518v12c28 0 146 27 146 139v583c-60 -20 -110 -59 -148 -103c-65 -74 -97 -158 -97 -180
h-11l30 311c0 8 5 19 14 16c8 -4 20 -19 42 -19h590c19 0 38 14 42 14c5 0 11 -4 12 -13z" />
    <glyph glyph-name="Uring" unicode="&#x16e;" horiz-adv-x="794" 
d="M526 924c0 -64 -53 -117 -116 -117c-68 0 -118 51 -118 119c0 62 54 115 117 115c64 0 117 -52 117 -117zM470 924c0 33 -28 62 -62 62c-33 0 -61 -29 -61 -61c0 -36 26 -63 62 -63c34 0 61 28 61 62zM792 759v-12c-45 0 -134 -65 -134 -183v-358
c0 -147 -95 -223 -269 -223c-170 0 -286 81 -286 245v398c0 87 -57 121 -83 121v12h411v-12c-25 0 -98 -37 -98 -118v-420c0 -120 74 -174 148 -174c75 0 149 61 149 173v351c0 121 -80 188 -132 188v12h294z" />
    <glyph glyph-name="Uhungarumlaut" unicode="&#x170;" horiz-adv-x="794" 
d="M670 939c0 -24 -15 -41 -51 -59l-161 -80l-14 18l96 128c29 39 51 47 76 47c31 0 54 -23 54 -54zM486 939c0 -24 -15 -41 -51 -59l-161 -80l-14 18l95 128c30 39 52 47 77 47c31 0 54 -23 54 -54zM792 759v-12c-45 0 -134 -65 -134 -183v-358c0 -147 -95 -223 -269 -223
c-170 0 -286 81 -286 245v398c0 87 -57 121 -83 121v12h411v-12c-25 0 -98 -37 -98 -118v-420c0 -120 74 -174 148 -174c75 0 149 61 149 173v351c0 121 -80 188 -132 188v12h294z" />
    <glyph glyph-name="Zacute" unicode="&#x179;" horiz-adv-x="730" 
d="M523 960c0 -18 -7 -41 -33 -60l-121 -89l-18 14l43 124c21 51 48 65 76 65c31 0 53 -26 53 -54zM688 362l-35 -348c-2 -13 0 -14 -12 -14h-589c-8 0 -13 16 -6 30l326 649c18 35 4 64 -27 64c-55 0 -113 -46 -161 -103c-58 -67 -103 -150 -117 -192c-3 -5 -13 -4 -12 8
l26 289c2 13 4 14 14 14h548c13 0 20 -5 13 -18l-320 -645c-17 -34 -18 -69 28 -69c71 0 148 71 208 150c53 70 93 146 104 187c5 6 13 6 12 -2z" />
    <glyph glyph-name="Zdotaccent" unicode="&#x17b;" horiz-adv-x="730" 
d="M410 884c0 -33 -24 -60 -57 -60c-35 0 -62 25 -62 60c0 32 29 59 60 59c33 0 59 -27 59 -59zM688 362l-35 -348c-2 -13 0 -14 -12 -14h-589c-8 0 -13 16 -6 30l326 649c18 35 4 64 -27 64c-55 0 -113 -46 -161 -103c-58 -67 -103 -150 -117 -192c-3 -5 -13 -4 -12 8
l26 289c2 13 4 14 14 14h548c13 0 20 -5 13 -18l-320 -645c-17 -34 -18 -69 28 -69c71 0 148 71 208 150c53 70 93 146 104 187c5 6 13 6 12 -2z" />
    <glyph glyph-name="Scomma" unicode="&#x218;" horiz-adv-x="698" 
d="M434 -152c0 -64 -37 -113 -81 -148c-7 -5 -25 -20 -35 -20c-6 0 -13 4 -13 11c0 3 1 6 2 6c25 15 79 60 79 106c-19 -10 -41 -19 -64 -19c-44 0 -77 35 -77 78c0 52 41 88 91 88c58 0 98 -46 98 -102zM657 252c0 -154 -144 -270 -312 -270c-87 0 -129 45 -198 45
c-35 0 -66 -26 -71 -26c-6 0 -8 1 -8 18v318c0 11 10 20 13 0c6 -33 33 -119 78 -195c44 -74 105 -140 183 -140c58 0 110 52 110 121c0 78 -107 118 -208 175c-90 50 -176 114 -176 230c0 149 147 252 286 252c92 0 158 -38 202 -38s52 15 58 15c7 0 9 -3 9 -12v-254
c0 -18 -15 -20 -20 1c-7 35 -37 101 -79 159s-97 107 -154 107s-104 -41 -104 -90c0 -91 103 -131 203 -181c95 -48 188 -107 188 -235z" />
    <glyph glyph-name="scomma" unicode="&#x219;" horiz-adv-x="480" 
d="M335 -152c0 -64 -37 -113 -81 -148c-7 -5 -25 -20 -35 -20c-6 0 -13 4 -13 11c0 3 1 6 2 6c25 15 79 60 79 106c-19 -10 -41 -19 -64 -19c-44 0 -77 35 -77 78c0 52 41 88 91 88c58 0 98 -46 98 -102zM454 165c0 -94 -95 -174 -195 -174c-80 0 -87 16 -150 16
c-34 0 -50 -12 -56 -12s-7 3 -7 14v191c0 10 11 18 16 1c7 -24 24 -67 51 -107c31 -46 74 -86 128 -86c50 0 77 30 77 62c0 53 -83 67 -156 102c-59 27 -113 67 -113 150c0 109 102 173 205 173c55 0 101 -13 122 -13s36 7 43 7s10 0 10 -11v-132c0 -13 -8 -20 -14 1
c-6 18 -22 50 -46 77c-24 28 -58 51 -98 51c-49 0 -72 -32 -72 -57c0 -54 67 -74 132 -103c62 -29 123 -66 123 -150z" />
    <glyph glyph-name="Tcomma" unicode="&#x21a;" horiz-adv-x="803" 
d="M499 -139c0 -64 -37 -113 -81 -148c-7 -5 -25 -20 -35 -20c-6 0 -13 4 -13 11c0 3 1 6 2 6c25 15 79 60 79 106c-19 -10 -41 -19 -64 -19c-44 0 -77 35 -77 78c0 52 41 88 91 88c58 0 98 -46 98 -102zM752 760l32 -307h-16c0 25 -33 109 -100 181c-40 43 -91 82 -155 100
v-589c0 -102 119 -133 137 -133v-12h-518v12c28 0 146 27 146 139v583c-60 -20 -110 -59 -148 -103c-65 -74 -97 -158 -97 -180h-11l30 311c0 8 5 19 14 16c8 -4 20 -19 42 -19h590c19 0 38 14 42 14c5 0 11 -4 12 -13z" />
    <glyph glyph-name="tcomma" unicode="&#x21b;" horiz-adv-x="409" 
d="M310 -152c0 -64 -37 -113 -81 -148c-7 -5 -25 -20 -35 -20c-6 0 -13 4 -13 11c0 3 1 6 2 6c25 15 79 60 79 106c-19 -10 -41 -19 -64 -19c-44 0 -77 35 -77 78c0 52 41 88 91 88c58 0 98 -46 98 -102zM400 123c-14 -41 -77 -135 -186 -135c-87 0 -148 56 -148 138v291
h-40c-8 0 -17 9 -3 22l226 200c7 6 15 8 15 -8v-146h109c3 0 7 -2 6 -5l-28 -57c-2 -3 -5 -7 -10 -7h-77v-262c0 -40 20 -72 54 -72c36 0 66 33 75 48c5 3 8 -1 7 -7z" />
    <glyph glyph-name="Tcedilla" unicode="&#x162;" horiz-adv-x="803" 
d="M505 -127c0 -50 -46 -87 -108 -87c-41 0 -75 11 -118 37l11 26c25 -16 46 -24 64 -24c27 0 49 22 49 48s-19 41 -50 41c-8 0 -15 -1 -29 -3l35 89h-227v12c28 0 146 27 146 139v583c-60 -20 -110 -59 -148 -103c-65 -74 -97 -158 -97 -180h-11l30 311c0 8 5 19 14 16
c8 -4 20 -19 42 -19h590c19 0 38 14 42 14c5 0 11 -4 12 -13l32 -307h-16c0 25 -33 109 -100 181c-40 43 -91 82 -155 100v-589c0 -102 119 -133 137 -133v-12h-255l-19 -50c15 2 21 2 30 2c59 0 99 -32 99 -79z" />
    <glyph glyph-name="aogonek" unicode="&#x105;" horiz-adv-x="571" 
d="M413 -146l17 -10c-28 -60 -66 -88 -117 -88c-52 0 -83 29 -83 76c0 57 43 109 134 166c-28 11 -49 33 -61 63c-28 -34 -74 -72 -144 -72c-85 0 -132 49 -132 111c0 73 68 103 115 119c33 11 71 18 103 31c18 7 34 16 47 28v107c0 39 -24 71 -56 71c-31 0 -48 -14 -48 -24
c0 -12 11 -18 23 -26c12 -10 25 -22 25 -48c0 -55 -55 -108 -112 -108c-43 0 -72 25 -72 69c0 69 112 174 302 174c71 0 134 -42 134 -124v-260c0 -19 11 -28 22 -28c17 0 36 30 44 49c4 5 16 4 17 -4c-15 -38 -72 -137 -163 -137c-7 0 -15 1 -21 2c-18 -16 -25 -23 -34 -32
c-22 -24 -36 -59 -36 -88c0 -32 15 -51 43 -51c22 0 32 7 53 34zM295 87c-2 11 -3 23 -3 36v115c-5 2 -10 3 -15 3c-24 0 -59 -41 -59 -95c0 -55 24 -85 45 -85c14 0 25 10 32 26z" />
    <glyph glyph-name="abreve" unicode="&#x103;" horiz-adv-x="571" 
d="M401 681h46c-17 -91 -59 -151 -161 -151c-101 0 -142 61 -160 151h46c21 -54 61 -60 115 -60c51 0 97 6 114 60zM571 126c-15 -38 -72 -137 -163 -137c-49 0 -87 28 -105 72c-28 -34 -74 -72 -144 -72c-85 0 -132 49 -132 111c0 73 68 103 115 119c33 11 71 18 103 31
c18 7 34 16 47 28v107c0 39 -24 71 -56 71c-31 0 -48 -14 -48 -24c0 -12 11 -18 23 -26c12 -10 25 -22 25 -48c0 -55 -55 -108 -112 -108c-43 0 -72 25 -72 69c0 69 112 174 302 174c71 0 134 -42 134 -124v-260c0 -19 11 -28 22 -28c17 0 36 30 44 49c4 5 16 4 17 -4z
M295 87c-2 11 -3 23 -3 36v115c-5 2 -10 3 -15 3c-24 0 -59 -41 -59 -95c0 -55 24 -85 45 -85c14 0 25 10 32 26z" />
    <glyph glyph-name="cacute" unicode="&#x107;" horiz-adv-x="503" 
d="M420 677c0 -18 -7 -41 -33 -60l-121 -89l-18 14l43 124c21 51 48 65 76 65c31 0 53 -26 53 -54zM491 192c-26 -85 -100 -206 -234 -206c-119 0 -230 77 -230 240c0 173 136 268 264 268c107 0 164 -50 164 -116c0 -53 -39 -93 -94 -93s-88 47 -88 86c0 65 47 74 47 89
c0 9 -8 16 -23 16c-30 0 -96 -60 -96 -171s60 -195 146 -195c76 0 122 63 132 85c4 3 9 2 12 -3z" />
    <glyph glyph-name="ccaron" unicode="&#x10d;" horiz-adv-x="503" 
d="M268 630l159 95l-147 -193c-3 -4 -9 -6 -14 -6s-10 2 -13 6l-143 193zM491 192c-26 -85 -100 -206 -234 -206c-119 0 -230 77 -230 240c0 173 136 268 264 268c107 0 164 -50 164 -116c0 -53 -39 -93 -94 -93s-88 47 -88 86c0 65 47 74 47 89c0 9 -8 16 -23 16
c-30 0 -96 -60 -96 -171s60 -195 146 -195c76 0 122 63 132 85c4 3 9 2 12 -3z" />
    <glyph glyph-name="dcroat" unicode="&#x111;" horiz-adv-x="618" 
d="M253 603h105v24c0 63 -40 72 -55 72v11l228 74c14 4 25 5 25 -16v-165h84c8 0 15 -7 15 -15v-8c0 -8 -7 -15 -15 -15h-84v-482c0 -54 31 -71 50 -71v-12h-235c-11 0 -13 6 -13 13v53c-34 -48 -85 -78 -154 -78c-91 0 -186 83 -186 225c0 165 123 281 236 281
c46 0 80 -12 104 -35v106h-105c-8 0 -15 7 -15 15v8c0 8 7 15 15 15zM358 111v304c-15 31 -36 51 -61 51c-45 0 -76 -51 -76 -193s38 -208 82 -208c22 0 41 17 55 46z" />
    <glyph glyph-name="dcaron" unicode="&#x10f;" horiz-adv-x="618" 
d="M739 843c0 -64 -37 -113 -81 -148c-7 -5 -25 -20 -35 -20c-6 0 -13 4 -13 11c0 3 1 6 2 6c25 15 79 60 79 106c-19 -10 -41 -19 -64 -19c-44 0 -77 35 -77 78c0 52 41 88 91 88c58 0 98 -46 98 -102zM606 12v-12h-235c-11 0 -13 6 -13 13v53c-34 -48 -85 -78 -154 -78
c-91 0 -186 83 -186 225c0 165 123 281 236 281c46 0 80 -12 104 -35v168c0 63 -40 72 -55 72v11l228 74c14 4 25 5 25 -16v-685c0 -54 31 -71 50 -71zM358 111v304c-15 31 -36 51 -61 51c-45 0 -76 -51 -76 -193s38 -208 82 -208c22 0 41 17 55 46z" />
    <glyph glyph-name="eogonek" unicode="&#x119;" horiz-adv-x="559" 
d="M362 -146l17 -10c-28 -60 -66 -88 -117 -88c-52 0 -83 29 -83 76c0 54 39 104 120 157c-7 0 -15 -1 -23 -1c-145 0 -250 94 -250 244c0 155 122 265 273 265c135 0 227 -97 227 -192c0 -12 -2 -20 -18 -20h-294c11 -113 56 -183 149 -183c86 0 142 71 155 91
c6 3 12 1 12 -5c-8 -36 -64 -157 -187 -191c-24 -20 -31 -27 -41 -38c-22 -24 -36 -59 -36 -88c0 -32 15 -51 43 -51c22 0 32 7 53 34zM341 357c0 62 -17 121 -57 121c-30 0 -72 -36 -72 -143c0 -9 1 -18 1 -28h108c18 0 20 14 20 50z" />
    <glyph glyph-name="ecaron" unicode="&#x11b;" horiz-adv-x="559" 
d="M279 639l159 95l-147 -193c-3 -4 -9 -6 -14 -6s-10 2 -13 6l-143 193zM530 188c-9 -42 -84 -200 -254 -200c-145 0 -250 94 -250 244c0 155 122 265 273 265c135 0 227 -97 227 -192c0 -12 -2 -20 -18 -20h-294c11 -113 56 -183 149 -183c86 0 142 71 155 91
c6 3 12 1 12 -5zM341 357c0 62 -17 121 -57 121c-30 0 -72 -36 -72 -143c0 -9 1 -18 1 -28h108c18 0 20 14 20 50z" />
    <glyph glyph-name="nacute" unicode="&#x144;" horiz-adv-x="677" 
d="M487 677c0 -18 -7 -41 -33 -60l-121 -89l-18 14l43 124c21 51 48 65 76 65c31 0 53 -26 53 -54zM657 12v-12h-292v12c15 0 45 22 45 64v267c0 39 -24 66 -62 66c-32 0 -57 -28 -68 -45c1 -105 0 -281 0 -281c0 -54 24 -71 46 -71v-12h-305v12c25 0 58 24 58 73v250
c0 62 -40 72 -55 72v11l231 74c14 4 25 5 25 -16v-73c36 39 91 90 175 90c87 0 151 -49 151 -152v-264c0 -48 26 -65 51 -65z" />
    <glyph glyph-name="ncaron" unicode="&#x148;" horiz-adv-x="677" 
d="M337 632l159 95l-147 -193c-3 -4 -9 -6 -14 -6s-10 2 -13 6l-143 193zM657 12v-12h-292v12c15 0 45 22 45 64v267c0 39 -24 66 -62 66c-32 0 -57 -28 -68 -45c1 -105 0 -281 0 -281c0 -54 24 -71 46 -71v-12h-305v12c25 0 58 24 58 73v250c0 62 -40 72 -55 72v11l231 74
c14 4 25 5 25 -16v-73c36 39 91 90 175 90c87 0 151 -49 151 -152v-264c0 -48 26 -65 51 -65z" />
    <glyph glyph-name="ohungarumlaut" unicode="&#x151;" horiz-adv-x="599" 
d="M563 687c0 -24 -15 -41 -51 -59l-161 -80l-14 18l96 128c29 39 51 47 76 47c31 0 54 -23 54 -54zM379 687c0 -24 -15 -41 -51 -59l-161 -80l-14 18l95 128c30 39 52 47 77 47c31 0 54 -23 54 -54zM575 244c0 -140 -123 -253 -275 -253c-153 0 -276 113 -276 253
c0 139 123 253 276 253c152 0 275 -114 275 -253zM367 245c0 128 -8 230 -65 230c-56 0 -72 -102 -72 -230c0 -129 3 -233 69 -233c60 0 68 104 68 233z" />
    <glyph glyph-name="racute" unicode="&#x155;" horiz-adv-x="535" 
d="M420 677c0 -18 -7 -41 -33 -60l-121 -89l-18 14l43 124c21 51 48 65 76 65c31 0 53 -26 53 -54zM528 390c0 -54 -42 -105 -102 -105c-53 0 -75 33 -88 60c-9 19 -13 36 -21 36s-20 -10 -35 -41v-257c0 -54 32 -70 46 -71v-12h-305v12c13 1 58 24 58 73v252
c0 62 -40 72 -55 72v11l231 74c14 4 25 5 25 -16v-81c35 45 85 93 144 93c58 0 102 -45 102 -100z" />
    <glyph glyph-name="rcaron" unicode="&#x159;" horiz-adv-x="535" 
d="M275 639l159 95l-147 -193c-3 -4 -9 -6 -14 -6s-10 2 -13 6l-143 193zM528 390c0 -54 -42 -105 -102 -105c-53 0 -75 33 -88 60c-9 19 -13 36 -21 36s-20 -10 -35 -41v-257c0 -54 32 -70 46 -71v-12h-305v12c13 1 58 24 58 73v252c0 62 -40 72 -55 72v11l231 74
c14 4 25 5 25 -16v-81c35 45 85 93 144 93c58 0 102 -45 102 -100z" />
    <glyph glyph-name="lcaron" unicode="&#x13e;" horiz-adv-x="334" 
d="M467 840c0 -64 -37 -113 -81 -148c-7 -5 -25 -20 -35 -20c-6 0 -13 4 -13 11c0 3 1 6 2 6c25 15 79 60 79 106c-19 -10 -41 -19 -64 -19c-44 0 -77 35 -77 78c0 52 41 88 91 88c58 0 98 -46 98 -102zM323 12v-12h-304v12c13 1 58 24 58 73v542c0 63 -40 72 -55 72v11
l225 74c14 4 25 5 25 -16v-685c0 -54 31 -71 51 -71z" />
    <glyph glyph-name="lacute" unicode="&#x13a;" horiz-adv-x="334" 
d="M297 957c0 -18 -7 -41 -33 -60l-121 -89l-18 14l43 124c21 51 48 65 76 65c31 0 53 -26 53 -54zM323 12v-12h-304v12c13 1 58 24 58 73v542c0 63 -40 72 -55 72v11l225 74c14 4 25 5 25 -16v-685c0 -54 31 -71 51 -71z" />
    <glyph glyph-name="sacute" unicode="&#x15b;" horiz-adv-x="480" 
d="M404 677c0 -18 -7 -41 -33 -60l-121 -89l-18 14l43 124c21 51 48 65 76 65c31 0 53 -26 53 -54zM454 165c0 -94 -95 -174 -195 -174c-80 0 -87 16 -150 16c-34 0 -50 -12 -56 -12s-7 3 -7 14v191c0 10 11 18 16 1c7 -24 24 -67 51 -107c31 -46 74 -86 128 -86
c50 0 77 30 77 62c0 53 -83 67 -156 102c-59 27 -113 67 -113 150c0 109 102 173 205 173c55 0 101 -13 122 -13s36 7 43 7s10 0 10 -11v-132c0 -13 -8 -20 -14 1c-6 18 -22 50 -46 77c-24 28 -58 51 -98 51c-49 0 -72 -32 -72 -57c0 -54 67 -74 132 -103
c62 -29 123 -66 123 -150z" />
    <glyph glyph-name="scedilla" unicode="&#x15f;" horiz-adv-x="480" 
d="M364 -133c0 -50 -46 -87 -108 -87c-41 0 -75 11 -118 37l11 26c25 -16 46 -24 64 -24c27 0 49 22 49 48s-19 41 -50 41c-8 0 -15 -1 -29 -3l34 88c-44 4 -58 14 -108 14c-34 0 -50 -12 -56 -12s-7 3 -7 14v191c0 10 11 18 16 1c7 -24 24 -67 51 -107
c31 -46 74 -86 128 -86c50 0 77 30 77 62c0 53 -83 67 -156 102c-59 27 -113 67 -113 150c0 109 102 173 205 173c55 0 101 -13 122 -13s36 7 43 7s10 0 10 -11v-132c0 -13 -8 -20 -14 1c-6 18 -22 50 -46 77c-24 28 -58 51 -98 51c-49 0 -72 -32 -72 -57
c0 -54 67 -74 132 -103c62 -29 123 -66 123 -150c0 -94 -95 -174 -195 -174h-7l-17 -47c15 2 21 2 30 2c59 0 99 -32 99 -79z" />
    <glyph glyph-name="tcaron" unicode="&#x165;" horiz-adv-x="409" 
d="M472 690c0 -64 -37 -113 -81 -148c-7 -5 -25 -20 -35 -20c-6 0 -13 4 -13 11c0 3 1 6 2 6c25 15 79 60 79 106c-19 -10 -41 -19 -64 -19c-44 0 -77 35 -77 78c0 52 41 88 91 88c58 0 98 -46 98 -102zM400 123c-14 -41 -77 -135 -186 -135c-87 0 -148 56 -148 138v291h-40
c-8 0 -17 9 -3 22l226 200c7 6 15 8 15 -8v-146h109c3 0 7 -2 6 -5l-28 -57c-2 -3 -5 -7 -10 -7h-77v-262c0 -40 20 -72 54 -72c36 0 66 33 75 48c5 3 8 -1 7 -7z" />
    <glyph glyph-name="tcedilla" unicode="&#x163;" horiz-adv-x="409" 
d="M322 -132c0 -50 -46 -87 -108 -87c-41 0 -75 11 -118 37l11 26c25 -16 46 -24 64 -24c27 0 49 22 49 48s-19 41 -50 41c-8 0 -15 -1 -29 -3l33 86c-65 14 -108 65 -108 134v291h-40c-8 0 -17 9 -3 22l226 200c7 6 15 8 15 -8v-146h109c3 0 7 -2 6 -5l-28 -57
c-2 -3 -5 -7 -10 -7h-77v-262c0 -40 20 -72 54 -72c36 0 66 33 75 48c5 3 8 -1 7 -7c-14 -41 -77 -135 -186 -135h-5l-16 -43c15 2 21 2 30 2c59 0 99 -32 99 -79z" />
    <glyph glyph-name="uring" unicode="&#x16f;" horiz-adv-x="673" 
d="M425 653c0 -64 -53 -117 -116 -117c-68 0 -118 51 -118 119c0 62 54 115 117 115c64 0 117 -52 117 -117zM369 653c0 33 -28 62 -62 62c-33 0 -61 -29 -61 -61c0 -36 26 -63 62 -63c34 0 61 28 61 62zM649 11v-11h-230c-21 0 -25 9 -25 26v55c-27 -32 -82 -89 -174 -89
c-87 0 -152 48 -152 152v263c0 49 -26 66 -50 66v12h244v-343c0 -39 27 -66 65 -66c32 0 57 28 67 45v281c0 64 -41 70 -55 71v12h255v-398c0 -63 39 -76 55 -76z" />
    <glyph glyph-name="uhungarumlaut" unicode="&#x171;" horiz-adv-x="673" 
d="M572 684c0 -24 -15 -41 -51 -59l-161 -80l-14 18l96 128c29 39 51 47 76 47c31 0 54 -23 54 -54zM388 684c0 -24 -15 -41 -51 -59l-161 -80l-14 18l95 128c30 39 52 47 77 47c31 0 54 -23 54 -54zM649 11v-11h-230c-21 0 -25 9 -25 26v55c-27 -32 -82 -89 -174 -89
c-87 0 -152 48 -152 152v263c0 49 -26 66 -50 66v12h244v-343c0 -39 27 -66 65 -66c32 0 57 28 67 45v281c0 64 -41 70 -55 71v12h255v-398c0 -63 39 -76 55 -76z" />
    <glyph glyph-name="zacute" unicode="&#x17a;" horiz-adv-x="573" 
d="M442 677c0 -18 -7 -41 -33 -60l-121 -89l-18 14l43 124c21 51 48 65 76 65c31 0 53 -26 53 -54zM547 232l-47 -218c-3 -10 -1 -14 -15 -14h-445c-12 0 -17 10 -9 24l229 374c9 15 15 26 15 36s-5 33 -36 33c-34 0 -76 -32 -111 -68c-41 -41 -74 -88 -79 -96
c-9 -16 -17 -13 -16 2l13 163c1 10 8 16 22 16h458c11 0 14 -6 8 -17l-237 -379c-6 -10 -14 -33 -14 -43c0 -16 4 -28 26 -28c32 0 90 53 139 108c40 45 74 90 84 110c9 19 17 10 15 -3z" />
    <glyph glyph-name="zdotaccent" unicode="&#x17c;" horiz-adv-x="573" 
d="M345 600c0 -33 -24 -60 -57 -60c-35 0 -62 25 -62 60c0 32 29 59 60 59c33 0 59 -27 59 -59zM547 232l-47 -218c-3 -10 -1 -14 -15 -14h-445c-12 0 -17 10 -9 24l229 374c9 15 15 26 15 36s-5 33 -36 33c-34 0 -76 -32 -111 -68c-41 -41 -74 -88 -79 -96
c-9 -16 -17 -13 -16 2l13 163c1 10 8 16 22 16h458c11 0 14 -6 8 -17l-237 -379c-6 -10 -14 -33 -14 -43c0 -16 4 -28 26 -28c32 0 90 53 139 108c40 45 74 90 84 110c9 19 17 10 15 -3z" />
    <glyph glyph-name="A.swsh" horiz-adv-x="1322" 
d="M1346 15v-15h-438v15c34 0 104 40 75 128l-47 143h-186c-17 -56 -54 -156 -93 -221c-70 -116 -176 -194 -345 -194c-196 0 -300 129 -300 264c0 134 101 268 293 268c147 0 222 -99 222 -183c0 -73 -53 -117 -112 -117c-60 0 -104 40 -104 100c0 43 25 72 45 84
c29 18 64 20 64 38c0 34 -53 55 -113 55c-118 0 -229 -102 -229 -237c0 -152 103 -242 213 -242c156 0 259 120 345 281c84 159 179 403 179 492c0 57 -99 72 -214 72c-102 0 -160 -63 -160 -139c0 -91 60 -145 114 -145c21 0 27 4 27 13c0 8 -13 16 -28 28
c-14 11 -33 34 -33 66c0 55 53 94 98 94s103 -27 103 -97c0 -69 -52 -127 -154 -127s-201 68 -201 170s108 167 208 167c107 0 209 -17 257 -17h174c7 0 11 -1 14 -10l218 -615c24 -69 77 -119 108 -119zM759 318h166l-87 264c-2 5 -7 -3 -7 -3c-1 -5 -32 -133 -72 -261z
" />
    <glyph glyph-name="A2.swsh" horiz-adv-x="976" 
d="M993 15v-15h-439v15c27 0 82 28 82 89c0 11 -2 24 -7 39l-47 144h-213l-27 -79c-7 -20 -13 -49 -13 -70c0 -82 59 -126 89 -126v-12h-244v12c23 0 80 41 112 132l167 473c4 13 7 25 7 36c0 55 -53 94 -166 94c-130 0 -212 -72 -212 -193c0 -117 58 -165 102 -165
c32 0 40 12 40 28c0 20 -58 28 -58 98c0 51 45 89 95 89s100 -39 100 -101c0 -61 -42 -134 -167 -134c-127 0 -197 86 -197 201c0 128 114 200 281 200c76 0 156 -10 223 -10h151c7 0 11 0 14 -9l218 -616c25 -70 76 -120 109 -120zM381 319h190l-88 264c0 1 -1 2 -2 2
c-2 0 -5 -4 -5 -4z" />
    <glyph glyph-name="A.salt" horiz-adv-x="1222" 
d="M1216 15v-16h-412v16c37 0 90 40 90 99v187h-198c-32 -104 -63 -210 -105 -293c-92 -181 -242 -331 -423 -331c-121 0 -191 78 -191 160c0 67 53 106 106 106s107 -38 107 -101c0 -57 -41 -92 -96 -92c-8 0 -19 6 -26 6c-3 0 -6 -2 -6 -6c0 -12 35 -48 93 -48
c150 0 276 146 376 361c77 166 170 461 262 570c76 88 138 126 223 126h115c8 0 17 -4 17 -12s-15 -25 -15 -41v-592c0 -61 56 -99 83 -99zM924 703l-6 3c-9 -4 -82 -63 -126 -146c-32 -61 -58 -136 -82 -213h184v265c0 45 22 84 30 91z" />
    <glyph glyph-name="B.swsh" horiz-adv-x="1107" 
d="M1086 215c0 -139 -116 -215 -251 -215h-512v12c38 0 104 52 104 148v466c0 67 -35 118 -139 118c-109 0 -191 -76 -191 -212c0 -116 57 -164 101 -164c32 0 40 12 40 28c0 8 -9 14 -20 23c-16 13 -38 33 -38 75c0 51 45 88 95 88s100 -39 100 -100s-43 -134 -167 -134
c-122 0 -196 86 -196 200c0 128 114 217 280 217c76 0 158 -6 183 -6h334c114 0 230 -50 230 -176c0 -123 -130 -175 -172 -175v-6c46 0 219 -26 219 -187zM805 563c0 124 -31 180 -88 180c-50 0 -59 -38 -59 -74v-250c0 -11 5 -14 10 -14h54c40 0 83 34 83 158zM846 206
c0 132 -69 181 -124 181h-49c-8 0 -15 -7 -15 -13v-279c0 -43 29 -72 75 -72c53 0 113 52 113 183z" />
    <glyph glyph-name="C.swsh" horiz-adv-x="814" 
d="M787 150c0 -167 -116 -306 -343 -306c-226 0 -422 153 -422 465c0 299 204 468 396 468c95 0 157 -27 209 -27c41 0 71 26 77 26s9 -1 9 -14v-318c0 -21 -15 -20 -23 7c-7 27 -83 298 -236 298c-133 0 -175 -203 -175 -453c0 -300 72 -418 219 -418
c112 0 203 116 203 273c0 149 -65 213 -150 213c-60 0 -98 -41 -98 -58c0 -10 5 -13 11 -13c7 0 21 12 43 12c53 0 108 -35 108 -108c0 -72 -53 -117 -114 -117s-126 45 -126 141s78 175 175 175c114 0 237 -83 237 -246z" />
    <glyph glyph-name="D.swsh" horiz-adv-x="1159" 
d="M1138 385c0 -234 -169 -385 -371 -385h-429v12c21 0 86 31 86 106v511c0 67 -34 115 -138 115c-109 0 -191 -76 -191 -212c0 -116 57 -164 101 -164c32 0 40 12 40 28c0 8 -9 14 -20 23c-16 13 -38 33 -38 75c0 51 45 88 95 88s100 -39 100 -100s-45 -134 -167 -134
c-124 0 -196 86 -196 200c0 128 114 217 280 217c76 0 158 -5 183 -5h296c205 0 369 -142 369 -375zM878 400c0 229 -31 340 -140 340c-58 0 -77 -32 -77 -73v-561c0 -56 32 -80 76 -80c103 0 141 145 141 374z" />
    <glyph glyph-name="E.swsh" horiz-adv-x="1080" 
d="M1044 341l-36 -325c-1 -12 -22 -16 -22 -16h-675v13c34 0 118 40 118 142v469c0 67 -35 120 -139 120c-109 0 -191 -76 -191 -212c0 -116 57 -164 101 -164c32 0 40 12 40 28c0 8 -9 14 -20 23c-16 13 -38 33 -38 75c0 51 45 88 95 88s100 -39 100 -100
s-45 -134 -167 -134c-123 0 -196 86 -196 200c0 128 114 217 280 217c76 0 158 -6 183 -6h515s17 -1 18 -13l15 -295c1 -14 -11 -24 -19 0c-13 37 -54 112 -106 175c-49 59 -108 108 -161 108c-39 0 -72 -26 -72 -83v-238h23c105 0 159 117 159 159l12 -1v-353h-16
c0 42 -50 168 -155 168h-23v-282c0 -38 20 -75 60 -75c69 0 135 58 188 124c59 75 102 160 112 185c8 17 19 21 17 3z" />
    <glyph glyph-name="F.swsh" horiz-adv-x="1058" 
d="M1006 746l15 -295c1 -14 -11 -24 -19 0c-13 37 -54 112 -106 175c-49 59 -108 108 -161 108c-39 0 -72 -26 -72 -83v-238h23c105 0 159 117 159 159l12 -1v-353h-16c0 42 -50 168 -155 168h-23v-232c0 -100 64 -138 103 -138v-16h-459v13c34 0 118 40 118 142v471
c0 67 -35 118 -139 118c-109 0 -191 -76 -191 -212c0 -116 58 -164 101 -164c32 0 40 12 40 28c0 8 -9 14 -20 23c-16 13 -38 33 -38 75c0 51 45 88 95 88s100 -39 100 -100s-44 -134 -167 -134c-124 0 -196 86 -196 200c0 128 114 217 280 217c76 0 158 -6 183 -6h515
s17 -1 18 -13z" />
    <glyph glyph-name="G.swsh" horiz-adv-x="815" 
d="M817 399v-12c-42 0 -92 -41 -92 -105v-171c0 -311 -140 -475 -350 -475c-117 0 -193 71 -193 166c0 83 71 147 142 147s127 -47 127 -109c0 -67 -44 -113 -110 -113c-87 0 -88 79 -103 79c-7 0 -16 -10 -16 -28c0 -54 41 -114 126 -114c152 0 167 200 167 342
c-22 -8 -63 -22 -121 -22c-186 0 -368 134 -368 383s190 412 387 412c87 0 177 -36 211 -36s51 18 58 18c8 0 8 -1 8 -14l18 -267c2 -17 -10 -15 -18 7c-20 59 -133 268 -255 268c-100 0 -152 -147 -152 -401c0 -226 29 -352 112 -352c84 0 92 88 92 210
c0 119 -40 175 -101 175v12h431z" />
    <glyph glyph-name="H.swsh" horiz-adv-x="1247" 
d="M1223 759v-13c-34 0 -92 -40 -92 -128v-488c0 -87 71 -118 89 -118v-12h-414v12c29 0 91 32 91 118v267h-221v-267c0 -87 71 -118 89 -118v-12h-414v12c29 0 91 32 91 118v496c0 67 -34 118 -138 118c-109 0 -191 -76 -191 -212c0 -116 58 -164 101 -164
c32 0 40 12 40 28c0 8 -9 14 -20 23c-16 13 -38 33 -38 75c0 51 45 88 95 88s100 -39 100 -100s-45 -134 -167 -134c-123 0 -196 86 -196 200c0 128 114 217 280 217c76 0 158 -6 183 -6h277v-13c-34 0 -92 -40 -92 -128v-192h221v192c0 88 -52 128 -92 128v13h418z" />
    <glyph glyph-name="I.swsh" horiz-adv-x="796" 
d="M755 760v-12c-34 0 -92 -40 -92 -128v-490c0 -87 71 -118 89 -118v-12h-414v12c29 0 91 32 91 118v496c0 67 -34 118 -138 118c-109 0 -191 -76 -191 -212c0 -116 58 -164 101 -164c32 0 40 12 40 28c0 8 -9 14 -20 23c-16 13 -38 33 -38 75c0 51 45 88 95 88
s100 -39 100 -100s-45 -134 -167 -134c-123 0 -196 86 -196 200c0 128 114 217 280 217c76 0 158 -5 183 -5h277z" />
    <glyph glyph-name="J.swsh" horiz-adv-x="770" 
d="M772 760v-9c-28 0 -101 -35 -101 -123v-393c0 -178 -120 -268 -286 -268c-156 0 -259 62 -259 173c0 66 44 107 102 107s101 -43 101 -99c0 -57 -41 -92 -97 -92c-11 0 -18 5 -24 5s-11 -2 -11 -8c0 -20 50 -45 103 -45c95 0 134 77 134 194v426c0 67 -35 116 -139 116
c-109 0 -191 -76 -191 -212c0 -116 58 -164 101 -164c32 0 40 12 40 28c0 8 -9 14 -20 23c-16 13 -38 33 -38 75c0 50 45 88 95 88s100 -39 100 -100s-45 -134 -167 -134c-123 0 -196 86 -196 200c0 128 114 217 280 217c76 0 158 -6 183 -6z" />
    <glyph glyph-name="K.swsh" horiz-adv-x="1200" 
d="M1209 16v-16h-271c-23 0 -38 10 -48 27c0 0 -7 13 -184 316l-47 -53v-161c0 -86 106 -117 125 -117v-12h-465v12c28 0 107 31 107 117v497c0 67 -35 118 -139 118c-109 0 -191 -76 -191 -212c0 -116 58 -164 101 -164c32 0 40 12 40 28c0 8 -9 14 -20 23
c-16 13 -38 33 -38 75c0 51 45 88 95 88s100 -39 100 -100s-45 -134 -167 -134c-123 0 -196 86 -196 200c0 128 114 217 280 217c76 0 158 -5 183 -5h283v-12c-34 0 -98 -40 -98 -128v-291c174 192 222 254 222 254c24 28 34 58 34 85c0 43 -29 79 -65 79v14h288v-14
c-23 0 -111 -33 -212 -152c0 0 -16 -21 -59 -69c219 -383 244 -420 244 -420c36 -61 78 -90 98 -90z" />
    <glyph glyph-name="K2.swsh" horiz-adv-x="1101" 
d="M1520 -228c0 -79 -90 -158 -230 -158s-297 58 -391 285l-188 453l-54 -62v-161c0 -86 106 -117 125 -117v-12h-465v12c28 0 107 31 107 117v497c0 67 -35 118 -139 118c-109 0 -191 -76 -191 -212c0 -116 58 -164 101 -164c32 0 40 12 40 28c0 8 -9 14 -20 23
c-16 13 -37 33 -37 75c0 52 44 88 94 88s100 -39 100 -100s-45 -134 -167 -134c-123 0 -196 86 -196 200c0 128 114 217 280 217c76 0 158 -5 183 -5h283v-12c-34 0 -98 -40 -98 -128v-291c174 192 222 254 222 254c24 28 34 58 34 85c0 43 -29 79 -65 79v14h288v-14
c-23 0 -111 -33 -212 -152l-59 -69l188 -464c118 -293 198 -412 306 -412c24 0 33 11 33 26c0 30 -81 20 -81 103c0 53 43 99 98 99c59 0 111 -41 111 -106z" />
    <glyph glyph-name="L.swsh" horiz-adv-x="1081" 
d="M1045 341l-36 -325c-1 -12 -22 -16 -22 -16h-675v13c34 0 118 40 118 142v470c0 67 -35 119 -139 119c-109 0 -191 -76 -191 -212c0 -116 57 -164 101 -164c32 0 40 12 40 28c0 8 -10 14 -20 23c-16 13 -38 33 -38 75c0 51 45 88 95 88s100 -39 100 -100
s-45 -134 -167 -134c-123 0 -196 86 -196 200c0 128 113 217 280 217c76 0 157 -6 183 -6h302v-14c-44 0 -112 -42 -112 -129v-512c0 -38 20 -75 60 -75c69 0 135 58 188 124c59 75 102 160 112 185c8 17 19 21 17 3z" />
    <glyph glyph-name="L2.swsh" horiz-adv-x="871" 
d="M892 -87c0 -151 -114 -253 -229 -253c-139 0 -234 116 -353 211c-91 73 -215 129 -285 129v13c30 0 73 43 73 92v534c0 62 -44 105 -88 105v14h419v-14c-54 0 -102 -52 -102 -105v-559c0 -81 -19 -128 -33 -146l4 -11c8 -4 165 -98 275 -98c124 0 211 75 211 180
c0 59 -39 106 -70 106c-16 0 -25 -8 -25 -15c0 -20 48 -36 48 -91c0 -56 -50 -96 -96 -96s-103 39 -103 97c0 59 46 131 140 131s214 -74 214 -224z" />
    <glyph glyph-name="M.swsh" horiz-adv-x="1587" 
d="M1546 760v-11c-25 0 -83 -33 -83 -101v-509c0 -83 50 -123 80 -123v-16h-399v16c33 0 83 30 83 123v530l-221 -667c-5 -13 -20 -9 -24 3c0 0 -259 606 -263 616l-8 -5c2 -19 17 -398 -29 -559c-44 -151 -157 -276 -372 -276c-170 0 -318 126 -318 284
c0 159 139 258 288 258c148 0 243 -82 243 -184c0 -84 -63 -125 -117 -125c-55 0 -103 43 -103 104c0 69 60 100 90 100c17 0 28 12 28 21c0 29 -51 62 -121 62c-123 0 -242 -89 -242 -242c0 -133 102 -251 247 -251c199 0 297 208 336 409s44 370 44 421
c0 72 -47 102 -151 102s-193 -54 -193 -155c0 -89 64 -145 124 -145c24 0 33 6 33 17c0 6 -14 11 -29 22c-19 13 -41 34 -41 72c0 56 41 101 99 101s105 -36 105 -97c0 -62 -51 -137 -168 -137c-132 0 -199 83 -199 169c0 90 83 182 209 182c29 0 202 -9 231 -9h189
c14 0 22 -4 27 -17l159 -395c5 -11 11 -12 16 2l132 397c2 7 13 13 25 13h293z" />
    <glyph glyph-name="M2.swsh" horiz-adv-x="1327" 
d="M1286 761v-14c-25 0 -82 -28 -82 -96v-515c0 -70 50 -122 78 -122v-14h-397v13c22 0 81 40 81 132v524l-216 -660c-4 -14 -14 -19 -24 4l-274 625v-350c0 -150 83 -275 136 -275v-13h-301v11c32 0 142 93 142 263v353c0 65 -35 117 -139 117c-109 0 -191 -76 -191 -212
c0 -116 58 -164 101 -164c32 0 40 12 40 28c0 8 -9 14 -20 23c-16 13 -37 33 -37 75c0 51 44 88 94 88s100 -39 100 -100s-44 -134 -167 -134c-122 0 -196 86 -196 200c0 128 114 217 280 217c76 0 158 -5 183 -5h157c13 0 21 -4 26 -17l163 -389c4 -11 11 -12 15 2l131 396
c1 2 5 9 17 9h300z" />
    <glyph glyph-name="M.salt" horiz-adv-x="1597" 
d="M1556 761v-14c-25 0 -81 -28 -81 -96v-515c0 -70 49 -122 78 -122v-14h-398v13c22 0 81 40 81 132v524l-215 -660c-5 -14 -15 -18 -25 4l-268 605c7 -148 10 -426 -29 -561c-43 -151 -157 -276 -371 -276c-171 0 -319 126 -319 284c0 159 140 258 288 258
s244 -82 244 -184c0 -84 -63 -125 -118 -125c-54 0 -102 43 -102 104c0 69 60 100 89 100c18 0 29 12 29 21c0 29 -52 62 -121 62c-123 0 -243 -89 -243 -242c0 -133 103 -251 248 -251c199 0 294 209 335 409c35 169 45 399 45 450c-9 34 -48 80 -85 80v14h286
c13 0 21 -5 27 -18l162 -389c5 -11 11 -12 16 2l131 396c0 2 4 9 17 9h299z" />
    <glyph glyph-name="N.swsh" horiz-adv-x="1120" 
d="M1552 -210c0 -83 -90 -147 -220 -147c-141 0 -333 62 -438 232l-442 718v-303c0 -212 138 -277 183 -277v-13h-365v14c45 0 155 67 155 275v337c0 67 -35 118 -139 118c-109 0 -191 -76 -191 -212c0 -116 58 -164 101 -164c32 0 40 12 40 28c0 8 -9 14 -20 23
c-16 13 -37 33 -37 75c0 51 44 88 94 88s100 -39 100 -100s-44 -134 -167 -134c-124 0 -196 86 -196 200c0 128 114 217 280 217c76 0 158 -5 183 -5h147c8 0 13 -4 17 -9l294 -473v185c0 201 -136 285 -174 285v12h350v-14c-36 0 -150 -96 -150 -284v-227l196 -320
c81 -132 151 -240 233 -240c30 0 41 10 41 24c0 26 -65 22 -65 97c0 47 42 93 92 93c58 0 98 -46 98 -99z" />
    <glyph glyph-name="N2.swsh" horiz-adv-x="1080" 
d="M1110 760v-14c-36 0 -150 -96 -150 -284v-462h-146l-359 593v-303c0 -212 138 -277 183 -277v-13h-365v14c45 0 155 67 155 275v337c0 67 -35 118 -139 118c-109 0 -191 -76 -191 -212c0 -116 58 -164 101 -164c32 0 40 12 40 28c0 8 -9 14 -20 23c-16 13 -37 33 -37 75
c0 51 44 88 94 88s100 -39 100 -100s-47 -134 -167 -134c-122 0 -196 86 -196 200c0 128 114 217 280 217c76 0 158 -5 183 -5h150c8 0 13 -3 17 -9l291 -472v184c0 201 -136 285 -174 285v12h350z" />
    <glyph glyph-name="N.salt" horiz-adv-x="1417" 
d="M1412 760v-14c-35 0 -150 -96 -150 -284v-462h-146l-375 621l-9 -5c2 -19 18 -398 -29 -559c-43 -151 -157 -276 -371 -276c-171 0 -319 126 -319 284c0 159 140 258 288 258s244 -82 244 -184c0 -84 -63 -125 -118 -125c-54 0 -102 43 -102 104c0 69 60 100 89 100
c18 0 29 12 29 21c0 29 -52 62 -121 62c-123 0 -243 -89 -243 -242c0 -133 103 -251 248 -251c199 0 296 208 335 409c40 201 45 370 45 421c0 72 -48 102 -152 102s-193 -54 -193 -155c0 -89 65 -145 125 -145c24 0 32 6 32 17c0 6 -13 11 -29 22c-19 13 -41 34 -41 72
c0 56 41 101 99 101s106 -36 106 -97c0 -62 -51 -137 -169 -137c-123 0 -198 78 -198 160c0 97 77 191 208 191c57 0 194 -9 226 -9h208c12 0 10 0 16 -9l291 -472v184c0 201 -135 285 -174 285v12h350z" />
    <glyph glyph-name="O.swsh" horiz-adv-x="876" 
d="M848 395c4 -246 -205 -409 -410 -413c-204 -4 -397 162 -401 390c-4 237 182 405 345 408c98 2 174 -64 176 -178c1 -102 -64 -145 -121 -146c-56 -1 -105 38 -105 107c0 62 44 100 85 101c40 1 52 -15 64 -15c13 0 15 11 15 22c-1 29 -31 73 -77 72
c-72 -1 -125 -106 -120 -367c4 -275 34 -379 138 -377c97 2 156 97 150 412c-4 257 -12 314 -100 362c-5 2 -3 9 9 9c154 3 348 -132 352 -387z" />
    <glyph glyph-name="P.swsh" horiz-adv-x="1049" 
d="M1044 548c0 -150 -146 -211 -288 -211h-104v-196c0 -79 62 -128 118 -128v-13h-458v13c50 0 114 46 114 128v485c0 67 -36 118 -140 118c-109 0 -191 -76 -191 -212c0 -116 58 -164 101 -164c32 0 40 12 40 28c0 8 -9 14 -20 23c-15 13 -37 33 -37 75c0 51 44 88 94 88
s100 -39 100 -100s-44 -134 -167 -134c-122 0 -196 86 -196 200c0 128 114 217 280 217c76 0 158 -5 183 -5h315c152 0 256 -83 256 -212zM815 562c0 164 -61 173 -94 173c-32 0 -69 -14 -69 -64v-309h64c44 0 99 43 99 200z" />
    <glyph glyph-name="Q.swsh" horiz-adv-x="883" 
d="M1071 -98c0 -103 -62 -224 -223 -224c-238 0 -287 289 -482 289c-51 0 -81 -20 -81 -28c0 -6 13 -11 28 -18c22 -12 51 -31 51 -72c0 -52 -43 -93 -91 -93c-51 0 -88 38 -88 95c0 58 54 133 176 139c-184 37 -322 198 -322 391c0 220 181 398 404 398s404 -178 404 -398
c0 -221 -181 -402 -404 -399h-10c123 -32 305 -145 433 -145c105 0 172 71 182 110c4 7 12 7 17 2c4 -11 6 -27 6 -47zM585 379c0 209 -25 378 -143 378c-131 0 -144 -169 -144 -378c0 -210 9 -379 144 -379c121 0 143 169 143 379z" />
    <glyph glyph-name="R.swsh" horiz-adv-x="1122" 
d="M1128 12v-12h-267c-12 0 -18 6 -23 18l-104 302c-12 36 -36 39 -48 39c-9 0 -21 -7 -21 -23v-187c0 -100 85 -136 116 -136v-13h-477v13c61 0 126 45 126 136v476c0 67 -35 119 -139 119c-109 0 -191 -76 -191 -212c0 -116 57 -164 101 -164c32 0 40 12 40 28
c0 8 -9 14 -20 23c-16 13 -38 33 -38 75c0 51 45 88 95 88s100 -39 100 -100s-45 -134 -167 -134c-123 0 -196 86 -196 200c0 128 114 217 280 217c76 0 158 -6 183 -6h314c127 0 251 -65 251 -193c0 -129 -118 -175 -181 -187v-4c44 0 76 -24 101 -57
c56 -73 76 -200 109 -251c22 -33 48 -55 56 -55zM811 563c0 104 -34 168 -92 168c-39 0 -54 -35 -54 -74v-269h40c66 0 106 71 106 175z" />
    <glyph glyph-name="R2.swsh" horiz-adv-x="1077" 
d="M1400 -205c0 -93 -86 -151 -230 -151s-284 68 -328 258c-32 138 -39 305 -73 394c-16 42 -41 64 -73 64c-14 0 -25 -7 -25 -24v-187c0 -100 85 -136 116 -136v-13h-477v13c61 0 126 45 126 136v476c0 67 -35 119 -139 119c-109 0 -191 -76 -191 -212
c0 -116 58 -164 101 -164c32 0 40 12 40 28c0 8 -9 14 -20 23c-16 13 -37 33 -37 75c0 51 44 88 94 88s100 -39 100 -100s-43 -134 -167 -134c-122 0 -196 86 -196 200c0 128 114 217 280 217c76 0 158 -6 183 -6h314c127 0 252 -65 252 -193s-99 -177 -203 -196
c50 -10 106 -30 136 -67c66 -79 84 -374 106 -466c23 -92 64 -169 125 -169c32 0 45 12 45 24c0 33 -57 38 -57 101c0 59 47 99 98 99c59 0 100 -49 100 -97zM817 563c0 104 -33 168 -92 168c-39 0 -54 -35 -54 -74v-269h40c66 0 106 71 106 175z" />
    <glyph glyph-name="S.swsh" horiz-adv-x="727" 
d="M705 151c0 -204 -182 -330 -373 -330c-138 0 -323 60 -323 227c0 135 121 199 242 199c87 0 185 -58 185 -154c0 -71 -52 -117 -114 -117c-56 0 -102 40 -102 96c0 52 42 88 92 88c9 0 24 0 24 14c0 36 -61 47 -86 47c-94 0 -155 -79 -155 -169c0 -121 92 -204 211 -204
c128 0 224 80 224 212c0 116 -81 168 -174 213c-123 60 -266 107 -266 270c0 145 125 233 261 233c61 0 119 -25 170 -25c30 0 60 17 76 17c10 0 9 -2 9 -11v-245c0 -4 -4 -6 -8 -6c-1 0 -5 2 -6 2c-13 40 -45 98 -86 148c-44 53 -98 95 -147 95c-53 0 -92 -35 -92 -89
c0 -119 123 -144 239 -201c103 -51 199 -125 199 -310z" />
    <glyph glyph-name="S2.swsh" horiz-adv-x="727" 
d="M623 614c0 -60 -44 -111 -103 -111c-62 0 -103 41 -103 99c0 57 41 91 99 91c9 0 14 5 14 15c0 27 -44 48 -94 48c-65 0 -139 -40 -139 -130c0 -203 424 -130 424 -481c0 -204 -198 -330 -389 -330c-138 0 -323 60 -323 227c0 135 121 199 242 199c87 0 185 -58 185 -154
c0 -71 -52 -117 -114 -117c-56 0 -102 40 -102 96c0 52 42 88 92 88c9 0 24 0 24 14c0 36 -61 47 -86 47c-94 0 -155 -79 -155 -169c0 -121 92 -204 211 -204c128 0 224 80 224 212c0 274 -440 161 -440 473c0 173 157 254 314 254c114 0 219 -57 219 -167z" />
    <glyph glyph-name="T.swsh" horiz-adv-x="903" 
d="M953 872c0 -149 -132 -244 -328 -244c-14 0 -28 0 -42 1v-455c0 -119 62 -160 111 -160v-14h-460v13c62 0 117 41 117 162v488c-69 15 -125 30 -168 30c-87 0 -147 -68 -147 -154c0 -64 23 -94 34 -94c10 0 15 5 15 13c0 59 35 100 91 100c58 0 99 -41 99 -103
c0 -59 -51 -103 -110 -103c-68 0 -154 61 -154 187c0 125 114 258 294 258c146 0 338 -65 468 -65c88 0 151 60 151 140s-70 110 -81 110c-10 0 -14 -4 -14 -10c0 -5 34 -27 34 -75c0 -49 -34 -104 -97 -104s-106 49 -106 106c0 71 58 123 130 123c71 0 163 -51 163 -150z
" />
    <glyph glyph-name="Th.dlig" horiz-adv-x="1320" 
d="M1528 -155c0 -77 -76 -128 -192 -128c-146 0 -255 101 -255 267v359c0 39 -24 66 -62 66c-32 0 -57 -28 -68 -45v-281c0 -54 32 -70 46 -71v-12h-763v13c62 0 117 41 117 162v488c-69 15 -125 30 -168 30c-87 0 -147 -68 -147 -154c0 -64 23 -94 34 -94c10 0 15 5 15 13
c0 59 35 100 91 100c58 0 99 -41 99 -103c0 -59 -51 -103 -110 -103c-68 0 -154 61 -154 187c0 125 114 258 294 258c146 0 338 -65 468 -65c88 0 151 60 151 140s-70 110 -81 110c-10 0 -14 -4 -14 -10c0 -5 34 -27 34 -75c0 -49 -34 -104 -97 -104s-106 49 -106 106
c0 71 58 123 130 123c70 0 163 -37 163 -172l-2 -447c36 39 91 90 175 90c87 0 151 -49 151 -152v-481c0 -93 33 -121 62 -121c28 0 39 17 39 26c0 24 -44 34 -44 83c0 54 41 91 96 91s98 -37 98 -94zM583 629v-491c0 -90 34 -128 93 -128c38 0 74 27 74 75v544
c0 4 0 9 -1 13c-37 -9 -79 -14 -124 -14c-14 0 -28 0 -42 1z" />
    <glyph glyph-name="U.swsh" horiz-adv-x="1092" 
d="M1116 759v-12c-45 0 -134 -65 -134 -183v-358c0 -147 -95 -223 -270 -223c-170 0 -285 81 -285 245v398c0 67 -35 118 -139 118c-109 0 -191 -76 -191 -212c0 -116 58 -164 101 -164c29 0 40 10 40 28c0 8 -9 14 -20 23c-16 13 -37 33 -37 75c0 51 44 88 94 88
s100 -39 100 -100s-46 -134 -167 -134c-123 0 -196 86 -196 200c0 128 114 217 280 217c76 0 158 -6 183 -6h279v-12c-24 0 -97 -37 -97 -118v-420c0 -120 74 -174 148 -174s149 61 149 173v351c0 121 -80 188 -133 188v12h295z" />
    <glyph glyph-name="V.swsh" horiz-adv-x="1057" 
d="M1106 759v-14c-21 0 -107 -60 -142 -168l-184 -577h-133l-219 626c-22 63 -71 118 -145 118c-107 0 -185 -76 -185 -212c0 -116 57 -164 101 -164c32 0 40 12 40 28c0 8 -9 14 -20 23c-16 13 -38 33 -38 75c0 51 45 88 95 88s100 -39 100 -100s-46 -134 -167 -134
c-123 0 -196 86 -196 200c0 128 114 217 280 217c76 0 158 -6 183 -6h304v-14c-62 0 -116 -63 -93 -131l135 -390l107 332c36 113 -26 189 -78 189v14h255z" />
    <glyph glyph-name="V2.swsh" horiz-adv-x="963" 
d="M1469 832c0 -64 -53 -109 -113 -109c-51 0 -76 26 -96 49c-16 20 -28 38 -47 38c-171 0 -383 -680 -421 -810h-146s-146 417 -218 626c-22 63 -71 118 -145 118c-107 0 -185 -76 -185 -212c0 -116 58 -164 101 -164c32 0 40 12 40 28c0 8 -9 14 -20 23
c-16 13 -37 33 -37 75c0 51 44 88 94 88s100 -39 100 -100s-43 -134 -167 -134c-122 0 -196 86 -196 200c0 128 114 217 280 217c76 0 157 -5 182 -5h333v-14c-66 0 -125 -65 -103 -133l120 -366c3 -6 9 -7 11 3c4 18 92 297 155 420s171 272 343 272c91 0 135 -54 135 -110
z" />
    <glyph glyph-name="W.swsh" horiz-adv-x="1453" 
d="M1497 759v-14c-19 0 -99 -60 -131 -168l-177 -577h-146l-116 366l-143 -366h-147l-212 626c-21 64 -71 118 -145 118c-107 0 -185 -76 -185 -212c0 -116 57 -164 101 -164c32 0 40 12 40 28c0 8 -9 14 -20 23c-16 13 -38 33 -38 75c0 51 45 88 95 88s100 -39 100 -100
s-46 -134 -167 -134c-122 0 -196 86 -196 200c0 128 114 217 280 217c76 0 158 -6 183 -6h255v-14c-36 0 -67 -57 -44 -131l139 -437l91 232l-80 252c-18 57 -52 84 -76 84v14h406v-14c-35 0 -92 -57 -70 -131l125 -423l112 365c28 92 -15 189 -72 189l-1 14h239z" />
    <glyph glyph-name="W2.swsh" horiz-adv-x="1349" 
d="M1855 832c0 -64 -54 -109 -114 -109c-51 0 -76 26 -95 49c-16 20 -28 38 -48 38c-67 0 -160 -130 -232 -289c-68 -150 -173 -463 -193 -521h-130l-115 366l-143 -366h-148l-212 626c-21 64 -71 118 -145 118c-107 0 -185 -76 -185 -212c0 -116 58 -164 101 -164
c32 0 40 12 40 28c0 8 -9 14 -20 23c-16 13 -38 33 -38 75c0 53 45 88 95 88s100 -39 100 -100s-46 -134 -167 -134c-124 0 -196 86 -196 200c0 128 114 217 280 217c76 0 158 -5 183 -5h255v-15c-36 0 -67 -57 -44 -131l139 -437l91 232l-80 252c-18 57 -52 84 -76 84v15
h406v-15c-35 0 -93 -57 -70 -131l117 -367c3 -9 9 -7 11 3c3 18 92 297 154 420c63 123 171 272 344 272c90 0 135 -54 135 -110z" />
    <glyph glyph-name="X.swsh" horiz-adv-x="1144" 
d="M1157 13v-13h-502v13c56 0 111 70 71 135l-92 147l-75 -95c-78 -98 -46 -187 30 -187v-13h-297v13c53 0 161 103 224 178l105 125l-195 310c-35 57 -70 118 -144 118c-107 0 -185 -76 -185 -212c0 -116 58 -164 101 -164c32 0 40 12 40 28c0 8 -9 14 -20 23
c-16 13 -37 33 -37 75c0 51 44 88 94 88s100 -39 100 -100s-45 -134 -167 -134c-123 0 -196 86 -196 200c0 128 114 217 280 217c76 0 158 -5 183 -5h289v-12c-55 0 -89 -64 -61 -112l77 -129l69 86c73 91 22 155 -27 155v12h266v-12c-52 0 -141 -70 -190 -129l-107 -131
l238 -377c24 -38 102 -98 128 -98z" />
    <glyph glyph-name="Y.swsh" horiz-adv-x="1071" 
d="M1089 760v-14c-59 0 -159 -127 -199 -202l-95 -179v-244c0 -74 70 -108 103 -108v-13h-456v13c42 0 114 34 114 108v231l-134 274c-29 60 -71 118 -145 118c-107 0 -185 -76 -185 -212c0 -116 58 -164 101 -164c32 0 40 12 40 28c0 8 -9 14 -20 23c-16 13 -37 33 -37 75
c0 50 44 88 94 88s100 -39 100 -100s-48 -134 -167 -134c-122 0 -196 86 -196 200c0 128 114 217 280 217c76 0 158 -6 183 -6l263 1v-14c-31 0 -61 -36 -61 -78c0 -15 3 -30 10 -45l105 -213l65 121c15 28 20 57 20 85c0 69 -42 130 -81 130v14h298z" />
    <glyph glyph-name="Y2.swsh" horiz-adv-x="918" 
d="M1261 852c0 -51 -35 -92 -83 -92c-49 0 -49 31 -88 31c-57 0 -123 -92 -171 -182c-46 -89 -102 -216 -109 -245v-243c0 -75 77 -107 111 -107v-14h-453v14c28 0 115 32 115 107v226l-144 279c-30 60 -71 118 -145 118c-107 0 -185 -76 -185 -212c0 -116 58 -164 101 -164
c32 0 40 12 40 28c0 8 -9 14 -20 23c-16 13 -37 33 -37 75c0 50 44 88 94 88s100 -39 100 -100s-44 -134 -167 -134c-122 0 -196 86 -196 200c0 128 114 217 280 217c76 0 158 -5 183 -5h262v-14c-42 0 -82 -58 -51 -123c0 0 21 -48 94 -196c4 -8 5 -12 10 5
c4 16 93 261 168 367c73 102 127 143 186 143c65 0 105 -39 105 -90z" />
    <glyph glyph-name="Z.swsh" horiz-adv-x="593" 
d="M300 51c328 0 336 -337 577 -337c49 0 79 20 79 48c0 4 0 6 -4 6c-20 0 -32 -18 -72 -18c-38 0 -97 35 -97 99c0 56 46 102 107 102c70 0 111 -66 111 -129c0 -86 -64 -186 -237 -186c-320 0 -397 366 -705 366c-15 0 -31 -2 -47 -2c-11 0 -17 8 -17 18c0 4 1 8 3 12
l326 649c5 10 8 21 8 29c0 21 -14 35 -35 35c-120 0 -252 -218 -278 -295c-1 -2 -3 -3 -5 -3c-4 0 -7 3 -7 11l26 289c1 13 5 14 14 14h548c9 0 16 -3 16 -9c0 -3 -1 -6 -3 -9l-330 -663c-2 -4 -3 -8 -3 -11c0 -10 8 -16 25 -16z" />
    <glyph glyph-name="a.swsh" horiz-adv-x="536" 
d="M739 -155c0 -77 -76 -128 -192 -128c-89 0 -164 39 -209 120c-29 52 -46 123 -46 212c-20 -21 -63 -60 -133 -60c-85 0 -132 49 -132 111c0 73 68 103 115 119c33 11 71 18 103 31c18 7 34 16 47 28v107c0 39 -24 71 -56 71c-31 0 -48 -14 -48 -24c0 -12 11 -18 23 -26
c12 -10 25 -22 25 -48c0 -55 -55 -108 -112 -108c-43 0 -72 25 -72 69c0 69 112 174 302 174c71 0 134 -42 134 -124v-509c0 -93 32 -121 62 -121c28 0 39 17 39 26c0 11 -8 18 -17 27c-13 11 -27 30 -27 56c0 54 40 91 96 91c55 0 98 -37 98 -94zM291 87l1 151s-10 3 -15 3
c-24 0 -59 -41 -59 -95c0 -55 24 -85 45 -85c18 0 28 26 28 26z" />
    <glyph glyph-name="f.swsh" horiz-adv-x="384" 
d="M619 700c0 -87 -73 -143 -148 -143c-76 0 -128 50 -128 108c0 63 46 112 104 112c66 0 90 -39 101 -64c7 -16 9 -22 15 -22c5 0 16 7 16 36c0 52 -52 108 -127 108c-101 0 -171 -87 -171 -271v-79h119c8 0 12 -7 8 -15l-16 -32c-5 -9 -15 -15 -23 -15h-88v-411
c0 -269 -143 -383 -336 -383c-125 0 -201 69 -201 157c0 84 75 143 149 143s123 -47 123 -114c0 -61 -58 -103 -108 -103s-90 33 -96 68c-4 25 -29 21 -29 -10c0 -67 56 -120 127 -120c111 0 169 89 169 263v510h-75c-8 0 -12 6 -8 15l16 32c4 8 14 15 23 15h44v56
c0 177 139 316 333 316c146 0 207 -76 207 -157z" />
    <glyph glyph-name="ff.swsh" horiz-adv-x="801" 
d="M335 -371c-68 0 -122 26 -156 63c-57 -43 -129 -63 -209 -63c-125 0 -201 69 -201 157c0 84 75 143 149 143s123 -47 123 -114c0 -61 -58 -103 -108 -103s-90 33 -96 68c-4 25 -29 21 -29 -10c0 -67 56 -120 127 -120c111 0 168 89 168 263v507h-70c-5 0 -10 6 -8 10
l29 48c5 8 9 9 16 9h33v80c0 156 98 227 246 227c95 0 149 -32 172 -71c43 48 111 71 195 71c132 0 186 -61 186 -118c0 -64 -47 -97 -96 -97c-46 0 -84 36 -84 82c0 63 46 75 46 93c0 9 -11 16 -25 16c-16 0 -69 -18 -69 -79v-204h107c11 0 13 -4 10 -9l-27 -46
c-4 -6 -12 -12 -19 -12h-71l2 -408c1 -269 -148 -383 -341 -383zM469 -87l1 507h-163v-408c0 -144 -42 -244 -110 -305c27 -32 72 -52 118 -52c111 0 154 84 154 258zM470 487v130c0 116 -22 153 -82 153c-40 0 -81 -40 -81 -137v-146h163z" />
    <glyph glyph-name="fi.swsh" horiz-adv-x="754" 
d="M730 12v-12h-305v12c13 1 58 24 58 73v252c0 62 -39 72 -55 72v11l232 74c13 4 25 5 25 -16v-395c0 -54 31 -70 45 -71zM700 665c0 -86 -73 -143 -148 -143c-76 0 -128 51 -128 108c0 64 46 112 104 112c66 0 90 -39 101 -64c7 -15 10 -21 15 -21s16 7 16 36
c0 72 -77 137 -170 137c-118 0 -209 -82 -209 -266v-79h119c8 0 12 -7 8 -15l-16 -32c-5 -9 -15 -15 -23 -15h-88v-411c0 -269 -143 -383 -336 -383c-125 0 -201 69 -201 157c0 84 75 143 149 143s123 -47 123 -114c0 -61 -58 -103 -108 -103s-90 33 -96 68
c-4 25 -29 21 -29 -10c0 -67 56 -120 127 -120c111 0 169 89 169 263v510h-75c-8 0 -12 6 -8 15l16 32c4 8 14 15 23 15h44v56c0 205 200 318 370 318c133 0 251 -64 251 -194z" />
    <glyph glyph-name="fl.swsh" horiz-adv-x="723" 
d="M711 12v-12h-303v12c13 1 57 24 57 73v479c-50 15 -82 56 -82 101c0 63 46 112 104 112c66 0 90 -39 101 -64c7 -16 10 -22 15 -22s16 7 16 36c0 60 -75 108 -150 108c-101 0 -188 -87 -188 -271v-79h119c8 0 12 -7 8 -15l-16 -32c-5 -9 -15 -15 -23 -15h-88v-411
c0 -269 -143 -383 -336 -383c-125 0 -201 69 -201 157c0 84 75 143 149 143s123 -47 123 -114c0 -61 -58 -103 -108 -103s-90 33 -96 68c-4 25 -29 21 -29 -10c0 -67 56 -120 127 -120c111 0 169 89 169 263v510h-75c-8 0 -12 6 -8 15l16 32c4 8 14 15 23 15h44v56
c0 177 148 321 357 321c121 0 225 -49 225 -188v-591c0 -54 31 -71 50 -71z" />
    <glyph glyph-name="ffi.swsh" horiz-adv-x="1092" 
d="M274 420v-408c0 -144 -42 -244 -110 -305c27 -32 72 -52 118 -52c111 0 155 84 155 258v507h-163zM1067 12v-12h-304v12c13 1 57 24 57 73v252c0 62 -39 72 -55 72v11l232 74c13 4 25 5 25 -16v-395c0 -54 31 -70 45 -71zM437 487l1 145c2 99 -28 137 -82 137
s-82 -40 -82 -137v-145h163zM73 -87v507h-71c-5 0 -10 6 -8 10l29 48c5 8 9 9 16 9h34v80c0 156 97 227 245 227c93 0 151 -33 176 -93c61 66 164 96 262 96c137 0 268 -65 268 -176c0 -61 -50 -112 -112 -112s-112 50 -112 112c0 38 19 71 47 92c-3 14 -29 59 -95 59
c-72 0 -111 -52 -111 -113v-172h107c11 0 13 -4 10 -9l-27 -46c-4 -6 -12 -12 -19 -12h-71v-380c0 -296 -146 -411 -339 -411c-68 0 -122 26 -156 63c-57 -43 -129 -63 -209 -63c-125 0 -201 69 -201 157c0 84 75 143 149 143s123 -47 123 -114c0 -61 -58 -103 -108 -103
s-90 33 -96 68c-4 25 -29 21 -29 -10c0 -67 56 -120 127 -120c111 0 171 89 171 263z" />
    <glyph glyph-name="ffl.swsh" horiz-adv-x="1093" 
d="M272 420v-408c0 -144 -40 -244 -108 -305c27 -32 72 -52 118 -52c111 0 167 84 167 258v507h-177zM449 583c0 19 3 37 6 53c-9 65 -35 123 -93 123c-35 0 -90 -23 -90 -151v-121h177v96zM68 -87v507h-70c-5 0 -10 6 -8 10l29 48c5 8 9 9 16 9h33v80c0 156 98 227 246 227
c106 0 150 -54 171 -91l-1 -4c41 64 116 95 213 95c84 0 136 -25 163 -57l146 47c13 4 25 5 25 -16v-685c0 -54 31 -71 50 -71v-12h-303v12c13 1 57 24 57 73v515c0 85 -30 159 -90 159c-35 0 -90 -23 -90 -151v-121h107c11 0 13 -4 10 -9l-27 -46c-4 -6 -12 -12 -19 -12
h-71v-380c0 -296 -160 -411 -353 -411c-68 0 -122 26 -156 63c-57 -43 -129 -63 -209 -63c-125 0 -201 69 -201 157c0 84 75 143 149 143s123 -47 123 -114c0 -61 -58 -103 -108 -103s-90 33 -96 68c-4 25 -29 21 -29 -10c0 -67 56 -120 127 -120c111 0 166 89 166 263z" />
    <glyph glyph-name="h.swsh" horiz-adv-x="653" 
d="M857 -155c0 -77 -76 -128 -192 -128c-146 0 -255 101 -255 267v359c0 39 -24 66 -62 66c-32 0 -57 -28 -68 -45c1 -105 0 -281 0 -281c0 -54 32 -70 46 -71v-12h-305v12c13 1 58 24 58 73v544c0 63 -40 72 -55 72v11l231 74c14 4 25 5 25 -16v-367c36 39 91 90 175 90
c87 0 151 -49 151 -152v-481c0 -93 33 -121 62 -121c28 0 39 17 39 26c0 11 -8 18 -17 27c-12 11 -27 30 -27 56c0 54 41 91 96 91s98 -37 98 -94z" />
    <glyph glyph-name="k.swsh" horiz-adv-x="607" 
d="M1041 -210c0 -83 -91 -147 -221 -147c-141 0 -284 67 -356 210l-183 363l-10 -9v-124c0 -54 31 -71 51 -71v-12h-304v12c13 1 58 24 58 73v542c0 63 -40 72 -55 72v11l225 74c14 4 25 5 25 -16v-514l109 106c44 43 3 115 -36 115v10h257v-10c-39 0 -142 -54 -175 -92
l-13 -14l229 -454c45 -91 151 -240 233 -240c30 0 41 10 41 24c0 26 -65 22 -65 97c0 47 42 93 91 93c59 0 99 -46 99 -99z" />
    <glyph glyph-name="k2.swsh" horiz-adv-x="607" 
d="M1041 -210c0 -108 -133 -147 -221 -147c-149 0 -288 74 -356 210l-185 370l-8 -16v-124c0 -30 14 -71 51 -71v-12h-304v12c32 3 58 43 58 73v542c0 35 -16 72 -55 72v11c27 9 225 76 238 76c11 0 12 -9 12 -18v-513c40 80 143 230 201 298c54 62 150 158 238 158
c70 0 117 -40 117 -101c0 -56 -38 -95 -88 -95c-59 0 -60 53 -112 53c-90 0 -191 -117 -226 -173l241 -480c35 -71 144 -240 233 -240c15 0 41 3 41 24c0 26 -65 23 -65 97c0 48 43 93 91 93c56 0 99 -43 99 -99z" />
    <glyph glyph-name="ki.dlig" horiz-adv-x="890" 
d="M1041 -210c0 -108 -133 -147 -221 -147c-149 0 -288 74 -356 210l-185 370l-8 -16v-124c0 -30 14 -71 51 -71v-12h-304v12c32 3 58 43 58 73v542c0 35 -16 72 -55 72v11c27 9 225 76 238 76c11 0 12 -9 12 -18v-513c40 80 143 230 201 298c54 62 150 158 238 158
c70 0 117 -40 117 -101c0 -56 -38 -95 -88 -95c-59 0 -60 53 -112 53c-90 0 -191 -117 -226 -173l186 -371c16 11 32 31 32 61v252c0 62 -39 72 -55 72v11l232 74c13 4 25 5 25 -16v-395c0 -54 31 -70 45 -71v-12h-267l43 -85c35 -71 144 -240 233 -240c15 0 41 3 41 24
c0 26 -65 23 -65 97c0 48 43 93 91 93c56 0 99 -43 99 -99z" />
    <glyph glyph-name="m.swsh" horiz-adv-x="961" 
d="M1165 -155c0 -77 -76 -128 -192 -128c-146 0 -255 99 -255 265v361c0 39 -25 66 -63 66c-34 0 -57 -31 -57 -68v-264c0 -48 26 -65 51 -65v-12h-292v12c15 0 45 22 45 64v267c0 39 -24 66 -62 66c-32 0 -49 -28 -60 -45c1 -105 0 -281 0 -281c0 -54 32 -70 46 -71v-12
h-305v12c13 1 58 24 58 73v251c0 62 -40 72 -55 72v11l231 74c14 4 25 5 25 -16v-74c19 26 79 90 167 90c67 0 120 -29 141 -89c25 31 81 89 172 89c89 0 154 -49 154 -152v-481c0 -93 32 -121 62 -121c28 0 39 17 39 26c0 11 -8 18 -17 27c-13 11 -27 30 -27 56
c0 54 40 91 96 91c55 0 98 -37 98 -94z" />
    <glyph glyph-name="n.swsh" horiz-adv-x="653" 
d="M857 -155c0 -77 -76 -128 -192 -128c-146 0 -255 100 -255 266v360c0 39 -24 66 -62 66c-32 0 -57 -28 -68 -45c1 -105 0 -281 0 -281c0 -54 32 -70 46 -71v-12h-305v12c13 1 58 24 58 73v250c0 62 -40 72 -55 72v11l231 74c14 4 25 5 25 -16v-73c36 39 91 90 175 90
c87 0 151 -49 151 -152v-481c0 -93 33 -121 62 -121c28 0 39 17 39 26c0 11 -8 18 -17 27c-12 11 -27 30 -27 56c0 54 41 91 96 91s98 -37 98 -94z" />
    <glyph glyph-name="p.swsh" horiz-adv-x="625" 
d="M601 277c0 -172 -111 -288 -230 -288c-38 0 -77 10 -109 30v-8c0 -269 -144 -382 -338 -382c-124 0 -201 69 -201 157c0 84 75 143 149 143s124 -47 124 -114c0 -61 -58 -103 -108 -103c-51 0 -90 33 -96 68c-5 25 -29 21 -29 -10c0 -67 56 -120 126 -120
c111 0 177 90 177 264v420c0 63 -37 79 -57 79v11l228 67c13 4 25 5 25 -16v-55c39 45 90 75 151 75c89 0 188 -65 188 -218zM395 227c0 153 -42 188 -77 188c-21 0 -41 -15 -56 -45v-304c18 -32 42 -45 65 -45c46 0 68 52 68 206z" />
    <glyph glyph-name="r.swsh" horiz-adv-x="389" 
d="M704 644c0 -65 -40 -110 -98 -110c-27 0 -42 9 -55 17c-15 9 -27 19 -52 19c-55 0 -117 -56 -161 -139c-34 -65 -57 -146 -57 -231v-112c0 -47 30 -75 50 -75v-13h-305v13c17 0 56 28 56 75v254c0 58 -42 72 -55 72v13l244 68c9 3 16 4 16 -7v-56l7 -2
c14 24 62 116 125 195c52 65 114 120 175 120c73 0 110 -47 110 -101z" />
    <glyph glyph-name="ri.dlig" horiz-adv-x="745" 
d="M721 12v-12h-305v12c13 1 58 24 58 73v252c0 62 -39 72 -55 72v11l231 74c14 4 26 5 26 -16v-395c0 -54 31 -70 45 -71zM708 644c0 -65 -40 -110 -98 -110c-27 0 -42 9 -55 17c-15 9 -27 19 -52 19c-55 0 -117 -56 -161 -139c-34 -65 -57 -146 -57 -231v-112
c0 -47 30 -75 50 -75v-13h-305v13c17 0 56 28 56 75v254c0 58 -42 72 -55 72v13l244 68c9 3 16 4 16 -7v-56l7 -2c14 24 62 116 125 195c52 65 114 120 175 120c73 0 110 -47 110 -101z" />
    <glyph glyph-name="s.swsh" horiz-adv-x="545" 
d="M522 43c0 -184 -151 -273 -299 -273c-149 0 -249 81 -249 173s85 144 176 144c114 0 177 -63 177 -131s-52 -104 -105 -104c-52 0 -96 37 -96 93c0 30 12 48 25 61c15 14 31 22 31 35c0 16 -10 26 -33 26c-49 0 -102 -52 -102 -125c0 -92 70 -154 170 -154
c99 0 189 68 189 174c0 100 -85 128 -174 158c-95 31 -193 65 -193 189c0 118 103 187 207 187c50 0 96 -14 132 -14s59 11 64 11s6 -3 6 -9v-180c0 -11 -8 -14 -17 9c-5 13 -27 61 -59 102c-27 34 -60 64 -97 64c-45 0 -76 -34 -76 -75c0 -78 84 -92 167 -127
c79 -33 156 -86 156 -234z" />
    <glyph glyph-name="u.swsh" horiz-adv-x="642" 
d="M846 -155c0 -77 -76 -128 -192 -128c-146 0 -260 100 -260 266v98c-27 -32 -82 -89 -174 -89c-87 0 -152 48 -152 152v263c0 49 -26 66 -50 66v12h246v-343c0 -39 25 -66 63 -66c32 0 57 28 67 45v281c0 54 -31 70 -45 71v12h247v-624c0 -93 31 -122 61 -122
c28 0 39 17 39 26c0 11 -8 18 -17 27c-13 11 -27 30 -27 56c0 54 40 91 96 91c55 0 98 -37 98 -94z" />
    <glyph glyph-name="v.swsh" horiz-adv-x="512" 
d="M829 631c0 -50 -38 -92 -82 -92c-49 0 -54 33 -93 33c-44 0 -127 -73 -198 -216c-54 -107 -129 -292 -143 -356h-104l-154 376c-25 62 -62 99 -96 99v10h401v-10c-53 0 -97 -49 -80 -101l58 -179c1 -4 7 -5 10 -1c3 10 75 213 144 332c68 118 142 203 225 203
c73 0 112 -48 112 -98z" />
    <glyph glyph-name="vi.dlig" horiz-adv-x="876" 
d="M852 12v-12h-305v12c14 1 58 24 58 73v252c0 62 -39 72 -55 72v11l232 74c13 4 25 5 25 -16v-395c0 -54 31 -70 45 -71zM829 631c0 -50 -38 -92 -82 -92c-49 0 -54 33 -93 33c-44 0 -126 -74 -198 -216c-76 -150 -128 -299 -140 -347c-1 -6 -3 -9 -3 -9h-104l-154 376
c-25 62 -62 99 -96 99v10h401v-10c-53 0 -97 -49 -80 -101l58 -179c2 -7 8 -10 10 -1c3 10 75 213 144 332c68 118 142 203 225 203c73 0 112 -48 112 -98z" />
    <glyph glyph-name="w.swsh" horiz-adv-x="818" 
d="M1141 631c0 -50 -38 -92 -82 -92c-50 0 -54 33 -94 33c-43 0 -125 -74 -197 -216c-76 -150 -128 -299 -140 -347c-1 -6 -3 -9 -3 -9h-108l-122 299l-108 -299h-108l-158 402c-19 50 -42 70 -54 70v13h300v-13c-11 0 -43 -24 -29 -62l85 -227l55 158l-26 61
c-19 49 -50 70 -67 70v13h324v-13c-12 0 -42 -24 -29 -62l72 -216c2 -6 6 -9 8 0c2 10 75 213 143 332c69 118 142 203 225 203c74 0 113 -48 113 -98z" />
    <glyph glyph-name="wi.dlig" horiz-adv-x="1185" 
d="M1161 12v-12h-304v12c13 1 57 24 57 73v252c0 62 -39 72 -55 72v11l232 74c13 4 25 5 25 -16v-395c0 -54 31 -70 45 -71zM1141 631c0 -50 -38 -92 -82 -92c-50 0 -54 33 -94 33c-43 0 -125 -74 -197 -216c-76 -150 -128 -299 -140 -347c-1 -6 -3 -9 -3 -9h-108l-122 299
l-108 -299h-108l-158 402c-19 50 -42 70 -54 70v13h300v-13c-11 0 -43 -24 -29 -62l85 -227l55 158l-26 61c-19 49 -50 70 -67 70v13h324v-13c-12 0 -42 -24 -29 -62l72 -216c2 -6 6 -9 8 0c2 10 75 213 143 332c69 118 142 203 225 203c74 0 113 -48 113 -98z" />
    <glyph glyph-name="y.swsh" horiz-adv-x="507" 
d="M834 639c0 -50 -38 -92 -82 -92c-49 0 -54 33 -93 33c-82 0 -167 -144 -233 -291c-53 -117 -95 -237 -115 -289l-56 -149c-29 -75 -75 -121 -145 -121c-59 0 -99 42 -99 96c0 52 44 89 85 89c83 0 86 -83 101 -83c22 0 33 19 46 55l40 113h-86l-152 407
c-19 51 -47 64 -79 64v14h351v-14c-31 0 -44 -34 -32 -67l71 -202c7 25 82 229 141 332c68 118 147 203 225 203c73 0 112 -48 112 -98z" />
    <glyph glyph-name="yi.dlig" horiz-adv-x="866" 
d="M842 12v-12h-304v12c13 1 57 24 57 73v252c0 62 -39 72 -55 72v11l232 74c13 4 25 5 25 -16v-395c0 -54 31 -70 45 -71zM834 639c0 -50 -38 -92 -82 -92c-49 0 -54 33 -93 33c-82 0 -167 -144 -233 -291c-53 -117 -95 -237 -115 -289l-56 -149
c-29 -75 -75 -121 -145 -121c-59 0 -99 42 -99 96c0 52 44 89 85 89c83 0 86 -83 101 -83c22 0 33 19 46 55l40 113h-86l-152 407c-19 51 -47 64 -79 64v14h351v-14c-31 0 -44 -34 -32 -67l71 -202c7 25 82 229 141 332c68 118 147 203 225 203c73 0 112 -48 112 -98z" />
    <glyph glyph-name="Aacute.swsh" horiz-adv-x="1322" 
d="M1033 960c0 -24 -15 -42 -51 -60l-161 -80l-14 18l95 128c29 40 52 47 77 47c31 0 54 -23 54 -53zM1346 15v-15h-438v15c34 0 104 40 75 128l-47 143h-186c-17 -56 -54 -156 -93 -221c-70 -116 -176 -194 -345 -194c-196 0 -300 129 -300 264c0 134 101 268 293 268
c147 0 222 -99 222 -183c0 -73 -53 -117 -112 -117c-60 0 -104 40 -104 100c0 43 25 72 45 84c29 18 64 20 64 38c0 34 -53 55 -113 55c-118 0 -229 -102 -229 -237c0 -152 103 -242 213 -242c156 0 259 120 345 281c84 159 179 403 179 492c0 57 -99 72 -214 72
c-102 0 -160 -63 -160 -139c0 -91 60 -145 114 -145c21 0 27 4 27 13c0 8 -13 16 -28 28c-14 11 -33 34 -33 66c0 55 53 94 98 94s103 -27 103 -97c0 -69 -52 -127 -154 -127s-201 68 -201 170s108 167 208 167c107 0 209 -17 257 -17h174c7 0 11 -1 14 -10l218 -615
c24 -69 77 -119 108 -119zM759 318h166l-87 264c-2 5 -7 -3 -7 -3c-1 -5 -32 -133 -72 -261z" />
    <glyph glyph-name="Agrave.swsh" horiz-adv-x="1322" 
d="M885 970l96 -128l-14 -18l-161 80c-36 17 -51 35 -51 59c0 31 23 54 54 54c25 0 47 -8 76 -47zM1346 15v-15h-438v15c34 0 104 40 75 128l-47 143h-186c-17 -56 -54 -156 -93 -221c-70 -116 -176 -194 -345 -194c-196 0 -300 129 -300 264c0 134 101 268 293 268
c147 0 222 -99 222 -183c0 -73 -53 -117 -112 -117c-60 0 -104 40 -104 100c0 43 25 72 45 84c29 18 64 20 64 38c0 34 -53 55 -113 55c-118 0 -229 -102 -229 -237c0 -152 103 -242 213 -242c156 0 259 120 345 281c84 159 179 403 179 492c0 57 -99 72 -214 72
c-102 0 -160 -63 -160 -139c0 -91 60 -145 114 -145c21 0 27 4 27 13c0 8 -13 16 -28 28c-14 11 -33 34 -33 66c0 55 53 94 98 94s103 -27 103 -97c0 -69 -52 -127 -154 -127s-201 68 -201 170s108 167 208 167c107 0 209 -17 257 -17h174c7 0 11 -1 14 -10l218 -615
c24 -69 77 -119 108 -119zM759 318h166l-87 264c-2 5 -7 -3 -7 -3c-1 -5 -32 -133 -72 -261z" />
    <glyph glyph-name="Acircumflex.swsh" horiz-adv-x="1322" 
d="M1074 795l-159 95l-158 -95l143 193c3 4 8 6 13 6s11 -2 14 -6zM1346 15v-15h-438v15c34 0 104 40 75 128l-47 143h-186c-17 -56 -54 -156 -93 -221c-70 -116 -176 -194 -345 -194c-196 0 -300 129 -300 264c0 134 101 268 293 268c147 0 222 -99 222 -183
c0 -73 -53 -117 -112 -117c-60 0 -104 40 -104 100c0 43 25 72 45 84c29 18 64 20 64 38c0 34 -53 55 -113 55c-118 0 -229 -102 -229 -237c0 -152 103 -242 213 -242c156 0 259 120 345 281c84 159 179 403 179 492c0 57 -99 72 -214 72c-102 0 -160 -63 -160 -139
c0 -91 60 -145 114 -145c21 0 27 4 27 13c0 8 -13 16 -28 28c-14 11 -33 34 -33 66c0 55 53 94 98 94s103 -27 103 -97c0 -69 -52 -127 -154 -127s-201 68 -201 170s108 167 208 167c107 0 209 -17 257 -17h174c7 0 11 -1 14 -10l218 -615c24 -69 77 -119 108 -119zM759 318
h166l-87 264c-2 5 -7 -3 -7 -3c-1 -5 -32 -133 -72 -261z" />
    <glyph glyph-name="Adieresis.swsh" horiz-adv-x="1322" 
d="M1054 934c0 -33 -24 -60 -57 -60c-35 0 -62 25 -62 60c0 32 30 59 60 59c33 0 59 -27 59 -59zM863 934c0 -33 -24 -60 -57 -60c-35 0 -62 25 -62 60c0 32 29 59 60 59c33 0 59 -27 59 -59zM1346 15v-15h-438v15c34 0 104 40 75 128l-47 143h-186
c-17 -56 -54 -156 -93 -221c-70 -116 -176 -194 -345 -194c-196 0 -300 129 -300 264c0 134 101 268 293 268c147 0 222 -99 222 -183c0 -73 -53 -117 -112 -117c-60 0 -104 40 -104 100c0 43 25 72 45 84c29 18 64 20 64 38c0 34 -53 55 -113 55
c-118 0 -229 -102 -229 -237c0 -152 103 -242 213 -242c156 0 259 120 345 281c84 159 179 403 179 492c0 57 -99 72 -214 72c-102 0 -160 -63 -160 -139c0 -91 60 -145 114 -145c21 0 27 4 27 13c0 8 -13 16 -28 28c-14 11 -33 34 -33 66c0 55 53 94 98 94s103 -27 103 -97
c0 -69 -52 -127 -154 -127s-201 68 -201 170s108 167 208 167c107 0 209 -17 257 -17h174c7 0 11 -1 14 -10l218 -615c24 -69 77 -119 108 -119zM759 318h166l-87 264c-2 5 -7 -3 -7 -3c-1 -5 -32 -133 -72 -261z" />
    <glyph glyph-name="Atilde.swsh" horiz-adv-x="1322" 
d="M1026 989l19 -4c-14 -52 -35 -114 -96 -114c-53 0 -93 51 -145 51c-21 0 -34 -18 -43 -37l-22 4c13 45 36 113 99 113c54 0 93 -50 144 -50c22 0 32 17 44 37zM1346 15v-15h-438v15c34 0 104 40 75 128l-47 143h-186c-17 -56 -54 -156 -93 -221
c-70 -116 -176 -194 -345 -194c-196 0 -300 129 -300 264c0 134 101 268 293 268c147 0 222 -99 222 -183c0 -73 -53 -117 -112 -117c-60 0 -104 40 -104 100c0 43 25 72 45 84c29 18 64 20 64 38c0 34 -53 55 -113 55c-118 0 -229 -102 -229 -237c0 -152 103 -242 213 -242
c156 0 259 120 345 281c84 159 179 403 179 492c0 57 -99 72 -214 72c-102 0 -160 -63 -160 -139c0 -91 60 -145 114 -145c21 0 27 4 27 13c0 8 -13 16 -28 28c-14 11 -33 34 -33 66c0 55 53 94 98 94s103 -27 103 -97c0 -69 -52 -127 -154 -127s-201 68 -201 170
s108 167 208 167c107 0 209 -17 257 -17h174c7 0 11 -1 14 -10l218 -615c24 -69 77 -119 108 -119zM759 318h166l-87 264c-2 5 -7 -3 -7 -3c-1 -5 -32 -133 -72 -261z" />
    <glyph glyph-name="Aring.swsh" horiz-adv-x="1322" 
d="M1017 972c0 -64 -53 -117 -116 -117c-68 0 -118 51 -118 119c0 62 54 115 117 115c64 0 117 -52 117 -117zM961 972c0 33 -28 62 -62 62c-33 0 -61 -29 -61 -61c0 -36 26 -63 62 -63c34 0 61 28 61 62zM1346 15v-15h-438v15c34 0 104 40 75 128l-47 143h-186
c-17 -56 -54 -156 -93 -221c-70 -116 -176 -194 -345 -194c-196 0 -300 129 -300 264c0 134 101 268 293 268c147 0 222 -99 222 -183c0 -73 -53 -117 -112 -117c-60 0 -104 40 -104 100c0 43 25 72 45 84c29 18 64 20 64 38c0 34 -53 55 -113 55
c-118 0 -229 -102 -229 -237c0 -152 103 -242 213 -242c156 0 259 120 345 281c84 159 179 403 179 492c0 57 -99 72 -214 72c-102 0 -160 -63 -160 -139c0 -91 60 -145 114 -145c21 0 27 4 27 13c0 8 -13 16 -28 28c-14 11 -33 34 -33 66c0 55 53 94 98 94s103 -27 103 -97
c0 -69 -52 -127 -154 -127s-201 68 -201 170s108 167 208 167c107 0 209 -17 257 -17h174c7 0 11 -1 14 -10l218 -615c24 -69 77 -119 108 -119zM759 318h166l-87 264c-2 5 -7 -3 -7 -3c-1 -5 -32 -133 -72 -261z" />
    <glyph glyph-name="Aogonek.swsh" horiz-adv-x="1322" 
d="M1091 -142l17 -10c-28 -60 -66 -88 -117 -88c-52 0 -83 29 -83 76c0 57 42 108 132 164h-132v15c34 0 104 40 75 128l-47 143h-186c-17 -56 -54 -156 -93 -221c-70 -116 -176 -194 -345 -194c-196 0 -300 129 -300 264c0 134 101 268 293 268c147 0 222 -99 222 -183
c0 -73 -53 -117 -112 -117c-60 0 -104 40 -104 100c0 43 25 72 45 84c29 18 64 20 64 38c0 34 -53 55 -113 55c-118 0 -229 -102 -229 -237c0 -152 103 -242 213 -242c156 0 259 120 345 281c84 159 179 403 179 492c0 57 -99 72 -214 72c-102 0 -160 -63 -160 -139
c0 -91 60 -145 114 -145c21 0 27 4 27 13c0 8 -13 16 -28 28c-14 11 -33 34 -33 66c0 55 53 94 98 94s103 -27 103 -97c0 -69 -52 -127 -154 -127s-201 68 -201 170s108 167 208 167c107 0 209 -17 257 -17h174c7 0 11 -1 14 -10l218 -615c24 -69 77 -119 108 -119v-15h-275
c-23 -20 -30 -27 -40 -37c-22 -24 -36 -59 -36 -88c0 -32 15 -51 43 -51c22 0 32 7 53 34zM759 318h166l-87 264c-2 5 -7 -3 -7 -3c-1 -5 -32 -133 -72 -261z" />
    <glyph glyph-name="Abreve.swsh" horiz-adv-x="1322" 
d="M1015 1000h46c-17 -91 -59 -151 -161 -151c-101 0 -142 61 -160 151h46c21 -54 61 -60 115 -60c51 0 97 6 114 60zM1346 15v-15h-438v15c34 0 104 40 75 128l-47 143h-186c-17 -56 -54 -156 -93 -221c-70 -116 -176 -194 -345 -194c-196 0 -300 129 -300 264
c0 134 101 268 293 268c147 0 222 -99 222 -183c0 -73 -53 -117 -112 -117c-60 0 -104 40 -104 100c0 43 25 72 45 84c29 18 64 20 64 38c0 34 -53 55 -113 55c-118 0 -229 -102 -229 -237c0 -152 103 -242 213 -242c156 0 259 120 345 281c84 159 179 403 179 492
c0 57 -99 72 -214 72c-102 0 -160 -63 -160 -139c0 -91 60 -145 114 -145c21 0 27 4 27 13c0 8 -13 16 -28 28c-14 11 -33 34 -33 66c0 55 53 94 98 94s103 -27 103 -97c0 -69 -52 -127 -154 -127s-201 68 -201 170s108 167 208 167c107 0 209 -17 257 -17h174
c7 0 11 -1 14 -10l218 -615c24 -69 77 -119 108 -119zM759 318h166l-87 264c-2 5 -7 -3 -7 -3c-1 -5 -32 -133 -72 -261z" />
    <glyph glyph-name="AE.swsh" horiz-adv-x="1571" 
d="M1535 341l-36 -325c-1 -12 -22 -16 -22 -16h-675v13c33 0 117 36 117 127v161h-198c-32 -104 -62 -210 -105 -293c-91 -181 -242 -331 -422 -331c-121 0 -192 78 -192 160c0 67 53 106 106 106s107 -38 107 -101c0 -57 -41 -92 -96 -92c-8 0 -19 6 -26 6
c-3 0 -5 -2 -5 -6c0 -12 34 -48 93 -48c149 0 275 146 375 361c77 166 171 461 263 570c75 88 138 127 222 127h442c8 0 17 -7 18 -14l15 -295c1 -14 -11 -24 -19 0c-13 37 -54 112 -106 175c-49 59 -108 108 -161 108c-39 0 -72 -26 -72 -83v-238h23c105 0 159 117 159 159
l12 -1v-353h-16c0 42 -50 168 -155 168h-23v-282c0 -38 20 -75 60 -75c69 0 135 58 188 124c59 75 102 160 112 185c8 17 19 21 17 3zM949 703l-6 3c-9 -4 -82 -63 -126 -146c-32 -61 -58 -136 -82 -213h184v265c0 45 22 84 30 91z" />
    <glyph glyph-name="A2acute.swsh" horiz-adv-x="976" 
d="M698 960c0 -24 -15 -42 -51 -60l-161 -80l-14 18l95 128c29 40 52 47 77 47c31 0 54 -23 54 -53zM993 15v-15h-439v15c27 0 82 28 82 89c0 11 -2 24 -7 39l-47 144h-213l-27 -79c-7 -20 -13 -49 -13 -70c0 -82 59 -126 89 -126v-12h-244v12c23 0 80 41 112 132l167 473
c4 13 7 25 7 36c0 55 -53 94 -166 94c-130 0 -212 -72 -212 -193c0 -117 58 -165 102 -165c32 0 40 12 40 28c0 20 -58 28 -58 98c0 51 45 89 95 89s100 -39 100 -101c0 -61 -42 -134 -167 -134c-127 0 -197 86 -197 201c0 128 114 200 281 200c76 0 156 -10 223 -10h151
c7 0 11 0 14 -9l218 -616c25 -70 76 -120 109 -120zM381 319h190l-88 264c0 1 -1 2 -2 2c-2 0 -5 -4 -5 -4z" />
    <glyph glyph-name="A2grave.swsh" horiz-adv-x="976" 
d="M533 970l96 -128l-14 -18l-161 80c-36 17 -51 35 -51 59c0 31 23 54 54 54c25 0 47 -8 76 -47zM993 15v-15h-439v15c27 0 82 28 82 89c0 11 -2 24 -7 39l-47 144h-213l-27 -79c-7 -20 -13 -49 -13 -70c0 -82 59 -126 89 -126v-12h-244v12c23 0 80 41 112 132l167 473
c4 13 7 25 7 36c0 55 -53 94 -166 94c-130 0 -212 -72 -212 -193c0 -117 58 -165 102 -165c32 0 40 12 40 28c0 20 -58 28 -58 98c0 51 45 89 95 89s100 -39 100 -101c0 -61 -42 -134 -167 -134c-127 0 -197 86 -197 201c0 128 114 200 281 200c76 0 156 -10 223 -10h151
c7 0 11 0 14 -9l218 -616c25 -70 76 -120 109 -120zM381 319h190l-88 264c0 1 -1 2 -2 2c-2 0 -5 -4 -5 -4z" />
    <glyph glyph-name="A2circumflex.swsh" horiz-adv-x="976" 
d="M710 796l-159 95l-158 -95l143 193c3 4 8 6 13 6s11 -2 14 -6zM993 15v-15h-439v15c27 0 82 28 82 89c0 11 -2 24 -7 39l-47 144h-213l-27 -79c-7 -20 -13 -49 -13 -70c0 -82 59 -126 89 -126v-12h-244v12c23 0 80 41 112 132l167 473c4 13 7 25 7 36
c0 55 -53 94 -166 94c-130 0 -212 -72 -212 -193c0 -117 58 -165 102 -165c32 0 40 12 40 28c0 20 -58 28 -58 98c0 51 45 89 95 89s100 -39 100 -101c0 -61 -42 -134 -167 -134c-127 0 -197 86 -197 201c0 128 114 200 281 200c76 0 156 -10 223 -10h151c7 0 11 0 14 -9
l218 -616c25 -70 76 -120 109 -120zM381 319h190l-88 264c0 1 -1 2 -2 2c-2 0 -5 -4 -5 -4z" />
    <glyph glyph-name="A2dieresis.swsh" horiz-adv-x="976" 
d="M705 934c0 -33 -24 -60 -57 -60c-35 0 -62 25 -62 60c0 32 30 59 60 59c33 0 59 -27 59 -59zM514 934c0 -33 -24 -60 -57 -60c-35 0 -62 25 -62 60c0 32 29 59 60 59c33 0 59 -27 59 -59zM993 15v-15h-439v15c27 0 82 28 82 89c0 11 -2 24 -7 39l-47 144h-213l-27 -79
c-7 -20 -13 -49 -13 -70c0 -82 59 -126 89 -126v-12h-244v12c23 0 80 41 112 132l167 473c4 13 7 25 7 36c0 55 -53 94 -166 94c-130 0 -212 -72 -212 -193c0 -117 58 -165 102 -165c32 0 40 12 40 28c0 20 -58 28 -58 98c0 51 45 89 95 89s100 -39 100 -101
c0 -61 -42 -134 -167 -134c-127 0 -197 86 -197 201c0 128 114 200 281 200c76 0 156 -10 223 -10h151c7 0 11 0 14 -9l218 -616c25 -70 76 -120 109 -120zM381 319h190l-88 264c0 1 -1 2 -2 2c-2 0 -5 -4 -5 -4z" />
    <glyph glyph-name="At2ilde.swsh" horiz-adv-x="976" 
d="M677 989l19 -4c-14 -52 -35 -114 -96 -114c-53 0 -93 51 -145 51c-21 0 -34 -18 -43 -37l-22 4c13 45 36 113 99 113c54 0 93 -50 144 -50c22 0 32 17 44 37zM993 15v-15h-439v15c27 0 82 28 82 89c0 11 -2 24 -7 39l-47 144h-213l-27 -79c-7 -20 -13 -49 -13 -70
c0 -82 59 -126 89 -126v-12h-244v12c23 0 80 41 112 132l167 473c4 13 7 25 7 36c0 55 -53 94 -166 94c-130 0 -212 -72 -212 -193c0 -117 58 -165 102 -165c32 0 40 12 40 28c0 20 -58 28 -58 98c0 51 45 89 95 89s100 -39 100 -101c0 -61 -42 -134 -167 -134
c-127 0 -197 86 -197 201c0 128 114 200 281 200c76 0 156 -10 223 -10h151c7 0 11 0 14 -9l218 -616c25 -70 76 -120 109 -120zM381 319h190l-88 264c0 1 -1 2 -2 2c-2 0 -5 -4 -5 -4z" />
    <glyph glyph-name="A2ring.swsh" horiz-adv-x="976" 
d="M667 972c0 -64 -53 -117 -116 -117c-68 0 -118 51 -118 119c0 62 54 115 117 115c64 0 117 -52 117 -117zM611 972c0 33 -28 62 -62 62c-33 0 -61 -29 -61 -61c0 -36 26 -63 62 -63c34 0 61 28 61 62zM993 15v-15h-439v15c27 0 82 28 82 89c0 11 -2 24 -7 39l-47 144
h-213l-27 -79c-7 -20 -13 -49 -13 -70c0 -82 59 -126 89 -126v-12h-244v12c23 0 80 41 112 132l167 473c4 13 7 25 7 36c0 55 -53 94 -166 94c-130 0 -212 -72 -212 -193c0 -117 58 -165 102 -165c32 0 40 12 40 28c0 20 -58 28 -58 98c0 51 45 89 95 89s100 -39 100 -101
c0 -61 -42 -134 -167 -134c-127 0 -197 86 -197 201c0 128 114 200 281 200c76 0 156 -10 223 -10h151c7 0 11 0 14 -9l218 -616c25 -70 76 -120 109 -120zM381 319h190l-88 264c0 1 -1 2 -2 2c-2 0 -5 -4 -5 -4z" />
    <glyph glyph-name="A2ogonek.swsh" horiz-adv-x="976" 
d="M739 -142l17 -10c-28 -60 -66 -88 -117 -88c-52 0 -83 29 -83 76c0 57 42 108 132 164h-134v15c27 0 82 28 82 89c0 11 -2 24 -7 39l-47 144h-213l-27 -79c-7 -20 -13 -49 -13 -70c0 -82 59 -126 89 -126v-12h-244v12c23 0 80 41 112 132l167 473c4 13 7 25 7 36
c0 55 -53 94 -166 94c-130 0 -212 -72 -212 -193c0 -117 58 -165 102 -165c32 0 40 12 40 28c0 20 -58 28 -58 98c0 51 45 89 95 89s100 -39 100 -101c0 -61 -42 -134 -167 -134c-127 0 -197 86 -197 201c0 128 114 200 281 200c76 0 156 -10 223 -10h151c7 0 11 0 14 -9
l218 -616c25 -70 76 -120 109 -120v-15h-274c-23 -20 -30 -27 -40 -37c-22 -24 -36 -59 -36 -88c0 -32 15 -51 43 -51c22 0 32 7 53 34zM381 319h190l-88 264c0 1 -1 2 -2 2c-2 0 -5 -4 -5 -4z" />
    <glyph glyph-name="A2breve.swsh" horiz-adv-x="976" 
d="M660 1000h46c-17 -91 -59 -151 -161 -151c-101 0 -142 61 -160 151h46c21 -54 61 -60 115 -60c51 0 97 6 114 60zM993 15v-15h-439v15c27 0 82 28 82 89c0 11 -2 24 -7 39l-47 144h-213l-27 -79c-7 -20 -13 -49 -13 -70c0 -82 59 -126 89 -126v-12h-244v12
c23 0 80 41 112 132l167 473c4 13 7 25 7 36c0 55 -53 94 -166 94c-130 0 -212 -72 -212 -193c0 -117 58 -165 102 -165c32 0 40 12 40 28c0 20 -58 28 -58 98c0 51 45 89 95 89s100 -39 100 -101c0 -61 -42 -134 -167 -134c-127 0 -197 86 -197 201c0 128 114 200 281 200
c76 0 156 -10 223 -10h151c7 0 11 0 14 -9l218 -616c25 -70 76 -120 109 -120zM381 319h190l-88 264c0 1 -1 2 -2 2c-2 0 -5 -4 -5 -4z" />
    <glyph glyph-name="Aacute.salt" horiz-adv-x="1222" 
d="M1179 960c0 -24 -15 -42 -51 -60l-161 -80l-14 18l95 128c29 40 52 47 77 47c31 0 54 -23 54 -53zM1216 15v-16h-412v16c37 0 90 40 90 99v187h-198c-32 -104 -63 -210 -105 -293c-92 -181 -242 -331 -423 -331c-121 0 -191 78 -191 160c0 67 53 106 106 106
s107 -38 107 -101c0 -57 -41 -92 -96 -92c-8 0 -19 6 -26 6c-3 0 -6 -2 -6 -6c0 -12 35 -48 93 -48c150 0 276 146 376 361c77 166 170 461 262 570c76 88 138 126 223 126h115c8 0 17 -4 17 -12s-15 -25 -15 -41v-592c0 -61 56 -99 83 -99zM924 703l-6 3
c-9 -4 -82 -63 -126 -146c-32 -61 -58 -136 -82 -213h184v265c0 45 22 84 30 91z" />
    <glyph glyph-name="Agrave.salt" horiz-adv-x="1222" 
d="M1012 970l96 -128l-14 -18l-161 80c-36 17 -51 35 -51 59c0 31 23 54 54 54c25 0 47 -8 76 -47zM1216 15v-16h-412v16c37 0 90 40 90 99v187h-198c-32 -104 -63 -210 -105 -293c-92 -181 -242 -331 -423 -331c-121 0 -191 78 -191 160c0 67 53 106 106 106
s107 -38 107 -101c0 -57 -41 -92 -96 -92c-8 0 -19 6 -26 6c-3 0 -6 -2 -6 -6c0 -12 35 -48 93 -48c150 0 276 146 376 361c77 166 170 461 262 570c76 88 138 126 223 126h115c8 0 17 -4 17 -12s-15 -25 -15 -41v-592c0 -61 56 -99 83 -99zM924 703l-6 3
c-9 -4 -82 -63 -126 -146c-32 -61 -58 -136 -82 -213h184v265c0 45 22 84 30 91z" />
    <glyph glyph-name="Acircumflex.salt" horiz-adv-x="1222" 
d="M1180 791l-159 95l-158 -95l143 193c3 4 8 6 13 6s11 -2 14 -6zM1216 15v-16h-412v16c37 0 90 40 90 99v187h-198c-32 -104 -63 -210 -105 -293c-92 -181 -242 -331 -423 -331c-121 0 -191 78 -191 160c0 67 53 106 106 106s107 -38 107 -101c0 -57 -41 -92 -96 -92
c-8 0 -19 6 -26 6c-3 0 -6 -2 -6 -6c0 -12 35 -48 93 -48c150 0 276 146 376 361c77 166 170 461 262 570c76 88 138 126 223 126h115c8 0 17 -4 17 -12s-15 -25 -15 -41v-592c0 -61 56 -99 83 -99zM924 703l-6 3c-9 -4 -82 -63 -126 -146c-32 -61 -58 -136 -82 -213h184
v265c0 45 22 84 30 91z" />
    <glyph glyph-name="Adieresis.salt" horiz-adv-x="1222" 
d="M1175 934c0 -33 -24 -60 -57 -60c-35 0 -62 25 -62 60c0 32 30 59 60 59c33 0 59 -27 59 -59zM984 934c0 -33 -24 -60 -57 -60c-35 0 -62 25 -62 60c0 32 29 59 60 59c33 0 59 -27 59 -59zM1216 15v-16h-412v16c37 0 90 40 90 99v187h-198c-32 -104 -63 -210 -105 -293
c-92 -181 -242 -331 -423 -331c-121 0 -191 78 -191 160c0 67 53 106 106 106s107 -38 107 -101c0 -57 -41 -92 -96 -92c-8 0 -19 6 -26 6c-3 0 -6 -2 -6 -6c0 -12 35 -48 93 -48c150 0 276 146 376 361c77 166 170 461 262 570c76 88 138 126 223 126h115c8 0 17 -4 17 -12
s-15 -25 -15 -41v-592c0 -61 56 -99 83 -99zM924 703l-6 3c-9 -4 -82 -63 -126 -146c-32 -61 -58 -136 -82 -213h184v265c0 45 22 84 30 91z" />
    <glyph glyph-name="Atilde.salt" horiz-adv-x="1222" 
d="M1146 989l19 -4c-14 -52 -35 -114 -96 -114c-53 0 -93 51 -145 51c-21 0 -34 -18 -43 -37l-22 4c13 45 36 113 99 113c54 0 93 -50 144 -50c22 0 32 17 44 37zM1216 15v-16h-412v16c37 0 90 40 90 99v187h-198c-32 -104 -63 -210 -105 -293c-92 -181 -242 -331 -423 -331
c-121 0 -191 78 -191 160c0 67 53 106 106 106s107 -38 107 -101c0 -57 -41 -92 -96 -92c-8 0 -19 6 -26 6c-3 0 -6 -2 -6 -6c0 -12 35 -48 93 -48c150 0 276 146 376 361c77 166 170 461 262 570c76 88 138 126 223 126h115c8 0 17 -4 17 -12s-15 -25 -15 -41v-592
c0 -61 56 -99 83 -99zM924 703l-6 3c-9 -4 -82 -63 -126 -146c-32 -61 -58 -136 -82 -213h184v265c0 45 22 84 30 91z" />
    <glyph glyph-name="Aring.salt" horiz-adv-x="1222" 
d="M1151 972c0 -64 -53 -117 -116 -117c-68 0 -118 51 -118 119c0 62 54 115 117 115c64 0 117 -52 117 -117zM1095 972c0 33 -28 62 -62 62c-33 0 -61 -29 -61 -61c0 -36 26 -63 62 -63c34 0 61 28 61 62zM1216 15v-16h-412v16c37 0 90 40 90 99v187h-198
c-32 -104 -63 -210 -105 -293c-92 -181 -242 -331 -423 -331c-121 0 -191 78 -191 160c0 67 53 106 106 106s107 -38 107 -101c0 -57 -41 -92 -96 -92c-8 0 -19 6 -26 6c-3 0 -6 -2 -6 -6c0 -12 35 -48 93 -48c150 0 276 146 376 361c77 166 170 461 262 570
c76 88 138 126 223 126h115c8 0 17 -4 17 -12s-15 -25 -15 -41v-592c0 -61 56 -99 83 -99zM924 703l-6 3c-9 -4 -82 -63 -126 -146c-32 -61 -58 -136 -82 -213h184v265c0 45 22 84 30 91z" />
    <glyph glyph-name="Aogonek.salt" horiz-adv-x="1222" 
d="M985 -142l17 -10c-28 -60 -66 -88 -117 -88c-52 0 -83 29 -83 76c0 56 42 108 130 163h-128v16c37 0 90 40 90 99v187h-198c-32 -104 -63 -210 -105 -293c-92 -181 -242 -331 -423 -331c-121 0 -191 78 -191 160c0 67 53 106 106 106s107 -38 107 -101
c0 -57 -41 -92 -96 -92c-8 0 -19 6 -26 6c-3 0 -6 -2 -6 -6c0 -12 35 -48 93 -48c150 0 276 146 376 361c77 166 170 461 262 570c76 88 138 126 223 126h115c8 0 17 -4 17 -12s-15 -25 -15 -41v-592c0 -61 56 -99 83 -99v-16h-252c-22 -19 -29 -26 -39 -36
c-22 -24 -36 -59 -36 -88c0 -32 15 -51 43 -51c22 0 32 7 53 34zM924 703l-6 3c-9 -4 -82 -63 -126 -146c-32 -61 -58 -136 -82 -213h184v265c0 45 22 84 30 91z" />
    <glyph glyph-name="Abreve.salt" horiz-adv-x="1222" 
d="M1121 1000h46c-17 -91 -59 -151 -161 -151c-101 0 -142 61 -160 151h46c21 -54 61 -60 115 -60c51 0 97 6 114 60zM1216 15v-16h-412v16c37 0 90 40 90 99v187h-198c-32 -104 -63 -210 -105 -293c-92 -181 -242 -331 -423 -331c-121 0 -191 78 -191 160
c0 67 53 106 106 106s107 -38 107 -101c0 -57 -41 -92 -96 -92c-8 0 -19 6 -26 6c-3 0 -6 -2 -6 -6c0 -12 35 -48 93 -48c150 0 276 146 376 361c77 166 170 461 262 570c76 88 138 126 223 126h115c8 0 17 -4 17 -12s-15 -25 -15 -41v-592c0 -61 56 -99 83 -99zM924 703
l-6 3c-9 -4 -82 -63 -126 -146c-32 -61 -58 -136 -82 -213h184v265c0 45 22 84 30 91z" />
    <glyph glyph-name="Cacute.swsh" horiz-adv-x="814" 
d="M576 960c0 -18 -7 -41 -33 -60l-121 -89l-18 14l43 124c18 52 48 65 76 65c31 0 53 -26 53 -54zM787 150c0 -167 -116 -306 -343 -306c-226 0 -422 153 -422 465c0 299 204 468 396 468c95 0 157 -27 209 -27c41 0 71 26 77 26s9 -1 9 -14v-318c0 -21 -15 -20 -23 7
c-7 27 -83 298 -236 298c-133 0 -175 -203 -175 -453c0 -300 72 -418 219 -418c112 0 203 116 203 273c0 149 -65 213 -150 213c-60 0 -98 -41 -98 -58c0 -10 5 -13 11 -13c7 0 21 12 43 12c53 0 108 -35 108 -108c0 -72 -53 -117 -114 -117s-126 45 -126 141
s78 175 175 175c114 0 237 -83 237 -246z" />
    <glyph glyph-name="Ccaron.swsh" horiz-adv-x="814" 
d="M424 920l159 95l-147 -193c-3 -4 -9 -6 -14 -6s-10 2 -13 6l-143 193zM787 150c0 -167 -116 -306 -343 -306c-226 0 -422 153 -422 465c0 299 204 468 396 468c95 0 157 -27 209 -27c41 0 71 26 77 26s9 -1 9 -14v-318c0 -21 -15 -20 -23 7c-7 27 -83 298 -236 298
c-133 0 -175 -203 -175 -453c0 -300 72 -418 219 -418c112 0 203 116 203 273c0 149 -65 213 -150 213c-60 0 -98 -41 -98 -58c0 -10 5 -13 11 -13c7 0 21 12 43 12c53 0 108 -35 108 -108c0 -72 -53 -117 -114 -117s-126 45 -126 141s78 175 175 175
c114 0 237 -83 237 -246z" />
    <glyph glyph-name="Ccedilla.swsh" horiz-adv-x="814" 
d="M569 -274c0 -50 -46 -87 -108 -87c-41 0 -75 11 -118 37l11 26c25 -16 46 -24 64 -24c27 0 49 22 49 48s-19 41 -50 41c-8 0 -15 -1 -29 -3l31 81c-216 10 -398 163 -398 464c0 299 204 468 396 468c95 0 157 -27 209 -27c41 0 71 26 77 26s9 -1 9 -14v-318
c0 -21 -15 -20 -23 7c-7 27 -83 298 -236 298c-133 0 -175 -203 -175 -453c0 -300 72 -418 219 -418c112 0 203 116 203 273c0 149 -65 213 -150 213c-60 0 -98 -41 -98 -58c0 -10 5 -13 11 -13c7 0 21 12 43 12c53 0 108 -35 108 -108c0 -72 -53 -117 -114 -117
s-126 45 -126 141s78 175 175 175c114 0 237 -83 237 -246c0 -164 -112 -300 -331 -305l-15 -42c15 2 21 2 30 2c59 0 99 -32 99 -79z" />
    <glyph glyph-name="Dcaron.swsh" horiz-adv-x="1159" 
d="M728 913l159 95l-147 -193c-3 -4 -9 -6 -14 -6s-10 2 -13 6l-143 193zM1138 385c0 -234 -169 -385 -371 -385h-429v12c21 0 86 31 86 106v511c0 67 -34 115 -138 115c-109 0 -191 -76 -191 -212c0 -116 57 -164 101 -164c32 0 40 12 40 28c0 8 -9 14 -20 23
c-16 13 -38 33 -38 75c0 51 45 88 95 88s100 -39 100 -100s-45 -134 -167 -134c-124 0 -196 86 -196 200c0 128 114 217 280 217c76 0 158 -5 183 -5h296c205 0 369 -142 369 -375zM878 400c0 229 -31 340 -140 340c-58 0 -77 -32 -77 -73v-561c0 -56 32 -80 76 -80
c103 0 141 145 141 374z" />
    <glyph glyph-name="Dcroat.swsh" horiz-adv-x="1159" 
d="M473 760h296c205 0 369 -142 369 -375c0 -234 -169 -385 -371 -385h-429v12c21 0 86 31 86 106v250h-54v27h54v239c0 61 -34 110 -138 110c-109 0 -191 -76 -191 -212c0 -116 57 -164 101 -164c32 0 40 12 40 28c0 8 -9 14 -20 23c-16 13 -38 33 -38 75c0 51 45 88 95 88
s100 -39 100 -100s-45 -134 -167 -134c-124 0 -196 86 -196 200c0 128 114 217 280 217c76 0 158 -5 183 -5zM878 400c0 229 -31 340 -140 340c-58 0 -77 -32 -77 -73v-272h129v-27h-129v-262c0 -56 32 -80 76 -80c103 0 141 145 141 374z" />
    <glyph glyph-name="Eacute.swsh" horiz-adv-x="1080" 
d="M857 945c0 -24 -15 -42 -51 -60l-161 -80l-14 18l95 128c29 40 52 47 77 47c31 0 54 -23 54 -53zM1044 341l-36 -325c-1 -12 -22 -16 -22 -16h-675v13c34 0 118 40 118 142v469c0 67 -35 120 -139 120c-109 0 -191 -76 -191 -212c0 -116 57 -164 101 -164
c32 0 40 12 40 28c0 8 -9 14 -20 23c-16 13 -38 33 -38 75c0 51 45 88 95 88s100 -39 100 -100s-45 -134 -167 -134c-123 0 -196 86 -196 200c0 128 114 217 280 217c76 0 158 -6 183 -6h515s17 -1 18 -13l15 -295c1 -14 -11 -24 -19 0c-13 37 -54 112 -106 175
c-49 59 -108 108 -161 108c-39 0 -72 -26 -72 -83v-238h23c105 0 159 117 159 159l12 -1v-353h-16c0 42 -50 168 -155 168h-23v-282c0 -38 20 -75 60 -75c69 0 135 58 188 124c59 75 102 160 112 185c8 17 19 21 17 3z" />
    <glyph glyph-name="Egrave.swsh" horiz-adv-x="1080" 
d="M678 957l96 -128l-14 -18l-161 80c-36 17 -51 35 -51 59c0 31 23 54 54 54c25 0 47 -8 76 -47zM1044 341l-36 -325c-1 -12 -22 -16 -22 -16h-675v13c34 0 118 40 118 142v469c0 67 -35 120 -139 120c-109 0 -191 -76 -191 -212c0 -116 57 -164 101 -164c32 0 40 12 40 28
c0 8 -9 14 -20 23c-16 13 -38 33 -38 75c0 51 45 88 95 88s100 -39 100 -100s-45 -134 -167 -134c-123 0 -196 86 -196 200c0 128 114 217 280 217c76 0 158 -6 183 -6h515s17 -1 18 -13l15 -295c1 -14 -11 -24 -19 0c-13 37 -54 112 -106 175c-49 59 -108 108 -161 108
c-39 0 -72 -26 -72 -83v-238h23c105 0 159 117 159 159l12 -1v-353h-16c0 42 -50 168 -155 168h-23v-282c0 -38 20 -75 60 -75c69 0 135 58 188 124c59 75 102 160 112 185c8 17 19 21 17 3z" />
    <glyph glyph-name="Ecircumflex.swsh" horiz-adv-x="1080" 
d="M881 791l-159 95l-158 -95l143 193c3 4 8 6 13 6s11 -2 14 -6zM1044 341l-36 -325c-1 -12 -22 -16 -22 -16h-675v13c34 0 118 40 118 142v469c0 67 -35 120 -139 120c-109 0 -191 -76 -191 -212c0 -116 57 -164 101 -164c32 0 40 12 40 28c0 8 -9 14 -20 23
c-16 13 -38 33 -38 75c0 51 45 88 95 88s100 -39 100 -100s-45 -134 -167 -134c-123 0 -196 86 -196 200c0 128 114 217 280 217c76 0 158 -6 183 -6h515s17 -1 18 -13l15 -295c1 -14 -11 -24 -19 0c-13 37 -54 112 -106 175c-49 59 -108 108 -161 108
c-39 0 -72 -26 -72 -83v-238h23c105 0 159 117 159 159l12 -1v-353h-16c0 42 -50 168 -155 168h-23v-282c0 -38 20 -75 60 -75c69 0 135 58 188 124c59 75 102 160 112 185c8 17 19 21 17 3z" />
    <glyph glyph-name="Edieresis.swsh" horiz-adv-x="1080" 
d="M853 893c0 -33 -25 -60 -58 -60c-34 0 -61 25 -61 60c0 32 29 59 60 59c33 0 59 -27 59 -59zM661 893c0 -33 -24 -60 -57 -60c-35 0 -62 25 -62 60c0 32 30 59 60 59c33 0 59 -27 59 -59zM1044 341l-36 -325c-1 -12 -22 -16 -22 -16h-675v13c34 0 118 40 118 142v469
c0 67 -35 120 -139 120c-109 0 -191 -76 -191 -212c0 -116 57 -164 101 -164c32 0 40 12 40 28c0 8 -9 14 -20 23c-16 13 -38 33 -38 75c0 51 45 88 95 88s100 -39 100 -100s-45 -134 -167 -134c-123 0 -196 86 -196 200c0 128 114 217 280 217c76 0 158 -6 183 -6h515
s17 -1 18 -13l15 -295c1 -14 -11 -24 -19 0c-13 37 -54 112 -106 175c-49 59 -108 108 -161 108c-39 0 -72 -26 -72 -83v-238h23c105 0 159 117 159 159l12 -1v-353h-16c0 42 -50 168 -155 168h-23v-282c0 -38 20 -75 60 -75c69 0 135 58 188 124c59 75 102 160 112 185
c8 17 19 21 17 3z" />
    <glyph glyph-name="Eogonek.swsh" horiz-adv-x="1080" 
d="M891 -142l17 -10c-28 -60 -66 -88 -117 -88c-52 0 -83 29 -83 76c0 57 42 108 132 164h-529v13c34 0 118 40 118 142v469c0 67 -35 120 -139 120c-109 0 -191 -76 -191 -212c0 -116 57 -164 101 -164c32 0 40 12 40 28c0 8 -9 14 -20 23c-16 13 -38 33 -38 75
c0 51 45 88 95 88s100 -39 100 -100s-45 -134 -167 -134c-123 0 -196 86 -196 200c0 128 114 217 280 217c76 0 158 -6 183 -6h515s17 -1 18 -13l15 -295c1 -14 -11 -24 -19 0c-13 37 -54 112 -106 175c-49 59 -108 108 -161 108c-39 0 -72 -26 -72 -83v-238h23
c105 0 159 117 159 159l12 -1v-353h-16c0 42 -50 168 -155 168h-23v-282c0 -38 20 -75 60 -75c69 0 135 58 188 124c59 75 102 160 112 185c8 17 19 21 17 3l-36 -325c-1 -12 -22 -16 -22 -16h-115c-23 -20 -30 -27 -40 -37c-22 -24 -36 -59 -36 -88c0 -32 15 -51 43 -51
c22 0 32 7 53 34z" />
    <glyph glyph-name="Ecaron.swsh" horiz-adv-x="1080" 
d="M726 910l159 95l-147 -193c-3 -4 -9 -6 -14 -6s-10 2 -13 6l-143 193zM1044 341l-36 -325c-1 -12 -22 -16 -22 -16h-675v13c34 0 118 40 118 142v469c0 67 -35 120 -139 120c-109 0 -191 -76 -191 -212c0 -116 57 -164 101 -164c32 0 40 12 40 28c0 8 -9 14 -20 23
c-16 13 -38 33 -38 75c0 51 45 88 95 88s100 -39 100 -100s-45 -134 -167 -134c-123 0 -196 86 -196 200c0 128 114 217 280 217c76 0 158 -6 183 -6h515s17 -1 18 -13l15 -295c1 -14 -11 -24 -19 0c-13 37 -54 112 -106 175c-49 59 -108 108 -161 108
c-39 0 -72 -26 -72 -83v-238h23c105 0 159 117 159 159l12 -1v-353h-16c0 42 -50 168 -155 168h-23v-282c0 -38 20 -75 60 -75c69 0 135 58 188 124c59 75 102 160 112 185c8 17 19 21 17 3z" />
    <glyph glyph-name="Eth.swsh" horiz-adv-x="1159" 
d="M473 760h296c205 0 369 -142 369 -375c0 -234 -169 -385 -371 -385h-429v12c21 0 86 31 86 106v250h-54v27h54v239c0 61 -34 110 -138 110c-109 0 -191 -76 -191 -212c0 -116 57 -164 101 -164c32 0 40 12 40 28c0 8 -9 14 -20 23c-16 13 -38 33 -38 75c0 51 45 88 95 88
s100 -39 100 -100s-45 -134 -167 -134c-124 0 -196 86 -196 200c0 128 114 217 280 217c76 0 158 -5 183 -5zM878 400c0 229 -31 340 -140 340c-58 0 -77 -32 -77 -73v-272h129v-27h-129v-262c0 -56 32 -80 76 -80c103 0 141 145 141 374z" />
    <glyph glyph-name="Iacute.swsh" horiz-adv-x="796" 
d="M691 943c0 -24 -15 -42 -51 -59l-161 -80l-14 18l96 128c29 39 51 47 76 47c31 0 54 -23 54 -54zM755 760v-12c-34 0 -92 -40 -92 -128v-490c0 -87 71 -118 89 -118v-12h-414v12c29 0 91 32 91 118v496c0 67 -34 118 -138 118c-109 0 -191 -76 -191 -212
c0 -116 58 -164 101 -164c32 0 40 12 40 28c0 8 -9 14 -20 23c-16 13 -38 33 -38 75c0 51 45 88 95 88s100 -39 100 -100s-45 -134 -167 -134c-123 0 -196 86 -196 200c0 128 114 217 280 217c76 0 158 -5 183 -5h277z" />
    <glyph glyph-name="Igrave.swsh" horiz-adv-x="796" 
d="M531 950l96 -128l-14 -18l-161 80c-36 17 -51 35 -51 59c0 31 23 54 54 54c25 0 47 -8 76 -47zM755 760v-12c-34 0 -92 -40 -92 -128v-490c0 -87 71 -118 89 -118v-12h-414v12c29 0 91 32 91 118v496c0 67 -34 118 -138 118c-109 0 -191 -76 -191 -212
c0 -116 58 -164 101 -164c32 0 40 12 40 28c0 8 -9 14 -20 23c-16 13 -38 33 -38 75c0 51 45 88 95 88s100 -39 100 -100s-45 -134 -167 -134c-123 0 -196 86 -196 200c0 128 114 217 280 217c76 0 158 -5 183 -5h277z" />
    <glyph glyph-name="Icircumflex.swsh" horiz-adv-x="796" 
d="M705 791l-159 95l-158 -95l143 193c3 4 8 6 13 6s11 -2 14 -6zM755 760v-12c-34 0 -92 -40 -92 -128v-490c0 -87 71 -118 89 -118v-12h-414v12c29 0 91 32 91 118v496c0 67 -34 118 -138 118c-109 0 -191 -76 -191 -212c0 -116 58 -164 101 -164c32 0 40 12 40 28
c0 8 -9 14 -20 23c-16 13 -38 33 -38 75c0 51 45 88 95 88s100 -39 100 -100s-45 -134 -167 -134c-123 0 -196 86 -196 200c0 128 114 217 280 217c76 0 158 -5 183 -5h277z" />
    <glyph glyph-name="Idieresis.swsh" horiz-adv-x="796" 
d="M695 897c0 -33 -25 -60 -58 -60c-34 0 -61 25 -61 60c0 32 29 59 60 59c33 0 59 -27 59 -59zM503 897c0 -33 -24 -60 -57 -60c-35 0 -62 25 -62 60c0 32 30 59 60 59c33 0 59 -27 59 -59zM755 760v-12c-34 0 -92 -40 -92 -128v-490c0 -87 71 -118 89 -118v-12h-414v12
c29 0 91 32 91 118v496c0 67 -34 118 -138 118c-109 0 -191 -76 -191 -212c0 -116 58 -164 101 -164c32 0 40 12 40 28c0 8 -9 14 -20 23c-16 13 -38 33 -38 75c0 51 45 88 95 88s100 -39 100 -100s-45 -134 -167 -134c-123 0 -196 86 -196 200c0 128 114 217 280 217
c76 0 158 -5 183 -5h277z" />
    <glyph glyph-name="Lacute.swsh" horiz-adv-x="1081" 
d="M706 960c0 -18 -7 -41 -33 -60l-121 -89l-18 14l43 124c21 51 48 65 76 65c31 0 53 -26 53 -54zM1045 341l-36 -325c-1 -12 -22 -16 -22 -16h-675v13c34 0 118 40 118 142v470c0 67 -35 119 -139 119c-109 0 -191 -76 -191 -212c0 -116 57 -164 101 -164
c32 0 40 12 40 28c0 8 -10 14 -20 23c-16 13 -38 33 -38 75c0 51 45 88 95 88s100 -39 100 -100s-45 -134 -167 -134c-123 0 -196 86 -196 200c0 128 113 217 280 217c76 0 157 -6 183 -6h302v-14c-44 0 -112 -42 -112 -129v-512c0 -38 20 -75 60 -75c69 0 135 58 188 124
c59 75 102 160 112 185c8 17 19 21 17 3z" />
    <glyph glyph-name="Lcaron.swsh" horiz-adv-x="1081" 
d="M1028 727c0 -64 -37 -113 -81 -148c-7 -5 -25 -20 -35 -20c-6 0 -13 4 -13 11c0 3 1 6 2 6c25 15 79 60 79 106c-19 -10 -41 -19 -64 -19c-44 0 -77 35 -77 78c0 52 41 88 91 88c58 0 98 -46 98 -102zM1045 341l-36 -325c-1 -12 -22 -16 -22 -16h-675v13
c34 0 118 40 118 142v470c0 67 -35 119 -139 119c-109 0 -191 -76 -191 -212c0 -116 57 -164 101 -164c32 0 40 12 40 28c0 8 -10 14 -20 23c-16 13 -38 33 -38 75c0 51 45 88 95 88s100 -39 100 -100s-45 -134 -167 -134c-123 0 -196 86 -196 200c0 128 113 217 280 217
c76 0 157 -6 183 -6h302v-14c-44 0 -112 -42 -112 -129v-512c0 -38 20 -75 60 -75c69 0 135 58 188 124c59 75 102 160 112 185c8 17 19 21 17 3z" />
    <glyph glyph-name="Lslash.swsh" horiz-adv-x="1081" 
d="M774 561l-106 -97v-360c0 -38 20 -75 60 -75c69 0 135 58 188 124c59 75 102 160 112 185c8 17 19 21 17 3l-36 -325c-1 -12 -22 -16 -22 -16h-675v13c34 0 118 40 118 142v92l-112 -102v38l112 102v340c0 67 -35 119 -139 119c-109 0 -191 -76 -191 -212
c0 -116 57 -164 101 -164c32 0 40 12 40 28c0 8 -10 14 -20 23c-16 13 -38 33 -38 75c0 51 45 88 95 88s100 -39 100 -100s-45 -134 -167 -134c-123 0 -196 86 -196 200c0 128 113 217 280 217c76 0 157 -6 183 -6h302v-14c-44 0 -112 -42 -112 -129v-114l106 97v-38z" />
    <glyph glyph-name="Lacute.salt" horiz-adv-x="871" 
d="M374 960c0 -18 -7 -41 -33 -60l-121 -89l-18 14l43 124c21 51 48 65 76 65c31 0 53 -26 53 -54zM892 -87c0 -151 -114 -253 -229 -253c-139 0 -234 116 -353 211c-91 73 -215 129 -285 129v13c30 0 73 43 73 92v534c0 62 -44 105 -88 105v14h419v-14
c-54 0 -102 -52 -102 -105v-559c0 -81 -19 -128 -33 -146l4 -11c8 -4 165 -98 275 -98c124 0 211 75 211 180c0 59 -39 106 -70 106c-16 0 -25 -8 -25 -15c0 -20 48 -36 48 -91c0 -56 -50 -96 -96 -96s-103 39 -103 97c0 59 46 131 140 131s214 -74 214 -224z" />
    <glyph glyph-name="Lcaron.salt" horiz-adv-x="871" 
d="M691 727c0 -64 -37 -113 -81 -148c-7 -5 -25 -20 -35 -20c-6 0 -13 4 -13 11c0 3 1 6 2 6c25 15 79 60 79 106c-19 -10 -41 -19 -64 -19c-44 0 -77 35 -77 78c0 52 41 88 91 88c58 0 98 -46 98 -102zM892 -87c0 -151 -114 -253 -229 -253c-139 0 -234 116 -353 211
c-91 73 -215 129 -285 129v13c30 0 73 43 73 92v534c0 62 -44 105 -88 105v14h419v-14c-54 0 -102 -52 -102 -105v-559c0 -81 -19 -128 -33 -146l4 -11c8 -4 165 -98 275 -98c124 0 211 75 211 180c0 59 -39 106 -70 106c-16 0 -25 -8 -25 -15c0 -20 48 -36 48 -91
c0 -56 -50 -96 -96 -96s-103 39 -103 97c0 59 46 131 140 131s214 -74 214 -224z" />
    <glyph glyph-name="Lslash.salt" horiz-adv-x="871" 
d="M450 561l-123 -112v-369c0 -81 -19 -128 -33 -146l4 -11c8 -4 165 -98 275 -98c124 0 211 75 211 180c0 59 -39 106 -70 106c-16 0 -25 -8 -25 -15c0 -20 48 -36 48 -91c0 -56 -50 -96 -96 -96s-103 39 -103 97c0 59 46 131 140 131s214 -74 214 -224
c0 -151 -114 -253 -229 -253c-139 0 -234 116 -353 211c-91 73 -215 129 -285 129v13c30 0 73 43 73 92v135l-104 -95v38l104 95v361c0 62 -44 105 -88 105v14h419v-14c-54 0 -102 -52 -102 -105v-152l123 112v-38z" />
    <glyph glyph-name="Nacute.swsh" horiz-adv-x="1120" 
d="M851 960c0 -18 -7 -41 -33 -60l-121 -89l-18 14l43 124c21 51 48 65 76 65c31 0 53 -26 53 -54zM1552 -210c0 -83 -90 -147 -220 -147c-141 0 -333 62 -438 232l-442 718v-303c0 -212 138 -277 183 -277v-13h-365v14c45 0 155 67 155 275v337c0 67 -35 118 -139 118
c-109 0 -191 -76 -191 -212c0 -116 58 -164 101 -164c32 0 40 12 40 28c0 8 -9 14 -20 23c-16 13 -37 33 -37 75c0 51 44 88 94 88s100 -39 100 -100s-44 -134 -167 -134c-124 0 -196 86 -196 200c0 128 114 217 280 217c76 0 158 -5 183 -5h147c8 0 13 -4 17 -9l294 -473
v185c0 201 -136 285 -174 285v12h350v-14c-36 0 -150 -96 -150 -284v-227l196 -320c81 -132 151 -240 233 -240c30 0 41 10 41 24c0 26 -65 22 -65 97c0 47 42 93 92 93c58 0 98 -46 98 -99z" />
    <glyph glyph-name="Ncaron.swsh" horiz-adv-x="1120" 
d="M705 906l159 95l-147 -193c-3 -4 -9 -6 -14 -6s-10 2 -13 6l-143 193zM1552 -210c0 -83 -90 -147 -220 -147c-141 0 -333 62 -438 232l-442 718v-303c0 -212 138 -277 183 -277v-13h-365v14c45 0 155 67 155 275v337c0 67 -35 118 -139 118c-109 0 -191 -76 -191 -212
c0 -116 58 -164 101 -164c32 0 40 12 40 28c0 8 -9 14 -20 23c-16 13 -37 33 -37 75c0 51 44 88 94 88s100 -39 100 -100s-44 -134 -167 -134c-124 0 -196 86 -196 200c0 128 114 217 280 217c76 0 158 -5 183 -5h147c8 0 13 -4 17 -9l294 -473v185c0 201 -136 285 -174 285
v12h350v-14c-36 0 -150 -96 -150 -284v-227l196 -320c81 -132 151 -240 233 -240c30 0 41 10 41 24c0 26 -65 22 -65 97c0 47 42 93 92 93c58 0 98 -46 98 -99z" />
    <glyph glyph-name="Ntilde.swsh" horiz-adv-x="1120" 
d="M827 937l19 -3c-15 -52 -36 -114 -96 -114c-53 0 -93 51 -144 51c-22 0 -35 -18 -45 -38l-22 5c13 45 37 113 100 113c53 0 93 -50 144 -50c21 0 33 17 44 36zM1552 -210c0 -83 -90 -147 -220 -147c-141 0 -333 62 -438 232l-442 718v-303c0 -212 138 -277 183 -277v-13
h-365v14c45 0 155 67 155 275v337c0 67 -35 118 -139 118c-109 0 -191 -76 -191 -212c0 -116 58 -164 101 -164c32 0 40 12 40 28c0 8 -9 14 -20 23c-16 13 -37 33 -37 75c0 51 44 88 94 88s100 -39 100 -100s-44 -134 -167 -134c-124 0 -196 86 -196 200
c0 128 114 217 280 217c76 0 158 -5 183 -5h147c8 0 13 -4 17 -9l294 -473v185c0 201 -136 285 -174 285v12h350v-14c-36 0 -150 -96 -150 -284v-227l196 -320c81 -132 151 -240 233 -240c30 0 41 10 41 24c0 26 -65 22 -65 97c0 47 42 93 92 93c58 0 98 -46 98 -99z" />
    <glyph glyph-name="N2acute.swsh" horiz-adv-x="1080" 
d="M851 960c0 -18 -7 -41 -33 -60l-121 -89l-18 14l43 124c21 51 48 65 76 65c31 0 53 -26 53 -54zM1110 760v-14c-36 0 -150 -96 -150 -284v-462h-146l-359 593v-303c0 -212 138 -277 183 -277v-13h-365v14c45 0 155 67 155 275v337c0 67 -35 118 -139 118
c-109 0 -191 -76 -191 -212c0 -116 58 -164 101 -164c32 0 40 12 40 28c0 8 -9 14 -20 23c-16 13 -37 33 -37 75c0 51 44 88 94 88s100 -39 100 -100s-47 -134 -167 -134c-122 0 -196 86 -196 200c0 128 114 217 280 217c76 0 158 -5 183 -5h150c8 0 13 -3 17 -9l291 -472
v184c0 201 -136 285 -174 285v12h350z" />
    <glyph glyph-name="N2caron.swsh" horiz-adv-x="1080" 
d="M702 906l159 95l-147 -193c-3 -4 -9 -6 -14 -6s-10 2 -13 6l-143 193zM1110 760v-14c-36 0 -150 -96 -150 -284v-462h-146l-359 593v-303c0 -212 138 -277 183 -277v-13h-365v14c45 0 155 67 155 275v337c0 67 -35 118 -139 118c-109 0 -191 -76 -191 -212
c0 -116 58 -164 101 -164c32 0 40 12 40 28c0 8 -9 14 -20 23c-16 13 -37 33 -37 75c0 51 44 88 94 88s100 -39 100 -100s-47 -134 -167 -134c-122 0 -196 86 -196 200c0 128 114 217 280 217c76 0 158 -5 183 -5h150c8 0 13 -3 17 -9l291 -472v184c0 201 -136 285 -174 285
v12h350z" />
    <glyph glyph-name="N2tilde.swsh" horiz-adv-x="1080" 
d="M827 937l19 -3c-15 -52 -36 -114 -96 -114c-53 0 -93 51 -144 51c-22 0 -35 -18 -45 -38l-22 5c13 45 37 113 100 113c53 0 93 -50 144 -50c21 0 33 17 44 36zM1110 760v-14c-36 0 -150 -96 -150 -284v-462h-146l-359 593v-303c0 -212 138 -277 183 -277v-13h-365v14
c45 0 155 67 155 275v337c0 67 -35 118 -139 118c-109 0 -191 -76 -191 -212c0 -116 58 -164 101 -164c32 0 40 12 40 28c0 8 -9 14 -20 23c-16 13 -37 33 -37 75c0 51 44 88 94 88s100 -39 100 -100s-47 -134 -167 -134c-122 0 -196 86 -196 200c0 128 114 217 280 217
c76 0 158 -5 183 -5h150c8 0 13 -3 17 -9l291 -472v184c0 201 -136 285 -174 285v12h350z" />
    <glyph glyph-name="Nacute.salt" horiz-adv-x="1390" 
d="M1159 960c0 -18 -7 -41 -33 -60l-121 -89l-18 14l43 124c21 51 48 65 76 65c31 0 53 -26 53 -54zM1412 760v-14c-35 0 -150 -96 -150 -284v-462h-146l-375 621l-9 -5c2 -19 18 -398 -29 -559c-43 -151 -157 -276 -371 -276c-171 0 -319 126 -319 284
c0 159 140 258 288 258s244 -82 244 -184c0 -84 -63 -125 -118 -125c-54 0 -102 43 -102 104c0 69 60 100 89 100c18 0 29 12 29 21c0 29 -52 62 -121 62c-123 0 -243 -89 -243 -242c0 -133 103 -251 248 -251c199 0 296 208 335 409c40 201 45 370 45 421
c0 72 -48 102 -152 102s-193 -54 -193 -155c0 -89 65 -145 125 -145c24 0 32 6 32 17c0 6 -13 11 -29 22c-19 13 -41 34 -41 72c0 56 41 101 99 101s106 -36 106 -97c0 -62 -51 -137 -169 -137c-123 0 -198 78 -198 160c0 97 77 191 208 191c57 0 194 -9 226 -9h208
c12 0 10 0 16 -9l291 -472v184c0 201 -135 285 -174 285v12h350z" />
    <glyph glyph-name="Ncaron.salt" horiz-adv-x="1390" 
d="M1009 906l159 95l-147 -193c-3 -4 -9 -6 -14 -6s-10 2 -13 6l-143 193zM1412 760v-14c-35 0 -150 -96 -150 -284v-462h-146l-375 621l-9 -5c2 -19 18 -398 -29 -559c-43 -151 -157 -276 -371 -276c-171 0 -319 126 -319 284c0 159 140 258 288 258s244 -82 244 -184
c0 -84 -63 -125 -118 -125c-54 0 -102 43 -102 104c0 69 60 100 89 100c18 0 29 12 29 21c0 29 -52 62 -121 62c-123 0 -243 -89 -243 -242c0 -133 103 -251 248 -251c199 0 296 208 335 409c40 201 45 370 45 421c0 72 -48 102 -152 102s-193 -54 -193 -155
c0 -89 65 -145 125 -145c24 0 32 6 32 17c0 6 -13 11 -29 22c-19 13 -41 34 -41 72c0 56 41 101 99 101s106 -36 106 -97c0 -62 -51 -137 -169 -137c-123 0 -198 78 -198 160c0 97 77 191 208 191c57 0 194 -9 226 -9h208c12 0 10 0 16 -9l291 -472v184
c0 201 -135 285 -174 285v12h350z" />
    <glyph glyph-name="Ntilde.salt" horiz-adv-x="1390" 
d="M1152 937l19 -3c-15 -52 -36 -114 -96 -114c-53 0 -93 51 -144 51c-22 0 -35 -18 -45 -38l-22 5c13 45 37 113 100 113c53 0 93 -50 144 -50c21 0 33 17 44 36zM1412 760v-14c-35 0 -150 -96 -150 -284v-462h-146l-375 621l-9 -5c2 -19 18 -398 -29 -559
c-43 -151 -157 -276 -371 -276c-171 0 -319 126 -319 284c0 159 140 258 288 258s244 -82 244 -184c0 -84 -63 -125 -118 -125c-54 0 -102 43 -102 104c0 69 60 100 89 100c18 0 29 12 29 21c0 29 -52 62 -121 62c-123 0 -243 -89 -243 -242c0 -133 103 -251 248 -251
c199 0 296 208 335 409c40 201 45 370 45 421c0 72 -48 102 -152 102s-193 -54 -193 -155c0 -89 65 -145 125 -145c24 0 32 6 32 17c0 6 -13 11 -29 22c-19 13 -41 34 -41 72c0 56 41 101 99 101s106 -36 106 -97c0 -62 -51 -137 -169 -137c-123 0 -198 78 -198 160
c0 97 77 191 208 191c57 0 194 -9 226 -9h208c12 0 10 0 16 -9l291 -472v184c0 201 -135 285 -174 285v12h350z" />
    <glyph glyph-name="Oacute.swsh" horiz-adv-x="876" 
d="M591 958c0 -24 -15 -42 -51 -60l-161 -80l-14 18l95 128c29 40 52 47 77 47c31 0 54 -23 54 -53zM848 395c4 -246 -205 -409 -410 -413c-204 -4 -397 162 -401 390c-4 237 182 405 345 408c98 2 174 -64 176 -178c1 -102 -64 -145 -121 -146c-56 -1 -105 38 -105 107
c0 62 44 100 85 101c40 1 52 -15 64 -15c13 0 15 11 15 22c-1 29 -31 73 -77 72c-72 -1 -125 -106 -120 -367c4 -275 34 -379 138 -377c97 2 156 97 150 412c-4 257 -12 314 -100 362c-5 2 -3 9 9 9c154 3 348 -132 352 -387z" />
    </font>
</defs>
</svg>
