<?xml version="1.0" standalone="no"?>
<!DOCTYPE svg PUBLIC "-//W3C//DTD SVG 1.1//EN" "http://www.w3.org/Graphics/SVG/1.1/DTD/svg11.dtd" >
<svg xmlns="http://www.w3.org/2000/svg" xmlns:xlink="http://www.w3.org/1999/xlink" version="1.1">
<metadata></metadata>
<defs>
<font id="stainlessregular" horiz-adv-x="1470" >
<font-face units-per-em="2048" ascent="1628" descent="-420" />
<missing-glyph horiz-adv-x="524" />
<glyph unicode="&#xfb03;" horiz-adv-x="1902" d="M57 784v179h162v133q0 60 5 100t21 79t44.5 65t76.5 50.5t115.5 43t163.5 36.5l39 -188q-62 -13 -102.5 -23.5t-70.5 -24.5t-45.5 -27t-24.5 -35t-11 -42.5t-2 -56.5v-110h461v186q0 72 15.5 120.5t54 90.5t112.5 72.5t182.5 56t272.5 49.5l28 -182q-108 -17 -181 -31.5 t-125.5 -31t-81 -31t-44.5 -37t-20 -43t-4 -54.5v-165h663v-963h-207v786h-456v-786h-209v786h-461v-786h-209v784h-162z" />
<glyph unicode="&#xfb04;" horiz-adv-x="1902" d="M57 784v179h162v133q0 60 5 100t21 79t44.5 65t76.5 50.5t115.5 43t163.5 36.5l39 -188q-62 -13 -102.5 -23.5t-70.5 -24.5t-45.5 -27t-24.5 -35t-11 -42.5t-2 -56.5v-110h461v196q0 89 14 144t56 101.5t118 76.5t201 55l45 -186q-52 -12 -87 -22t-61 -23.5t-40.5 -27 t-23 -35t-11 -43t-2.5 -56.5v-180h227v-179h-227v-784h-209v784h-461v-784h-209v784h-162zM1554 0v1534h207v-1534h-207z" />
<glyph horiz-adv-x="0" />
<glyph horiz-adv-x="682" />
<glyph unicode=" "  horiz-adv-x="524" />
<glyph unicode="&#x09;" horiz-adv-x="524" />
<glyph unicode="&#xa0;" horiz-adv-x="524" />
<glyph unicode="!" horiz-adv-x="634" d="M178 0v262h279v-262h-279zM184 1493h271l-56 -1065h-161z" />
<glyph unicode="&#x22;" horiz-adv-x="901" d="M115 1493h272l-53 -508h-168zM516 1493h272l-53 -508h-166z" />
<glyph unicode="#" horiz-adv-x="1193" d="M66 446v168h202l45 263h-247v170h276l82 487h172l-82 -487h266l80 487h172l-82 -487h180v-170h-208l-43 -263h251v-168h-280l-82 -487h-170l80 487h-264l-82 -487h-172l82 487h-176zM432 606h281l47 279h-281z" />
<glyph unicode="$" horiz-adv-x="1212" d="M98 1112q0 90 21.5 158t69.5 120t130.5 81t200.5 36v207h178v-207q219 -8 361 -47l-37 -180q-147 27 -326 37v-473q121 -28 195 -56t131.5 -76t81.5 -119t24 -177q0 -207 -96.5 -308t-333.5 -116v-242h-178v238q-254 7 -418 47l33 186q52 -11 167.5 -25t221.5 -18v500 q-89 22 -149.5 41.5t-111 45.5t-80 56t-50 73t-28 94.5t-7.5 123.5zM315 1110q0 -53 7 -84t29.5 -58.5t63 -45.5t109.5 -37v432q-120 -7 -164.5 -53t-44.5 -154zM696 180q123 10 168 60.5t45 171.5q0 100 -41 144t-172 79v-455z" />
<glyph unicode="%" horiz-adv-x="1927" d="M45 1038q0 141 25 236t76 148t117 74.5t159 21.5q94 0 159 -21t115.5 -73t74.5 -146.5t24 -235.5q0 -113 -17 -196.5t-47.5 -137.5t-78.5 -86.5t-104 -45.5t-130 -13t-129.5 12.5t-103 44.5t-77.5 85.5t-46.5 136.5t-16.5 196zM238 993q0 -151 43.5 -211.5t140.5 -60.5 t138.5 58.5t41.5 209.5v98q0 152 -43.5 211.5t-140.5 59.5t-138.5 -57t-41.5 -209v-99zM614 0l519 1493h184l-520 -1493h-183zM1135 451q0 141 24.5 236t75.5 147.5t117 74t159 21.5q74 0 129.5 -12.5t103 -44.5t77.5 -85.5t46.5 -136.5t16.5 -196q0 -141 -25 -236t-76 -148 t-117 -74.5t-159 -21.5q-74 0 -129.5 12.5t-103 44.5t-77 85.5t-46 137t-16.5 196.5zM1327 406q0 -151 43.5 -212t140.5 -61t139 58.5t42 209.5v99q0 152 -44 211t-141 59t-138.5 -57t-41.5 -209v-98z" />
<glyph unicode="&#x26;" d="M90 449q0 183 81 269.5t271 127.5q-83 102 -116 175t-33 155q0 188 99.5 265t330.5 77q111 0 221.5 -16t171.5 -34l-33 -184q-68 15 -174.5 29t-193.5 14q-92 0 -139.5 -16.5t-62.5 -47t-15 -87.5q0 -73 46.5 -143t217.5 -267l221 -256l168 348h197q-238 -491 -238 -493 l317 -365h-251l-160 182q-72 -119 -146 -160.5t-206 -41.5q-87 0 -150.5 4t-127 16.5t-106.5 34t-81.5 56t-61 84t-35 118t-12.5 156.5zM289 446q0 -63 9 -109t29.5 -78t47.5 -51.5t71 -30t90 -14t115 -3.5q88 0 137 31t105 133l-346 397q-153 -32 -205.5 -89t-52.5 -186z " />
<glyph unicode="'" horiz-adv-x="501" d="M115 1493h272l-53 -508h-168z" />
<glyph unicode="(" horiz-adv-x="737" d="M80 631q0 152 6.5 267t23 208.5t38 158.5t59.5 113.5t79.5 77t105 46.5t129.5 24.5t159 7.5v-182q-54 0 -91 -2t-76.5 -8.5t-65.5 -18t-52.5 -32t-43 -48t-32.5 -68.5t-24 -92t-15 -119.5t-9.5 -149t-2.5 -183.5q0 -102 2.5 -182.5t9.5 -148.5t15 -118.5t24 -91.5 t32.5 -68.5t43 -47.5t52.5 -31.5t65.5 -18t76.5 -8.5t91 -2v-180q-74 1 -129.5 5t-110.5 14.5t-94 26.5t-77 43.5t-63 63.5t-48 87t-36.5 114t-23.5 145.5t-14 179.5t-4 218z" />
<glyph unicode=")" horiz-adv-x="737" d="M57 1352v182q94 -1 160 -7.5t129.5 -24.5t105.5 -46.5t80 -77t59.5 -113.5t38 -158.5t23 -208.5t6.5 -267q0 -121 -4 -218t-14.5 -179.5t-24 -145.5t-36.5 -114t-48 -87.5t-63 -63.5t-77 -43t-94 -26.5t-110 -14.5t-129 -5v180q54 0 91 2t76.5 8.5t65.5 18t52.5 31.5 t43 47.5t32.5 68.5t24 91.5t15 118.5t9.5 148.5t2.5 182.5q0 129 -4 224.5t-15.5 171.5t-25 127.5t-40.5 89t-54 58t-73 32.5t-90 15t-112 3z" />
<glyph unicode="*" horiz-adv-x="899" d="M59 948l258 146l-256 143l78 141l244 -164l-10 304h155l-12 -306l246 164l80 -143l-258 -141l256 -144l-78 -141l-246 164l8 -305h-153l12 305l-248 -164z" />
<glyph unicode="+" horiz-adv-x="1056" d="M113 602v170h327v332h178v-332h326v-170h-326v-332h-178v332h-327z" />
<glyph unicode="," horiz-adv-x="561" d="M55 -244l107 520h311l-309 -581z" />
<glyph unicode="-" horiz-adv-x="790" d="M113 469v184h567v-184h-567z" />
<glyph unicode="." horiz-adv-x="561" d="M133 0v276h295v-276h-295z" />
<glyph unicode="/" horiz-adv-x="688" d="M-8 0l518 1493h186l-518 -1493h-186z" />
<glyph unicode="0" horiz-adv-x="1312" d="M80 745q0 180 22 311t65.5 220.5t115 142.5t162 76t214.5 23q155 0 259 -35.5t177.5 -123t106.5 -236.5t33 -373t-33.5 -373.5t-107.5 -238t-179 -125t-260 -36.5q-156 0 -260 35.5t-177 123.5t-105.5 236t-32.5 373zM299 668q0 -190 38 -300t114.5 -156t207.5 -46 t206.5 45t113 154t37.5 299v163q0 190 -38.5 299.5t-115 155t-207.5 45.5t-206.5 -44.5t-112.5 -153t-37 -298.5v-163z" />
<glyph unicode="1" horiz-adv-x="677" d="M49 1307v186h479v-1493h-213v1307h-266z" />
<glyph unicode="2" horiz-adv-x="1167" d="M72 0v168l409 389q198 188 245 241q72 81 88 154q11 47 11 150q0 84 -26.5 130.5t-94 69.5t-190.5 23q-106 0 -216.5 -14t-178.5 -31l-33 184q77 22 200 38t232 16q147 0 245.5 -22t160 -72t88 -125.5t26.5 -188.5q0 -71 -4 -120t-25 -101t-35.5 -81t-67.5 -88.5t-86 -92 t-124 -119.5q-33 -32 -51 -49l-285 -275h727v-184h-1015z" />
<glyph unicode="3" horiz-adv-x="1150" d="M61 1300v193h934v-190l-356 -373q180 -27 289 -96q78 -52 112.5 -134.5t34.5 -207.5q0 -128 -31.5 -214t-105.5 -141q-197 -145 -827 -162l-15 185q295 12 459 38t233 72q76 53 76 224q0 159 -76 211q-99 66 -370 83v154l342 358h-699z" />
<glyph unicode="4" horiz-adv-x="1245" d="M45 334v211l580 954h219l-594 -979h551v441h209v-441h178v-186h-178v-334h-209v334h-756z" />
<glyph unicode="5" horiz-adv-x="1163" d="M96 827l21 666h891v-193h-703l-10 -307q478 -21 651 -141q80 -53 113 -140.5t33 -219.5q0 -259 -138 -361q-184 -139 -829 -156l-14 185q303 12 464.5 35.5t227.5 68.5q78 52 78 230q0 167 -76 219q-144 96 -709 114z" />
<glyph unicode="6" horiz-adv-x="1243" d="M82 571v246q0 193 27.5 303t101.5 183q87 83 280.5 135.5t512.5 81.5l22 -183q-311 -35 -460 -72.5t-210 -95.5q-11 -11 -20.5 -24t-16 -30t-11 -29.5t-7.5 -35.5t-5 -34.5t-2.5 -38.5t-0.5 -36v-39v-36q81 22 202 41t216 19q136 0 223.5 -20.5t144.5 -72.5t80 -134.5 t23 -211.5q0 -85 -8 -147.5t-29 -124t-60 -102.5t-99.5 -73t-149.5 -47.5t-207 -15.5t-205 15.5t-147.5 50t-98.5 79.5t-59.5 116.5t-29 148t-7.5 184.5zM293 510q0 -107 16.5 -174t58 -107.5t103.5 -55.5t162 -15q105 0 167.5 13t102.5 51t54 99t14 164q0 147 -58 203.5 t-215 56.5q-188 0 -405 -53v-182z" />
<glyph unicode="7" horiz-adv-x="1146" d="M47 1300v193h1057v-190l-574 -1303h-235l586 1300h-834z" />
<glyph unicode="8" horiz-adv-x="1302" d="M70 367q0 71 4 117t18.5 87.5t34 67t59.5 54t85 50t120 52.5q-156 69 -206 143t-50 221q0 103 34 173.5t103 111t159.5 57.5t215.5 17q128 0 221 -17t164.5 -57.5t107.5 -111.5t36 -173q0 -68 -6 -110.5t-20.5 -80t-45.5 -65t-75 -52.5t-116 -56q103 -41 160 -73.5 t96 -82t51.5 -111t12.5 -161.5q0 -111 -36 -186.5t-112.5 -119.5t-182 -62.5t-257.5 -18.5q-153 0 -256.5 18.5t-177.5 63t-107.5 119t-33.5 186.5zM283 369q0 -118 86.5 -161.5t275.5 -43.5q192 0 282.5 44t90.5 161q0 54 -5 89.5t-23 66.5t-42.5 50.5t-73 41.5 t-103.5 41.5t-145 49.5q-15 5 -22 7l-37 12q-58 -24 -90.5 -38t-67.5 -33.5t-51 -31t-33.5 -33t-23 -38t-11.5 -48t-6.5 -60t-0.5 -76.5zM348 1157q0 -122 56.5 -164.5t269.5 -110.5q1 -1 2 -1l51 -17q38 16 65 27t52 24.5t41 21.5t30 22t22 21.5t14.5 25.5t9 28t4.5 34.5 t2 39.5v49q0 100 -79 137t-243 37q-157 0 -227 -36.5t-70 -137.5z" />
<glyph unicode="9" horiz-adv-x="1243" d="M59 1008q0 85 8 148.5t29.5 124t61 102t100 73.5t149.5 47t207 15t205 -15.5t147.5 -50t98.5 -79.5t59.5 -116.5t29 -148t7.5 -184.5v-246q0 -192 -27.5 -301t-101.5 -182q-172 -163 -792 -220l-23 181q307 32 458 70.5t212 97.5q15 14 26 31t18 42.5t11 40t6 50t2.5 45 t0 51.5t-0.5 45q-79 -21 -200.5 -39.5t-217.5 -18.5q-136 0 -223.5 20.5t-145 71.5t-81 133.5t-23.5 211.5zM272 1010q0 -148 58.5 -204t216.5 -56q191 0 403 53v182q0 108 -16.5 175t-58 107t-103.5 55t-162 15q-105 0 -167.5 -13t-102.5 -51t-54 -99t-14 -164z" />
<glyph unicode=":" horiz-adv-x="559" d="M133 0v276h293v-276h-293zM133 688v275h293v-275h-293z" />
<glyph unicode=";" horiz-adv-x="559" d="M55 -244l107 520h309l-309 -581zM133 688v275h293v-275h-293z" />
<glyph unicode="&#x3c;" horiz-adv-x="788" d="M59 672l402 430h219l-404 -430l404 -426h-219z" />
<glyph unicode="=" horiz-adv-x="974" d="M119 418v164h737v-164h-737zM119 788v164h737v-164h-737z" />
<glyph unicode="&#x3e;" horiz-adv-x="788" d="M106 246l404 430l-404 426h220l401 -426l-401 -430h-220z" />
<glyph unicode="?" horiz-adv-x="1128" d="M68 1464q73 22 207.5 39t261.5 17q207 0 325 -37.5t169.5 -119t51.5 -224.5q0 -97 -18.5 -161.5t-73.5 -123.5t-145 -108t-242 -109v-209h-205v313q112 43 179 71t125.5 59t86 53.5t48 55.5t25.5 65t5 81q0 113 -71.5 157t-259.5 44q-221 0 -433 -47zM358 0v262h279v-262 h-279z" />
<glyph unicode="@" horiz-adv-x="2000" d="M96 502q0 177 18.5 307.5t62.5 232t111 167.5t170.5 108.5t234 60t308.5 17.5q212 0 361.5 -27.5t256.5 -85.5t169.5 -157.5t90.5 -234t28 -325.5q0 -120 -13.5 -204.5t-48.5 -150.5t-87.5 -106t-139.5 -65.5t-195 -35t-262 -9.5l-28 115q-197 -125 -361 -125 q-53 0 -92.5 8t-77 28.5t-60.5 58.5t-36 95t-9 141.5t25 194.5q24 126 53.5 213.5t59 138t69.5 78t75.5 35.5t86.5 8q88 0 211 -32.5t197 -65.5l51 78h160l-152 -813q87 0 148 7t110 26t78.5 48t49 77t27 109.5t7.5 149.5q0 140 -16 242.5t-54 179t-93 125t-142.5 78.5 t-193 41.5t-253.5 11.5q-150 0 -253 -10.5t-192.5 -41t-143.5 -81.5t-92.5 -135t-54 -198t-15.5 -275q0 -121 8.5 -214.5t29.5 -169.5t50 -130.5t76 -95.5t101 -66.5t131 -40.5t160.5 -21t194.5 -6h222v-149h-222q-178 0 -308.5 17.5t-234 59.5t-170.5 107.5t-111 167 t-62.5 232t-18.5 307.5zM705 295q3 -77 34.5 -106t104.5 -29t161.5 37t147.5 86l82 444q-59 27 -153.5 51.5t-163.5 24.5q-47 0 -77.5 -21t-58 -86t-51.5 -188q-29 -136 -26 -213z" />
<glyph unicode="A" horiz-adv-x="1413" d="M35 0l575 1503h193l575 -1503h-221l-121 322h-669l-121 -322h-211zM436 504h531l-265 700z" />
<glyph unicode="B" horiz-adv-x="1333" d="M145 0v1493h582q121 0 204.5 -17.5t147.5 -61t94.5 -121.5t30.5 -195q0 -273 -213 -322q120 -19 186 -109.5t66 -250.5q0 -221 -117.5 -318.5t-359.5 -97.5h-621zM356 180h410q45 0 82 6t71.5 22.5t58.5 43.5t38 71t14 103t-14 103.5t-37.5 71.5t-58.5 44t-72 23t-82 6 h-410v-494zM356 846h371q47 0 82 4.5t71 19t59 39t37.5 67.5t14.5 101t-14.5 101t-38 67.5t-59 39.5t-71 19.5t-81.5 4.5h-371v-463z" />
<glyph unicode="C" horiz-adv-x="1216" d="M82 745q0 110 10 203t28 165.5t46.5 130.5t61 100t75.5 73t87.5 50t99.5 30.5t108 16t117 4.5q233 0 415 -52l-38 -184q-215 41 -381 41q-109 0 -181.5 -23t-124.5 -81.5t-75 -159.5t-23 -256v-105q0 -201 45 -318t132 -164.5t231 -47.5q113 0 219.5 16t159.5 31l39 -184 q-162 -51 -422 -51q-84 0 -149 7t-133 27.5t-117.5 55t-95 92.5t-73.5 137.5t-44.5 192t-16.5 253.5z" />
<glyph unicode="D" horiz-adv-x="1380" d="M145 0v1493h519q107 0 187.5 -12.5t155 -43t126 -85t90 -136.5t57 -199.5t18.5 -271.5q0 -132 -14.5 -237t-40.5 -183t-68 -134.5t-92 -93t-117.5 -58.5t-139 -30.5t-162.5 -8.5h-519zM358 180h304q105 0 177.5 23.5t127 81t80.5 159t26 252.5v99q0 151 -26 252.5 t-80.5 158.5t-127 80t-177.5 23h-304v-1129z" />
<glyph unicode="E" horiz-adv-x="1155" d="M145 0v1493h926v-193h-713v-426h553v-190h-553v-496h713v-188h-926z" />
<glyph unicode="F" horiz-adv-x="1116" d="M145 0v1493h928v-193h-715v-526h541v-186h-541v-588h-213z" />
<glyph unicode="G" horiz-adv-x="1318" d="M82 745q0 142 16.5 254.5t45.5 193t75 139t97.5 94t121 56.5t137 28.5t154.5 7.5q146 0 264 -16.5t176 -35.5l-36 -186q-226 43 -408 43q-115 0 -190.5 -23t-128.5 -81.5t-76 -159.5t-23 -256v-105q0 -202 44.5 -319t133 -165t238.5 -48q159 0 278 27v530h203v-680 q-72 -23 -203 -43t-290 -20q-84 0 -149 7t-133 27.5t-117.5 55t-95 92.5t-73.5 137.5t-44.5 192t-16.5 253.5z" />
<glyph unicode="H" horiz-adv-x="1484" d="M145 0v1493h213v-606h766v606h213v-1493h-213v690h-766v-690h-213z" />
<glyph unicode="I" horiz-adv-x="536" d="M162 0v1493h215v-1493h-215z" />
<glyph unicode="J" horiz-adv-x="1028" d="M43 29l27 188q231 -37 350 -37q60 0 103 8t73 28.5t48 47t28 71.5t13 93t3 121v944h213v-965q0 -156 -23 -256t-80 -164.5t-147.5 -91t-230.5 -26.5q-211 0 -377 39z" />
<glyph unicode="K" horiz-adv-x="1366" d="M145 0v1493h215v-676l664 676h248l-567 -580l593 -913h-249l-494 762l-195 -199v-563h-215z" />
<glyph unicode="L" horiz-adv-x="1165" d="M131 0v1493h213v-1305h778v-188h-991z" />
<glyph unicode="M" horiz-adv-x="1757" d="M145 0v1493h226l508 -1208l507 1208h226v-1493h-209v1063l-445 -1063h-174l-444 1063v-1063h-195z" />
<glyph unicode="N" horiz-adv-x="1454" d="M145 0v1493h209l750 -1110v1110h205v-1493h-187l-772 1141v-1141h-205z" />
<glyph unicode="O" d="M82 745q0 135 17 244t47 189t76.5 139.5t100 97.5t122 61.5t138.5 32.5t154 9t153.5 -9t138.5 -32t121.5 -60t98.5 -96.5t76 -138.5t47 -188t17 -244q0 -187 -33.5 -325.5t-89.5 -223t-142 -136t-178.5 -70t-212.5 -18.5q-84 0 -153.5 9t-138 32t-121.5 60t-99 96.5 t-75.5 138.5t-46.5 188t-17 244zM307 698q0 -126 20 -219.5t55 -153t90 -95.5t118.5 -50t146.5 -14q84 0 147 13.5t117.5 49t88.5 94.5t53.5 152t19.5 219v105q0 156 -29 261.5t-87.5 163t-133 80.5t-180.5 23q-105 0 -179 -22.5t-132 -79t-86.5 -161.5t-28.5 -261v-105z " />
<glyph unicode="P" horiz-adv-x="1304" d="M145 0v1493h572q137 0 232 -24.5t162 -81t98.5 -151t31.5 -232.5q0 -137 -32.5 -232t-100 -152.5t-163.5 -82.5t-232 -25h-355v-512h-213zM358 694h359q60 0 101.5 5t84 23t68 50.5t41.5 89t16 137.5q0 68 -10.5 119.5t-32.5 85t-48 55t-64.5 32.5t-74.5 14.5t-85 3.5 h-355v-615z" />
<glyph unicode="Q" d="M82 745q0 135 17 244t47 189t76.5 139.5t100 97.5t122 61.5t138.5 32.5t154 9t153.5 -9t138.5 -32t121.5 -60t98.5 -96.5t76 -138.5t47 -188t17 -244q0 -528 -275 -687l201 -346h-262l-160 277q-64 -10 -160 -10q-85 0 -154 8.5t-138 31t-121.5 59t-98.5 95t-75.5 137 t-46.5 187t-17 243.5zM307 698q0 -126 20 -220t55 -154t90 -96.5t118.5 -51t146.5 -14.5q40 0 58 2l-187 319h262l144 -247q149 115 149 458v105q0 126 -19.5 219t-54.5 152.5t-90 95.5t-118.5 50.5t-147.5 14.5q-105 0 -179 -23t-132 -80.5t-86.5 -163t-28.5 -261.5v-105z " />
<glyph unicode="R" horiz-adv-x="1361" d="M145 0v1493h551q138 0 232.5 -23t162 -77.5t99 -147.5t31.5 -231q0 -205 -73 -307t-222 -136l372 -571h-247l-349 532h-344v-532h-213zM358 715h338q64 0 106.5 5t84.5 22.5t66.5 49.5t39.5 86t15 132t-16 133.5t-41 87.5t-68 50t-85.5 23t-105.5 5h-334v-594z" />
<glyph unicode="S" horiz-adv-x="1230" d="M96 51l35 185q73 -18 212.5 -39t240.5 -21q92 0 149 9t99 34.5t59.5 72t17.5 120.5q0 44 -4.5 74t-20.5 54.5t-34 39t-59.5 29.5t-80.5 24.5t-112 25.5q-104 23 -171.5 42.5t-126.5 46t-92 56.5t-57.5 74.5t-33 99.5t-8.5 132q0 211 129 305t383 94q126 0 259.5 -17 t188.5 -32l-35 -184q-232 41 -418 41q-153 0 -220.5 -44.5t-67.5 -160.5q0 -45 5 -75.5t21 -56t36 -41.5t60.5 -31.5t82.5 -26.5t114 -27q71 -15 116.5 -26.5t98.5 -28t85 -33t66.5 -40.5t53.5 -52.5t36 -67t23.5 -86t6.5 -106.5q0 -99 -23.5 -172.5t-67 -122t-112.5 -78 t-152.5 -41.5t-195.5 -12q-136 0 -278.5 20.5t-207.5 42.5z" />
<glyph unicode="T" horiz-adv-x="1284" d="M43 1300v193h1196v-193h-489v-1300h-213v1300h-494z" />
<glyph unicode="U" horiz-adv-x="1443" d="M129 528v965h215v-946q0 -110 19.5 -180t66.5 -112.5t118 -59.5t181 -17q74 0 127 6t97.5 22t72.5 42t47.5 67.5t28 96.5t8.5 131v950h207v-961q0 -132 -24.5 -227.5t-70 -158t-120 -99.5t-164.5 -52t-213 -15q-124 0 -213.5 14t-165 49.5t-121.5 97.5t-71 158t-25 229z " />
<glyph unicode="V" horiz-adv-x="1413" d="M35 1493h221l455 -1200l456 1200h211l-575 -1503h-193z" />
<glyph unicode="W" horiz-adv-x="1898" d="M35 1493h219l301 -1096l315 1084h172l299 -1084l318 1096h205l-439 -1503h-163l-314 1136l-327 -1136h-168z" />
<glyph unicode="X" horiz-adv-x="1443" d="M78 0l510 788l-467 705h250l362 -551l354 551h228l-465 -723l510 -770h-248l-407 616l-400 -616h-227z" />
<glyph unicode="Y" horiz-adv-x="1400" d="M35 1493h233l439 -715l438 715h221l-559 -915v-578h-213v575z" />
<glyph unicode="Z" horiz-adv-x="1234" d="M63 0v172l830 1128h-811v193h1069v-184l-821 -1121h833v-188h-1100z" />
<glyph unicode="[" horiz-adv-x="632" d="M133 -266v1800h445v-182h-259v-1438h259v-180h-445z" />
<glyph unicode="\" horiz-adv-x="688" d="M-8 1493h186l518 -1493h-186z" />
<glyph unicode="]" horiz-adv-x="632" d="M59 -86h263v1438h-263v182h443v-1800h-443v180z" />
<glyph unicode="^" horiz-adv-x="1148" d="M111 733l364 758h199l362 -758h-213l-256 549l-258 -549h-198z" />
<glyph unicode="_" horiz-adv-x="974" d="M-72 -109h1123v-176h-1123v176z" />
<glyph unicode="`" horiz-adv-x="931" d="M104 1475h312l186 -373h-141z" />
<glyph unicode="a" horiz-adv-x="1040" d="M76 283q0 93 19.5 151t68.5 86q75 43 191.5 56.5t353.5 13.5v43q0 55 -6 87.5t-25 57.5t-54.5 35t-93.5 10q-154 0 -329 -35l-29 173q187 38 363 38q213 0 296.5 -74.5t83.5 -260.5v-664h-165l-31 100q-188 -114 -385 -114q-52 0 -95.5 14t-81.5 46.5t-59.5 92.5 t-21.5 144zM285 287q0 -78 31 -105.5t100 -27.5q71 0 155.5 27.5t137.5 58.5v217q-310 0 -381 -41q-43 -25 -43 -129z" />
<glyph unicode="b" horiz-adv-x="1136" d="M131 0v1534h207v-664q64 36 180.5 75.5t218.5 39.5q39 0 69.5 -4.5t64 -17.5t59 -35t49.5 -59.5t39 -89t24 -125.5t9 -167t-9.5 -167.5t-25.5 -126.5t-41 -90.5t-51.5 -60.5t-61 -35.5t-65.5 -18t-70 -4.5q-109 0 -221 30t-176 60l-39 -74h-160zM338 227q179 -65 317 -65 q68 0 105.5 24.5t57.5 94.5t20 202t-19.5 201t-56 93t-105.5 24q-76 0 -165.5 -26.5t-153.5 -57.5v-490z" />
<glyph unicode="c" horiz-adv-x="925" d="M70 489q0 279 114.5 394.5t364.5 115.5q147 0 295 -36l-35 -175q-158 31 -266 31q-56 0 -94.5 -7t-72 -27t-52.5 -56t-30 -94t-11 -141q0 -104 16 -171t51.5 -103.5t81 -50t115.5 -13.5q132 0 264 34l37 -170q-153 -43 -307 -43q-248 0 -359.5 115.5t-111.5 396.5z" />
<glyph unicode="d" horiz-adv-x="1136" d="M86 483q0 92 9.5 166.5t25.5 126.5t41 90t51 60.5t60.5 36t65.5 18t69 4.5q183 0 389 -86v635h209v-1534h-168l-31 100q-39 -21 -92 -44.5t-146 -48.5t-170 -25q-39 0 -69.5 4.5t-64 17.5t-59 35.5t-49 60.5t-38.5 89.5t-24 126t-9 167.5zM299 487q0 -133 18.5 -202.5 t55 -93t106.5 -23.5q79 0 167 26.5t151 57.5v489q-59 22 -149 44t-167 22q-68 0 -105.5 -24.5t-57 -94.5t-19.5 -201z" />
<glyph unicode="e" horiz-adv-x="1007" d="M70 489q0 143 32 245.5t92.5 160t137 83.5t176.5 26q219 0 319.5 -101.5t100.5 -351.5v-94h-647q1 -93 18 -153t54.5 -92t84 -44t117.5 -12q177 0 297 30l31 -170q-53 -14 -152 -26.5t-178 -12.5q-254 0 -368.5 115.5t-114.5 396.5zM285 594h434q0 143 -48.5 194.5 t-168.5 51.5q-99 0 -153 -53.5t-64 -192.5z" />
<glyph unicode="f" horiz-adv-x="722" d="M57 784v179h162v200q0 72 8 117.5t32.5 88t72 70.5t123 52t190.5 45l39 -186q-92 -19 -141.5 -34.5t-76 -41.5t-32.5 -53.5t-6 -81.5v-176h242v-179h-242v-784h-209v784h-162z" />
<glyph unicode="g" horiz-adv-x="1136" d="M86 485q0 128 18.5 221.5t47.5 146t74 83.5t87 40t97 9q106 0 226 -35t171 -67l41 80h158v-885q0 -100 -7.5 -169.5t-27.5 -128t-52.5 -94t-85.5 -60t-123 -34.5t-169 -10t-206 8.5t-159 18.5l21 176q154 -23 342 -23q59 0 94.5 3t68 15t48.5 32t28.5 57t16.5 86t4 123 v37q-56 -41 -175 -84t-225 -43q-55 0 -95.5 8.5t-84 39t-71 82.5t-45 145t-17.5 222zM299 489q0 -133 19 -204t56.5 -96t106.5 -25q78 0 171 32.5t147 69.5v459q-42 27 -139.5 54.5t-176.5 27.5q-69 0 -106.5 -23.5t-57.5 -93.5t-20 -201z" />
<glyph unicode="h" horiz-adv-x="1130" d="M131 0v1534h207v-680q54 44 178 87.5t219 43.5q135 0 202 -62.5t67 -197.5v-725h-207v657q0 79 -31 111.5t-115 32.5q-70 0 -162 -30.5t-151 -72.5v-698h-207z" />
<glyph unicode="i" horiz-adv-x="489" d="M137 1171v252h215v-252h-215zM141 0v963h207v-963h-207z" />
<glyph unicode="j" horiz-adv-x="489" d="M-117 -223q61 13 102 24t70.5 25.5t46 28t25.5 36t11.5 44t2.5 57.5v971h207v-1000q0 -89 -14.5 -143.5t-60.5 -101t-130.5 -75.5t-224.5 -51zM137 1171v252h215v-252h-215z" />
<glyph unicode="k" horiz-adv-x="1040" d="M131 0v1534h207v-1002l412 431h219l-357 -369l389 -594h-231q-297 449 -299 449q-133 -138 -133 -140v-309h-207z" />
<glyph unicode="l" horiz-adv-x="489" d="M141 0v1534h207v-1534h-207z" />
<glyph unicode="m" horiz-adv-x="1757" d="M131 0v963h170l29 -111q82 53 191.5 93t207.5 40q189 0 238 -139q91 58 200 98.5t207 40.5q132 0 194 -62.5t62 -203.5v-719h-207v657q0 81 -26.5 112.5t-108.5 31.5q-67 0 -154 -30t-149 -73v-698h-207v657q0 80 -27 112t-108 32q-71 0 -158.5 -30.5t-144.5 -72.5v-698 h-209z" />
<glyph unicode="n" horiz-adv-x="1130" d="M131 0v963h168l31 -97q62 36 181 77.5t224 41.5q134 0 201.5 -63t67.5 -197v-725h-207v657q0 79 -31 111.5t-115 32.5q-72 0 -166.5 -28.5t-144.5 -57.5v-715h-209z" />
<glyph unicode="o" horiz-adv-x="1112" d="M70 489q0 276 120 395.5t369 119.5q248 0 364.5 -117t116.5 -393q0 -278 -118.5 -397.5t-366.5 -119.5q-249 0 -367 117.5t-118 394.5zM283 494q0 -104 18.5 -174t57 -107t85.5 -51.5t115 -14.5q54 0 93 8t74 30.5t56.5 60t34 98.5t12.5 145q0 104 -18.5 172.5t-56.5 105 t-84.5 50.5t-114.5 14q-54 0 -93 -8t-74.5 -29.5t-57.5 -58.5t-34.5 -97.5t-12.5 -143.5z" />
<glyph unicode="p" horiz-adv-x="1136" d="M131 -410v1373h168l29 -97q39 22 92.5 45.5t146 48.5t170.5 25q39 0 69.5 -4.5t64 -17.5t59 -35t49.5 -59.5t39 -89t24 -125.5t9 -167t-9.5 -167.5t-25.5 -126.5t-41 -90.5t-51.5 -60.5t-61 -35.5t-65.5 -18t-70 -4.5q-183 0 -389 86v-480h-207zM338 227q179 -65 317 -65 q68 0 105.5 24.5t57.5 94.5t20 202t-19.5 201t-56 93t-105.5 24q-78 0 -165.5 -26t-153.5 -58v-490z" />
<glyph unicode="q" horiz-adv-x="1128" d="M78 483q0 107 12 190t35.5 137t52 89.5t67.5 53.5t75 25t81 7q109 0 221.5 -30t176.5 -60l39 84h159v-1389h-206v506q-40 -21 -93.5 -43.5t-143.5 -46.5t-163 -24q-39 0 -69.5 4.5t-64 17.5t-59 35.5t-49 60.5t-38.5 89.5t-24 126t-9 167.5zM291 487q0 -133 19 -202.5 t55.5 -93t105.5 -23.5q77 0 166 26.5t154 57.5v489q-182 66 -318 66q-68 0 -105.5 -24.5t-57 -94.5t-19.5 -201z" />
<glyph unicode="r" horiz-adv-x="757" d="M131 0v963h168l31 -113q186 111 356 137l25 -192q-93 -10 -202.5 -37t-168.5 -60v-698h-209z" />
<glyph unicode="s" horiz-adv-x="974" d="M92 31l27 157q51 -15 157.5 -31t188.5 -16q137 0 182 28.5t45 113.5q0 60 -38.5 82t-168.5 41q-83 12 -134.5 22t-99 26t-72.5 35.5t-44.5 50.5t-26 71t-6.5 98q0 156 96.5 221t299.5 65q103 0 207.5 -10t150.5 -22l-29 -160q-56 10 -160.5 20.5t-172.5 10.5 q-108 0 -149.5 -26.5t-41.5 -92.5q0 -70 42.5 -91t205.5 -40q205 -25 276.5 -83.5t71.5 -205.5q0 -78 -18.5 -133.5t-51.5 -90.5t-89 -55t-120.5 -27t-156.5 -7q-98 0 -208 15.5t-163 33.5z" />
<glyph unicode="t" horiz-adv-x="745" d="M39 784v179h154v325l206 41v-366h250v-179h-250v-475q0 -83 19.5 -112t66.5 -29q68 0 166 12l13 -172q-118 -18 -238 -18q-122 0 -177.5 67t-55.5 213v514h-154z" />
<glyph unicode="u" horiz-adv-x="1126" d="M125 242v721h209v-654q0 -79 30.5 -111t114.5 -32q72 0 165 27t142 55v715h209v-963h-168l-30 96q-65 -37 -181.5 -76.5t-220.5 -39.5q-134 0 -202 64t-68 198z" />
<glyph unicode="v" horiz-adv-x="1026" d="M31 963h221l272 -734l271 734h200l-381 -971h-202z" />
<glyph unicode="w" horiz-adv-x="1536" d="M31 963h215l209 -676l239 665h170l236 -665l211 676h192l-313 -971h-176l-246 694l-246 -694h-176z" />
<glyph unicode="x" horiz-adv-x="1048" d="M49 0l352 502l-325 461h237l228 -320l219 320h211l-326 -467l352 -496h-237l-254 358l-246 -358h-211z" />
<glyph unicode="y" horiz-adv-x="1030" d="M31 963h221q278 -703 278 -705l271 705h196l-536 -1373h-209l166 424z" />
<glyph unicode="z" horiz-adv-x="946" d="M57 0v152l555 639h-530v172h786v-152l-549 -639h578v-172h-840z" />
<glyph unicode="{" horiz-adv-x="868" d="M25 551v178h186q2 135 10.5 238t26.5 185.5t41 141t61 101.5t79.5 69t103.5 41.5t125.5 21.5t152.5 7v-182q-54 0 -91 -2t-76.5 -8.5t-65.5 -18t-52.5 -32t-43 -48t-32.5 -68.5t-24 -92t-15 -119.5t-9.5 -149t-2.5 -183.5q0 -102 2.5 -182.5t9.5 -148.5t15 -118.5 t24 -91.5t32.5 -68.5t43 -47.5t52.5 -31.5t65.5 -18t76.5 -8.5t91 -2v-180q-71 1 -124.5 4.5t-107 13t-92 24.5t-76 39.5t-63 57.5t-49 79t-38 103.5t-26 132.5t-17 164t-7.5 199h-186z" />
<glyph unicode="|" horiz-adv-x="690" d="M260 -410v2028h170v-2028h-170z" />
<glyph unicode="}" horiz-adv-x="868" d="M57 -86q54 0 91 2t77 8.5t65.5 17.5t52.5 31.5t43 48t32 68t24 91t15 118.5t9.5 149t2.5 183t-2.5 182.5t-9.5 149t-15.5 119t-24 91.5t-32 69t-43 48.5t-52.5 32t-65.5 18.5t-76.5 9t-91 2v182q89 -1 153 -7t126 -22t103.5 -42.5t79.5 -70t61 -103.5t41 -144t26 -189.5 t10 -242.5h187v-178h-187q-2 -108 -7.5 -195t-17 -160.5t-26 -130t-38 -102t-49 -77.5t-63.5 -56t-76.5 -38.5t-92 -24t-106.5 -13t-124 -4.5v180z" />
<glyph unicode="~" horiz-adv-x="972" d="M63 698q100 84 154.5 118t106.5 34q45 0 178 -47t147 -47q5 0 11 1.5t13 4.5t13 6.5t15.5 10t16.5 12t18.5 15t20 16.5t23.5 19.5t25 20.5l104 -123q-114 -95 -152 -118q-57 -35 -110 -35q-45 0 -177 47t-148 47q-27 0 -128 -84q-6 -4 -9 -6.5t-8 -7t-9 -7.5z" />
<glyph unicode="&#xa1;" horiz-adv-x="634" d="M178 1231v262h279v-262h-279zM180 0l56 1065h159l56 -1065h-271z" />
<glyph unicode="&#xa2;" horiz-adv-x="919" d="M70 750q0 244 86 361.5t270 141.5v244h178v-237q129 -6 240 -35l-35 -172q-116 24 -207 28v-665q90 5 209 35l37 -168q-104 -31 -244 -41v-242h-178v246q-185 24 -270.5 141t-85.5 363zM283 754q0 -151 35.5 -226.5t111.5 -99.5v643q-76 -21 -111.5 -92.5t-35.5 -224.5z " />
<glyph unicode="&#xa3;" horiz-adv-x="1183" d="M57 0v188h303q-28 114 -100 482h-203v176h170q-32 201 -32 274q0 204 108.5 302t366.5 98q212 0 422 -54l-39 -186q-176 45 -383 45q-149 0 -204.5 -48.5t-55.5 -162.5q0 -96 26 -268h416v-176h-381q27 -144 100 -482h543v-188h-1057z" />
<glyph unicode="&#xa4;" horiz-adv-x="1132" d="M51 289l166 166q-43 90 -43 233q0 141 45 236l-168 168l115 114l162 -162q89 60 239 60q152 0 238 -60l162 162l114 -114l-168 -166q43 -90 43 -234t-45 -233l170 -170l-114 -115l-162 164q-95 -59 -242 -59q-148 0 -237 57l-160 -162zM352 692q0 -82 15 -135.5t46 -80.5 t66.5 -36.5t87.5 -9.5t86.5 9t65 35t45 79t14.5 135t-15 136.5t-46 81t-66.5 36.5t-87.5 10t-86.5 -9t-65 -35.5t-45 -79.5t-14.5 -136z" />
<glyph unicode="&#xa5;" horiz-adv-x="1390" d="M35 1493h241l431 -717l430 717h219l-369 -600h305v-160h-403l-90 -147v-56h493v-157h-493v-373h-213v373h-496v157h496v52l-92 151h-404v160h307z" />
<glyph unicode="&#xa6;" horiz-adv-x="690" d="M260 -410v871h170v-871h-170zM260 748v870h170v-870h-170z" />
<glyph unicode="&#xa7;" horiz-adv-x="1146" d="M102 700q0 140 107 287q-70 65 -70 232q0 151 98.5 222.5t323.5 71.5q118 0 235.5 -16t172.5 -33l-37 -153q-62 13 -173 26t-192 13q-93 0 -142 -13t-67 -40t-18 -78q0 -90 44.5 -111t236.5 -35q16 -1 24 -2q160 -13 246 -42.5t122 -82.5t36 -145q0 -133 -109 -289 q70 -62 70 -229q0 -150 -99 -221.5t-323 -71.5q-121 0 -238.5 12t-169.5 27l29 155q194 -34 373 -34q95 0 144 13t66 39.5t17 78.5q0 92 -42.5 112.5t-232.5 34.5q-17 1 -26 2q-232 19 -319 76.5t-87 193.5zM293 743q0 -67 50.5 -92.5t211.5 -38.5q162 -13 236 -32 q65 100 65 178q0 46 -20.5 70t-75 38t-166.5 23q-160 13 -236 33q-65 -97 -65 -179z" />
<glyph unicode="&#xa8;" horiz-adv-x="933" d="M139 1116v246h248v-246h-248zM545 1116v246h252v-246h-252z" />
<glyph unicode="&#xa9;" horiz-adv-x="1705" d="M96 748q0 154 18 270.5t59 202.5t99.5 143t146 92t192 49.5t243.5 14.5t243 -14.5t191 -49.5t145.5 -92t99.5 -143t59 -202.5t18 -270.5q0 -185 -28 -316.5t-83 -220.5t-148 -141t-211.5 -73.5t-285.5 -21.5q-168 0 -286.5 21.5t-212 73.5t-148.5 141t-83 220.5 t-28 316.5zM244 750q0 -105 8 -187t26.5 -146.5t43 -111t64 -80t82.5 -54t106 -32.5t127.5 -16t152.5 -4t152 4t126.5 16t105.5 32.5t82 54t63.5 80t43 111t26 146.5t7.5 187t-7.5 186.5t-26 145.5t-43 110t-63.5 79t-82 53.5t-106 32t-126.5 15.5t-151.5 4t-152.5 -4 t-127.5 -15.5t-106 -32t-83 -53.5t-64 -79t-42.5 -110t-26.5 -145.5t-8 -186.5zM465 745q0 104 13.5 183t40.5 131t60.5 86.5t82 52.5t95.5 24.5t109 6.5t117.5 -6t81 -11t80.5 -18l-41 -147q-157 26 -242 26q-119 0 -170 -64t-51 -231v-57q0 -167 52.5 -234t172.5 -67 q94 0 246 29l35 -146q-125 -37 -285 -37q-53 0 -93.5 4.5t-83.5 17t-74 34t-60 58t-47 86t-28.5 120t-10.5 159.5z" />
<glyph unicode="&#xaa;" horiz-adv-x="851" d="M74 934q0 75 13.5 121.5t55.5 74.5q54 33 151.5 46.5t285.5 13.5q0 6 1 19.5t1 19.5q0 80 -27 110.5t-111 30.5q-188 0 -272 -24l-29 141q119 33 295 33t252 -56t76 -204v-551h-152l-24 71q-86 -34 -118.5 -46t-86 -25t-96.5 -13t-79 12t-68 37.5t-50 74t-18 114.5z M98 444v156h668v-156h-668zM256 932q0 -52 23 -71t77 -19q92 0 226 67v160q-226 0 -293 -31q-23 -11 -28 -33t-5 -73z" />
<glyph unicode="&#xab;" horiz-adv-x="1091" d="M102 469l246 422h187l-222 -422l222 -418h-187zM528 469l246 422h187l-222 -422l222 -418h-187z" />
<glyph unicode="&#xac;" horiz-adv-x="1054" d="M115 602v168h807v-500h-177v332h-630z" />
<glyph unicode="&#xad;" horiz-adv-x="790" d="M113 469v184h567v-184h-567z" />
<glyph unicode="&#xae;" horiz-adv-x="1705" d="M96 748q0 154 18 270.5t59 202.5t99.5 143t146 92t192 49.5t243.5 14.5t243 -14.5t191 -49.5t145.5 -92t99.5 -143t59 -202.5t18 -270.5q0 -185 -28 -316.5t-83 -220.5t-148 -141t-211.5 -73.5t-285.5 -21.5q-168 0 -286.5 21.5t-212 73.5t-148.5 141t-83 220.5 t-28 316.5zM244 750q0 -105 8 -187t26.5 -146.5t43 -111t64 -80t82.5 -54t106 -32.5t127.5 -16t152.5 -4t152 4t126.5 16t105.5 32.5t82 54t63.5 80t43 111t26 146.5t7.5 187t-7.5 186.5t-26 145.5t-43 110t-63.5 79t-82 53.5t-106 32t-126.5 15.5t-151.5 4t-152.5 -4 t-127.5 -15.5t-106 -32t-83 -53.5t-64 -79t-42.5 -110t-26.5 -145.5t-8 -186.5zM526 297v907h387q137 0 208 -67.5t71 -227.5q0 -117 -34.5 -183t-117.5 -91l236 -338h-186l-220 305h-178v-305h-166zM692 737h195q70 0 104.5 38t34.5 132q0 91 -33.5 124.5t-93.5 33.5h-207 v-328z" />
<glyph unicode="&#xaf;" horiz-adv-x="944" d="M174 1102v201h598v-201h-598z" />
<glyph unicode="&#xb0;" horiz-adv-x="909" d="M63 1104q0 215 98.5 315.5t295.5 100.5t294 -98.5t97 -313.5t-99 -315.5t-296 -100.5t-293.5 98.5t-96.5 313.5zM248 1108q0 -82 14.5 -135.5t44 -80.5t64 -36.5t86.5 -9.5q53 0 87 9t63.5 35t43 79t13.5 135t-14.5 135.5t-44.5 80.5t-65 36.5t-87 9.5t-85.5 -9t-63 -35 t-43 -79t-13.5 -135z" />
<glyph unicode="&#xb1;" horiz-adv-x="1054" d="M115 0v166h827v-166h-827zM115 614v166h325v322h176v-322h326v-166h-326v-319h-176v319h-325z" />
<glyph unicode="&#xb2;" horiz-adv-x="884" d="M104 539v141l254 240q129 121 155 152q36 45 40 99q2 19 2 54q0 62 -33.5 86t-124.5 24q-114 0 -258 -32l-30 161q143 41 292 41q189 0 263.5 -62t74.5 -210q0 -28 -2 -51.5t-4 -42.5t-10.5 -39t-13 -33.5t-20.5 -34.5t-24.5 -32t-33 -37t-37.5 -39t-47.5 -47t-54.5 -54 l-119 -118h397v-166h-666z" />
<glyph unicode="&#xb3;" horiz-adv-x="901" d="M109 1327v166h616v-154l-201 -196q98 -20 148 -51q54 -34 77 -89t23 -137q0 -165 -92 -233q-127 -96 -541 -107l-10 168q356 11 430 60q35 23 35 114q0 89 -33 107q-24 15 -67 25t-70 13t-94 9v125l186 180h-407z" />
<glyph unicode="&#xb4;" horiz-adv-x="931" d="M332 1102l186 373h309l-356 -373h-139z" />
<glyph unicode="&#xb5;" horiz-adv-x="1122" d="M127 -410v1373h203v-656q0 -81 30 -113t117 -32q72 0 164.5 27.5t144.5 56.5v717h203v-963h-162l-30 96q-52 -31 -160.5 -64.5t-210.5 -33.5q-60 0 -96 20v-428h-203z" />
<glyph unicode="&#xb6;" horiz-adv-x="1206" d="M53 1042q0 130 28.5 218t88.5 139t142 72.5t200 21.5h549v-1493h-203v598h-184v-598h-199v600q-105 1 -180 22.5t-131 71t-83.5 136t-27.5 212.5zM256 1038q0 -69 14 -119t35 -78.5t55.5 -44.5t67 -21t76.5 -5h354v539h-350q-45 0 -78 -5t-67.5 -22t-56.5 -45.5t-36 -79 t-14 -119.5z" />
<glyph unicode="&#xb7;" horiz-adv-x="552" d="M135 606v266h287v-266h-287z" />
<glyph unicode="&#xb8;" horiz-adv-x="1011" d="M319 -240q121 21 177 54l-35 196l162 33l61 -319q-40 -42 -126.5 -79.5t-203.5 -56.5z" />
<glyph unicode="&#xb9;" horiz-adv-x="675" d="M133 1325v168h342v-952h-182v784h-160z" />
<glyph unicode="&#xba;" horiz-adv-x="907" d="M59 1104q0 221 98.5 317.5t299.5 96.5q202 0 297.5 -94t95.5 -316t-97.5 -318t-299.5 -96q-201 0 -297.5 94.5t-96.5 315.5zM113 444v156h686v-156h-686zM250 1108q0 -80 13.5 -133t42 -81t64 -39t87.5 -11t87 10t63.5 37.5t41.5 80t13 132.5t-14 133t-43 80.5t-64.5 38 t-87.5 10.5q-42 0 -71 -6t-55.5 -22t-42.5 -44.5t-25 -74.5t-9 -111z" />
<glyph unicode="&#xbb;" horiz-adv-x="1091" d="M131 51l221 422l-221 418h186l246 -418l-246 -422h-186zM557 891h186l246 -418l-246 -422h-184l219 422z" />
<glyph unicode="&#xbc;" horiz-adv-x="1767" d="M133 1325v168h342v-952h-182v784h-160zM424 0l575 1493h185l-576 -1493h-184zM930 199v161l358 594h195l-359 -594h258v244h181v-244h106v-161h-106v-199h-181v199h-452z" />
<glyph unicode="&#xbd;" horiz-adv-x="1888" d="M133 1325v168h342v-952h-182v784h-160zM424 0l575 1493h185l-576 -1493h-184zM1063 0v139l254 242q129 124 150 148q41 47 47 98q2 20 2 59q0 62 -34 85.5t-124 23.5q-120 0 -260 -31l-31 162q143 41 293 41q189 0 264.5 -63t75.5 -212q0 -35 -3.5 -62.5t-7 -49 t-17.5 -46t-22.5 -39t-35 -43.5t-41.5 -44.5t-56.5 -56.5t-66.5 -66l-119 -121h398v-164h-666z" />
<glyph unicode="&#xbe;" horiz-adv-x="1943" d="M109 1327v166h616v-154l-201 -196q98 -20 148 -51q54 -34 77 -89t23 -137q0 -165 -92 -233q-127 -96 -541 -107l-10 168q356 11 430 60q35 23 35 114q0 89 -33 107q-24 15 -67 25t-70 13t-94 9v125l186 180h-407zM600 0l574 1493h184l-576 -1493h-182zM1104 199v161 l358 594h197l-361 -594h261v244h178v-244h106v-161h-106v-199h-178v199h-455z" />
<glyph unicode="&#xbf;" horiz-adv-x="1128" d="M45 373q0 97 18.5 161t73 123.5t144.5 108t243 108.5v209h203v-313q-112 -44 -178.5 -71.5t-125 -58.5t-86.5 -53.5t-48.5 -55.5t-25.5 -65t-5 -81q0 -113 73 -157t261 -44q216 0 432 47l37 -184q-72 -22 -207 -38.5t-262 -16.5q-207 0 -325 37.5t-170 119t-52 224.5z M492 1249v262h278v-262h-278z" />
<glyph unicode="&#xc0;" horiz-adv-x="1413" d="M35 0l575 1503h193l575 -1503h-221l-121 322h-669l-121 -322h-211zM344 1966h311l187 -373h-142zM436 504h531l-265 700z" />
<glyph unicode="&#xc1;" horiz-adv-x="1413" d="M35 0l575 1503h193l575 -1503h-221l-121 322h-669l-121 -322h-211zM436 504h531l-265 700zM571 1593l187 373h309l-356 -373h-140z" />
<glyph unicode="&#xc2;" horiz-adv-x="1413" d="M35 0l575 1503h193l575 -1503h-221l-121 322h-669l-121 -322h-211zM354 1556l258 340h185l260 -340h-148l-207 168l-204 -168h-144zM436 504h531l-265 700z" />
<glyph unicode="&#xc3;" horiz-adv-x="1413" d="M35 0l575 1503h193l575 -1503h-221l-121 322h-669l-121 -322h-211zM338 1708q75 62 104.5 85.5t74 46t81.5 22.5q34 0 81 -24t87.5 -48.5t56.5 -24.5q5 0 11 1.5t13 4.5t13 6.5t15 10.5t16 12t19 15t20 17t22.5 19.5t24.5 20.5l106 -131q-12 -10 -45 -37t-43 -35.5 t-35 -27t-36.5 -24.5t-31 -15t-35.5 -12t-34 -3q-45 0 -127 47t-98 47q-28 0 -134 -88q-13 -10 -20 -16zM436 504h531l-265 700z" />
<glyph unicode="&#xc4;" horiz-adv-x="1413" d="M35 0l575 1503h193l575 -1503h-221l-121 322h-669l-121 -322h-211zM131 1247v246h250v-246h-250zM436 504h531l-265 700zM1030 1247v246h250v-246h-250z" />
<glyph unicode="&#xc5;" horiz-adv-x="1413" d="M35 0l543 1419q-109 42 -109 197q0 114 54 165.5t177 51.5q125 0 178.5 -51.5t53.5 -165.5q0 -148 -98 -193l544 -1423h-221l-121 322h-669l-121 -322h-211zM436 504h531l-265 700zM600 1616q0 -62 19 -84.5t81 -22.5t82.5 23t20.5 84q0 62 -20.5 87.5t-82.5 25.5 q-61 0 -80.5 -25t-19.5 -88z" />
<glyph unicode="&#xc6;" horiz-adv-x="2043" d="M35 0l891 1493h1034v-193h-703v-426h543v-190h-543v-496h703v-188h-907v428h-537l-248 -428h-233zM621 612h432v731z" />
<glyph unicode="&#xc7;" horiz-adv-x="1216" d="M82 745q0 110 10 203t28 165.5t46.5 130.5t61 100t75.5 73t87.5 50t99.5 30.5t108 16t117 4.5q233 0 415 -52l-38 -184q-215 41 -381 41q-109 0 -181.5 -23t-124.5 -81.5t-75 -159.5t-23 -256v-105q0 -201 45 -318t132 -164.5t231 -47.5q113 0 219.5 16t159.5 31l39 -184 q-159 -48 -396 -51l49 -256q-40 -42 -126 -79.5t-203 -56.5l-35 172q119 20 176 54l-31 172q-91 10 -160.5 35t-132.5 79t-104 136t-64.5 210.5t-23.5 298.5z" />
<glyph unicode="&#xc8;" horiz-adv-x="1155" d="M145 0v1493h926v-193h-713v-426h553v-190h-553v-496h713v-188h-926zM215 1966h311l187 -373h-142z" />
<glyph unicode="&#xc9;" horiz-adv-x="1155" d="M145 0v1493h926v-193h-713v-426h553v-190h-553v-496h713v-188h-926zM442 1593l187 373h309l-356 -373h-140z" />
<glyph unicode="&#xca;" horiz-adv-x="1155" d="M145 0v1493h926v-193h-713v-426h553v-190h-553v-496h713v-188h-926zM225 1593l258 340h185l260 -340h-148l-207 168l-204 -168h-144z" />
<glyph unicode="&#xcb;" horiz-adv-x="1155" d="M145 0v1493h926v-193h-713v-426h553v-190h-553v-496h713v-188h-926zM250 1608v245h248v-245h-248zM655 1608v245h252v-245h-252z" />
<glyph unicode="&#xcc;" horiz-adv-x="536" d="M-139 1966h311l186 -373h-141zM162 0v1493h215v-1493h-215z" />
<glyph unicode="&#xcd;" horiz-adv-x="536" d="M162 0v1493h215v-1493h-215zM180 1593l187 373h309l-357 -373h-139z" />
<glyph unicode="&#xce;" horiz-adv-x="536" d="M-84 1593l258 340h184l260 -340h-147l-207 168l-205 -168h-143zM162 0v1493h215v-1493h-215z" />
<glyph unicode="&#xcf;" horiz-adv-x="536" d="M-59 1608v245h247v-245h-247zM162 0v1493h215v-1493h-215zM346 1608v245h252v-245h-252z" />
<glyph unicode="&#xd0;" horiz-adv-x="1464" d="M59 686v166h170v641h525q106 0 186.5 -12.5t154 -43t124.5 -85t89 -136.5t56 -199.5t18 -271.5t-18 -271.5t-56 -199t-89 -135.5t-125 -84.5t-154 -42.5t-186 -12l-525 -2v688h-170zM442 170h310q104 0 177 25t125.5 84.5t77.5 162.5t25 254v99q0 152 -25 254.5 t-78 161.5t-125 83.5t-177 24.5h-310v-467h244v-166h-244v-516z" />
<glyph unicode="&#xd1;" horiz-adv-x="1454" d="M145 0v1493h209l750 -1110v1110h205v-1493h-187l-772 1141v-1141h-205zM358 1708q75 62 104.5 85.5t74 46t81.5 22.5q34 0 81.5 -24t88 -48.5t56.5 -24.5q7 0 14.5 2t17 8t17.5 11t22 16.5t23 19t28 24t31 26.5l107 -131q-12 -10 -45 -37t-43 -35.5t-35 -27t-36.5 -24.5 t-31 -15t-35.5 -12t-34 -3q-45 0 -127.5 47t-98.5 47q-19 0 -46 -18.5t-82 -64.5q-16 -14 -25 -21z" />
<glyph unicode="&#xd2;" d="M82 745q0 135 17 244t47 189t76.5 139.5t100 97.5t122 61.5t138.5 32.5t154 9t153.5 -9t138.5 -32t121.5 -60t98.5 -96.5t76 -138.5t47 -188t17 -244q0 -187 -33.5 -325.5t-89.5 -223t-142 -136t-178.5 -70t-212.5 -18.5q-84 0 -153.5 9t-138 32t-121.5 60t-99 96.5 t-75.5 138.5t-46.5 188t-17 244zM307 698q0 -126 20 -219.5t55 -153t90 -95.5t118.5 -50t146.5 -14q84 0 147 13.5t117.5 49t88.5 94.5t53.5 152t19.5 219v105q0 156 -29 261.5t-87.5 163t-133 80.5t-180.5 23q-105 0 -179 -22.5t-132 -79t-86.5 -161.5t-28.5 -261v-105z M379 1966h311l187 -373h-142z" />
<glyph unicode="&#xd3;" d="M82 745q0 135 17 244t47 189t76.5 139.5t100 97.5t122 61.5t138.5 32.5t154 9t153.5 -9t138.5 -32t121.5 -60t98.5 -96.5t76 -138.5t47 -188t17 -244q0 -187 -33.5 -325.5t-89.5 -223t-142 -136t-178.5 -70t-212.5 -18.5q-84 0 -153.5 9t-138 32t-121.5 60t-99 96.5 t-75.5 138.5t-46.5 188t-17 244zM307 698q0 -126 20 -219.5t55 -153t90 -95.5t118.5 -50t146.5 -14q84 0 147 13.5t117.5 49t88.5 94.5t53.5 152t19.5 219v105q0 156 -29 261.5t-87.5 163t-133 80.5t-180.5 23q-105 0 -179 -22.5t-132 -79t-86.5 -161.5t-28.5 -261v-105z M596 1593l186 373h310l-357 -373h-139z" />
<glyph unicode="&#xd4;" d="M82 745q0 135 17 244t47 189t76.5 139.5t100 97.5t122 61.5t138.5 32.5t154 9t153.5 -9t138.5 -32t121.5 -60t98.5 -96.5t76 -138.5t47 -188t17 -244q0 -187 -33.5 -325.5t-89.5 -223t-142 -136t-178.5 -70t-212.5 -18.5q-84 0 -153.5 9t-138 32t-121.5 60t-99 96.5 t-75.5 138.5t-46.5 188t-17 244zM307 698q0 -126 20 -219.5t55 -153t90 -95.5t118.5 -50t146.5 -14q84 0 147 13.5t117.5 49t88.5 94.5t53.5 152t19.5 219v105q0 156 -29 261.5t-87.5 163t-133 80.5t-180.5 23q-105 0 -179 -22.5t-132 -79t-86.5 -161.5t-28.5 -261v-105z M383 1593l258 340h184l260 -340h-147l-207 168l-205 -168h-143z" />
<glyph unicode="&#xd5;" d="M82 745q0 135 17 244t47 189t76.5 139.5t100 97.5t122 61.5t138.5 32.5t154 9t153.5 -9t138.5 -32t121.5 -60t98.5 -96.5t76 -138.5t47 -188t17 -244q0 -187 -33.5 -325.5t-89.5 -223t-142 -136t-178.5 -70t-212.5 -18.5q-84 0 -153.5 9t-138 32t-121.5 60t-99 96.5 t-75.5 138.5t-46.5 188t-17 244zM307 698q0 -126 20 -219.5t55 -153t90 -95.5t118.5 -50t146.5 -14q84 0 147 13.5t117.5 49t88.5 94.5t53.5 152t19.5 219v105q0 156 -29 261.5t-87.5 163t-133 80.5t-180.5 23q-105 0 -179 -22.5t-132 -79t-86.5 -161.5t-28.5 -261v-105z M369 1708q75 62 104.5 85.5t74 46t81.5 22.5q34 0 81 -24t87.5 -48.5t56.5 -24.5q5 0 11 1.5t13 4.5t13 6.5t15 10.5t16 12t19 15t20 17t22.5 19.5t24.5 20.5l106 -131q-12 -10 -45 -37t-43 -35.5t-35 -27t-36.5 -24.5t-31 -15t-35.5 -12t-34 -3q-45 0 -127 47t-98 47 q-28 0 -134 -88q-13 -10 -20 -16z" />
<glyph unicode="&#xd6;" d="M82 745q0 135 17 244t47 189t76.5 139.5t100 97.5t122 61.5t138.5 32.5t154 9t153.5 -9t138.5 -32t121.5 -60t98.5 -96.5t76 -138.5t47 -188t17 -244q0 -187 -33.5 -325.5t-89.5 -223t-142 -136t-178.5 -70t-212.5 -18.5q-84 0 -153.5 9t-138 32t-121.5 60t-99 96.5 t-75.5 138.5t-46.5 188t-17 244zM307 698q0 -126 20 -219.5t55 -153t90 -95.5t118.5 -50t146.5 -14q84 0 147 13.5t117.5 49t88.5 94.5t53.5 152t19.5 219v105q0 156 -29 261.5t-87.5 163t-133 80.5t-180.5 23q-105 0 -179 -22.5t-132 -79t-86.5 -161.5t-28.5 -261v-105z M408 1608v245h247v-245h-247zM813 1608v245h252v-245h-252z" />
<glyph unicode="&#xd7;" horiz-adv-x="1050" d="M147 422l263 264l-263 262l117 117l262 -264l262 264l115 -117l-260 -262l260 -264l-115 -115l-262 262l-262 -262z" />
<glyph unicode="&#xd8;" d="M82 745q0 135 17 244t47 189t76.5 139.5t100 97.5t122 61.5t138.5 32.5t154 9q200 0 328 -56l96 166h172l-141 -244q197 -178 197 -634q0 -187 -33.5 -325.5t-89.5 -223t-142 -136t-178.5 -70t-212.5 -18.5q-201 0 -332 56l-96 -166h-170l144 246q-197 178 -197 632z M303 698q0 -262 86 -393l576 985q-86 45 -232 45q-84 0 -147.5 -14t-118.5 -50t-90 -95.5t-54.5 -153t-19.5 -219.5v-105zM502 205q89 -47 235 -47q84 0 148 14.5t119 50.5t89.5 96.5t54 154t19.5 220.5v105q0 266 -88 393z" />
<glyph unicode="&#xd9;" horiz-adv-x="1443" d="M129 528v965h215v-946q0 -110 19.5 -180t66.5 -112.5t118 -59.5t181 -17q74 0 127 6t97.5 22t72.5 42t47.5 67.5t28 96.5t8.5 131v950h207v-961q0 -132 -24.5 -227.5t-70 -158t-120 -99.5t-164.5 -52t-213 -15q-124 0 -213.5 14t-165 49.5t-121.5 97.5t-71 158t-25 229z M365 1966h311l186 -373h-141z" />
<glyph unicode="&#xda;" horiz-adv-x="1443" d="M129 528v965h215v-946q0 -110 19.5 -180t66.5 -112.5t118 -59.5t181 -17q74 0 127 6t97.5 22t72.5 42t47.5 67.5t28 96.5t8.5 131v950h207v-961q0 -132 -24.5 -227.5t-70 -158t-120 -99.5t-164.5 -52t-213 -15q-124 0 -213.5 14t-165 49.5t-121.5 97.5t-71 158t-25 229z M582 1593l186 373h309l-356 -373h-139z" />
<glyph unicode="&#xdb;" horiz-adv-x="1443" d="M129 528v965h215v-946q0 -110 19.5 -180t66.5 -112.5t118 -59.5t181 -17q74 0 127 6t97.5 22t72.5 42t47.5 67.5t28 96.5t8.5 131v950h207v-961q0 -132 -24.5 -227.5t-70 -158t-120 -99.5t-164.5 -52t-213 -15q-124 0 -213.5 14t-165 49.5t-121.5 97.5t-71 158t-25 229z M373 1593l258 340h184l260 -340h-147l-207 168l-205 -168h-143z" />
<glyph unicode="&#xdc;" horiz-adv-x="1443" d="M129 528v965h215v-946q0 -110 19.5 -180t66.5 -112.5t118 -59.5t181 -17q74 0 127 6t97.5 22t72.5 42t47.5 67.5t28 96.5t8.5 131v950h207v-961q0 -132 -24.5 -227.5t-70 -158t-120 -99.5t-164.5 -52t-213 -15q-124 0 -213.5 14t-165 49.5t-121.5 97.5t-71 158t-25 229z M393 1608v245h248v-245h-248zM799 1608v245h252v-245h-252z" />
<glyph unicode="&#xdd;" horiz-adv-x="1400" d="M35 1493h233l439 -715l438 715h221l-559 -915v-578h-213v575zM561 1593l187 373h309l-357 -373h-139z" />
<glyph unicode="&#xde;" horiz-adv-x="1275" d="M145 0v1493h213v-274h408q115 0 194.5 -20.5t139.5 -70.5t88.5 -139t28.5 -221q0 -133 -29.5 -223t-90 -141t-141 -72t-194.5 -21h-404v-311h-213zM358 489h408q43 0 75.5 5.5t64.5 22.5t52.5 46.5t33 80t12.5 120.5q0 69 -13 119.5t-34 80t-54 46.5t-65.5 22.5 t-75.5 5.5h-404v-549z" />
<glyph unicode="&#xdf;" horiz-adv-x="1292" d="M57 791v172h162v311q0 153 82.5 219t290.5 66q102 0 172 -7.5t125.5 -26t87 -52t47.5 -83t16 -120.5q0 -51 -9 -92.5t-22.5 -72.5t-44.5 -67t-59 -63t-82 -74q115 -21 194.5 -52.5t125.5 -84.5q88 -102 88 -295q0 -116 -21.5 -191t-68.5 -124q-72 -74 -201 -110t-358 -60 l-25 174q191 22 285 45.5t137 68.5q30 30 41.5 75.5t11.5 119.5q0 77 -12.5 123t-44.5 76q-40 39 -119.5 60.5t-218.5 37.5v151q95 96 132 142t53 91.5t16 117.5q0 33 -10 55t-26.5 34.5t-52 19t-71 8t-98.5 1.5q-91 0 -122.5 -27.5t-31.5 -103.5v-1253h-207v791h-162z" />
<glyph unicode="&#xe0;" horiz-adv-x="1040" d="M76 283q0 93 19.5 151t68.5 86q75 43 191.5 56.5t353.5 13.5v43q0 55 -6 87.5t-25 57.5t-54.5 35t-93.5 10q-154 0 -329 -35l-29 173q187 38 363 38q213 0 296.5 -74.5t83.5 -260.5v-664h-165l-31 100q-188 -114 -385 -114q-52 0 -95.5 14t-81.5 46.5t-59.5 92.5 t-21.5 144zM168 1475h311l187 -373h-142zM285 287q0 -78 31 -105.5t100 -27.5q71 0 155.5 27.5t137.5 58.5v217q-310 0 -381 -41q-43 -25 -43 -129z" />
<glyph unicode="&#xe1;" horiz-adv-x="1040" d="M76 283q0 93 19.5 151t68.5 86q75 43 191.5 56.5t353.5 13.5v43q0 55 -6 87.5t-25 57.5t-54.5 35t-93.5 10q-154 0 -329 -35l-29 173q187 38 363 38q213 0 296.5 -74.5t83.5 -260.5v-664h-165l-31 100q-188 -114 -385 -114q-52 0 -95.5 14t-81.5 46.5t-59.5 92.5 t-21.5 144zM285 287q0 -78 31 -105.5t100 -27.5q71 0 155.5 27.5t137.5 58.5v217q-310 0 -381 -41q-43 -25 -43 -129zM385 1102l186 373h310l-357 -373h-139z" />
<glyph unicode="&#xe2;" horiz-adv-x="1040" d="M76 283q0 93 19.5 151t68.5 86q75 43 191.5 56.5t353.5 13.5v43q0 55 -6 87.5t-25 57.5t-54.5 35t-93.5 10q-154 0 -329 -35l-29 173q187 38 363 38q213 0 296.5 -74.5t83.5 -260.5v-664h-165l-31 100q-188 -114 -385 -114q-52 0 -95.5 14t-81.5 46.5t-59.5 92.5 t-21.5 144zM172 1102l258 340h184l260 -340h-147l-207 168l-205 -168h-143zM285 287q0 -78 31 -105.5t100 -27.5q71 0 155.5 27.5t137.5 58.5v217q-310 0 -381 -41q-43 -25 -43 -129z" />
<glyph unicode="&#xe3;" horiz-adv-x="1040" d="M76 283q0 93 19.5 151t68.5 86q75 43 191.5 56.5t353.5 13.5v43q0 55 -6 87.5t-25 57.5t-54.5 35t-93.5 10q-154 0 -329 -35l-29 173q187 38 363 38q213 0 296.5 -74.5t83.5 -260.5v-664h-165l-31 100q-188 -114 -385 -114q-52 0 -95.5 14t-81.5 46.5t-59.5 92.5 t-21.5 144zM158 1217q73 61 104 85t75 46t81 22q34 0 81 -24t87.5 -48t56.5 -24q29 0 130 86q16 13 24 20l106 -131q-12 -10 -40 -33t-38 -31t-32 -25t-32 -23t-28 -16.5t-30.5 -14t-28 -7t-31.5 -3.5q-45 0 -127 47t-98 47q-27 0 -128 -84q-17 -14 -26 -21zM285 287 q0 -78 31 -105.5t100 -27.5q71 0 155.5 27.5t137.5 58.5v217q-310 0 -381 -41q-43 -25 -43 -129z" />
<glyph unicode="&#xe4;" horiz-adv-x="1040" d="M76 283q0 93 19.5 151t68.5 86q75 43 191.5 56.5t353.5 13.5v43q0 55 -6 87.5t-25 57.5t-54.5 35t-93.5 10q-154 0 -329 -35l-29 173q187 38 363 38q213 0 296.5 -74.5t83.5 -260.5v-664h-165l-31 100q-188 -114 -385 -114q-52 0 -95.5 14t-81.5 46.5t-59.5 92.5 t-21.5 144zM197 1116v246h247v-246h-247zM285 287q0 -78 31 -105.5t100 -27.5q71 0 155.5 27.5t137.5 58.5v217q-310 0 -381 -41q-43 -25 -43 -129zM602 1116v246h252v-246h-252z" />
<glyph unicode="&#xe5;" horiz-adv-x="1040" d="M76 283q0 93 19.5 151t68.5 86q75 43 191.5 56.5t353.5 13.5v43q0 55 -6 87.5t-25 57.5t-54.5 35t-93.5 10q-154 0 -329 -35l-29 173q187 38 363 38q213 0 296.5 -74.5t83.5 -260.5v-664h-165l-31 100q-188 -114 -385 -114q-52 0 -95.5 14t-81.5 46.5t-59.5 92.5 t-21.5 144zM285 287q0 -78 31 -105.5t100 -27.5q71 0 155.5 27.5t137.5 58.5v217q-310 0 -381 -41q-43 -25 -43 -129zM295 1298q0 114 54 166t177 52q124 0 178 -52t54 -166q0 -113 -54.5 -164t-177.5 -51q-124 0 -177.5 51t-53.5 164zM426 1298q0 -61 19 -83.5t81 -22.5 t82.5 22.5t20.5 83.5q0 62 -20.5 87.5t-82.5 25.5q-61 0 -80.5 -25t-19.5 -88z" />
<glyph unicode="&#xe6;" horiz-adv-x="1644" d="M76 283q0 166 67 223q64 55 191 73.5t377 18.5v35q0 108 -34.5 149t-146.5 41q-134 0 -321 -32l-31 172q183 36 357 36q129 0 202.5 -28.5t106.5 -93.5q104 127 303 127q219 0 319.5 -101.5t100.5 -351.5v-94h-647q1 -93 18.5 -153t54.5 -92t83.5 -44t117.5 -12 q177 0 297 30l31 -170q-53 -14 -152 -26.5t-178 -12.5q-152 0 -252 39t-156 125q-87 -70 -203 -112.5t-247 -42.5q-52 0 -95.5 14t-81.5 46.5t-59.5 92.5t-21.5 144zM285 287q0 -78 31 -105.5t100 -27.5t160 30t159 76q-21 74 -24 203q-180 0 -267.5 -11t-124.5 -42 q-21 -19 -27.5 -46.5t-6.5 -76.5zM924 594h436q0 142 -49 194t-168 52q-99 0 -153.5 -53.5t-65.5 -192.5z" />
<glyph unicode="&#xe7;" horiz-adv-x="925" d="M70 489q0 279 114.5 394.5t364.5 115.5q147 0 295 -36l-35 -175q-158 31 -266 31q-56 0 -94.5 -7t-72 -27t-52.5 -56t-30 -94t-11 -141q0 -104 16 -171t51.5 -103.5t81 -50t115.5 -13.5q132 0 264 34l37 -170q-135 -35 -256 -40l49 -256q-40 -42 -126.5 -79.5 t-203.5 -56.5l-35 172q121 21 177 54l-31 170q-183 25 -267.5 142.5t-84.5 362.5z" />
<glyph unicode="&#xe8;" horiz-adv-x="1007" d="M70 489q0 143 32 245.5t92.5 160t137 83.5t176.5 26q219 0 319.5 -101.5t100.5 -351.5v-94h-647q1 -93 18 -153t54.5 -92t84 -44t117.5 -12q177 0 297 30l31 -170q-53 -14 -152 -26.5t-178 -12.5q-254 0 -368.5 115.5t-114.5 396.5zM145 1475h312l186 -373h-141zM285 594 h434q0 143 -48.5 194.5t-168.5 51.5q-99 0 -153 -53.5t-64 -192.5z" />
<glyph unicode="&#xe9;" horiz-adv-x="1007" d="M70 489q0 143 32 245.5t92.5 160t137 83.5t176.5 26q219 0 319.5 -101.5t100.5 -351.5v-94h-647q1 -93 18 -153t54.5 -92t84 -44t117.5 -12q177 0 297 30l31 -170q-53 -14 -152 -26.5t-178 -12.5q-254 0 -368.5 115.5t-114.5 396.5zM285 594h434q0 143 -48.5 194.5 t-168.5 51.5q-99 0 -153 -53.5t-64 -192.5zM362 1102l187 373h309l-356 -373h-140z" />
<glyph unicode="&#xea;" horiz-adv-x="1007" d="M70 489q0 143 32 245.5t92.5 160t137 83.5t176.5 26q219 0 319.5 -101.5t100.5 -351.5v-94h-647q1 -93 18 -153t54.5 -92t84 -44t117.5 -12q177 0 297 30l31 -170q-53 -14 -152 -26.5t-178 -12.5q-254 0 -368.5 115.5t-114.5 396.5zM150 1102l258 340h184l260 -340h-147 l-207 168l-205 -168h-143zM285 594h434q0 143 -48.5 194.5t-168.5 51.5q-99 0 -153 -53.5t-64 -192.5z" />
<glyph unicode="&#xeb;" horiz-adv-x="1007" d="M70 489q0 143 32 245.5t92.5 160t137 83.5t176.5 26q219 0 319.5 -101.5t100.5 -351.5v-94h-647q1 -93 18 -153t54.5 -92t84 -44t117.5 -12q177 0 297 30l31 -170q-53 -14 -152 -26.5t-178 -12.5q-254 0 -368.5 115.5t-114.5 396.5zM174 1116v246h248v-246h-248zM285 594 h434q0 143 -48.5 194.5t-168.5 51.5q-99 0 -153 -53.5t-64 -192.5zM580 1116v246h251v-246h-251z" />
<glyph unicode="&#xec;" horiz-adv-x="489" d="M-168 1475h311l187 -373h-142zM141 0v963h207v-963h-207z" />
<glyph unicode="&#xed;" horiz-adv-x="489" d="M141 0v963h207v-963h-207zM162 1102l186 373h309l-356 -373h-139z" />
<glyph unicode="&#xee;" horiz-adv-x="489" d="M-106 1102l258 340h184l260 -340h-147l-207 168l-205 -168h-143zM141 0v963h207v-963h-207z" />
<glyph unicode="&#xef;" horiz-adv-x="489" d="M-84 1116v246h248v-246h-248zM141 0v963h207v-963h-207zM322 1116v246h251v-246h-251z" />
<glyph unicode="&#xf0;" horiz-adv-x="1138" d="M86 500q0 97 11 173.5t28 127t46.5 86.5t56 54.5t67 29t70 12.5t73.5 2q90 0 205 -27.5t199 -70.5q-16 133 -37 229h-215v174h168q-23 77 -68 191l197 53q42 -86 86 -244h184v-174h-143q45 -215 45 -452q0 -96 -3.5 -168t-12.5 -142t-25.5 -119.5t-42.5 -95t-62.5 -74 t-86.5 -50t-114 -31t-145 -9.5q-58 0 -104.5 4.5t-98 18t-90.5 37t-76 63t-60.5 94t-37.5 132.5t-14 176zM297 500q0 -138 31 -215.5t88.5 -106t156.5 -28.5q49 0 87 6t67 21.5t49.5 34t34.5 51t22 63.5t12.5 81t5.5 95t1 114q0 68 -2 93q-69 38 -165 64t-171 26 q-51 0 -83.5 -6t-60.5 -23.5t-42.5 -51t-22.5 -86.5t-8 -132z" />
<glyph unicode="&#xf1;" horiz-adv-x="1130" d="M131 0v963h168l31 -97q62 36 181 77.5t224 41.5q134 0 201.5 -63t67.5 -197v-725h-207v657q0 79 -31 111.5t-115 32.5q-72 0 -166.5 -28.5t-144.5 -57.5v-715h-209zM199 1217q73 61 104 85t75 46t81 22q34 0 81 -24t87.5 -48t56.5 -24q29 0 130 86q16 13 24 20l106 -131 q-12 -10 -40 -33t-38 -31t-32 -25t-32 -23t-28 -16.5t-30.5 -14t-28 -7t-31.5 -3.5q-45 0 -127 47t-98 47q-27 0 -128 -84q-17 -14 -26 -21z" />
<glyph unicode="&#xf2;" horiz-adv-x="1112" d="M70 489q0 276 120 395.5t369 119.5q248 0 364.5 -117t116.5 -393q0 -278 -118.5 -397.5t-366.5 -119.5q-249 0 -367 117.5t-118 394.5zM199 1475h311l186 -373h-141zM283 494q0 -104 18.5 -174t57 -107t85.5 -51.5t115 -14.5q54 0 93 8t74 30.5t56.5 60t34 98.5t12.5 145 q0 104 -18.5 172.5t-56.5 105t-84.5 50.5t-114.5 14q-54 0 -93 -8t-74.5 -29.5t-57.5 -58.5t-34.5 -97.5t-12.5 -143.5z" />
<glyph unicode="&#xf3;" horiz-adv-x="1112" d="M70 489q0 276 120 395.5t369 119.5q248 0 364.5 -117t116.5 -393q0 -278 -118.5 -397.5t-366.5 -119.5q-249 0 -367 117.5t-118 394.5zM283 494q0 -104 18.5 -174t57 -107t85.5 -51.5t115 -14.5q54 0 93 8t74 30.5t56.5 60t34 98.5t12.5 145q0 104 -18.5 172.5t-56.5 105 t-84.5 50.5t-114.5 14q-54 0 -93 -8t-74.5 -29.5t-57.5 -58.5t-34.5 -97.5t-12.5 -143.5zM416 1102l186 373h309l-356 -373h-139z" />
<glyph unicode="&#xf4;" horiz-adv-x="1112" d="M70 489q0 276 120 395.5t369 119.5q248 0 364.5 -117t116.5 -393q0 -278 -118.5 -397.5t-366.5 -119.5q-249 0 -367 117.5t-118 394.5zM205 1102l258 340h184l260 -340h-147l-207 168l-205 -168h-143zM283 494q0 -104 18.5 -174t57 -107t85.5 -51.5t115 -14.5q54 0 93 8 t74 30.5t56.5 60t34 98.5t12.5 145q0 104 -18.5 172.5t-56.5 105t-84.5 50.5t-114.5 14q-54 0 -93 -8t-74.5 -29.5t-57.5 -58.5t-34.5 -97.5t-12.5 -143.5z" />
<glyph unicode="&#xf5;" horiz-adv-x="1112" d="M70 489q0 276 120 395.5t369 119.5q248 0 364.5 -117t116.5 -393q0 -278 -118.5 -397.5t-366.5 -119.5q-249 0 -367 117.5t-118 394.5zM188 1217q55 46 79.5 65.5t61.5 44.5t64.5 34t55.5 9q34 0 81 -24t87.5 -48t56.5 -24q5 0 11 1.5t13 4.5t13 6.5t15 10t15.5 12 t18.5 15t20 16t22.5 19.5t24.5 21l107 -131q-12 -10 -40 -33t-38 -31t-32 -25t-32 -23t-28 -16.5t-30.5 -14t-28 -7t-31.5 -3.5q-45 0 -127 47t-98 47q-27 0 -128 -84q-17 -14 -26 -21zM283 494q0 -104 18.5 -174t57 -107t85.5 -51.5t115 -14.5q54 0 93 8t74 30.5t56.5 60 t34 98.5t12.5 145q0 104 -18.5 172.5t-56.5 105t-84.5 50.5t-114.5 14q-54 0 -93 -8t-74.5 -29.5t-57.5 -58.5t-34.5 -97.5t-12.5 -143.5z" />
<glyph unicode="&#xf6;" horiz-adv-x="1112" d="M70 489q0 276 120 395.5t369 119.5q248 0 364.5 -117t116.5 -393q0 -278 -118.5 -397.5t-366.5 -119.5q-249 0 -367 117.5t-118 394.5zM227 1116v246h248v-246h-248zM283 494q0 -104 18.5 -174t57 -107t85.5 -51.5t115 -14.5q54 0 93 8t74 30.5t56.5 60t34 98.5t12.5 145 q0 104 -18.5 172.5t-56.5 105t-84.5 50.5t-114.5 14q-54 0 -93 -8t-74.5 -29.5t-57.5 -58.5t-34.5 -97.5t-12.5 -143.5zM633 1116v246h252v-246h-252z" />
<glyph unicode="&#xf7;" horiz-adv-x="1056" d="M113 602v170h831v-170h-831zM406 225v240h243v-240h-243zM406 909v238h243v-238h-243z" />
<glyph unicode="&#xf8;" horiz-adv-x="1112" d="M41 -137l156 223q-127 124 -127 403q0 276 120 395.5t369 119.5q152 0 248 -41l88 127h190l-149 -216q104 -122 104 -380q0 -278 -118.5 -397.5t-366.5 -119.5q-123 0 -221 31l-101 -145h-192zM279 494q0 -151 38 -232l385 549q-55 27 -147 27q-70 0 -116.5 -13.5 t-85 -49.5t-56.5 -105.5t-18 -175.5zM438 158q50 -17 121 -17q55 0 94.5 8t75 30.5t57 61t33.5 100.5t12 148q0 123 -24 199z" />
<glyph unicode="&#xf9;" horiz-adv-x="1126" d="M125 242v721h209v-654q0 -79 30.5 -111t114.5 -32q72 0 165 27t142 55v715h209v-963h-168l-30 96q-65 -37 -181.5 -76.5t-220.5 -39.5q-134 0 -202 64t-68 198zM205 1475h311l186 -373h-141z" />
<glyph unicode="&#xfa;" horiz-adv-x="1126" d="M125 242v721h209v-654q0 -79 30.5 -111t114.5 -32q72 0 165 27t142 55v715h209v-963h-168l-30 96q-65 -37 -181.5 -76.5t-220.5 -39.5q-134 0 -202 64t-68 198zM422 1102l186 373h310l-357 -373h-139z" />
<glyph unicode="&#xfb;" horiz-adv-x="1126" d="M125 242v721h209v-654q0 -79 30.5 -111t114.5 -32q72 0 165 27t142 55v715h209v-963h-168l-30 96q-65 -37 -181.5 -76.5t-220.5 -39.5q-134 0 -202 64t-68 198zM211 1102l258 340h184l260 -340h-147l-207 168l-205 -168h-143z" />
<glyph unicode="&#xfc;" horiz-adv-x="1126" d="M125 242v721h209v-654q0 -79 30.5 -111t114.5 -32q72 0 165 27t142 55v715h209v-963h-168l-30 96q-65 -37 -181.5 -76.5t-220.5 -39.5q-134 0 -202 64t-68 198zM233 1116v246h248v-246h-248zM639 1116v246h252v-246h-252z" />
<glyph unicode="&#xfd;" horiz-adv-x="1030" d="M31 963h221q278 -703 278 -705l271 705h196l-536 -1373h-209l166 424zM379 1102l186 373h309l-356 -373h-139z" />
<glyph unicode="&#xfe;" horiz-adv-x="1136" d="M131 -410v1944h207v-664q39 22 90 44.5t141 46.5t168 24q39 0 69.5 -4.5t64 -17.5t59 -35t49.5 -59.5t39 -89t24 -125.5t9 -167t-9.5 -167.5t-25.5 -126.5t-41 -90.5t-51.5 -60.5t-61 -35.5t-65.5 -18t-70 -4.5q-183 0 -389 86v-480h-207zM338 227q179 -65 317 -65 q68 0 105.5 24.5t57.5 94.5t20 202t-19.5 201t-56 93t-105.5 24q-78 0 -165.5 -26t-153.5 -58v-490z" />
<glyph unicode="&#xff;" horiz-adv-x="1030" d="M31 963h221q278 -703 278 -705l271 705h196l-536 -1373h-209l166 424zM186 1116v246h248v-246h-248zM592 1116v246h252v-246h-252z" />
<glyph unicode="&#x152;" horiz-adv-x="2009" d="M78 745q0 154 18.5 271.5t57 199.5t90 136.5t126.5 85t156.5 43t188.5 12.5h1210v-193h-700v-426h540v-190h-540v-496h700v-188h-1210q-108 0 -189 12t-156 42.5t-126.5 84.5t-90 135.5t-57 199t-18.5 271.5zM301 696q0 -151 26.5 -252t82.5 -157t129 -78.5t178 -22.5 h299v1119h-299q-105 0 -178 -22.5t-129 -79t-82.5 -157.5t-26.5 -251v-99z" />
<glyph unicode="&#x153;" horiz-adv-x="1777" d="M70 489q0 276 120 395.5t371 119.5q145 0 237.5 -40t141.5 -128q96 168 332 168q219 0 319.5 -101.5t100.5 -351.5v-94h-648q1 -93 19 -153t55 -92t83.5 -44t117.5 -12q177 0 297 30l31 -170q-53 -14 -152 -26.5t-178 -12.5q-141 2 -234 40t-147 126q-95 -166 -379 -166 q-167 0 -272 48.5t-160 162t-55 301.5zM283 494q0 -104 19 -174t57 -107t86 -51.5t116 -14.5q54 0 94 8t76 30.5t58 60t34.5 98.5t12.5 145q0 104 -19 172.5t-57.5 105t-86 50.5t-116.5 14t-115.5 -13.5t-84.5 -48.5t-56 -103t-18 -172zM1049 594h436q0 143 -48.5 194.5 t-168.5 51.5q-99 0 -153.5 -53.5t-65.5 -192.5z" />
<glyph unicode="&#x178;" horiz-adv-x="1400" d="M35 1493h233l439 -715l438 715h221l-559 -915v-578h-213v575zM373 1608v245h248v-245h-248zM778 1608v245h252v-245h-252z" />
<glyph unicode="&#x2c6;" horiz-adv-x="942" d="M119 1102l258 340h184l260 -340h-147l-207 168l-205 -168h-143z" />
<glyph unicode="&#x2dc;" horiz-adv-x="933" d="M94 1217q73 61 104 85t75 46t81 22q34 0 81.5 -24t88 -48t56.5 -24q5 0 11 1.5t13 4.5t13 6.5t15 10t15.5 12t18.5 15t20 16t22.5 19.5t24.5 21l107 -131q-12 -10 -40 -33t-38 -31t-32 -25t-32 -23t-28 -16.5t-30.5 -14t-28 -7t-31.5 -3.5q-45 0 -127.5 47t-98.5 47 q-5 0 -10.5 -1.5t-12.5 -4.5t-12.5 -6.5t-14.5 -10t-16 -11.5t-19 -14.5t-20 -16.5t-23 -19.5t-25 -20.5z" />
<glyph unicode="&#x2000;" horiz-adv-x="983" />
<glyph unicode="&#x2001;" horiz-adv-x="1966" />
<glyph unicode="&#x2002;" horiz-adv-x="983" />
<glyph unicode="&#x2003;" horiz-adv-x="1966" />
<glyph unicode="&#x2004;" horiz-adv-x="655" />
<glyph unicode="&#x2005;" horiz-adv-x="491" />
<glyph unicode="&#x2006;" horiz-adv-x="327" />
<glyph unicode="&#x2007;" horiz-adv-x="327" />
<glyph unicode="&#x2008;" horiz-adv-x="245" />
<glyph unicode="&#x2009;" horiz-adv-x="393" />
<glyph unicode="&#x200a;" horiz-adv-x="109" />
<glyph unicode="&#x2010;" horiz-adv-x="790" d="M113 469v184h567v-184h-567z" />
<glyph unicode="&#x2011;" horiz-adv-x="790" d="M113 469v184h567v-184h-567z" />
<glyph unicode="&#x2012;" horiz-adv-x="790" d="M113 469v184h567v-184h-567z" />
<glyph unicode="&#x2013;" horiz-adv-x="1114" d="M113 469v184h888v-184h-888z" />
<glyph unicode="&#x2014;" horiz-adv-x="1677" d="M113 469v184h1452v-184h-1452z" />
<glyph unicode="&#x2018;" horiz-adv-x="632" d="M121 1022l291 526l98 -55l-104 -471h-285z" />
<glyph unicode="&#x2019;" horiz-adv-x="632" d="M125 1022l102 471h285l-291 -526z" />
<glyph unicode="&#x201a;" horiz-adv-x="632" d="M125 -162l102 471h285l-291 -526z" />
<glyph unicode="&#x201c;" horiz-adv-x="1030" d="M121 1022l291 526l92 -55l-103 -471h-280zM522 1022l293 526l92 -55l-104 -471h-281z" />
<glyph unicode="&#x201d;" horiz-adv-x="1030" d="M125 1022l102 471h281l-291 -526zM526 1022l105 471h278l-291 -526z" />
<glyph unicode="&#x201e;" horiz-adv-x="1030" d="M125 -162l102 471h281l-291 -526zM526 -162l105 471h278l-291 -526z" />
<glyph unicode="&#x2022;" horiz-adv-x="962" d="M127 586q0 82 11 145.5t34 106.5t52.5 72.5t71 45.5t85.5 22.5t100 6.5q85 0 145 -16.5t110.5 -59t76 -124t25.5 -203.5q0 -98 -17 -169.5t-46.5 -115.5t-75.5 -70t-96.5 -35.5t-117.5 -9.5q-68 0 -119 10t-97.5 36.5t-76.5 71t-47.5 116.5t-17.5 170z" />
<glyph unicode="&#x2026;" horiz-adv-x="1742" d="M135 0v276h293v-276h-293zM725 0v276h295v-276h-295zM1315 0v276h295v-276h-295z" />
<glyph unicode="&#x202f;" horiz-adv-x="393" />
<glyph unicode="&#x2039;" horiz-adv-x="673" d="M102 469l246 422h195l-221 -422l221 -418h-195z" />
<glyph unicode="&#x203a;" horiz-adv-x="673" d="M131 51l221 422l-221 418h195l245 -418l-245 -422h-195z" />
<glyph unicode="&#x205f;" horiz-adv-x="491" />
<glyph unicode="&#x20ac;" horiz-adv-x="1282" d="M41 479v160h203q0 22 -1 63.5t-1 76.5t2 65h-203v160h217q17 120 53.5 210.5t84.5 148t114 92.5t135.5 49t155.5 14q227 0 397 -54l-39 -182q-189 41 -362 41q-142 0 -220.5 -73.5t-101.5 -245.5h451v-160h-467v-205h467v-160h-447q26 -164 104 -237.5t218 -73.5 q204 0 358 43l39 -178q-186 -53 -401 -53q-87 0 -156 13t-134.5 47t-112.5 89.5t-82 143.5t-52 206h-219z" />
<glyph unicode="&#x2122;" horiz-adv-x="1871" d="M61 1360v133h715v-133h-280v-766h-154v766h-281zM903 594v899h209l211 -694l207 694h219v-899h-147v756l-232 -758h-121l-219 758v-756h-127z" />
<glyph unicode="&#x25fc;" horiz-adv-x="962" d="M0 0v963h963v-963h-963z" />
<glyph unicode="&#xfb01;" horiz-adv-x="1232" d="M57 784v179h162v186q0 72 15.5 120.5t54 90.5t112.5 72.5t182.5 56t272.5 49.5l29 -182q-108 -17 -181 -31.5t-125.5 -31t-81 -31t-45 -37t-20.5 -43t-4 -54.5v-165h664v-963h-209v786h-455v-786h-209v784h-162z" />
<glyph unicode="&#xfb02;" horiz-adv-x="1232" d="M57 784v179h162v196q0 59 5.5 100.5t21.5 80.5t43 66t70.5 51.5t103.5 43t143 35.5l47 -186q-52 -12 -87 -22t-61 -23.5t-40.5 -27t-23 -35t-11 -43t-2.5 -56.5v-180h227v-179h-227v-784h-209v784h-162zM883 0v1534h209v-1534h-209z" />
</font>
</defs>
</svg>
