<?xml version="1.0" standalone="no"?>
<!DOCTYPE svg PUBLIC "-//W3C//DTD SVG 1.1//EN" "http://www.w3.org/Graphics/SVG/1.1/DTD/svg11.dtd" >
<svg xmlns="http://www.w3.org/2000/svg" xmlns:xlink="http://www.w3.org/1999/xlink" version="1.1">
<metadata>
Created by FontForge 20200314 at Mon Dec  5 15:42:00 2016
 By Unknown
Copyright (c) 2016 by Hannes von Doehren, Livius Dietzel. All rights reserved.
</metadata>
<defs>
<font id="EONBrixSansBlack" horiz-adv-x="560" >
  <font-face 
    font-family="EON Brix Sans Black"
    font-weight="900"
    font-style="italic"
    font-stretch="normal"
    units-per-em="1000"
    panose-1="2 11 10 4 4 0 0 0 0 0"
    ascent="720"
    descent="-280"
    x-height="456"
    cap-height="676"
    bbox="-155 -227 1196 998"
    underline-thickness="100"
    underline-position="-100"
    slope="-10"
    unicode-range="U+0020-FB02"
  />
<missing-glyph horiz-adv-x="513" 
d="M50 0v656h413v-656h-413zM88 38h337v580h-337v-580z" />
    <glyph glyph-name="fi" unicode="fi" horiz-adv-x="584" 
d="M395 0v336h-167v-336h-142v336h-69v110l69 10v65q0 169 176 169h70v-120h-61q-43 0 -43 -50v-64h309v-456h-142zM464 530q-82 0 -82 78q0 40 22.5 60t59.5 20q34 0 57.5 -20.5t23.5 -59.5q0 -40 -23.5 -59t-57.5 -19z" />
    <glyph glyph-name="fl" unicode="fl" horiz-adv-x="614" 
d="M332 690v-120h-61q-43 0 -43 -50v-64h110v-120h-110v-336h-142v336h-69v110l69 10v65q0 169 176 169h70zM395 690h142v-532q0 -19 8 -26t28 -7h20v-131h-70q-128 0 -128 141v555z" />
    <glyph glyph-name="f_f" unicode="ff" horiz-adv-x="662" 
d="M643 690v-120h-61q-43 0 -43 -50v-64h110v-120h-110v-336h-142v336h-169v-336h-142v336h-69v110l69 10v65q0 169 176 169h70v-120h-61q-43 0 -43 -50v-64h169v65q0 169 176 169h70z" />
    <glyph glyph-name=".notdef" horiz-adv-x="513" 
d="M50 0v656h413v-656h-413zM88 38h337v580h-337v-580z" />
    <glyph glyph-name=".null" horiz-adv-x="0" 
 />
    <glyph glyph-name=".null" horiz-adv-x="0" 
 />
    <glyph glyph-name="nonmarkingreturn" horiz-adv-x="333" 
 />
    <glyph glyph-name="space" unicode=" " horiz-adv-x="182" 
 />
    <glyph glyph-name="exclam" unicode="!" horiz-adv-x="257" 
d="M188 232h-119l-25 444h170zM129 -6q-39 0 -64.5 24t-25.5 60q0 37 25.5 61t64.5 24q38 0 63 -24t25 -61q0 -36 -25 -60t-63 -24z" />
    <glyph glyph-name="quotedbl" unicode="&#x22;" horiz-adv-x="396" 
d="M238 432l-10 244h128l-12 -244h-106zM52 432l-12 244h131l-13 -244h-106z" />
    <glyph glyph-name="numbersign" unicode="#" horiz-adv-x="657" 
d="M122 158h-97l21 125h97l16 114h-96l19 125h96l23 154h136l-25 -154h85l23 154h136l-23 -154h99l-21 -125h-98l-16 -114h98l-20 -125h-99l-24 -158h-137l26 158h-83l-25 -158h-137zM293 397l-16 -114h84l17 114h-85z" />
    <glyph glyph-name="dollar" unicode="$" horiz-adv-x="550" 
d="M327 -103h-83v93q-88 5 -141.5 40t-78.5 81l103 88q20 -34 46 -54t71 -25v155l-28 9q-162 51 -162 192q0 79 46.5 137t143.5 71v75h83v-74q124 -10 189 -99l-103 -85q-32 43 -86 53v-155l27 -8q92 -29 129.5 -76.5t37.5 -113.5q0 -87 -53.5 -141t-140.5 -67v-96zM364 188
q0 39 -37 59v-118q37 17 37 59zM211 486q0 -39 33 -59v118q-33 -18 -33 -59z" />
    <glyph glyph-name="percent" unicode="%" horiz-adv-x="864" 
d="M686 676l-401 -676h-109l398 676h112zM676 74q33 0 45 26t12 86t-12 86t-45 26q-32 0 -44.5 -26t-12.5 -86t12.5 -86t44.5 -26zM676 378q162 0 162 -192t-162 -192q-163 0 -163 192t163 192zM188 378q33 0 45 26t12 86t-12 86t-45 26q-32 0 -44.5 -26t-12.5 -86t12.5 -86
t44.5 -26zM188 682q162 0 162 -192t-162 -192q-163 0 -163 192t163 192z" />
    <glyph glyph-name="ampersand" unicode="&#x26;" horiz-adv-x="648" 
d="M503 365l99 -73l-78 -105q-6 -9 -20 -27l138 -150v-10h-156l-62 69q-89 -80 -203 -80q-90 0 -143 46t-53 122q0 34 12 64t35.5 55.5t42.5 41t49 36.5l4 3l-4 5q-1 1 -9.5 10t-11 11.5t-11 12.5t-11.5 14.5t-10.5 14t-10.5 16t-8 16.5t-7 18.5t-4 18.5t-2 20q0 73 54 123
t146 50q85 0 139 -50.5t54 -122.5q0 -47 -32 -90t-95 -89l74 -82l9 12zM221 107q64 0 121 54l-93 105l-12 -8q-4 -3 -13 -10t-13 -9.5t-11 -8.5l-10.5 -9t-9 -8.5t-7.5 -9t-5.5 -9t-5 -10t-2.5 -10.5t-1 -12q0 -24 18 -39.5t44 -15.5zM213 514q0 -39 49 -88l2 -3l4 3
q37 27 54 46.5t17 41.5t-17.5 39t-42.5 17q-29 0 -47.5 -17t-18.5 -39z" />
    <glyph glyph-name="quotesingle" unicode="'" horiz-adv-x="209" 
d="M51 432l-10 244h128l-12 -244h-106z" />
    <glyph glyph-name="parenleft" unicode="(" horiz-adv-x="300" 
d="M287 -180l-105 -42q-152 211 -152 463q0 132 38 239t114 224l107 -42q-110 -228 -110 -421q0 -211 108 -421z" />
    <glyph glyph-name="parenright" unicode=")" horiz-adv-x="299" 
d="M13 -180q108 210 108 421q0 193 -110 421l106 42q76 -117 114 -224t38 -239q0 -252 -152 -463z" />
    <glyph glyph-name="asterisk" unicode="*" horiz-adv-x="461" 
d="M135 291l-81 75l88 101l-115 11l30 125l117 -40l-11 133h131l-9 -132l127 31l23 -122l-119 -8l80 -101l-103 -72l-71 114z" />
    <glyph glyph-name="plus" unicode="+" 
d="M29 209v120h183v194h134v-194h186v-120h-186v-193h-134v193h-183z" />
    <glyph glyph-name="comma" unicode="," horiz-adv-x="242" 
d="M206 164l-71 -271h-105l25 271h151z" />
    <glyph glyph-name="hyphen" unicode="-" horiz-adv-x="395" 
d="M47 331h301v-120h-301v120z" />
    <glyph glyph-name="period" unicode="." horiz-adv-x="255" 
d="M129 -6q-42 0 -69.5 25.5t-27.5 64.5q0 41 27 67t70 26q40 0 67 -26.5t27 -66.5q0 -38 -27 -64t-67 -26z" />
    <glyph glyph-name="slash" unicode="/" horiz-adv-x="399" 
d="M378 676l-211 -676h-146l208 676h149z" />
    <glyph glyph-name="zero" unicode="0" horiz-adv-x="603" 
d="M302 115q60 0 84.5 53.5t24.5 169.5t-24.5 169.5t-84.5 53.5t-85 -53.5t-25 -169.5t25 -169.5t85 -53.5zM302 687q264 0 264 -349q0 -165 -64 -257t-200 -92q-265 0 -265 349q0 165 64.5 257t200.5 92z" />
    <glyph glyph-name="one" unicode="1" horiz-adv-x="414" 
d="M350 0h-151v533l-165 -65l-36 116l223 92h129v-676z" />
    <glyph glyph-name="two" unicode="2" horiz-adv-x="525" 
d="M258 687q101 0 163.5 -59t62.5 -152q0 -63 -36 -120.5t-102 -127.5l-100 -106h240v-122h-441v103l201 215q83 88 83 158q0 38 -18 61.5t-53 23.5q-77 0 -77 -101h-150q0 105 57 166t170 61z" />
    <glyph glyph-name="three" unicode="3" horiz-adv-x="548" 
d="M388 343q53 -12 87.5 -56.5t34.5 -104.5q0 -86 -66.5 -139.5t-175.5 -53.5q-118 0 -176.5 52.5t-58.5 142.5h150q0 -33 22.5 -51t62.5 -18q38 0 62.5 20t24.5 56q0 91 -112 91h-66v122h66q102 0 102 83q0 35 -20.5 54.5t-56.5 19.5t-56 -17.5t-20 -48.5h-151
q0 86 56.5 139t170.5 53q106 0 169.5 -53t63.5 -139q0 -55 -31.5 -97.5t-81.5 -54.5z" />
    <glyph glyph-name="four" unicode="4" horiz-adv-x="572" 
d="M541 248v-122h-70v-126h-150v126h-301v107l292 443h159v-428h70zM175 248h146v232z" />
    <glyph glyph-name="five" unicode="5" horiz-adv-x="530" 
d="M501 217q0 -100 -64.5 -164t-180.5 -64t-174.5 53.5t-58.5 142.5h150q0 -34 22 -52t60 -18q90 0 90 103q0 43 -23.5 69t-66.5 26q-47 0 -83 -30l-118 21l44 372h372v-122h-251l-15 -133q40 18 84 18q89 0 151 -54t62 -168z" />
    <glyph glyph-name="six" unicode="6" horiz-adv-x="568" 
d="M192 258q0 -64 25 -103.5t73 -39.5q45 0 68 27t23 75q0 46 -23 72.5t-68 26.5q-64 0 -98 -58zM373 495q0 31 -19.5 48.5t-53.5 17.5q-108 0 -108 -171q54 46 141 46q93 0 148 -58.5t55 -158.5q0 -99 -63.5 -164.5t-182.5 -65.5q-128 0 -190.5 89.5t-62.5 234.5
q0 83 14.5 149t45 117.5t82 79.5t121.5 28q112 0 167.5 -53.5t55.5 -138.5h-150z" />
    <glyph glyph-name="seven" unicode="7" horiz-adv-x="490" 
d="M67 0l239 554h-282v122h451v-104l-246 -572h-162z" />
    <glyph glyph-name="eight" unicode="8" horiz-adv-x="578" 
d="M289 -11q-116 0 -184 52t-68 145q0 61 33 102.5t87 57.5q-49 18 -78 56t-29 91q0 91 63.5 142.5t176.5 51.5t175.5 -51.5t62.5 -142.5q0 -53 -28.5 -91t-77.5 -56q53 -16 86 -57t33 -103q0 -93 -68 -145t-184 -52zM289 561q-39 0 -61.5 -20t-22.5 -56q0 -39 23.5 -59
t60.5 -20q38 0 61 19.5t23 59.5q0 36 -22.5 56t-61.5 20zM289 115q45 0 71 22t26 61q0 43 -26.5 65t-70.5 22q-43 0 -70 -22t-27 -65q0 -39 26 -61t71 -22z" />
    <glyph glyph-name="nine" unicode="9" horiz-adv-x="569" 
d="M377 417q0 65 -24.5 104.5t-72.5 39.5q-45 0 -68.5 -27t-23.5 -75q0 -46 23.5 -72.5t68.5 -26.5q62 0 97 57zM46 181h151q0 -31 19 -48.5t53 -17.5q108 0 108 171q-56 -47 -141 -47q-93 0 -148 59t-55 159q0 99 64 164.5t183 65.5q65 0 114.5 -25t79 -70t44 -102.5
t14.5 -126.5q0 -172 -63 -273t-200 -101q-112 0 -167.5 53.5t-55.5 138.5z" />
    <glyph glyph-name="colon" unicode=":" horiz-adv-x="263" 
d="M132 -6q-39 0 -64 24t-25 60q0 37 25 61t64 24q38 0 63 -24t25 -61q0 -36 -25 -60t-63 -24zM132 297q-39 0 -64 24t-25 61t25 60.5t64 23.5q38 0 63 -23.5t25 -60.5t-25 -61t-63 -24z" />
    <glyph glyph-name="semicolon" unicode=";" horiz-adv-x="258" 
d="M133 297q-38 0 -63.5 24t-25.5 61t25.5 60.5t63.5 23.5t63 -23.5t25 -60.5t-25 -61t-63 -24zM210 164l-70 -271h-105l25 271h150z" />
    <glyph glyph-name="less" unicode="&#x3c;" 
d="M51 197v146l443 156v-127l-326 -103l326 -102v-127z" />
    <glyph glyph-name="equal" unicode="=" 
d="M58 449h443v-120h-443v120zM58 211h443v-120h-443v120z" />
    <glyph glyph-name="greater" unicode="&#x3e;" 
d="M508 343v-146l-443 -157v127l326 102l-326 103v127z" />
    <glyph glyph-name="question" unicode="?" horiz-adv-x="454" 
d="M211 -6q-39 0 -64 24t-25 60q0 37 25 61t64 24q38 0 63.5 -24t25.5 -61q0 -36 -25.5 -60t-63.5 -24zM217 686q100 0 156 -51t56 -129q0 -39 -15 -72t-37 -56t-43.5 -44.5t-36.5 -47.5t-15 -54h-144q0 41 15.5 76t37 59t43.5 45t37.5 44t15.5 47t-16 39t-45 15
q-34 0 -49.5 -15.5t-15.5 -36.5l-136 15q0 71 47.5 118.5t144.5 47.5z" />
    <glyph glyph-name="at" unicode="@" horiz-adv-x="912" 
d="M528 317q-36 19 -72 19q-43 0 -69 -44.5t-26 -101.5q0 -71 54 -71q49 0 80 25zM520 68q-27 -21 -39.5 -30t-40.5 -19t-59 -10q-68 0 -104.5 43t-36.5 126q0 103 57 183.5t138 80.5q63 0 106 -39l6 30h118l-42 -243q-9 -44 -3.5 -69.5t31.5 -25.5q47 0 81.5 60.5
t34.5 174.5q0 107 -63.5 168.5t-198.5 61.5q-89 0 -160 -32t-115 -85.5t-67 -119.5t-23 -137q0 -265 263 -265q103 0 180 34l21 -94q-96 -42 -200 -42q-187 0 -280.5 98t-93.5 270q0 95 33 180.5t92.5 151.5t150 104.5t199.5 38.5q183 0 277.5 -92.5t94.5 -239.5t-70 -241
t-171 -94q-95 0 -116 73z" />
    <glyph glyph-name="A" unicode="A" horiz-adv-x="626" 
d="M470 0l-43 141h-228l-42 -141h-164l232 676h176l233 -676h-164zM314 518l-77 -252h153z" />
    <glyph glyph-name="B" unicode="B" horiz-adv-x="599" 
d="M60 0v676h244q231 0 231 -181q0 -101 -92 -137q54 -14 90.5 -56.5t36.5 -107.5q0 -104 -68.5 -149t-196.5 -45h-245zM215 125h89q57 0 81.5 20.5t24.5 60.5q0 80 -106 80h-89v-161zM215 411h72q48 0 68.5 17.5t20.5 52.5q0 70 -90 70h-71v-140z" />
    <glyph glyph-name="C" unicode="C" horiz-adv-x="592" 
d="M194 337q0 -217 149 -217q72 0 116 78l117 -74q-77 -134 -239 -134q-148 0 -225.5 90.5t-77.5 257.5t77 257.5t226 90.5q162 0 239 -134l-117 -74q-44 78 -116 78q-149 0 -149 -219z" />
    <glyph glyph-name="D" unicode="D" horiz-adv-x="657" 
d="M60 0v676h223q174 0 257 -82t83 -256t-83 -256t-257 -82h-223zM215 125h58q106 0 148 46.5t42 166.5q0 118 -42.5 165.5t-147.5 47.5h-58v-426z" />
    <glyph glyph-name="E" unicode="E" horiz-adv-x="548" 
d="M215 125h300v-125h-455v676h452v-125h-297v-151h252v-125h-252v-150z" />
    <glyph glyph-name="F" unicode="F" horiz-adv-x="522" 
d="M60 0v676h432v-125h-277v-168h231v-125h-231v-258h-155z" />
    <glyph glyph-name="G" unicode="G" horiz-adv-x="652" 
d="M341 247v125h282q6 -54 6 -74q0 -133 -72 -220.5t-213 -87.5q-148 0 -229 87.5t-81 261.5q0 347 324 347q78 0 140 -34.5t91 -93.5l-115 -74q-43 72 -123 72q-78 0 -117.5 -52t-39.5 -165q0 -122 36.5 -170.5t113.5 -48.5q62 0 95 35.5t33 91.5h-131z" />
    <glyph glyph-name="H" unicode="H" horiz-adv-x="686" 
d="M472 410v266h154v-676h-154v285h-257v-285h-155v676h155v-266h257z" />
    <glyph glyph-name="I" unicode="I" horiz-adv-x="275" 
d="M60 0v676h155v-676h-155z" />
    <glyph glyph-name="J" unicode="J" horiz-adv-x="482" 
d="M8 107l109 69q24 -56 80 -56q44 0 63.5 26t19.5 84v446h146v-458q0 -108 -60 -168t-169 -60q-70 0 -118 32t-71 85z" />
    <glyph glyph-name="K" unicode="K" horiz-adv-x="623" 
d="M289 287l-74 -81v-206h-155v676h155v-276l229 276h181l-232 -279l231 -397h-177z" />
    <glyph glyph-name="L" unicode="L" horiz-adv-x="483" 
d="M215 125h257v-125h-412v676h155v-551z" />
    <glyph glyph-name="M" unicode="M" horiz-adv-x="855" 
d="M429 187l124 489h203l64 -676h-143l-38 497l-129 -497h-168l-118 490l-47 -490h-145l75 676h205z" />
    <glyph glyph-name="N" unicode="N" horiz-adv-x="679" 
d="M465 254v422h154v-676h-157l-247 430l1 -430h-157l1 676h163z" />
    <glyph glyph-name="O" unicode="O" horiz-adv-x="657" 
d="M194 337q0 -52 5.5 -88.5t19.5 -67t41.5 -46t67.5 -15.5q76 0 106 56t30 161q0 106 -30 162.5t-104 56.5q-75 0 -105.5 -56.5t-30.5 -162.5zM623 337q0 -158 -71.5 -252.5t-223.5 -94.5q-153 0 -223.5 94t-70.5 253q0 77 15.5 138t49.5 109.5t92.5 75t138.5 26.5
q79 0 137 -26.5t91.5 -75t49 -109.5t15.5 -138z" />
    <glyph glyph-name="P" unicode="P" horiz-adv-x="584" 
d="M307 237h-92v-237h-155v676h247q121 0 186 -56.5t65 -163.5t-65 -163t-186 -56zM215 551v-189h80q103 0 103 94q0 95 -103 95h-80z" />
    <glyph glyph-name="Q" unicode="Q" horiz-adv-x="657" 
d="M623 337q0 -114 -37 -197l66 -59l-82 -92l-60 55q-71 -54 -182 -54q-153 0 -223.5 94t-70.5 253q0 77 15.5 138t49.5 109.5t92.5 75t138.5 26.5q79 0 137 -26.5t91.5 -75t49 -109.5t15.5 -138zM194 337q0 -52 5.5 -88.5t19.5 -67t41.5 -46t67.5 -15.5q46 0 77 22
l-141 131l78 87l116 -105q6 38 6 82q0 106 -30 162.5t-104 56.5q-75 0 -105.5 -56.5t-30.5 -162.5z" />
    <glyph glyph-name="R" unicode="R" horiz-adv-x="607" 
d="M60 0v676h266q121 0 185.5 -54.5t64.5 -150.5q0 -68 -38 -119t-110 -73l159 -279h-172l-141 264h-59l1 -264h-156zM416 471q0 39 -23.5 59.5t-83.5 20.5h-94v-162h94q61 0 84 20t23 62z" />
    <glyph glyph-name="S" unicode="S" horiz-adv-x="543" 
d="M508 585l-103 -85q-41 56 -120 56q-37 0 -58 -19.5t-21 -50.5q0 -50 57 -69l83 -26q92 -29 129.5 -76.5t37.5 -113.5q0 -101 -70 -156.5t-179 -55.5q-100 0 -160.5 36t-87.5 86l103 88q22 -39 54.5 -59.5t90.5 -20.5q42 0 65.5 18.5t23.5 50.5q0 49 -63 70l-82 26
q-162 51 -162 192q0 89 58.5 149.5t180.5 60.5q151 0 223 -101z" />
    <glyph glyph-name="T" unicode="T" horiz-adv-x="551" 
d="M24 676h503v-125h-174v-551h-155v551h-174v125z" />
    <glyph glyph-name="U" unicode="U" horiz-adv-x="641" 
d="M321 -10q-124 0 -195.5 67.5t-71.5 203.5v415h155v-410q0 -74 26 -110t86 -36t85.5 36t25.5 110v410h155v-415q0 -136 -71.5 -203.5t-194.5 -67.5z" />
    <glyph glyph-name="V" unicode="V" horiz-adv-x="609" 
d="M448 676h162l-207 -676h-198l-205 676h160l145 -518z" />
    <glyph glyph-name="W" unicode="W" horiz-adv-x="969" 
d="M397 676h175l123 -505l110 505h158l-167 -676h-189l-122 467l-123 -467h-188l-168 676h158l111 -505z" />
    <glyph glyph-name="X" unicode="X" horiz-adv-x="603" 
d="M5 676h172l124 -229l125 229h172l-195 -328l198 -348h-173l-127 238l-126 -238h-173l198 348z" />
    <glyph glyph-name="Y" unicode="Y" horiz-adv-x="599" 
d="M377 0h-155v259l-227 417h169l137 -279l133 279h170l-227 -417v-259z" />
    <glyph glyph-name="Z" unicode="Z" horiz-adv-x="526" 
d="M485 676v-110l-276 -441h288v-125h-469v107l278 444h-265v125h444z" />
    <glyph glyph-name="bracketleft" unicode="[" horiz-adv-x="342" 
d="M52 690h270v-118h-121v-670h121v-118h-270v906z" />
    <glyph glyph-name="backslash" unicode="\" horiz-adv-x="399" 
d="M232 0l-211 676h149l208 -676h-146z" />
    <glyph glyph-name="bracketright" unicode="]" horiz-adv-x="342" 
d="M20 690h270v-906h-270v118h121v670h-121v118z" />
    <glyph glyph-name="asciicircum" unicode="^" 
d="M10 431l270 269l269 -269l-94 -95l-174 175l-175 -174z" />
    <glyph glyph-name="underscore" unicode="_" horiz-adv-x="472" 
d="M36 -31h400v-90h-400v90z" />
    <glyph glyph-name="grave" unicode="`" horiz-adv-x="600" 
d="M194 696h141l71 -169h-125z" />
    <glyph glyph-name="a" unicode="a" horiz-adv-x="474" 
d="M431 0h-132v51q-53 -62 -141 -62q-59 0 -96 36.5t-37 98.5q0 143 227 156l37 2v21q0 53 -63 53q-28 0 -43 -10.5t-15 -26.5v-14h-122q-2 18 -2 30q0 59 52.5 95t139.5 36q90 0 142.5 -39.5t52.5 -123.5v-303zM169 134q0 -39 46 -39q41 0 74 30v74l-37 -5q-83 -12 -83 -60
z" />
    <glyph glyph-name="b" unicode="b" horiz-adv-x="519" 
d="M189 690v-263q39 39 107 39q95 0 144 -61.5t49 -175.5q0 -109 -51.5 -174.5t-141.5 -65.5q-88 0 -138 46l-45 -35h-66v690h142zM345 229q0 107 -86 107q-42 0 -70 -18v-173q28 -26 70 -26q48 0 67 29t19 81z" />
    <glyph glyph-name="c" unicode="c" horiz-adv-x="448" 
d="M29 228q0 103 53 170.5t162 67.5q141 0 190 -106l-98 -70q-30 52 -80 52q-83 0 -83 -114q0 -115 83 -115q50 0 81 53l97 -71q-49 -106 -190 -106q-109 0 -162 67.5t-53 171.5z" />
    <glyph glyph-name="d" unicode="d" horiz-adv-x="521" 
d="M332 427v263h142v-690h-135v34q-48 -45 -122 -45q-88 0 -137 62.5t-49 177.5q0 113 49 175t138 62q70 0 114 -39zM175 229q0 -110 85 -110q42 0 72 19v180q-32 18 -72 18q-85 0 -85 -107z" />
    <glyph glyph-name="e" unicode="e" horiz-adv-x="472" 
d="M262 108q53 0 106 39l65 -91q-71 -67 -171 -67q-117 0 -175 65t-58 174q0 101 57.5 169.5t159.5 68.5q101 0 149.5 -58.5t48.5 -142.5q0 -53 -8 -83h-264q5 -74 90 -74zM172 281h141q1 6 1 12q0 32 -20 46.5t-48 14.5q-34 0 -53 -20.5t-21 -52.5z" />
    <glyph glyph-name="f" unicode="f" horiz-adv-x="351" 
d="M332 690v-120h-61q-43 0 -43 -50v-64h110v-120h-110v-336h-142v336h-69v110l69 10v65q0 169 176 169h70z" />
    <glyph glyph-name="g" unicode="g" horiz-adv-x="520" 
d="M340 456h133v-480q0 -83 -57.5 -133.5t-157.5 -50.5q-94 0 -144 42.5t-50 114.5h121q0 -19 19 -33t54 -14q73 0 73 64v67q-46 -44 -107 -44q-93 0 -143 61t-50 179q0 116 50.5 176.5t141.5 60.5q70 0 117 -43v33zM174 229q0 -110 85 -110q44 0 72 19v182q-27 16 -72 16
q-85 0 -85 -107z" />
    <glyph glyph-name="h" unicode="h" horiz-adv-x="517" 
d="M47 0v690h142v-274q16 15 28 23.5t40 17.5t63 9q74 0 114 -47.5t40 -136.5v-282h-142v265q0 36 -17 53.5t-55 17.5q-37 0 -71 -24v-312h-142z" />
    <glyph glyph-name="i" unicode="i" horiz-adv-x="238" 
d="M48 0v456h142v-456h-142zM117 530q-82 0 -82 78q0 40 22.5 60t59.5 20q34 0 57.5 -20.5t23.5 -59.5q0 -40 -23.5 -59t-57.5 -19z" />
    <glyph glyph-name="j" unicode="j" horiz-adv-x="239" 
d="M56 -226l-87 88q79 62 79 127v467h143v-436q0 -161 -135 -246zM119 530q-83 0 -83 78q0 40 23 60t60 20q34 0 57.5 -20.5t23.5 -59.5q0 -40 -23.5 -59t-57.5 -19z" />
    <glyph glyph-name="k" unicode="k" horiz-adv-x="503" 
d="M501 0h-156l-104 190l-52 -51v-139h-142v690h142v-387l148 153h171l-170 -167z" />
    <glyph glyph-name="l" unicode="l" horiz-adv-x="264" 
d="M44 690h142v-532q0 -19 8 -26t28 -7h20v-131h-70q-128 0 -128 141v555z" />
    <glyph glyph-name="m" unicode="m" horiz-adv-x="809" 
d="M47 0v456h137v-51q48 61 124 61q88 0 136 -66q50 66 159 66q85 0 124 -43t39 -128v-295h-143v282q0 54 -65 54q-47 0 -79 -24v-312h-142v300q-23 36 -72 36q-37 0 -76 -24v-312h-142z" />
    <glyph glyph-name="n" unicode="n" horiz-adv-x="517" 
d="M47 0v456h137v-51q41 61 136 61q74 0 114 -47.5t40 -136.5v-282h-142v265q0 36 -17 53.5t-55 17.5q-37 0 -71 -24v-312h-142z" />
    <glyph glyph-name="o" unicode="o" horiz-adv-x="498" 
d="M251 466q106 0 162 -65t56 -172q0 -109 -56.5 -174.5t-166.5 -65.5q-104 0 -160.5 66t-56.5 171q0 110 55.5 175t166.5 65zM249 116q76 0 76 110q0 113 -78 113q-74 0 -74 -110q0 -113 76 -113z" />
    <glyph glyph-name="p" unicode="p" horiz-adv-x="525" 
d="M189 28v-244h-142v672h135v-35q48 45 124 45q89 0 138.5 -62.5t49.5 -177.5q0 -113 -49.5 -175t-139.5 -62q-72 0 -116 39zM350 226q0 110 -87 110q-44 0 -74 -19v-180q32 -18 74 -18q87 0 87 107z" />
    <glyph glyph-name="q" unicode="q" horiz-adv-x="513" 
d="M324 -216v244q-39 -39 -104 -39q-93 0 -141.5 61.5t-48.5 175.5q0 109 50.5 174.5t139.5 65.5q85 0 135 -46l45 36h66v-672h-142zM174 226q0 -107 83 -107q39 0 67 18v173q-28 26 -67 26q-47 0 -65 -29t-18 -81z" />
    <glyph glyph-name="r" unicode="r" horiz-adv-x="365" 
d="M183 385h1q45 81 119 81q27 0 50 -6l-9 -150q-37 10 -79 10q-53 0 -76 -39v-281h-142v456h136v-71z" />
    <glyph glyph-name="s" unicode="s" horiz-adv-x="439" 
d="M406 398l-76 -83q-47 47 -107 47q-23 0 -36 -9t-13 -23q0 -27 34 -35l76 -17q131 -29 131 -139q0 -62 -47.5 -106t-157.5 -44q-68 0 -116.5 22.5t-75.5 54.5l79 84q54 -58 119 -58q55 0 55 33q0 26 -35 34l-78 19q-125 30 -125 137q0 59 48 105t148 46q113 0 177 -68z
" />
    <glyph glyph-name="t" unicode="t" horiz-adv-x="358" 
d="M237 337v-178q0 -40 45 -40q22 0 49 5v-123q-41 -12 -99 -12q-71 0 -104 40.5t-33 108.5v199h-81v109l81 10v109l142 21v-130h92v-119h-92z" />
    <glyph glyph-name="u" unicode="u" horiz-adv-x="517" 
d="M470 456v-456h-137v51q-41 -61 -136 -61q-74 0 -114 47.5t-40 136.5v282h142v-265q0 -36 17 -53.5t55 -17.5q37 0 71 24v312h142z" />
    <glyph glyph-name="v" unicode="v" horiz-adv-x="503" 
d="M348 456h151l-161 -456h-171l-164 456h152l97 -318z" />
    <glyph glyph-name="w" unicode="w" horiz-adv-x="774" 
d="M321 456h132l87 -308l82 308h145l-136 -456h-154l-90 276l-90 -276h-154l-136 456h144l83 -308z" />
    <glyph glyph-name="x" unicode="x" horiz-adv-x="496" 
d="M338 228l151 -228h-162l-78 135l-80 -135h-162l152 229l-152 227h162l79 -135l79 135h162z" />
    <glyph glyph-name="y" unicode="y" horiz-adv-x="493" 
d="M157 456l95 -279l89 279h152l-262 -672h-143l95 231l-185 441h159z" />
    <glyph glyph-name="z" unicode="z" horiz-adv-x="422" 
d="M388 456v-90l-179 -246h177v-120h-355v90l182 246h-174v120h349z" />
    <glyph glyph-name="braceleft" unicode="{" horiz-adv-x="330" 
d="M248 546v-186q0 -110 -92 -123q92 -11 92 -120v-189q0 -38 49 -38v-106q-103 0 -150 32.5t-47 111.5v174q0 82 -97 82v106q97 0 97 87v169q0 78 47 111t150 33v-106q-49 0 -49 -38z" />
    <glyph glyph-name="bar" unicode="|" horiz-adv-x="194" 
d="M142 -216h-90v906h90v-906z" />
    <glyph glyph-name="braceright" unicode="}" horiz-adv-x="330" 
d="M82 360v186q0 38 -49 38v106q103 0 150 -33t47 -111v-169q0 -87 97 -87v-106q-97 0 -97 -82v-174q0 -79 -47 -111.5t-150 -32.5v106q49 0 49 38v189q0 109 92 120q-92 13 -92 123z" />
    <glyph glyph-name="asciitilde" unicode="~" 
d="M469 343l2 -139q-47 29 -94 29q-29 0 -94 -29t-105 -29q-45 0 -87 23l-2 139q39 -29 82 -29q28 0 91.5 29t114.5 29q54 0 92 -23z" />
    <glyph glyph-name="uni00A0" unicode="&#xa0;" horiz-adv-x="182" 
 />
    <glyph glyph-name="exclamdown" unicode="&#xa1;" horiz-adv-x="248" 
d="M65 228h119l24 -444h-170zM124 466q38 0 63.5 -24t25.5 -60q0 -37 -25.5 -61t-63.5 -24t-63 24t-25 61q0 36 25 60t63 24z" />
    <glyph glyph-name="cent" unicode="&#xa2;" horiz-adv-x="472" 
d="M34 228q0 103 53 170.5t162 67.5q19 0 28 -1l18 75l68 -15l-19 -76q65 -26 95 -89l-98 -70q-14 22 -27 33l-51 -210q49 1 79 53l97 -71q-49 -106 -190 -106q-11 0 -16 1l-15 -63l-67 15l14 60q-66 24 -98.5 85t-32.5 141zM178 228q0 -57 21 -86l48 199q-69 -10 -69 -113z
" />
    <glyph glyph-name="sterling" unicode="&#xa3;" horiz-adv-x="566" 
d="M31 342h60v99q0 107 54.5 176t173.5 69q74 0 123.5 -26t100.5 -78l-92 -96q-32 34 -60 50t-65 16q-88 0 -88 -109v-101h155v-89h-155v-135h253v-118h-401l1 253h-60v89z" />
    <glyph glyph-name="currency" unicode="&#xa4;" horiz-adv-x="568" 
d="M451 345q9 -43 9 -74q0 -36 -8 -71l82 -87l-97 -96l-80 80q-38 -9 -75 -9q-44 0 -77 11l-75 -76l-91 90l77 81q-9 34 -9 75q0 40 7 69l-80 86l98 96l77 -78q30 10 76 10q47 0 78 -12l76 77l90 -90zM284 214q56 0 56 55q0 57 -57 57q-55 0 -55 -55q0 -57 56 -57z" />
    <glyph glyph-name="yen" unicode="&#xa5;" horiz-adv-x="618" 
d="M49 312h157l-20 46h-137v89h90l-113 229h166l115 -270l117 270h167l-116 -229h94v-89h-142l-21 -46h163v-89h-189v-223h-148v223h-183v89z" />
    <glyph glyph-name="brokenbar" unicode="&#xa6;" horiz-adv-x="202" 
d="M146 306h-90v384h90v-384zM56 170h90v-386h-90v386z" />
    <glyph glyph-name="section" unicode="&#xa7;" horiz-adv-x="556" 
d="M518 284q0 -72 -53 -114q53 -38 53 -108q0 -73 -58 -124.5t-187 -51.5q-82 0 -147 25t-95 70l79 88q66 -73 172 -73q81 0 81 41q0 32 -74 53l-87 28q-79 26 -117 65.5t-38 97.5q0 74 53 121q-54 39 -54 107q0 30 13 60t40 57t75 43.5t110 16.5q144 0 224 -84l-86 -89
q-62 60 -152 60q-30 0 -50.5 -11.5t-20.5 -29.5t15.5 -27.5t58.5 -23.5l85 -27q160 -51 160 -170zM209 354q-15 -20 -15 -41q0 -25 21.5 -41t76.5 -34l64 -21q13 17 13 39q0 27 -18.5 44.5t-61.5 30.5z" />
    <glyph glyph-name="dieresis" unicode="&#xa8;" horiz-adv-x="600" 
d="M198 520q-81 0 -81 78q0 40 22 60t59 20q34 0 57.5 -20.5t23.5 -59.5q0 -40 -23.5 -59t-57.5 -19zM401 520q-81 0 -81 78q0 40 22 60t59 20q34 0 57.5 -20.5t23.5 -59.5q0 -40 -23.5 -59t-57.5 -19z" />
    <glyph glyph-name="copyright" unicode="&#xa9;" horiz-adv-x="832" 
d="M33 333q0 162 109 269t274 107q166 0 274.5 -107t108.5 -269q0 -160 -108.5 -267.5t-274.5 -107.5q-164 0 -273.5 107.5t-109.5 267.5zM136 333q0 -123 78 -199.5t202 -76.5q125 0 203 76.5t78 199.5q0 124 -78 201t-203 77q-124 0 -202 -77t-78 -201zM339 334
q0 -91 81 -91q48 0 83 44l76 -79q-67 -69 -165 -69q-81 0 -138.5 52.5t-57.5 143.5q0 88 57.5 139.5t136.5 51.5q58 0 95 -19t73 -54l-76 -74q-3 2 -13 11t-15 12.5t-14.5 9.5t-20 8t-22.5 2q-37 0 -58.5 -23t-21.5 -65z" />
    <glyph glyph-name="ordfeminine" unicode="&#xaa;" horiz-adv-x="346" 
d="M299 350h-87v31q-34 -38 -93 -38q-39 0 -63 22.5t-24 60.5q0 91 149 98l25 1v13q0 32 -41 32q-39 0 -39 -23v-8h-80q-1 6 -1 20q0 36 34.5 58t90.5 22q129 0 129 -101v-188zM126 434q0 -25 30 -25q29 0 50 18v47l-25 -4q-55 -9 -55 -36z" />
    <glyph glyph-name="guillemotleft" unicode="&#xab;" horiz-adv-x="578" 
d="M15 270l209 238l89 -62l-131 -177l132 -177l-90 -61zM248 270l209 238l89 -62l-131 -177l132 -177l-90 -61z" />
    <glyph glyph-name="logicalnot" unicode="&#xac;" 
d="M20 304v120h503v-309h-135v189h-368z" />
    <glyph glyph-name="uni00AD" unicode="&#xad;" horiz-adv-x="395" 
d="M47 331h301v-120h-301v120z" />
    <glyph glyph-name="registered" unicode="&#xae;" horiz-adv-x="832" 
d="M474 405q0 16 -13.5 28.5t-41.5 12.5h-61v-80h57q30 0 44.5 12t14.5 27zM260 141v380h154q83 0 120.5 -28t37.5 -84q0 -36 -22 -63.5t-61 -40.5l88 -164h-107l-76 151h-36v-151h-98zM33 333q0 162 109 269t274 107q166 0 274.5 -107t108.5 -269q0 -160 -108.5 -267.5
t-274.5 -107.5q-164 0 -273.5 107.5t-109.5 267.5zM136 333q0 -123 78 -199.5t202 -76.5q125 0 203 76.5t78 199.5q0 124 -78 201t-203 77q-124 0 -202 -77t-78 -201z" />
    <glyph glyph-name="macron" unicode="&#xaf;" horiz-adv-x="600" 
d="M145 659h309v-112h-309v112z" />
    <glyph glyph-name="degree" unicode="&#xb0;" horiz-adv-x="327" 
d="M26 545q0 57 35.5 99t99.5 42q68 0 104.5 -42t36.5 -99q0 -55 -37 -96t-104 -41q-64 0 -99.5 41.5t-35.5 95.5zM103 545q0 -25 15 -43.5t43 -18.5q31 0 46.5 18.5t15.5 43.5q0 26 -15.5 46t-46.5 20q-28 0 -43 -20t-15 -46z" />
    <glyph glyph-name="plusminus" unicode="&#xb1;" 
d="M28 350v120h183v192h134v-192h186v-120h-186v-131h-134v131h-183zM28 24v120h503v-120h-503z" />
    <glyph glyph-name="twosuperior" unicode="&#xb2;" horiz-adv-x="331" 
d="M163 794q62 0 100.5 -33.5t38.5 -85.5q0 -55 -84 -137l-49 -45h132v-77h-268v65l118 115q46 43 46 79q0 39 -34 39q-39 0 -39 -50h-102q0 61 35 95.5t106 34.5z" />
    <glyph glyph-name="threesuperior" unicode="&#xb3;" horiz-adv-x="342" 
d="M245 603q32 -8 51 -32t19 -55q0 -48 -41 -77.5t-108 -29.5q-143 0 -143 111h102q0 -31 41 -31q18 0 30.5 8.5t12.5 24.5q0 42 -59 42h-40v77h40q53 0 53 39q0 33 -37 33q-36 0 -36 -28h-103q0 49 34.5 78.5t104.5 29.5q66 0 105 -29.5t39 -77.5q0 -29 -18 -52.5
t-47 -30.5z" />
    <glyph glyph-name="acute" unicode="&#xb4;" horiz-adv-x="600" 
d="M265 696h141l-87 -169h-125z" />
    <glyph glyph-name="mu" unicode="&#xb5;" horiz-adv-x="524" 
d="M191 -216h-142v672h142v-272q2 -33 18.5 -48.5t53.5 -15.5t71 24v312h142v-456h-137v51q-41 -61 -136 -61q-2 0 -6 0.5t-6 0.5v-207z" />
    <glyph glyph-name="paragraph" unicode="&#xb6;" horiz-adv-x="551" 
d="M211 456h124v-449h-125v135q-186 0 -186 154q0 76 46.5 118t140.5 42zM388 -227l-81 83q74 60 74 118v482h125v-451q0 -158 -118 -232z" />
    <glyph glyph-name="periodcentered" unicode="&#xb7;" horiz-adv-x="261" 
d="M132 184q-42 0 -69.5 25.5t-27.5 64.5q0 41 27 67t70 26q40 0 67 -26.5t27 -66.5q0 -38 -27 -64t-67 -26z" />
    <glyph glyph-name="cedilla" unicode="&#xb8;" horiz-adv-x="600" 
d="M264 10l78 -10l-18 -43q98 0 98 -81q0 -45 -33.5 -68.5t-87.5 -23.5q-56 0 -104 23v84q42 -32 91 -32q28 0 28 17t-37 17h-49l-7 8z" />
    <glyph glyph-name="onesuperior" unicode="&#xb9;" horiz-adv-x="265" 
d="M222 415h-103v281l-95 -34l-24 74l134 51h88v-372z" />
    <glyph glyph-name="ordmasculine" unicode="&#xba;" horiz-adv-x="343" 
d="M173 639q71 0 105.5 -40t34.5 -107q0 -149 -143 -149q-72 0 -106 40t-34 107q0 149 143 149zM172 423q45 0 45 67q0 69 -46 69q-45 0 -45 -66q0 -70 46 -70z" />
    <glyph glyph-name="guillemotright" unicode="&#xbb;" horiz-adv-x="578" 
d="M354 508l209 -238l-209 -239l-90 61l132 177l-131 177zM121 508l209 -238l-209 -239l-90 61l132 177l-131 177z" />
    <glyph glyph-name="onequarter" unicode="&#xbc;" horiz-adv-x="765" 
d="M734 142v-77h-37v-65h-102v65h-177v67l170 240h109v-230h37zM523 142h72v106zM647 676l-401 -676h-109l398 676h112zM245 304h-103v281l-95 -34l-24 74l134 51h88v-372z" />
    <glyph glyph-name="onehalf" unicode="&#xbd;" horiz-adv-x="809" 
d="M647 676l-401 -676h-109l398 676h112zM635 378q62 0 100.5 -33.5t38.5 -85.5q0 -55 -84 -137l-49 -45h132v-77h-268v65l118 115q46 43 46 79q0 39 -34 39q-39 0 -39 -50h-102q0 61 35 95.5t106 34.5zM245 304h-103v281l-95 -34l-24 74l134 51h88v-372z" />
    <glyph glyph-name="threequarters" unicode="&#xbe;" horiz-adv-x="785" 
d="M251 492q32 -8 51 -32t19 -55q0 -48 -41 -77.5t-108 -29.5q-143 0 -143 111h102q0 -31 41 -31q18 0 30.5 8.5t12.5 24.5q0 42 -59 42h-40v77h40q53 0 53 39q0 33 -37 33q-36 0 -36 -28h-103q0 49 34.5 78.5t104.5 29.5q66 0 105 -29.5t39 -77.5q0 -29 -18 -52.5
t-47 -30.5zM672 676l-401 -676h-109l398 676h112zM759 142v-77h-37v-65h-102v65h-177v67l170 240h109v-230h37zM548 142h72v106z" />
    <glyph glyph-name="questiondown" unicode="&#xbf;" horiz-adv-x="448" 
d="M241 466q39 0 64 -24t25 -60q0 -37 -25 -61t-64 -24q-38 0 -63.5 24t-25.5 61q0 36 25.5 60t63.5 24zM235 -226q-100 0 -156 51t-56 129q0 39 15 72t37 56t43.5 44.5t36.5 47.5t15 54h144q0 -41 -15.5 -76t-37.5 -59t-43.5 -45t-37 -44t-15.5 -47t16 -39t45 -15
q34 0 49.5 15.5t15.5 36.5l136 -15q0 -71 -47.5 -118.5t-144.5 -47.5z" />
    <glyph glyph-name="Agrave" unicode="&#xc0;" horiz-adv-x="626" 
d="M470 0l-43 141h-228l-42 -141h-164l232 676h176l233 -676h-164zM314 518l-77 -252h153zM163 901h141l71 -169h-125z" />
    <glyph glyph-name="Aacute" unicode="&#xc1;" horiz-adv-x="626" 
d="M470 0l-43 141h-228l-42 -141h-164l232 676h176l233 -676h-164zM314 518l-77 -252h153zM319 901h141l-87 -169h-125z" />
    <glyph glyph-name="Acircumflex" unicode="&#xc2;" horiz-adv-x="626" 
d="M470 0l-43 141h-228l-42 -141h-164l232 676h176l233 -676h-164zM314 518l-77 -252h153zM244 901h140l100 -169h-124l-46 83l-46 -83h-124z" />
    <glyph glyph-name="Atilde" unicode="&#xc3;" horiz-adv-x="626" 
d="M470 0l-43 141h-228l-42 -141h-164l232 676h176l233 -676h-164zM314 518l-77 -252h153zM469 867v-103q-45 25 -79 25q-27 0 -77.5 -21.5t-81.5 -21.5q-43 0 -72 21v103q26 -25 72 -25q23 0 71 21t88 21q41 0 79 -20z" />
    <glyph glyph-name="Adieresis" unicode="&#xc4;" horiz-adv-x="626" 
d="M470 0l-43 141h-228l-42 -141h-164l232 676h176l233 -676h-164zM314 518l-77 -252h153zM213 725q-81 0 -81 78q0 40 22 60t59 20q34 0 57.5 -20.5t23.5 -59.5q0 -40 -23.5 -59t-57.5 -19zM416 725q-81 0 -81 78q0 40 22 60t59 20q34 0 57.5 -20.5t23.5 -59.5
q0 -40 -23.5 -59t-57.5 -19z" />
    <glyph glyph-name="Aring" unicode="&#xc5;" horiz-adv-x="626" 
d="M470 0l-43 141h-228l-42 -141h-164l232 676h176l233 -676h-164zM314 518l-77 -252h153zM202 813q0 43 28.5 73.5t81.5 30.5q56 0 85.5 -30.5t29.5 -73.5q0 -40 -30 -71t-85 -31q-52 0 -81 31t-29 71zM277 813q0 -13 9 -23t26 -10q19 0 28.5 10t9.5 23q0 14 -9.5 24.5
t-28.5 10.5q-17 0 -26 -10.5t-9 -24.5z" />
    <glyph glyph-name="AE" unicode="&#xc6;" horiz-adv-x="947" 
d="M309 264h150v264zM150 0h-163l429 676h495v-125h-297v-151h252v-125h-252v-157h300v-118h-455v143h-223z" />
    <glyph glyph-name="Ccedilla" unicode="&#xc7;" horiz-adv-x="592" 
d="M194 337q0 -217 149 -217q72 0 116 78l117 -74q-72 -123 -214 -133l-14 -34q98 0 98 -81q0 -45 -33.5 -68.5t-87.5 -23.5q-56 0 -104 23v84q42 -32 91 -32q28 0 28 17t-37 17h-49l-7 8l35 93q-122 16 -185 104.5t-63 239.5q0 167 77 257.5t226 90.5q162 0 239 -134
l-117 -74q-44 78 -116 78q-149 0 -149 -219z" />
    <glyph glyph-name="Egrave" unicode="&#xc8;" horiz-adv-x="549" 
d="M215 125h300v-125h-455v676h452v-125h-297v-151h252v-125h-252v-150zM148 901h141l71 -169h-125z" />
    <glyph glyph-name="Eacute" unicode="&#xc9;" horiz-adv-x="549" 
d="M215 125h300v-125h-455v676h452v-125h-297v-151h252v-125h-252v-150zM293 901h141l-87 -169h-125z" />
    <glyph glyph-name="Ecircumflex" unicode="&#xca;" horiz-adv-x="549" 
d="M215 125h300v-125h-455v676h452v-125h-297v-151h252v-125h-252v-150zM217 901h140l100 -169h-124l-46 83l-46 -83h-124z" />
    <glyph glyph-name="Edieresis" unicode="&#xcb;" horiz-adv-x="549" 
d="M215 125h300v-125h-455v676h452v-125h-297v-151h252v-125h-252v-150zM186 725q-81 0 -81 78q0 40 22 60t59 20q34 0 57.5 -20.5t23.5 -59.5q0 -40 -23.5 -59t-57.5 -19zM389 725q-81 0 -81 78q0 40 22 60t59 20q34 0 57.5 -20.5t23.5 -59.5q0 -40 -23.5 -59t-57.5 -19z
" />
    <glyph glyph-name="Igrave" unicode="&#xcc;" horiz-adv-x="275" 
d="M60 0v676h155v-676h-155zM-11 901h141l71 -169h-125z" />
    <glyph glyph-name="Iacute" unicode="&#xcd;" horiz-adv-x="275" 
d="M60 0v676h155v-676h-155zM147 901h141l-87 -169h-125z" />
    <glyph glyph-name="Icircumflex" unicode="&#xce;" horiz-adv-x="275" 
d="M60 0v676h155v-676h-155zM66 901h140l100 -169h-124l-46 83l-46 -83h-124z" />
    <glyph glyph-name="Idieresis" unicode="&#xcf;" horiz-adv-x="275" 
d="M60 0v676h155v-676h-155zM36 725q-81 0 -81 78q0 40 22 60t59 20q34 0 57.5 -20.5t23.5 -59.5q0 -40 -23.5 -59t-57.5 -19zM239 725q-81 0 -81 78q0 40 22 60t59 20q34 0 57.5 -20.5t23.5 -59.5q0 -40 -23.5 -59t-57.5 -19z" />
    <glyph glyph-name="Eth" unicode="&#xd0;" horiz-adv-x="666" 
d="M11 389h58v287h223q174 0 257 -82t83 -256t-83 -256t-257 -82h-223v299h-58v90zM224 125h58q106 0 148 46.5t42 166.5q0 118 -42.5 165.5t-147.5 47.5h-58v-162h111v-90h-111v-174z" />
    <glyph glyph-name="Ntilde" unicode="&#xd1;" horiz-adv-x="679" 
d="M465 254v422h154v-676h-157l-247 430l1 -430h-157l1 676h163zM496 867v-103q-45 25 -79 25q-27 0 -77.5 -21.5t-81.5 -21.5q-43 0 -72 21v103q26 -25 72 -25q23 0 71 21t88 21q41 0 79 -20z" />
    <glyph glyph-name="Ograve" unicode="&#xd2;" horiz-adv-x="657" 
d="M194 337q0 -52 5.5 -88.5t19.5 -67t41.5 -46t67.5 -15.5q76 0 106 56t30 161q0 106 -30 162.5t-104 56.5q-75 0 -105.5 -56.5t-30.5 -162.5zM623 337q0 -158 -71.5 -252.5t-223.5 -94.5q-153 0 -223.5 94t-70.5 253q0 77 15.5 138t49.5 109.5t92.5 75t138.5 26.5
q79 0 137 -26.5t91.5 -75t49 -109.5t15.5 -138zM186 901h141l71 -169h-125z" />
    <glyph glyph-name="Oacute" unicode="&#xd3;" horiz-adv-x="657" 
d="M194 337q0 -52 5.5 -88.5t19.5 -67t41.5 -46t67.5 -15.5q76 0 106 56t30 161q0 106 -30 162.5t-104 56.5q-75 0 -105.5 -56.5t-30.5 -162.5zM623 337q0 -158 -71.5 -252.5t-223.5 -94.5q-153 0 -223.5 94t-70.5 253q0 77 15.5 138t49.5 109.5t92.5 75t138.5 26.5
q79 0 137 -26.5t91.5 -75t49 -109.5t15.5 -138zM336 901h141l-87 -169h-125z" />
    <glyph glyph-name="Ocircumflex" unicode="&#xd4;" horiz-adv-x="657" 
d="M194 337q0 -52 5.5 -88.5t19.5 -67t41.5 -46t67.5 -15.5q76 0 106 56t30 161q0 106 -30 162.5t-104 56.5q-75 0 -105.5 -56.5t-30.5 -162.5zM623 337q0 -158 -71.5 -252.5t-223.5 -94.5q-153 0 -223.5 94t-70.5 253q0 77 15.5 138t49.5 109.5t92.5 75t138.5 26.5
q79 0 137 -26.5t91.5 -75t49 -109.5t15.5 -138zM259 901h140l100 -169h-124l-46 83l-46 -83h-124z" />
    <glyph glyph-name="Otilde" unicode="&#xd5;" horiz-adv-x="657" 
d="M194 337q0 -52 5.5 -88.5t19.5 -67t41.5 -46t67.5 -15.5q76 0 106 56t30 161q0 106 -30 162.5t-104 56.5q-75 0 -105.5 -56.5t-30.5 -162.5zM623 337q0 -158 -71.5 -252.5t-223.5 -94.5q-153 0 -223.5 94t-70.5 253q0 77 15.5 138t49.5 109.5t92.5 75t138.5 26.5
q79 0 137 -26.5t91.5 -75t49 -109.5t15.5 -138zM484 867v-103q-45 25 -79 25q-27 0 -77.5 -21.5t-81.5 -21.5q-43 0 -72 21v103q26 -25 72 -25q23 0 71 21t88 21q41 0 79 -20z" />
    <glyph glyph-name="Odieresis" unicode="&#xd6;" horiz-adv-x="657" 
d="M194 337q0 -52 5.5 -88.5t19.5 -67t41.5 -46t67.5 -15.5q76 0 106 56t30 161q0 106 -30 162.5t-104 56.5q-75 0 -105.5 -56.5t-30.5 -162.5zM623 337q0 -158 -71.5 -252.5t-223.5 -94.5q-153 0 -223.5 94t-70.5 253q0 77 15.5 138t49.5 109.5t92.5 75t138.5 26.5
q79 0 137 -26.5t91.5 -75t49 -109.5t15.5 -138zM228 725q-81 0 -81 78q0 40 22 60t59 20q34 0 57.5 -20.5t23.5 -59.5q0 -40 -23.5 -59t-57.5 -19zM431 725q-81 0 -81 78q0 40 22 60t59 20q34 0 57.5 -20.5t23.5 -59.5q0 -40 -23.5 -59t-57.5 -19z" />
    <glyph glyph-name="multiply" unicode="&#xd7;" 
d="M124 27l-86 87l150 152l-155 156l92 94l157 -157l154 153l86 -87l-154 -153l158 -157l-93 -94l-157 158z" />
    <glyph glyph-name="Oslash" unicode="&#xd8;" horiz-adv-x="660" 
d="M624 337q0 -158 -71.5 -252.5t-223.5 -94.5q-102 0 -168 43l-26 -33h-122l79 103q-57 87 -57 234q0 77 15.5 138t49.5 109.5t92.5 75t138.5 26.5q103 0 171 -46l27 36h125l-83 -109q53 -87 53 -230zM195 337q0 -58 6 -92l214 281q-32 30 -84 30q-75 0 -105.5 -56.5
t-30.5 -162.5zM465 337q0 47 -6 85l-212 -276q29 -26 82 -26q76 0 106 56t30 161z" />
    <glyph glyph-name="Ugrave" unicode="&#xd9;" horiz-adv-x="641" 
d="M321 -10q-124 0 -195.5 67.5t-71.5 203.5v415h155v-410q0 -74 26 -110t86 -36t85.5 36t25.5 110v410h155v-415q0 -136 -71.5 -203.5t-194.5 -67.5zM173 901h141l71 -169h-125z" />
    <glyph glyph-name="Uacute" unicode="&#xda;" horiz-adv-x="641" 
d="M321 -10q-124 0 -195.5 67.5t-71.5 203.5v415h155v-410q0 -74 26 -110t86 -36t85.5 36t25.5 110v410h155v-415q0 -136 -71.5 -203.5t-194.5 -67.5zM329 901h141l-87 -169h-125z" />
    <glyph glyph-name="Ucircumflex" unicode="&#xdb;" horiz-adv-x="641" 
d="M321 -10q-124 0 -195.5 67.5t-71.5 203.5v415h155v-410q0 -74 26 -110t86 -36t85.5 36t25.5 110v410h155v-415q0 -136 -71.5 -203.5t-194.5 -67.5zM251 901h140l100 -169h-124l-46 83l-46 -83h-124z" />
    <glyph glyph-name="Udieresis" unicode="&#xdc;" horiz-adv-x="641" 
d="M321 -10q-124 0 -195.5 67.5t-71.5 203.5v415h155v-410q0 -74 26 -110t86 -36t85.5 36t25.5 110v410h155v-415q0 -136 -71.5 -203.5t-194.5 -67.5zM220 725q-81 0 -81 78q0 40 22 60t59 20q34 0 57.5 -20.5t23.5 -59.5q0 -40 -23.5 -59t-57.5 -19zM423 725q-81 0 -81 78
q0 40 22 60t59 20q34 0 57.5 -20.5t23.5 -59.5q0 -40 -23.5 -59t-57.5 -19z" />
    <glyph glyph-name="Yacute" unicode="&#xdd;" horiz-adv-x="599" 
d="M377 0h-155v259l-227 417h169l137 -279l133 279h170l-227 -417v-259zM305 901h141l-87 -169h-125z" />
    <glyph glyph-name="Thorn" unicode="&#xde;" horiz-adv-x="579" 
d="M307 119h-92v-119h-155v677h155v-119h92q121 0 186 -56.5t65 -163.5t-65 -163t-186 -56zM215 433v-189h80q103 0 103 94q0 95 -103 95h-80z" />
    <glyph glyph-name="germandbls" unicode="&#xdf;" horiz-adv-x="565" 
d="M47 0v476q0 110 55.5 167t158.5 57q102 0 157 -52t55 -130q0 -35 -17.5 -69.5t-34.5 -59t-17 -36.5q0 -20 33 -46l31 -25q39 -32 60 -64t21 -80q0 -68 -46.5 -108.5t-121.5 -40.5q-69 0 -137 30l42 110q39 -28 77 -28q20 0 31 11t11 26q0 32 -38 61l-38 29
q-39 29 -54.5 50.5t-15.5 55.5q0 36 34 87t34 82q0 34 -19.5 54t-51.5 20q-42 0 -57 -23t-15 -71v-483h-137z" />
    <glyph glyph-name="agrave" unicode="&#xe0;" horiz-adv-x="474" 
d="M431 0h-132v51q-53 -62 -141 -62q-59 0 -96 36.5t-37 98.5q0 143 227 156l37 2v21q0 53 -63 53q-28 0 -43 -10.5t-15 -26.5v-14h-122q-2 18 -2 30q0 59 52.5 95t139.5 36q90 0 142.5 -39.5t52.5 -123.5v-303zM169 134q0 -39 46 -39q41 0 74 30v74l-37 -5q-83 -12 -83 -60
zM102 696h141l71 -169h-125z" />
    <glyph glyph-name="aacute" unicode="&#xe1;" horiz-adv-x="474" 
d="M431 0h-132v51q-53 -62 -141 -62q-59 0 -96 36.5t-37 98.5q0 143 227 156l37 2v21q0 53 -63 53q-28 0 -43 -10.5t-15 -26.5v-14h-122q-2 18 -2 30q0 59 52.5 95t139.5 36q90 0 142.5 -39.5t52.5 -123.5v-303zM169 134q0 -39 46 -39q41 0 74 30v74l-37 -5q-83 -12 -83 -60
zM253 696h141l-87 -169h-125z" />
    <glyph glyph-name="acircumflex" unicode="&#xe2;" horiz-adv-x="474" 
d="M431 0h-132v51q-53 -62 -141 -62q-59 0 -96 36.5t-37 98.5q0 143 227 156l37 2v21q0 53 -63 53q-28 0 -43 -10.5t-15 -26.5v-14h-122q-2 18 -2 30q0 59 52.5 95t139.5 36q90 0 142.5 -39.5t52.5 -123.5v-303zM169 134q0 -39 46 -39q41 0 74 30v74l-37 -5q-83 -12 -83 -60
zM173 696h140l100 -169h-124l-46 83l-46 -83h-124z" />
    <glyph glyph-name="atilde" unicode="&#xe3;" horiz-adv-x="474" 
d="M431 0h-132v51q-53 -62 -141 -62q-59 0 -96 36.5t-37 98.5q0 143 227 156l37 2v21q0 53 -63 53q-28 0 -43 -10.5t-15 -26.5v-14h-122q-2 18 -2 30q0 59 52.5 95t139.5 36q90 0 142.5 -39.5t52.5 -123.5v-303zM169 134q0 -39 46 -39q41 0 74 30v74l-37 -5q-83 -12 -83 -60
zM399 662v-103q-45 25 -79 25q-27 0 -77.5 -21.5t-81.5 -21.5q-43 0 -72 21v103q26 -25 72 -25q23 0 71 21t88 21q41 0 79 -20z" />
    <glyph glyph-name="adieresis" unicode="&#xe4;" horiz-adv-x="474" 
d="M431 0h-132v51q-53 -62 -141 -62q-59 0 -96 36.5t-37 98.5q0 143 227 156l37 2v21q0 53 -63 53q-28 0 -43 -10.5t-15 -26.5v-14h-122q-2 18 -2 30q0 59 52.5 95t139.5 36q90 0 142.5 -39.5t52.5 -123.5v-303zM169 134q0 -39 46 -39q41 0 74 30v74l-37 -5q-83 -12 -83 -60
zM142 520q-81 0 -81 78q0 40 22 60t59 20q34 0 57.5 -20.5t23.5 -59.5q0 -40 -23.5 -59t-57.5 -19zM345 520q-81 0 -81 78q0 40 22 60t59 20q34 0 57.5 -20.5t23.5 -59.5q0 -40 -23.5 -59t-57.5 -19z" />
    <glyph glyph-name="aring" unicode="&#xe5;" horiz-adv-x="474" 
d="M431 0h-132v51q-53 -62 -141 -62q-59 0 -96 36.5t-37 98.5q0 143 227 156l37 2v21q0 53 -63 53q-28 0 -43 -10.5t-15 -26.5v-14h-122q-2 18 -2 30q0 59 52.5 95t139.5 36q90 0 142.5 -39.5t52.5 -123.5v-303zM169 134q0 -39 46 -39q41 0 74 30v74l-37 -5q-83 -12 -83 -60
zM133 618q0 43 28.5 73.5t81.5 30.5q56 0 85.5 -30.5t29.5 -73.5q0 -40 -30 -71t-85 -31q-52 0 -81 31t-29 71zM208 618q0 -13 9 -23t26 -10q19 0 28.5 10t9.5 23q0 14 -9.5 24.5t-28.5 10.5q-17 0 -26 -10.5t-9 -24.5z" />
    <glyph glyph-name="ae" unicode="&#xe6;" horiz-adv-x="734" 
d="M524 108q53 0 106 39l65 -91q-71 -67 -171 -67q-114 0 -174 63q-66 -63 -171 -63q-74 0 -114.5 36t-40.5 99q0 143 227 156l37 2v21q0 53 -63 53q-28 0 -43 -10.5t-15 -26.5v-14h-122q-2 18 -2 30q0 59 52.5 95t139.5 36q95 0 144 -41q52 41 129 41q101 0 149.5 -58.5
t48.5 -142.5q0 -53 -8 -83h-264q5 -74 90 -74zM168 134q0 -39 46 -39q41 0 74 30v74l-37 -5q-83 -12 -83 -60zM434 281h141q1 6 1 12q0 32 -20 46.5t-48 14.5q-34 0 -53 -20.5t-21 -52.5z" />
    <glyph glyph-name="ccedilla" unicode="&#xe7;" horiz-adv-x="449" 
d="M29 228q0 103 53 170.5t162 67.5q141 0 190 -106l-98 -70q-30 52 -80 52q-83 0 -83 -114q0 -115 83 -115q50 0 81 53l97 -71q-43 -91 -157 -104l-14 -34q98 0 98 -81q0 -45 -33.5 -68.5t-87.5 -23.5q-56 0 -104 23v84q42 -32 91 -32q28 0 28 17t-37 17h-49l-7 8l34 92
q-84 15 -125.5 79.5t-41.5 155.5z" />
    <glyph glyph-name="egrave" unicode="&#xe8;" horiz-adv-x="472" 
d="M262 108q53 0 106 39l65 -91q-71 -67 -171 -67q-117 0 -175 65t-58 174q0 101 57.5 169.5t159.5 68.5q101 0 149.5 -58.5t48.5 -142.5q0 -53 -8 -83h-264q5 -74 90 -74zM172 281h141q1 6 1 12q0 32 -20 46.5t-48 14.5q-34 0 -53 -20.5t-21 -52.5zM110 696h141l71 -169
h-125z" />
    <glyph glyph-name="eacute" unicode="&#xe9;" horiz-adv-x="472" 
d="M262 108q53 0 106 39l65 -91q-71 -67 -171 -67q-117 0 -175 65t-58 174q0 101 57.5 169.5t159.5 68.5q101 0 149.5 -58.5t48.5 -142.5q0 -53 -8 -83h-264q5 -74 90 -74zM172 281h141q1 6 1 12q0 32 -20 46.5t-48 14.5q-34 0 -53 -20.5t-21 -52.5zM251 696h141l-87 -169
h-125z" />
    <glyph glyph-name="ecircumflex" unicode="&#xea;" horiz-adv-x="472" 
d="M262 108q53 0 106 39l65 -91q-71 -67 -171 -67q-117 0 -175 65t-58 174q0 101 57.5 169.5t159.5 68.5q101 0 149.5 -58.5t48.5 -142.5q0 -53 -8 -83h-264q5 -74 90 -74zM172 281h141q1 6 1 12q0 32 -20 46.5t-48 14.5q-34 0 -53 -20.5t-21 -52.5zM181 696h140l100 -169
h-124l-46 83l-46 -83h-124z" />
    <glyph glyph-name="edieresis" unicode="&#xeb;" horiz-adv-x="472" 
d="M262 108q53 0 106 39l65 -91q-71 -67 -171 -67q-117 0 -175 65t-58 174q0 101 57.5 169.5t159.5 68.5q101 0 149.5 -58.5t48.5 -142.5q0 -53 -8 -83h-264q5 -74 90 -74zM172 281h141q1 6 1 12q0 32 -20 46.5t-48 14.5q-34 0 -53 -20.5t-21 -52.5zM151 520q-81 0 -81 78
q0 40 22 60t59 20q34 0 57.5 -20.5t23.5 -59.5q0 -40 -23.5 -59t-57.5 -19zM354 520q-81 0 -81 78q0 40 22 60t59 20q34 0 57.5 -20.5t23.5 -59.5q0 -40 -23.5 -59t-57.5 -19z" />
    <glyph glyph-name="igrave" unicode="&#xec;" horiz-adv-x="237" 
d="M48 0v456h142v-456h-142zM-22 696h141l71 -169h-125z" />
    <glyph glyph-name="iacute" unicode="&#xed;" horiz-adv-x="237" 
d="M47 0v456h142v-456h-142zM118 696h141l-87 -169h-125z" />
    <glyph glyph-name="icircumflex" unicode="&#xee;" horiz-adv-x="238" 
d="M48 0v456h142v-456h-142zM50 696h140l100 -169h-124l-46 83l-46 -83h-124z" />
    <glyph glyph-name="idieresis" unicode="&#xef;" horiz-adv-x="238" 
d="M48 0v456h142v-456h-142zM17 520q-81 0 -81 78q0 40 22 60t59 20q34 0 57.5 -20.5t23.5 -59.5q0 -40 -23.5 -59t-57.5 -19zM220 520q-81 0 -81 78q0 40 22 60t59 20q34 0 57.5 -20.5t23.5 -59.5q0 -40 -23.5 -59t-57.5 -19z" />
    <glyph glyph-name="eth" unicode="&#xf0;" horiz-adv-x="527" 
d="M189 690h165q27 -29 43 -52l62 24l34 -82l-50 -21q52 -114 52 -245q0 -62 -13 -117.5t-39.5 -103.5t-74.5 -76t-112 -28q-112 0 -169.5 61.5t-57.5 169.5q0 103 53 165t140 62q92 0 135 -60q-1 51 -37 122l-65 -26l-35 86l52 20q-32 48 -83 101zM256 111q46 0 70.5 42.5
t23.5 107.5q-31 53 -98 53q-41 0 -62.5 -27t-21.5 -74q0 -46 22 -74t66 -28z" />
    <glyph glyph-name="ntilde" unicode="&#xf1;" horiz-adv-x="517" 
d="M47 0v456h137v-51q41 61 136 61q74 0 114 -47.5t40 -136.5v-282h-142v265q0 36 -17 53.5t-55 17.5q-37 0 -71 -24v-312h-142zM417 662v-103q-45 25 -79 25q-27 0 -77.5 -21.5t-81.5 -21.5q-43 0 -72 21v103q26 -25 72 -25q23 0 71 21t88 21q41 0 79 -20z" />
    <glyph glyph-name="ograve" unicode="&#xf2;" horiz-adv-x="498" 
d="M251 466q106 0 162 -65t56 -172q0 -109 -56.5 -174.5t-166.5 -65.5q-104 0 -160.5 66t-56.5 171q0 110 55.5 175t166.5 65zM249 116q76 0 76 110q0 113 -78 113q-74 0 -74 -110q0 -113 76 -113zM113 696h141l71 -169h-125z" />
    <glyph glyph-name="oacute" unicode="&#xf3;" horiz-adv-x="498" 
d="M251 466q106 0 162 -65t56 -172q0 -109 -56.5 -174.5t-166.5 -65.5q-104 0 -160.5 66t-56.5 171q0 110 55.5 175t166.5 65zM249 116q76 0 76 110q0 113 -78 113q-74 0 -74 -110q0 -113 76 -113zM253 696h141l-87 -169h-125z" />
    <glyph glyph-name="ocircumflex" unicode="&#xf4;" horiz-adv-x="498" 
d="M251 466q106 0 162 -65t56 -172q0 -109 -56.5 -174.5t-166.5 -65.5q-104 0 -160.5 66t-56.5 171q0 110 55.5 175t166.5 65zM249 116q76 0 76 110q0 113 -78 113q-74 0 -74 -110q0 -113 76 -113zM180 696h140l100 -169h-124l-46 83l-46 -83h-124z" />
    <glyph glyph-name="otilde" unicode="&#xf5;" horiz-adv-x="498" 
d="M251 466q106 0 162 -65t56 -172q0 -109 -56.5 -174.5t-166.5 -65.5q-104 0 -160.5 66t-56.5 171q0 110 55.5 175t166.5 65zM249 116q76 0 76 110q0 113 -78 113q-74 0 -74 -110q0 -113 76 -113zM406 662v-103q-45 25 -79 25q-27 0 -77.5 -21.5t-81.5 -21.5q-43 0 -72 21
v103q26 -25 72 -25q23 0 71 21t88 21q41 0 79 -20z" />
    <glyph glyph-name="odieresis" unicode="&#xf6;" horiz-adv-x="498" 
d="M251 466q106 0 162 -65t56 -172q0 -109 -56.5 -174.5t-166.5 -65.5q-104 0 -160.5 66t-56.5 171q0 110 55.5 175t166.5 65zM249 116q76 0 76 110q0 113 -78 113q-74 0 -74 -110q0 -113 76 -113zM149 520q-81 0 -81 78q0 40 22 60t59 20q34 0 57.5 -20.5t23.5 -59.5
q0 -40 -23.5 -59t-57.5 -19zM352 520q-81 0 -81 78q0 40 22 60t59 20q34 0 57.5 -20.5t23.5 -59.5q0 -40 -23.5 -59t-57.5 -19z" />
    <glyph glyph-name="divide" unicode="&#xf7;" 
d="M28 210v120h503v-120h-503zM282 -1q-39 0 -64 24t-25 60q0 37 25 60.5t64 23.5q38 0 63 -23.5t25 -60.5q0 -36 -25 -60t-63 -24zM282 373q-39 0 -64 24t-25 61t25 60.5t64 23.5q38 0 63 -23.5t25 -60.5t-25 -61t-63 -24z" />
    <glyph glyph-name="oslash" unicode="&#xf8;" horiz-adv-x="498" 
d="M251 466q62 0 112 -26l13 16h105l-56 -72q44 -61 44 -155q0 -109 -56.5 -174.5t-166.5 -65.5q-62 0 -109 25l-11 -14h-102l51 66q-46 62 -46 160q0 110 55.5 175t166.5 65zM173 229q0 -24 1 -34l106 137q-13 7 -33 7q-74 0 -74 -110zM249 116q76 0 76 110q0 19 -1 28
l-104 -134q11 -4 29 -4z" />
    <glyph glyph-name="ugrave" unicode="&#xf9;" horiz-adv-x="517" 
d="M114 696h141l71 -169h-125zM470 456v-456h-137v51q-41 -61 -136 -61q-74 0 -114 47.5t-40 136.5v282h142v-265q0 -36 17 -53.5t55 -17.5q37 0 71 24v312h142z" />
    <glyph glyph-name="uacute" unicode="&#xfa;" horiz-adv-x="517" 
d="M259 696h141l-87 -169h-125zM470 456v-456h-137v51q-41 -61 -136 -61q-74 0 -114 47.5t-40 136.5v282h142v-265q0 -36 17 -53.5t55 -17.5q37 0 71 24v312h142z" />
    <glyph glyph-name="ucircumflex" unicode="&#xfb;" horiz-adv-x="517" 
d="M185 696h140l100 -169h-124l-46 83l-46 -83h-124zM470 456v-456h-137v51q-41 -61 -136 -61q-74 0 -114 47.5t-40 136.5v282h142v-265q0 -36 17 -53.5t55 -17.5q37 0 71 24v312h142z" />
    <glyph glyph-name="udieresis" unicode="&#xfc;" horiz-adv-x="517" 
d="M156 520q-81 0 -81 78q0 40 22 60t59 20q34 0 57.5 -20.5t23.5 -59.5q0 -40 -23.5 -59t-57.5 -19zM359 520q-81 0 -81 78q0 40 22 60t59 20q34 0 57.5 -20.5t23.5 -59.5q0 -40 -23.5 -59t-57.5 -19zM470 456v-456h-137v51q-41 -61 -136 -61q-74 0 -114 47.5t-40 136.5
v282h142v-265q0 -36 17 -53.5t55 -17.5q37 0 71 24v312h142z" />
    <glyph glyph-name="yacute" unicode="&#xfd;" horiz-adv-x="493" 
d="M157 456l95 -279l89 279h152l-262 -672h-143l95 231l-185 441h159zM261 696h141l-87 -169h-125z" />
    <glyph glyph-name="thorn" unicode="&#xfe;" horiz-adv-x="525" 
d="M189 28v-244h-142v891h142v-249q43 40 117 40q89 0 138.5 -62.5t49.5 -177.5q0 -113 -49.5 -175t-139.5 -62q-72 0 -116 39zM350 226q0 110 -87 110q-44 0 -74 -19v-180q32 -18 74 -18q87 0 87 107z" />
    <glyph glyph-name="ydieresis" unicode="&#xff;" horiz-adv-x="493" 
d="M157 456l95 -279l89 279h152l-262 -672h-143l95 231l-185 441h159zM150 520q-81 0 -81 78q0 40 22 60t59 20q34 0 57.5 -20.5t23.5 -59.5q0 -40 -23.5 -59t-57.5 -19zM353 520q-81 0 -81 78q0 40 22 60t59 20q34 0 57.5 -20.5t23.5 -59.5q0 -40 -23.5 -59t-57.5 -19z" />
    <glyph glyph-name="Amacron" unicode="&#x100;" horiz-adv-x="626" 
d="M470 0l-43 141h-228l-42 -141h-164l232 676h176l233 -676h-164zM314 518l-77 -252h153zM160 864h309v-112h-309v112z" />
    <glyph glyph-name="amacron" unicode="&#x101;" horiz-adv-x="474" 
d="M431 0h-132v51q-53 -62 -141 -62q-59 0 -96 36.5t-37 98.5q0 143 227 156l37 2v21q0 53 -63 53q-28 0 -43 -10.5t-15 -26.5v-14h-122q-2 18 -2 30q0 59 52.5 95t139.5 36q90 0 142.5 -39.5t52.5 -123.5v-303zM169 134q0 -39 46 -39q41 0 74 30v74l-37 -5q-83 -12 -83 -60
zM90 659h309v-112h-309v112z" />
    <glyph glyph-name="Abreve" unicode="&#x102;" horiz-adv-x="626" 
d="M470 0l-43 141h-228l-42 -141h-164l232 676h176l233 -676h-164zM314 518l-77 -252h153zM386 895h90q0 -69 -42.5 -114t-121.5 -45q-76 0 -117.5 45t-41.5 114h87q6 -26 26 -42.5t46 -16.5q28 0 48 16.5t26 42.5z" />
    <glyph glyph-name="abreve" unicode="&#x103;" horiz-adv-x="474" 
d="M431 0h-132v51q-53 -62 -141 -62q-59 0 -96 36.5t-37 98.5q0 143 227 156l37 2v21q0 53 -63 53q-28 0 -43 -10.5t-15 -26.5v-14h-122q-2 18 -2 30q0 59 52.5 95t139.5 36q90 0 142.5 -39.5t52.5 -123.5v-303zM169 134q0 -39 46 -39q41 0 74 30v74l-37 -5q-83 -12 -83 -60
zM315 690h90q0 -69 -42.5 -114t-121.5 -45q-76 0 -117.5 45t-41.5 114h87q6 -26 26 -42.5t46 -16.5q28 0 48 16.5t26 42.5z" />
    <glyph glyph-name="Aogonek" unicode="&#x104;" horiz-adv-x="625" 
d="M633 0l-66 -46q-30 -21 -30 -38q0 -11 8 -17t18 -6q31 0 70 27v-112q-51 -24 -113 -24q-59 0 -93 25.5t-34 73.5q0 58 68 112l7 6l-42 140h-228l-42 -141h-164l232 676h176zM313 518l-77 -252h153z" />
    <glyph glyph-name="aogonek" unicode="&#x105;" horiz-adv-x="473" 
d="M430 0l-90 -51q-27 -15 -27 -32q0 -20 25 -20q26 0 61 15v-92q-20 -10 -49 -15q-18 -3 -38 -3q-63 0 -96.5 22.5t-33.5 64.5q0 56 58 84l58 27v51q-53 -62 -141 -62q-59 0 -96 36.5t-37 98.5q0 143 227 156l37 2v21q0 53 -63 53q-28 0 -43 -10.5t-15 -26.5v-14h-122
q-2 18 -2 30q0 59 52.5 95t139.5 36q90 0 142.5 -39.5t52.5 -123.5v-303zM168 134q0 -39 46 -39q41 0 74 30v74l-37 -5q-83 -12 -83 -60z" />
    <glyph glyph-name="Cacute" unicode="&#x106;" horiz-adv-x="591" 
d="M194 337q0 -217 149 -217q72 0 116 78l117 -74q-77 -134 -239 -134q-148 0 -225.5 90.5t-77.5 257.5t77 257.5t226 90.5q162 0 239 -134l-117 -74q-44 78 -116 78q-149 0 -149 -219zM335 901h141l-87 -169h-125z" />
    <glyph glyph-name="cacute" unicode="&#x107;" horiz-adv-x="448" 
d="M29 228q0 103 53 170.5t162 67.5q141 0 190 -106l-98 -70q-30 52 -80 52q-83 0 -83 -114q0 -115 83 -115q50 0 81 53l97 -71q-49 -106 -190 -106q-109 0 -162 67.5t-53 171.5zM254 696h141l-87 -169h-125z" />
    <glyph glyph-name="Ccircumflex" unicode="&#x108;" horiz-adv-x="591" 
d="M194 337q0 -217 149 -217q72 0 116 78l117 -74q-77 -134 -239 -134q-148 0 -225.5 90.5t-77.5 257.5t77 257.5t226 90.5q162 0 239 -134l-117 -74q-44 78 -116 78q-149 0 -149 -219zM262 901h140l100 -169h-124l-46 83l-46 -83h-124z" />
    <glyph glyph-name="ccircumflex" unicode="&#x109;" horiz-adv-x="448" 
d="M29 228q0 103 53 170.5t162 67.5q141 0 190 -106l-98 -70q-30 52 -80 52q-83 0 -83 -114q0 -115 83 -115q50 0 81 53l97 -71q-49 -106 -190 -106q-109 0 -162 67.5t-53 171.5zM181 696h140l100 -169h-124l-46 83l-46 -83h-124z" />
    <glyph glyph-name="Cdotaccent" unicode="&#x10a;" horiz-adv-x="591" 
d="M194 337q0 -217 149 -217q72 0 116 78l117 -74q-77 -134 -239 -134q-148 0 -225.5 90.5t-77.5 257.5t77 257.5t226 90.5q162 0 239 -134l-117 -74q-44 78 -116 78q-149 0 -149 -219zM333 725q-82 0 -82 78q0 40 22.5 60t59.5 20q34 0 57.5 -20.5t23.5 -59.5
q0 -40 -23.5 -59t-57.5 -19z" />
    <glyph glyph-name="cdotaccent" unicode="&#x10b;" horiz-adv-x="448" 
d="M29 228q0 103 53 170.5t162 67.5q141 0 190 -106l-98 -70q-30 52 -80 52q-83 0 -83 -114q0 -115 83 -115q50 0 81 53l97 -71q-49 -106 -190 -106q-109 0 -162 67.5t-53 171.5zM258 520q-82 0 -82 78q0 40 22.5 60t59.5 20q34 0 57.5 -20.5t23.5 -59.5q0 -40 -23.5 -59
t-57.5 -19z" />
    <glyph glyph-name="Ccaron" unicode="&#x10c;" horiz-adv-x="591" 
d="M194 337q0 -217 149 -217q72 0 116 78l117 -74q-77 -134 -239 -134q-148 0 -225.5 90.5t-77.5 257.5t77 257.5t226 90.5q162 0 239 -134l-117 -74q-44 78 -116 78q-149 0 -149 -219zM402 732h-140l-100 169h124l46 -83l46 83h124z" />
    <glyph glyph-name="ccaron" unicode="&#x10d;" horiz-adv-x="448" 
d="M29 228q0 103 53 170.5t162 67.5q141 0 190 -106l-98 -70q-30 52 -80 52q-83 0 -83 -114q0 -115 83 -115q50 0 81 53l97 -71q-49 -106 -190 -106q-109 0 -162 67.5t-53 171.5zM323 527h-140l-100 169h124l46 -83l46 83h124z" />
    <glyph glyph-name="Dcaron" unicode="&#x10e;" horiz-adv-x="657" 
d="M60 0v676h223q174 0 257 -82t83 -256t-83 -256t-257 -82h-223zM215 125h58q106 0 148 46.5t42 166.5q0 118 -42.5 165.5t-147.5 47.5h-58v-426zM364 732h-140l-100 169h124l46 -83l46 83h124z" />
    <glyph glyph-name="dcaron" unicode="&#x10f;" horiz-adv-x="522" 
d="M332 427v263h142v-690h-135v34q-48 -45 -122 -45q-88 0 -137 62.5t-49 177.5q0 113 49 175t138 62q70 0 114 -39zM175 229q0 -110 85 -110q42 0 72 19v180q-32 18 -72 18q-85 0 -85 -107zM679 690l-70 -156h-105l26 156h149z" />
    <glyph glyph-name="Dcroat" unicode="&#x110;" horiz-adv-x="666" 
d="M11 389h58v287h223q174 0 257 -82t83 -256t-83 -256t-257 -82h-223v299h-58v90zM224 125h58q106 0 148 46.5t42 166.5q0 118 -42.5 165.5t-147.5 47.5h-58v-162h111v-90h-111v-174z" />
    <glyph glyph-name="dcroat" unicode="&#x111;" horiz-adv-x="522" 
d="M251 610h81v80h142v-80h52v-90h-52v-520h-135v34q-48 -45 -122 -45q-88 0 -137 62.5t-49 177.5q0 113 49 175t138 62q70 0 114 -39v93h-81v90zM175 229q0 -110 85 -110q42 0 72 19v180q-32 18 -72 18q-85 0 -85 -107z" />
    <glyph glyph-name="Emacron" unicode="&#x112;" horiz-adv-x="549" 
d="M215 125h300v-125h-455v676h452v-125h-297v-151h252v-125h-252v-150zM133 864h309v-112h-309v112z" />
    <glyph glyph-name="emacron" unicode="&#x113;" horiz-adv-x="472" 
d="M262 108q53 0 106 39l65 -91q-71 -67 -171 -67q-117 0 -175 65t-58 174q0 101 57.5 169.5t159.5 68.5q101 0 149.5 -58.5t48.5 -142.5q0 -53 -8 -83h-264q5 -74 90 -74zM172 281h141q1 6 1 12q0 32 -20 46.5t-48 14.5q-34 0 -53 -20.5t-21 -52.5zM96 659h309v-112h-309
v112z" />
    <glyph glyph-name="Ebreve" unicode="&#x114;" horiz-adv-x="549" 
d="M215 125h300v-125h-455v676h452v-125h-297v-151h252v-125h-252v-150zM359 895h90q0 -69 -42.5 -114t-121.5 -45q-76 0 -117.5 45t-41.5 114h87q6 -26 26 -42.5t46 -16.5q28 0 48 16.5t26 42.5z" />
    <glyph glyph-name="ebreve" unicode="&#x115;" horiz-adv-x="472" 
d="M262 108q53 0 106 39l65 -91q-71 -67 -171 -67q-117 0 -175 65t-58 174q0 101 57.5 169.5t159.5 68.5q101 0 149.5 -58.5t48.5 -142.5q0 -53 -8 -83h-264q5 -74 90 -74zM172 281h141q1 6 1 12q0 32 -20 46.5t-48 14.5q-34 0 -53 -20.5t-21 -52.5zM319 690h90
q0 -69 -42.5 -114t-121.5 -45q-76 0 -117.5 45t-41.5 114h87q6 -26 26 -42.5t46 -16.5q28 0 48 16.5t26 42.5z" />
    <glyph glyph-name="Edotaccent" unicode="&#x116;" horiz-adv-x="549" 
d="M215 125h300v-125h-455v676h452v-125h-297v-151h252v-125h-252v-150zM288 725q-82 0 -82 78q0 40 22.5 60t59.5 20q34 0 57.5 -20.5t23.5 -59.5q0 -40 -23.5 -59t-57.5 -19z" />
    <glyph glyph-name="edotaccent" unicode="&#x117;" horiz-adv-x="472" 
d="M262 108q53 0 106 39l65 -91q-71 -67 -171 -67q-117 0 -175 65t-58 174q0 101 57.5 169.5t159.5 68.5q101 0 149.5 -58.5t48.5 -142.5q0 -53 -8 -83h-264q5 -74 90 -74zM172 281h141q1 6 1 12q0 32 -20 46.5t-48 14.5q-34 0 -53 -20.5t-21 -52.5zM258 520q-82 0 -82 78
q0 40 22.5 60t59.5 20q34 0 57.5 -20.5t23.5 -59.5q0 -40 -23.5 -59t-57.5 -19z" />
    <glyph glyph-name="Eogonek" unicode="&#x118;" horiz-adv-x="547" 
d="M214 125h300v-125l-66 -46q-30 -21 -30 -38q0 -11 8 -17t18 -6q31 0 70 27v-112q-51 -24 -113 -24q-59 0 -93 25.5t-34 73.5q0 58 68 112l6 5h-289v676h452v-125h-297v-151h252v-125h-252v-150z" />
    <glyph glyph-name="eogonek" unicode="&#x119;" horiz-adv-x="473" 
d="M434 56l-55 -56q-52 -52 -52 -84q0 -11 8 -17t18 -6q31 0 70 27v-112q-51 -24 -113 -24q-59 0 -93 25.5t-34 73.5q0 50 51 107q-103 8 -154 71.5t-51 166.5q0 101 57.5 169.5t159.5 68.5q101 0 149.5 -58.5t48.5 -142.5q0 -53 -8 -83h-264q5 -74 90 -74q53 0 106 39
l65 -91h1zM172 281h141q1 6 1 12q0 32 -20 46.5t-48 14.5q-34 0 -53 -20.5t-21 -52.5z" />
    <glyph glyph-name="Ecaron" unicode="&#x11a;" horiz-adv-x="549" 
d="M215 125h300v-125h-455v676h452v-125h-297v-151h252v-125h-252v-150zM357 732h-140l-100 169h124l46 -83l46 83h124z" />
    <glyph glyph-name="ecaron" unicode="&#x11b;" horiz-adv-x="472" 
d="M262 108q53 0 106 39l65 -91q-71 -67 -171 -67q-117 0 -175 65t-58 174q0 101 57.5 169.5t159.5 68.5q101 0 149.5 -58.5t48.5 -142.5q0 -53 -8 -83h-264q5 -74 90 -74zM172 281h141q1 6 1 12q0 32 -20 46.5t-48 14.5q-34 0 -53 -20.5t-21 -52.5zM322 527h-140l-100 169
h124l46 -83l46 83h124z" />
    <glyph glyph-name="Gcircumflex" unicode="&#x11c;" horiz-adv-x="652" 
d="M341 247v125h282q6 -54 6 -74q0 -133 -72 -220.5t-213 -87.5q-148 0 -229 87.5t-81 261.5q0 347 324 347q78 0 140 -34.5t91 -93.5l-115 -74q-43 72 -123 72q-78 0 -117.5 -52t-39.5 -165q0 -122 36.5 -170.5t113.5 -48.5q62 0 95 35.5t33 91.5h-131zM276 901h140
l100 -169h-124l-46 83l-46 -83h-124z" />
    <glyph glyph-name="gcircumflex" unicode="&#x11d;" horiz-adv-x="520" 
d="M340 456h133v-480q0 -83 -57.5 -133.5t-157.5 -50.5q-94 0 -144 42.5t-50 114.5h121q0 -19 19 -33t54 -14q73 0 73 64v67q-46 -44 -107 -44q-93 0 -143 61t-50 179q0 116 50.5 176.5t141.5 60.5q70 0 117 -43v33zM174 229q0 -110 85 -110q44 0 72 19v182q-27 16 -72 16
q-85 0 -85 -107zM202 696h140l100 -169h-124l-46 83l-46 -83h-124z" />
    <glyph glyph-name="Gbreve" unicode="&#x11e;" horiz-adv-x="652" 
d="M341 247v125h282q6 -54 6 -74q0 -133 -72 -220.5t-213 -87.5q-148 0 -229 87.5t-81 261.5q0 347 324 347q78 0 140 -34.5t91 -93.5l-115 -74q-43 72 -123 72q-78 0 -117.5 -52t-39.5 -165q0 -122 36.5 -170.5t113.5 -48.5q62 0 95 35.5t33 91.5h-131zM418 895h90
q0 -69 -42.5 -114t-121.5 -45q-76 0 -117.5 45t-41.5 114h87q6 -26 26 -42.5t46 -16.5q28 0 48 16.5t26 42.5z" />
    <glyph glyph-name="gbreve" unicode="&#x11f;" horiz-adv-x="520" 
d="M340 456h133v-480q0 -83 -57.5 -133.5t-157.5 -50.5q-94 0 -144 42.5t-50 114.5h121q0 -19 19 -33t54 -14q73 0 73 64v67q-46 -44 -107 -44q-93 0 -143 61t-50 179q0 116 50.5 176.5t141.5 60.5q70 0 117 -43v33zM174 229q0 -110 85 -110q44 0 72 19v182q-27 16 -72 16
q-85 0 -85 -107zM343 690h90q0 -69 -42.5 -114t-121.5 -45q-76 0 -117.5 45t-41.5 114h87q6 -26 26 -42.5t46 -16.5q28 0 48 16.5t26 42.5z" />
    <glyph glyph-name="Gdotaccent" unicode="&#x120;" horiz-adv-x="652" 
d="M341 247v125h282q6 -54 6 -74q0 -133 -72 -220.5t-213 -87.5q-148 0 -229 87.5t-81 261.5q0 347 324 347q78 0 140 -34.5t91 -93.5l-115 -74q-43 72 -123 72q-78 0 -117.5 -52t-39.5 -165q0 -122 36.5 -170.5t113.5 -48.5q62 0 95 35.5t33 91.5h-131zM347 725
q-82 0 -82 78q0 40 22.5 60t59.5 20q34 0 57.5 -20.5t23.5 -59.5q0 -40 -23.5 -59t-57.5 -19z" />
    <glyph glyph-name="gdotaccent" unicode="&#x121;" horiz-adv-x="520" 
d="M340 456h133v-480q0 -83 -57.5 -133.5t-157.5 -50.5q-94 0 -144 42.5t-50 114.5h121q0 -19 19 -33t54 -14q73 0 73 64v67q-46 -44 -107 -44q-93 0 -143 61t-50 179q0 116 50.5 176.5t141.5 60.5q70 0 117 -43v33zM174 229q0 -110 85 -110q44 0 72 19v182q-27 16 -72 16
q-85 0 -85 -107zM273 520q-82 0 -82 78q0 40 22.5 60t59.5 20q34 0 57.5 -20.5t23.5 -59.5q0 -40 -23.5 -59t-57.5 -19z" />
    <glyph glyph-name="Gcommaaccent" unicode="&#x122;" horiz-adv-x="652" 
d="M341 247v125h282q6 -54 6 -74q0 -133 -72 -220.5t-213 -87.5q-148 0 -229 87.5t-81 261.5q0 347 324 347q78 0 140 -34.5t91 -93.5l-115 -74q-43 72 -123 72q-78 0 -117.5 -52t-39.5 -165q0 -122 36.5 -170.5t113.5 -48.5q62 0 95 35.5t33 91.5h-131zM429 -60l-70 -156
h-105l26 156h149z" />
    <glyph glyph-name="gcommaaccent" unicode="&#x123;" horiz-adv-x="520" 
d="M340 456h133v-480q0 -83 -57.5 -133.5t-157.5 -50.5q-94 0 -144 42.5t-50 114.5h121q0 -19 19 -33t54 -14q73 0 73 64v67q-46 -44 -107 -44q-93 0 -143 61t-50 179q0 116 50.5 176.5t141.5 60.5q70 0 117 -43v33zM174 229q0 -110 85 -110q44 0 72 19v182q-27 16 -72 16
q-85 0 -85 -107zM194 549l73 188h108l-26 -188h-155z" />
    <glyph glyph-name="Hcircumflex" unicode="&#x124;" horiz-adv-x="686" 
d="M472 410v266h154v-676h-154v285h-257v-285h-155v676h155v-266h257zM275 901h140l100 -169h-124l-46 83l-46 -83h-124z" />
    <glyph glyph-name="hcircumflex" unicode="&#x125;" horiz-adv-x="517" 
d="M47 0v690h142v-274q16 15 28 23.5t40 17.5t63 9q74 0 114 -47.5t40 -136.5v-282h-142v265q0 36 -17 53.5t-55 17.5q-37 0 -71 -24v-312h-142zM198 896h140l100 -169h-124l-46 83l-46 -83h-124z" />
    <glyph glyph-name="Hbar" unicode="&#x126;" horiz-adv-x="689" 
d="M19 590h42v86h155v-86h257v86h154v-86h44v-89h-44v-501h-154v285h-257v-285h-155v501h-42v89zM473 410v91h-257v-91h257z" />
    <glyph glyph-name="hbar" unicode="&#x127;" horiz-adv-x="518" 
d="M5 610h43v80h142v-80h90v-90h-90v-104q16 15 28 23.5t40 17.5t63 9q74 0 114 -47.5t40 -136.5v-282h-142v265q0 36 -17 53.5t-55 17.5q-37 0 -71 -24v-312h-142v520h-43v90z" />
    <glyph glyph-name="Itilde" unicode="&#x128;" horiz-adv-x="275" 
d="M60 0v676h155v-676h-155zM291 867v-103q-45 25 -79 25q-27 0 -77.5 -21.5t-81.5 -21.5q-43 0 -72 21v103q26 -25 72 -25q23 0 71 21t88 21q41 0 79 -20z" />
    <glyph glyph-name="itilde" unicode="&#x129;" horiz-adv-x="238" 
d="M48 0v456h142v-456h-142zM270 662v-103q-45 25 -79 25q-27 0 -77.5 -21.5t-81.5 -21.5q-43 0 -72 21v103q26 -25 72 -25q23 0 71 21t88 21q41 0 79 -20z" />
    <glyph glyph-name="Imacron" unicode="&#x12a;" horiz-adv-x="275" 
d="M60 0v676h155v-676h-155zM-17 864h309v-112h-309v112z" />
    <glyph glyph-name="imacron" unicode="&#x12b;" horiz-adv-x="238" 
d="M48 0v456h142v-456h-142zM-38 659h309v-112h-309v112z" />
    <glyph glyph-name="Ibreve" unicode="&#x12c;" horiz-adv-x="275" 
d="M60 0v676h155v-676h-155zM209 895h90q0 -69 -42.5 -114t-121.5 -45q-76 0 -117.5 45t-41.5 114h87q6 -26 26 -42.5t46 -16.5q28 0 48 16.5t26 42.5z" />
    <glyph glyph-name="ibreve" unicode="&#x12d;" horiz-adv-x="238" 
d="M48 0v456h142v-456h-142zM189 690h90q0 -69 -42.5 -114t-121.5 -45q-76 0 -117.5 45t-41.5 114h87q6 -26 26 -42.5t46 -16.5q28 0 48 16.5t26 42.5z" />
    <glyph glyph-name="Iogonek" unicode="&#x12e;" horiz-adv-x="275" 
d="M215 0l-66 -46q-30 -21 -30 -38q0 -11 8 -17t18 -6q31 0 70 27v-112q-51 -24 -113 -24q-59 0 -93 25.5t-34 73.5q0 58 68 112l17 13v668h155v-676z" />
    <glyph glyph-name="iogonek" unicode="&#x12f;" horiz-adv-x="238" 
d="M191 0l-66 -46q-30 -21 -30 -38q0 -11 8 -17t18 -6q31 0 70 27v-112q-51 -24 -113 -24q-59 0 -93 25.5t-34 73.5q0 58 68 112l30 23v438h142v-456zM118 530q-82 0 -82 78q0 40 22.5 60t59.5 20q34 0 57.5 -20.5t23.5 -59.5q0 -40 -23.5 -59t-57.5 -19z" />
    <glyph glyph-name="Idotaccent" unicode="&#x130;" horiz-adv-x="275" 
d="M60 0v676h155v-676h-155zM138 725q-82 0 -82 78q0 40 22.5 60t59.5 20q34 0 57.5 -20.5t23.5 -59.5q0 -40 -23.5 -59t-57.5 -19z" />
    <glyph glyph-name="dotlessi" unicode="&#x131;" horiz-adv-x="236" 
d="M47 0v456h142v-456h-142z" />
    <glyph glyph-name="IJ" unicode="&#x132;" horiz-adv-x="761" 
d="M59 0v676h155v-676h-155zM287 107l109 69q24 -56 80 -56q44 0 63.5 26t19.5 84v446h146v-458q0 -108 -60 -168t-169 -60q-70 0 -118 32t-71 85z" />
    <glyph glyph-name="ij" unicode="&#x133;" horiz-adv-x="471" 
d="M47 0v456h142v-456h-142zM116 530q-82 0 -82 78q0 40 22.5 60t59.5 20q34 0 57.5 -20.5t23.5 -59.5q0 -40 -23.5 -59t-57.5 -19zM288 -226l-87 88q79 62 79 127v467h143v-436q0 -161 -135 -246zM351 530q-83 0 -83 78q0 40 23 60t60 20q34 0 57.5 -20.5t23.5 -59.5
q0 -40 -23.5 -59t-57.5 -19z" />
    <glyph glyph-name="Jcircumflex" unicode="&#x134;" horiz-adv-x="482" 
d="M8 107l109 69q24 -56 80 -56q44 0 63.5 26t19.5 84v446h146v-458q0 -108 -60 -168t-169 -60q-70 0 -118 32t-71 85zM285 901h140l100 -169h-124l-46 83l-46 -83h-124z" />
    <glyph glyph-name="jcircumflex" unicode="&#x135;" horiz-adv-x="239" 
d="M49 696h140l100 -169h-124l-46 83l-46 -83h-124zM56 -226l-87 88q79 62 79 127v467h143v-436q0 -161 -135 -246z" />
    <glyph glyph-name="Kcommaaccent" unicode="&#x136;" horiz-adv-x="623" 
d="M289 287l-74 -81v-206h-155v676h155v-276l229 276h181l-232 -279l231 -397h-177zM371 -60l-70 -156h-105l26 156h149z" />
    <glyph glyph-name="kcommaaccent" unicode="&#x137;" horiz-adv-x="501" 
d="M501 0h-156l-104 190l-52 -51v-139h-142v690h142v-387l148 153h171l-170 -167zM341 -60l-70 -156h-105l26 156h149z" />
    <glyph glyph-name="kgreenlandic" unicode="&#x138;" horiz-adv-x="502" 
d="M501 0h-156l-104 190l-52 -51v-139h-142v456h142v-153l148 153h171l-170 -167z" />
    <glyph glyph-name="Lacute" unicode="&#x139;" horiz-adv-x="483" 
d="M215 125h257v-125h-412v676h155v-551zM150 901h141l-87 -169h-125z" />
    <glyph glyph-name="lacute" unicode="&#x13a;" horiz-adv-x="263" 
d="M44 690h142v-532q0 -19 8 -26t28 -7h20v-131h-70q-128 0 -128 141v555zM121 896h141l-87 -169h-125z" />
    <glyph glyph-name="Lcommaaccent" unicode="&#x13b;" horiz-adv-x="483" 
d="M215 125h257v-125h-412v676h155v-551zM340 -60l-70 -156h-105l26 156h149z" />
    <glyph glyph-name="lcommaaccent" unicode="&#x13c;" horiz-adv-x="263" 
d="M44 690h142v-532q0 -19 8 -26t28 -7h20v-131h-70q-128 0 -128 141v555zM227 -60l-70 -156h-105l26 156h149z" />
    <glyph glyph-name="Lcaron" unicode="&#x13d;" horiz-adv-x="539" 
d="M215 125h257v-125h-412v676h155v-551zM539 677l-70 -156h-105l26 156h149z" />
    <glyph glyph-name="lcaron" unicode="&#x13e;" horiz-adv-x="263" 
d="M44 690h142v-532q0 -19 8 -26t28 -7h20v-131h-70q-128 0 -128 141v555zM401 690l-70 -156h-105l26 156h149z" />
    <glyph glyph-name="Ldot" unicode="&#x13f;" horiz-adv-x="522" 
d="M215 125h257v-125h-412v676h155v-551zM391 305q-42 0 -69.5 25.5t-27.5 64.5q0 41 27 67t70 26q40 0 67 -26.5t27 -66.5q0 -38 -27 -64t-67 -26z" />
    <glyph glyph-name="ldot" unicode="&#x140;" horiz-adv-x="426" 
d="M44 690h142v-532q0 -19 8 -26t28 -7h20v-131h-70q-128 0 -128 141v555zM329 283q-42 0 -69.5 25.5t-27.5 64.5q0 41 27 67t70 26q40 0 67 -26.5t27 -66.5q0 -38 -27 -64t-67 -26z" />
    <glyph glyph-name="Lslash" unicode="&#x141;" horiz-adv-x="512" 
d="M244 125h257v-125h-412v242l-75 -33v107l75 33v327h155v-258l85 38v-107l-85 -38v-186z" />
    <glyph glyph-name="lslash" unicode="&#x142;" horiz-adv-x="284" 
d="M267 366l-62 -29v-179q0 -19 8 -26t28 -7h20v-131h-70q-128 0 -128 141v135l-46 -21v107l46 21v313h142v-246l62 29v-107z" />
    <glyph glyph-name="Nacute" unicode="&#x143;" horiz-adv-x="679" 
d="M465 254v422h154v-676h-157l-247 430l1 -430h-157l1 676h163zM345 901h141l-87 -169h-125z" />
    <glyph glyph-name="nacute" unicode="&#x144;" horiz-adv-x="517" 
d="M47 0v456h137v-51q41 61 136 61q74 0 114 -47.5t40 -136.5v-282h-142v265q0 36 -17 53.5t-55 17.5q-37 0 -71 -24v-312h-142zM275 696h141l-87 -169h-125z" />
    <glyph glyph-name="Ncommaaccent" unicode="&#x145;" horiz-adv-x="679" 
d="M465 254v422h154v-676h-157l-247 430l1 -430h-157l1 676h163zM423 -60l-70 -156h-105l26 156h149z" />
    <glyph glyph-name="ncommaaccent" unicode="&#x146;" horiz-adv-x="517" 
d="M47 0v456h137v-51q41 61 136 61q74 0 114 -47.5t40 -136.5v-282h-142v265q0 36 -17 53.5t-55 17.5q-37 0 -71 -24v-312h-142zM337 -60l-70 -156h-105l26 156h149z" />
    <glyph glyph-name="Ncaron" unicode="&#x147;" horiz-adv-x="679" 
d="M465 254v422h154v-676h-157l-247 430l1 -430h-157l1 676h163zM411 732h-140l-100 169h124l46 -83l46 83h124z" />
    <glyph glyph-name="ncaron" unicode="&#x148;" horiz-adv-x="517" 
d="M47 0v456h137v-51q41 61 136 61q74 0 114 -47.5t40 -136.5v-282h-142v265q0 36 -17 53.5t-55 17.5q-37 0 -71 -24v-312h-142zM329 527h-140l-100 169h124l46 -83l46 83h124z" />
    <glyph glyph-name="napostrophe" unicode="&#x149;" horiz-adv-x="518" 
d="M48 0v456h137v-51q41 61 136 61q74 0 114 -47.5t40 -136.5v-282h-142v265q0 36 -17 53.5t-55 17.5q-37 0 -71 -24v-312h-142zM120 697l-70 -156h-105l26 156h149z" />
    <glyph glyph-name="Eng" unicode="&#x14a;" horiz-adv-x="678" 
d="M482 -226l-93 94q75 54 75 121v5l-250 436l1 -430h-157l1 676h163l242 -422v422h154v-656q0 -160 -136 -246z" />
    <glyph glyph-name="eng" unicode="&#x14b;" horiz-adv-x="516" 
d="M46 0v456h137v-51q41 61 136 61q74 0 114 -47.5t40 -136.5v-262q0 -161 -134 -246l-87 88q79 62 79 127v276q0 36 -17 53.5t-55 17.5q-37 0 -71 -24v-312h-142z" />
    <glyph glyph-name="Omacron" unicode="&#x14c;" horiz-adv-x="657" 
d="M194 337q0 -52 5.5 -88.5t19.5 -67t41.5 -46t67.5 -15.5q76 0 106 56t30 161q0 106 -30 162.5t-104 56.5q-75 0 -105.5 -56.5t-30.5 -162.5zM623 337q0 -158 -71.5 -252.5t-223.5 -94.5q-153 0 -223.5 94t-70.5 253q0 77 15.5 138t49.5 109.5t92.5 75t138.5 26.5
q79 0 137 -26.5t91.5 -75t49 -109.5t15.5 -138zM176 864h309v-112h-309v112z" />
    <glyph glyph-name="omacron" unicode="&#x14d;" horiz-adv-x="498" 
d="M251 466q106 0 162 -65t56 -172q0 -109 -56.5 -174.5t-166.5 -65.5q-104 0 -160.5 66t-56.5 171q0 110 55.5 175t166.5 65zM249 116q76 0 76 110q0 113 -78 113q-74 0 -74 -110q0 -113 76 -113zM95 659h309v-112h-309v112z" />
    <glyph glyph-name="Obreve" unicode="&#x14e;" horiz-adv-x="657" 
d="M194 337q0 -52 5.5 -88.5t19.5 -67t41.5 -46t67.5 -15.5q76 0 106 56t30 161q0 106 -30 162.5t-104 56.5q-75 0 -105.5 -56.5t-30.5 -162.5zM623 337q0 -158 -71.5 -252.5t-223.5 -94.5q-153 0 -223.5 94t-70.5 253q0 77 15.5 138t49.5 109.5t92.5 75t138.5 26.5
q79 0 137 -26.5t91.5 -75t49 -109.5t15.5 -138zM402 895h90q0 -69 -42.5 -114t-121.5 -45q-76 0 -117.5 45t-41.5 114h87q6 -26 26 -42.5t46 -16.5q28 0 48 16.5t26 42.5z" />
    <glyph glyph-name="obreve" unicode="&#x14f;" horiz-adv-x="498" 
d="M251 466q106 0 162 -65t56 -172q0 -109 -56.5 -174.5t-166.5 -65.5q-104 0 -160.5 66t-56.5 171q0 110 55.5 175t166.5 65zM249 116q76 0 76 110q0 113 -78 113q-74 0 -74 -110q0 -113 76 -113zM321 690h90q0 -69 -42.5 -114t-121.5 -45q-76 0 -117.5 45t-41.5 114h87
q6 -26 26 -42.5t46 -16.5q28 0 48 16.5t26 42.5z" />
    <glyph glyph-name="Ohungarumlaut" unicode="&#x150;" horiz-adv-x="657" 
d="M194 337q0 -52 5.5 -88.5t19.5 -67t41.5 -46t67.5 -15.5q76 0 106 56t30 161q0 106 -30 162.5t-104 56.5q-75 0 -105.5 -56.5t-30.5 -162.5zM623 337q0 -158 -71.5 -252.5t-223.5 -94.5q-153 0 -223.5 94t-70.5 253q0 77 15.5 138t49.5 109.5t92.5 75t138.5 26.5
q79 0 137 -26.5t91.5 -75t49 -109.5t15.5 -138zM239 901h141l-87 -169h-125zM435 901h141l-87 -169h-125z" />
    <glyph glyph-name="ohungarumlaut" unicode="&#x151;" horiz-adv-x="498" 
d="M251 466q106 0 162 -65t56 -172q0 -109 -56.5 -174.5t-166.5 -65.5q-104 0 -160.5 66t-56.5 171q0 110 55.5 175t166.5 65zM249 116q76 0 76 110q0 113 -78 113q-74 0 -74 -110q0 -113 76 -113zM149 696h141l-87 -169h-125zM345 696h141l-87 -169h-125z" />
    <glyph glyph-name="OE" unicode="&#x152;" horiz-adv-x="893" 
d="M560 125h300v-125h-455q-38 -10 -77 -10q-153 0 -223.5 94t-70.5 253q0 77 15.5 138t49.5 109.5t92.5 75t138.5 26.5q38 0 75 -10h452v-125h-297v-151h252v-125h-252v-150zM328 120q45 0 77 19v397q-32 20 -75 20q-75 0 -105.5 -56.5t-30.5 -162.5q0 -52 5.5 -88.5
t19.5 -67t41.5 -46t67.5 -15.5z" />
    <glyph glyph-name="oe" unicode="&#x153;" horiz-adv-x="780" 
d="M570 108q53 0 106 39l65 -91q-71 -67 -171 -67q-108 0 -167 56q-56 -56 -157 -56q-104 0 -160.5 66t-56.5 171q0 110 55.5 175t166.5 65q97 0 154 -57q59 57 149 57q101 0 149.5 -58.5t48.5 -142.5q0 -53 -8 -83h-264q5 -74 90 -74zM249 116q76 0 76 110q0 113 -78 113
q-74 0 -74 -110q0 -113 76 -113zM480 281h141q1 6 1 12q0 32 -20 46.5t-48 14.5q-34 0 -53 -20.5t-21 -52.5z" />
    <glyph glyph-name="Racute" unicode="&#x154;" horiz-adv-x="607" 
d="M60 0v676h266q121 0 185.5 -54.5t64.5 -150.5q0 -68 -38 -119t-110 -73l159 -279h-172l-141 264h-59l1 -264h-156zM416 471q0 39 -23.5 59.5t-83.5 20.5h-94v-162h94q61 0 84 20t23 62zM295 901h141l-87 -169h-125z" />
    <glyph glyph-name="racute" unicode="&#x155;" horiz-adv-x="365" 
d="M183 385h1q45 81 119 81q27 0 50 -6l-9 -150q-37 10 -79 10q-53 0 -76 -39v-281h-142v456h136v-71zM199 696h141l-87 -169h-125z" />
    <glyph glyph-name="Rcommaaccent" unicode="&#x156;" horiz-adv-x="607" 
d="M60 0v676h266q121 0 185.5 -54.5t64.5 -150.5q0 -68 -38 -119t-110 -73l159 -279h-172l-141 264h-59l1 -264h-156zM416 471q0 39 -23.5 59.5t-83.5 20.5h-94v-162h94q61 0 84 20t23 62zM377 -60l-70 -156h-105l26 156h149z" />
    <glyph glyph-name="rcommaaccent" unicode="&#x157;" horiz-adv-x="365" 
d="M183 385h1q45 81 119 81q27 0 50 -6l-9 -150q-37 10 -79 10q-53 0 -76 -39v-281h-142v456h136v-71zM195 -60l-70 -156h-105l26 156h149z" />
    <glyph glyph-name="Rcaron" unicode="&#x158;" horiz-adv-x="607" 
d="M60 0v676h266q121 0 185.5 -54.5t64.5 -150.5q0 -68 -38 -119t-110 -73l159 -279h-172l-141 264h-59l1 -264h-156zM416 471q0 39 -23.5 59.5t-83.5 20.5h-94v-162h94q61 0 84 20t23 62zM362 732h-140l-100 169h124l46 -83l46 83h124z" />
    <glyph glyph-name="rcaron" unicode="&#x159;" horiz-adv-x="366" 
d="M184 385h1q45 81 119 81q28 0 50 -6l-9 -150q-37 10 -79 10q-53 0 -76 -39v-281h-142v456h136v-71zM268 527h-140l-100 169h124l46 -83l46 83h124z" />
    <glyph glyph-name="Sacute" unicode="&#x15a;" horiz-adv-x="543" 
d="M508 585l-103 -85q-41 56 -120 56q-37 0 -58 -19.5t-21 -50.5q0 -50 57 -69l83 -26q92 -29 129.5 -76.5t37.5 -113.5q0 -101 -70 -156.5t-179 -55.5q-100 0 -160.5 36t-87.5 86l103 88q22 -39 54.5 -59.5t90.5 -20.5q42 0 65.5 18.5t23.5 50.5q0 49 -63 70l-82 26
q-162 51 -162 192q0 89 58.5 149.5t180.5 60.5q151 0 223 -101zM281 901h141l-87 -169h-125z" />
    <glyph glyph-name="sacute" unicode="&#x15b;" horiz-adv-x="438" 
d="M406 398l-76 -83q-47 47 -107 47q-23 0 -36 -9t-13 -23q0 -27 34 -35l76 -17q131 -29 131 -139q0 -62 -47.5 -106t-157.5 -44q-68 0 -116.5 22.5t-75.5 54.5l79 84q54 -58 119 -58q55 0 55 33q0 26 -35 34l-78 19q-125 30 -125 137q0 59 48 105t148 46q113 0 177 -68z
M231 696h141l-87 -169h-125z" />
    <glyph glyph-name="Scircumflex" unicode="&#x15c;" horiz-adv-x="543" 
d="M508 585l-103 -85q-41 56 -120 56q-37 0 -58 -19.5t-21 -50.5q0 -50 57 -69l83 -26q92 -29 129.5 -76.5t37.5 -113.5q0 -101 -70 -156.5t-179 -55.5q-100 0 -160.5 36t-87.5 86l103 88q22 -39 54.5 -59.5t90.5 -20.5q42 0 65.5 18.5t23.5 50.5q0 49 -63 70l-82 26
q-162 51 -162 192q0 89 58.5 149.5t180.5 60.5q151 0 223 -101zM205 901h140l100 -169h-124l-46 83l-46 -83h-124z" />
    <glyph glyph-name="scircumflex" unicode="&#x15d;" horiz-adv-x="438" 
d="M406 398l-76 -83q-47 47 -107 47q-23 0 -36 -9t-13 -23q0 -27 34 -35l76 -17q131 -29 131 -139q0 -62 -47.5 -106t-157.5 -44q-68 0 -116.5 22.5t-75.5 54.5l79 84q54 -58 119 -58q55 0 55 33q0 26 -35 34l-78 19q-125 30 -125 137q0 59 48 105t148 46q113 0 177 -68z
M152 696h140l100 -169h-124l-46 83l-46 -83h-124z" />
    <glyph glyph-name="Scedilla" unicode="&#x15e;" horiz-adv-x="543" 
d="M508 585l-103 -85q-41 56 -120 56q-37 0 -58 -19.5t-21 -50.5q0 -50 57 -69l83 -26q92 -29 129.5 -76.5t37.5 -113.5q0 -91 -58.5 -146t-152.5 -64l-14 -34q98 0 98 -81q0 -45 -33.5 -68.5t-87.5 -23.5q-56 0 -104 23v84q42 -32 91 -32q28 0 28 17t-37 17h-49l-7 8l34 90
q-148 15 -205 120l103 88q22 -39 54.5 -59.5t90.5 -20.5q42 0 65.5 18.5t23.5 50.5q0 49 -63 70l-82 26q-162 51 -162 192q0 89 58.5 149.5t180.5 60.5q151 0 223 -101z" />
    <glyph glyph-name="scedilla" unicode="&#x15f;" horiz-adv-x="439" 
d="M406 398l-76 -83q-47 47 -107 47q-23 0 -36 -9t-13 -23q0 -27 34 -35l76 -17q131 -29 131 -139q0 -55 -38 -96.5t-124 -50.5l-14 -35q98 0 98 -81q0 -45 -33.5 -68.5t-87.5 -23.5q-56 0 -104 23v84q42 -32 91 -32q28 0 28 17t-37 17h-49l-7 8l34 90q-101 12 -154 75
l79 84q54 -58 119 -58q55 0 55 33q0 26 -35 34l-78 19q-125 30 -125 137q0 59 48 105t148 46q113 0 177 -68z" />
    <glyph glyph-name="Scaron" unicode="&#x160;" horiz-adv-x="543" 
d="M508 585l-103 -85q-41 56 -120 56q-37 0 -58 -19.5t-21 -50.5q0 -50 57 -69l83 -26q92 -29 129.5 -76.5t37.5 -113.5q0 -101 -70 -156.5t-179 -55.5q-100 0 -160.5 36t-87.5 86l103 88q22 -39 54.5 -59.5t90.5 -20.5q42 0 65.5 18.5t23.5 50.5q0 49 -63 70l-82 26
q-162 51 -162 192q0 89 58.5 149.5t180.5 60.5q151 0 223 -101zM345 732h-140l-100 169h124l46 -83l46 83h124z" />
    <glyph glyph-name="scaron" unicode="&#x161;" horiz-adv-x="438" 
d="M406 398l-76 -83q-47 47 -107 47q-23 0 -36 -9t-13 -23q0 -27 34 -35l76 -17q131 -29 131 -139q0 -62 -47.5 -106t-157.5 -44q-68 0 -116.5 22.5t-75.5 54.5l79 84q54 -58 119 -58q55 0 55 33q0 26 -35 34l-78 19q-125 30 -125 137q0 59 48 105t148 46q113 0 177 -68z
M293 527h-140l-100 169h124l46 -83l46 83h124z" />
    <glyph glyph-name="Tcommaaccent" unicode="&#x162;" horiz-adv-x="551" 
d="M24 676h503v-125h-174v-551h-35l-18 -43q98 0 98 -81q0 -45 -33.5 -68.5t-87.5 -23.5q-56 0 -104 23v84q42 -32 91 -32q28 0 28 17t-37 17h-49l-7 8l37 99h-38v551h-174v125z" />
    <glyph glyph-name="tcommaaccent" unicode="&#x163;" horiz-adv-x="358" 
d="M237 337v-178q0 -40 45 -40q22 0 49 5v-123q-36 -10 -87 -12l-13 -32q98 0 98 -81q0 -45 -33.5 -68.5t-87.5 -23.5q-56 0 -104 23v84q42 -32 91 -32q28 0 28 17t-37 17h-49l-7 8l37 100q-72 30 -72 137v199h-81v109l81 10v109l142 21v-130h92v-119h-92z" />
    <glyph glyph-name="Tcaron" unicode="&#x164;" horiz-adv-x="551" 
d="M24 676h503v-125h-174v-551h-155v551h-174v125zM344 732h-140l-100 169h124l46 -83l46 83h124z" />
    <glyph glyph-name="tcaron" unicode="&#x165;" horiz-adv-x="358" 
d="M237 337v-178q0 -40 45 -40q22 0 49 5v-123q-41 -12 -99 -12q-71 0 -104 40.5t-33 108.5v199h-81v109l81 10v109l142 21v-130h92v-119h-92zM488 690l-70 -156h-105l26 156h149z" />
    <glyph glyph-name="Tbar" unicode="&#x166;" horiz-adv-x="554" 
d="M115 365h85v186h-174v125h503v-125h-174v-186h84v-90h-84v-275h-155v275h-85v90z" />
    <glyph glyph-name="tbar" unicode="&#x167;" horiz-adv-x="359" 
d="M36 285h60v52h-81v109l81 10v109l142 21v-130h92v-119h-92v-52h73v-90h-73v-36q0 -40 45 -40q22 0 49 5v-123q-41 -12 -99 -12q-71 0 -104 40.5t-33 108.5v57h-60v90z" />
    <glyph glyph-name="Utilde" unicode="&#x168;" horiz-adv-x="641" 
d="M321 -10q-124 0 -195.5 67.5t-71.5 203.5v415h155v-410q0 -74 26 -110t86 -36t85.5 36t25.5 110v410h155v-415q0 -136 -71.5 -203.5t-194.5 -67.5zM476 867v-103q-45 25 -79 25q-27 0 -77.5 -21.5t-81.5 -21.5q-43 0 -72 21v103q26 -25 72 -25q23 0 71 21t88 21
q41 0 79 -20z" />
    <glyph glyph-name="utilde" unicode="&#x169;" horiz-adv-x="517" 
d="M414 662v-103q-45 25 -79 25q-27 0 -77.5 -21.5t-81.5 -21.5q-43 0 -72 21v103q26 -25 72 -25q23 0 71 21t88 21q41 0 79 -20zM470 456v-456h-137v51q-41 -61 -136 -61q-74 0 -114 47.5t-40 136.5v282h142v-265q0 -36 17 -53.5t55 -17.5q37 0 71 24v312h142z" />
    <glyph glyph-name="Umacron" unicode="&#x16a;" horiz-adv-x="641" 
d="M321 -10q-124 0 -195.5 67.5t-71.5 203.5v415h155v-410q0 -74 26 -110t86 -36t85.5 36t25.5 110v410h155v-415q0 -136 -71.5 -203.5t-194.5 -67.5zM167 864h309v-112h-309v112z" />
    <glyph glyph-name="umacron" unicode="&#x16b;" horiz-adv-x="517" 
d="M107 659h309v-112h-309v112zM470 456v-456h-137v51q-41 -61 -136 -61q-74 0 -114 47.5t-40 136.5v282h142v-265q0 -36 17 -53.5t55 -17.5q37 0 71 24v312h142z" />
    <glyph glyph-name="Ubreve" unicode="&#x16c;" horiz-adv-x="641" 
d="M321 -10q-124 0 -195.5 67.5t-71.5 203.5v415h155v-410q0 -74 26 -110t86 -36t85.5 36t25.5 110v410h155v-415q0 -136 -71.5 -203.5t-194.5 -67.5zM393 895h90q0 -69 -42.5 -114t-121.5 -45q-76 0 -117.5 45t-41.5 114h87q6 -26 26 -42.5t46 -16.5q28 0 48 16.5t26 42.5z
" />
    <glyph glyph-name="ubreve" unicode="&#x16d;" horiz-adv-x="517" 
d="M328 690h90q0 -69 -42.5 -114t-121.5 -45q-76 0 -117.5 45t-41.5 114h87q6 -26 26 -42.5t46 -16.5q28 0 48 16.5t26 42.5zM470 456v-456h-137v51q-41 -61 -136 -61q-74 0 -114 47.5t-40 136.5v282h142v-265q0 -36 17 -53.5t55 -17.5q37 0 71 24v312h142z" />
    <glyph glyph-name="Uring" unicode="&#x16e;" horiz-adv-x="641" 
d="M321 -10q-124 0 -195.5 67.5t-71.5 203.5v415h155v-410q0 -74 26 -110t86 -36t85.5 36t25.5 110v410h155v-415q0 -136 -71.5 -203.5t-194.5 -67.5zM209 823q0 43 28.5 73.5t81.5 30.5q56 0 85.5 -30.5t29.5 -73.5q0 -40 -30 -71t-85 -31q-52 0 -81 31t-29 71zM284 823
q0 -13 9 -23t26 -10q19 0 28.5 10t9.5 23q0 14 -9.5 24.5t-28.5 10.5q-17 0 -26 -10.5t-9 -24.5z" />
    <glyph glyph-name="uring" unicode="&#x16f;" horiz-adv-x="517" 
d="M143 618q0 43 28.5 73.5t81.5 30.5q56 0 85.5 -30.5t29.5 -73.5q0 -40 -30 -71t-85 -31q-52 0 -81 31t-29 71zM218 618q0 -13 9 -23t26 -10q19 0 28.5 10t9.5 23q0 14 -9.5 24.5t-28.5 10.5q-17 0 -26 -10.5t-9 -24.5zM470 456v-456h-137v51q-41 -61 -136 -61
q-74 0 -114 47.5t-40 136.5v282h142v-265q0 -36 17 -53.5t55 -17.5q37 0 71 24v312h142z" />
    <glyph glyph-name="Uhungarumlaut" unicode="&#x170;" horiz-adv-x="641" 
d="M321 -10q-124 0 -195.5 67.5t-71.5 203.5v415h155v-410q0 -74 26 -110t86 -36t85.5 36t25.5 110v410h155v-415q0 -136 -71.5 -203.5t-194.5 -67.5zM233 901h141l-87 -169h-125zM429 901h141l-87 -169h-125z" />
    <glyph glyph-name="uhungarumlaut" unicode="&#x171;" horiz-adv-x="518" 
d="M470 456v-456h-137v51q-41 -61 -136 -61q-74 0 -114 47.5t-40 136.5v282h142v-265q0 -36 17 -53.5t55 -17.5q37 0 71 24v312h142zM159 696h141l-87 -169h-125zM355 696h141l-87 -169h-125z" />
    <glyph glyph-name="Uogonek" unicode="&#x172;" horiz-adv-x="641" 
d="M587 261q0 -111 -47.5 -176t-133.5 -85l-65 -46q-30 -21 -30 -38q0 -11 8 -17t18 -6q31 0 70 27v-112q-51 -24 -113 -24q-59 0 -93 25.5t-34 73.5q0 58 68 112l4 4q-88 19 -136.5 84.5t-48.5 177.5v415h155v-410q0 -74 26 -110t86 -36t85.5 36t25.5 110v410h155v-415z
" />
    <glyph glyph-name="uogonek" unicode="&#x173;" horiz-adv-x="517" 
d="M470 456v-456l-66 -46q-30 -21 -30 -38q0 -11 8 -17t18 -6q31 0 70 27v-112q-51 -24 -113 -24q-59 0 -93 25.5t-34 73.5q0 58 68 112l35 27v29q-41 -61 -136 -61q-74 0 -114 47.5t-40 136.5v282h142v-265q0 -36 17 -53.5t55 -17.5q37 0 71 24v312h142z" />
    <glyph glyph-name="Wcircumflex" unicode="&#x174;" horiz-adv-x="969" 
d="M397 676h175l123 -505l110 505h158l-167 -676h-189l-122 467l-123 -467h-188l-168 676h158l111 -505zM415 901h140l100 -169h-124l-46 83l-46 -83h-124z" />
    <glyph glyph-name="wcircumflex" unicode="&#x175;" horiz-adv-x="774" 
d="M321 456h132l87 -308l82 308h145l-136 -456h-154l-90 276l-90 -276h-154l-136 456h144l83 -308zM317 696h140l100 -169h-124l-46 83l-46 -83h-124z" />
    <glyph glyph-name="Ycircumflex" unicode="&#x176;" horiz-adv-x="599" 
d="M377 0h-155v259l-227 417h169l137 -279l133 279h170l-227 -417v-259zM230 901h140l100 -169h-124l-46 83l-46 -83h-124z" />
    <glyph glyph-name="ycircumflex" unicode="&#x177;" horiz-adv-x="493" 
d="M157 456l95 -279l89 279h152l-262 -672h-143l95 231l-185 441h159zM181 696h140l100 -169h-124l-46 83l-46 -83h-124z" />
    <glyph glyph-name="Ydieresis" unicode="&#x178;" horiz-adv-x="599" 
d="M377 0h-155v259l-227 417h169l137 -279l133 279h170l-227 -417v-259zM199 725q-81 0 -81 78q0 40 22 60t59 20q34 0 57.5 -20.5t23.5 -59.5q0 -40 -23.5 -59t-57.5 -19zM402 725q-81 0 -81 78q0 40 22 60t59 20q34 0 57.5 -20.5t23.5 -59.5q0 -40 -23.5 -59t-57.5 -19z
" />
    <glyph glyph-name="Zacute" unicode="&#x179;" horiz-adv-x="526" 
d="M485 676v-110l-276 -441h288v-125h-469v107l278 444h-265v125h444zM273 901h141l-87 -169h-125z" />
    <glyph glyph-name="zacute" unicode="&#x17a;" horiz-adv-x="422" 
d="M388 456v-90l-179 -246h177v-120h-355v90l182 246h-174v120h349zM230 696h141l-87 -169h-125z" />
    <glyph glyph-name="Zdotaccent" unicode="&#x17b;" horiz-adv-x="526" 
d="M485 676v-110l-276 -441h288v-125h-469v107l278 444h-265v125h444zM264 725q-82 0 -82 78q0 40 22.5 60t59.5 20q34 0 57.5 -20.5t23.5 -59.5q0 -40 -23.5 -59t-57.5 -19z" />
    <glyph glyph-name="zdotaccent" unicode="&#x17c;" horiz-adv-x="422" 
d="M388 456v-90l-179 -246h177v-120h-355v90l182 246h-174v120h349zM229 520q-82 0 -82 78q0 40 22.5 60t59.5 20q34 0 57.5 -20.5t23.5 -59.5q0 -40 -23.5 -59t-57.5 -19z" />
    <glyph glyph-name="Zcaron" unicode="&#x17d;" horiz-adv-x="526" 
d="M485 676v-110l-276 -441h288v-125h-469v107l278 444h-265v125h444zM333 732h-140l-100 169h124l46 -83l46 83h124z" />
    <glyph glyph-name="zcaron" unicode="&#x17e;" horiz-adv-x="422" 
d="M388 456v-90l-179 -246h177v-120h-355v90l182 246h-174v120h349zM289 527h-140l-100 169h124l46 -83l46 83h124z" />
    <glyph glyph-name="florin" unicode="&#x192;" horiz-adv-x="366" 
d="M245 336v-413q0 -62 -39 -105.5t-110 -43.5q-62 0 -95 13v121q25 -8 59 -8q26 0 37 12.5t11 39.5v384h-83v120h83v95q0 63 40.5 106t116.5 43q53 0 86 -13v-121q-30 8 -59 8q-24 0 -35.5 -11t-11.5 -39v-68h91v-120h-91z" />
    <glyph glyph-name="Aringacute" unicode="&#x1fa;" horiz-adv-x="626" 
d="M204 813q0 31 15.5 56.5t45.5 37.5l50 91h132l-66 -100q46 -30 46 -85q0 -40 -30 -70t-84 -30q-51 0 -80 30t-29 70zM276 813q0 -14 9.5 -24.5t27.5 -10.5q20 0 30 10.5t10 24.5q0 15 -10 26.5t-30 11.5q-18 0 -27.5 -11.5t-9.5 -26.5zM470 0l-43 141h-228l-42 -141h-164
l232 676h176l233 -676h-164zM314 518l-77 -252h153z" />
    <glyph glyph-name="aringacute" unicode="&#x1fb;" horiz-adv-x="474" 
d="M134 608q0 35 20.5 62.5t57.5 36.5l35 78h128l-64 -92q46 -28 46 -85q0 -40 -30 -70t-84 -30q-51 0 -80 30t-29 70zM206 608q0 -14 9.5 -24.5t27.5 -10.5q20 0 30 10.5t10 24.5q0 15 -10 26.5t-30 11.5q-18 0 -27.5 -11.5t-9.5 -26.5zM431 0h-132v51q-53 -62 -141 -62
q-59 0 -96 36.5t-37 98.5q0 143 227 156l37 2v21q0 53 -63 53q-28 0 -43 -10.5t-15 -26.5v-14h-122q-2 18 -2 30q0 59 52.5 95t139.5 36q90 0 142.5 -39.5t52.5 -123.5v-303zM169 134q0 -39 46 -39q41 0 74 30v74l-37 -5q-83 -12 -83 -60z" />
    <glyph glyph-name="AEacute" unicode="&#x1fc;" horiz-adv-x="947" 
d="M616 901h141l-87 -169h-125zM309 264h150v264zM150 0h-163l429 676h495v-125h-297v-151h252v-125h-252v-157h300v-118h-455v143h-223z" />
    <glyph glyph-name="aeacute" unicode="&#x1fd;" horiz-adv-x="734" 
d="M387 696h141l-87 -169h-125zM524 108q53 0 106 39l65 -91q-71 -67 -171 -67q-114 0 -174 63q-66 -63 -171 -63q-74 0 -114.5 36t-40.5 99q0 143 227 156l37 2v21q0 53 -63 53q-28 0 -43 -10.5t-15 -26.5v-14h-122q-2 18 -2 30q0 59 52.5 95t139.5 36q95 0 144 -41
q52 41 129 41q101 0 149.5 -58.5t48.5 -142.5q0 -53 -8 -83h-264q5 -74 90 -74zM168 134q0 -39 46 -39q41 0 74 30v74l-37 -5q-83 -12 -83 -60zM434 281h141q1 6 1 12q0 32 -20 46.5t-48 14.5q-34 0 -53 -20.5t-21 -52.5z" />
    <glyph glyph-name="Oslashacute" unicode="&#x1fe;" horiz-adv-x="660" 
d="M332 901h132l-80 -167h-117zM624 337q0 -158 -71.5 -252.5t-223.5 -94.5q-102 0 -168 43l-26 -33h-122l79 103q-57 87 -57 234q0 77 15.5 138t49.5 109.5t92.5 75t138.5 26.5q103 0 171 -46l27 36h125l-83 -109q53 -87 53 -230zM195 337q0 -58 6 -92l214 281
q-32 30 -84 30q-75 0 -105.5 -56.5t-30.5 -162.5zM465 337q0 47 -6 85l-212 -276q29 -26 82 -26q76 0 106 56t30 161z" />
    <glyph glyph-name="oslashacute" unicode="&#x1ff;" horiz-adv-x="498" 
d="M251 466q62 0 112 -26l13 16h105l-56 -72q44 -61 44 -155q0 -109 -56.5 -174.5t-166.5 -65.5q-62 0 -109 25l-11 -14h-102l51 66q-46 62 -46 160q0 110 55.5 175t166.5 65zM173 229q0 -24 1 -34l106 137q-13 7 -33 7q-74 0 -74 -110zM249 116q76 0 76 110q0 19 -1 28
l-104 -134q11 -4 29 -4zM253 696h141l-87 -169h-125z" />
    <glyph glyph-name="Scommaaccent" unicode="&#x218;" horiz-adv-x="543" 
d="M508 585l-103 -85q-41 56 -120 56q-37 0 -58 -19.5t-21 -50.5q0 -50 57 -69l83 -26q92 -29 129.5 -76.5t37.5 -113.5q0 -101 -70 -156.5t-179 -55.5q-100 0 -160.5 36t-87.5 86l103 88q22 -39 54.5 -59.5t90.5 -20.5q42 0 65.5 18.5t23.5 50.5q0 49 -63 70l-82 26
q-162 51 -162 192q0 89 58.5 149.5t180.5 60.5q151 0 223 -101zM355 -60l-70 -156h-105l26 156h149z" />
    <glyph glyph-name="scommaaccent" unicode="&#x219;" horiz-adv-x="438" 
d="M406 398l-76 -83q-47 47 -107 47q-23 0 -36 -9t-13 -23q0 -27 34 -35l76 -17q131 -29 131 -139q0 -62 -47.5 -106t-157.5 -44q-68 0 -116.5 22.5t-75.5 54.5l79 84q54 -58 119 -58q55 0 55 33q0 26 -35 34l-78 19q-125 30 -125 137q0 59 48 105t148 46q113 0 177 -68z
M307 -60l-70 -156h-105l26 156h149z" />
    <glyph glyph-name="uni021A" unicode="&#x21a;" horiz-adv-x="551" 
d="M24 676h503v-125h-174v-551h-155v551h-174v125zM348 -60l-70 -156h-105l26 156h149z" />
    <glyph glyph-name="uni021B" unicode="&#x21b;" horiz-adv-x="358" 
d="M237 337v-178q0 -40 45 -40q22 0 49 5v-123q-41 -12 -99 -12q-71 0 -104 40.5t-33 108.5v199h-81v109l81 10v109l142 21v-130h92v-119h-92zM287 -60l-70 -156h-105l26 156h149z" />
    <glyph glyph-name="dotlessj" unicode="&#x237;" horiz-adv-x="237" 
d="M55 -226l-87 88q79 62 79 127v467h143v-436q0 -161 -135 -246z" />
    <glyph glyph-name="circumflex" unicode="&#x2c6;" horiz-adv-x="600" 
d="M230 696h140l100 -169h-124l-46 83l-46 -83h-124z" />
    <glyph glyph-name="caron" unicode="&#x2c7;" horiz-adv-x="600" 
d="M370 527h-140l-100 169h124l46 -83l46 83h124z" />
    <glyph glyph-name="breve" unicode="&#x2d8;" horiz-adv-x="600" 
d="M371 690h90q0 -69 -42.5 -114t-121.5 -45q-76 0 -117.5 45t-41.5 114h87q6 -26 26 -42.5t46 -16.5q28 0 48 16.5t26 42.5z" />
    <glyph glyph-name="dotaccent" unicode="&#x2d9;" horiz-adv-x="600" 
d="M300 520q-82 0 -82 78q0 40 22.5 60t59.5 20q34 0 57.5 -20.5t23.5 -59.5q0 -40 -23.5 -59t-57.5 -19z" />
    <glyph glyph-name="ring" unicode="&#x2da;" horiz-adv-x="600" 
d="M187 618q0 43 28.5 73.5t81.5 30.5q56 0 85.5 -30.5t29.5 -73.5q0 -40 -30 -71t-85 -31q-52 0 -81 31t-29 71zM262 618q0 -13 9 -23t26 -10q19 0 28.5 10t9.5 23q0 14 -9.5 24.5t-28.5 10.5q-17 0 -26 -10.5t-9 -24.5z" />
    <glyph glyph-name="ogonek" unicode="&#x2db;" horiz-adv-x="600" 
d="M428 0l-66 -46q-30 -21 -30 -38q0 -11 8 -17t18 -6q31 0 70 27v-112q-51 -24 -113 -24q-59 0 -93 25.5t-34 73.5q0 58 68 112l38 30z" />
    <glyph glyph-name="tilde" unicode="&#x2dc;" horiz-adv-x="600" 
d="M455 662v-103q-45 25 -79 25q-27 0 -77.5 -21.5t-81.5 -21.5q-43 0 -72 21v103q26 -25 72 -25q23 0 71 21t88 21q41 0 79 -20z" />
    <glyph glyph-name="hungarumlaut" unicode="&#x2dd;" horiz-adv-x="600" 
d="M167 696h141l-87 -169h-125zM363 696h141l-87 -169h-125z" />
    <glyph glyph-name="uni0394" unicode="&#x394;" horiz-adv-x="654" 
d="M-10 0l254 676h166l254 -676h-674zM461 118l-135 403l-134 -403h269z" />
    <glyph glyph-name="uni03A9" unicode="&#x3a9;" horiz-adv-x="734" 
d="M37 118h135q-127 109 -127 249q0 62 17.5 117t53.5 101.5t100 74t149 27.5q86 0 151 -27.5t101.5 -74t54 -101.5t17.5 -117q0 -138 -128 -249h136v-118h-289v118q50 42 85.5 105.5t35.5 131.5q0 91 -39.5 146.5t-124.5 55.5q-83 0 -121.5 -56t-38.5 -146
q0 -68 35.5 -131.5t85.5 -105.5v-118h-289v118z" />
    <glyph glyph-name="uni03BC" unicode="&#x3bc;" horiz-adv-x="521" 
d="M189 -216h-142v672h142v-272q2 -33 18.5 -48.5t53.5 -15.5t71 24v312h142v-456h-137v51q-41 -61 -136 -61q-2 0 -6 0.5t-6 0.5v-207z" />
    <glyph glyph-name="pi" unicode="&#x3c0;" horiz-adv-x="600" 
d="M107 0v337h-92v119h556v-119h-91v-179q0 -40 45 -40q18 0 29 1v-125q-42 -5 -75 -5q-72 0 -104.5 40.5t-32.5 108.5v199h-98v-337h-137z" />
    <glyph glyph-name="Wgrave" unicode="&#x1e80;" horiz-adv-x="969" 
d="M397 676h175l123 -505l110 505h158l-167 -676h-189l-122 467l-123 -467h-188l-168 676h158l111 -505zM335 901h141l71 -169h-125z" />
    <glyph glyph-name="wgrave" unicode="&#x1e81;" horiz-adv-x="774" 
d="M321 456h132l87 -308l82 308h145l-136 -456h-154l-90 276l-90 -276h-154l-136 456h144l83 -308zM240 696h141l71 -169h-125z" />
    <glyph glyph-name="Wacute" unicode="&#x1e82;" horiz-adv-x="969" 
d="M397 676h175l123 -505l110 505h158l-167 -676h-189l-122 467l-123 -467h-188l-168 676h158l111 -505zM495 901h141l-87 -169h-125z" />
    <glyph glyph-name="wacute" unicode="&#x1e83;" horiz-adv-x="774" 
d="M321 456h132l87 -308l82 308h145l-136 -456h-154l-90 276l-90 -276h-154l-136 456h144l83 -308zM395 696h141l-87 -169h-125z" />
    <glyph glyph-name="Wdieresis" unicode="&#x1e84;" horiz-adv-x="969" 
d="M397 676h175l123 -505l110 505h158l-167 -676h-189l-122 467l-123 -467h-188l-168 676h158l111 -505zM384 725q-81 0 -81 78q0 40 22 60t59 20q34 0 57.5 -20.5t23.5 -59.5q0 -40 -23.5 -59t-57.5 -19zM587 725q-81 0 -81 78q0 40 22 60t59 20q34 0 57.5 -20.5
t23.5 -59.5q0 -40 -23.5 -59t-57.5 -19z" />
    <glyph glyph-name="wdieresis" unicode="&#x1e85;" horiz-adv-x="774" 
d="M321 456h132l87 -308l82 308h145l-136 -456h-154l-90 276l-90 -276h-154l-136 456h144l83 -308zM286 520q-81 0 -81 78q0 40 22 60t59 20q34 0 57.5 -20.5t23.5 -59.5q0 -40 -23.5 -59t-57.5 -19zM489 520q-81 0 -81 78q0 40 22 60t59 20q34 0 57.5 -20.5t23.5 -59.5
q0 -40 -23.5 -59t-57.5 -19z" />
    <glyph glyph-name="Ygrave" unicode="&#x1ef2;" horiz-adv-x="599" 
d="M377 0h-155v259l-227 417h169l137 -279l133 279h170l-227 -417v-259zM157 901h141l71 -169h-125z" />
    <glyph glyph-name="ygrave" unicode="&#x1ef3;" horiz-adv-x="493" 
d="M157 456l95 -279l89 279h152l-262 -672h-143l95 231l-185 441h159zM108 696h141l71 -169h-125z" />
    <glyph glyph-name="endash" unicode="&#x2013;" horiz-adv-x="596" 
d="M47 331h502v-120h-502v120z" />
    <glyph glyph-name="emdash" unicode="&#x2014;" horiz-adv-x="736" 
d="M47 331h642v-120h-642v120z" />
    <glyph glyph-name="quoteleft" unicode="&#x2018;" horiz-adv-x="238" 
d="M28 405l70 271h105l-25 -271h-150z" />
    <glyph glyph-name="quoteright" unicode="&#x2019;" horiz-adv-x="230" 
d="M215 676l-71 -271h-105l25 271h151z" />
    <glyph glyph-name="quotesinglbase" unicode="&#x201a;" horiz-adv-x="242" 
d="M206 164l-71 -271h-105l25 271h151z" />
    <glyph glyph-name="quotedblleft" unicode="&#x201c;" horiz-adv-x="431" 
d="M221 405l70 271h105l-25 -271h-150zM28 405l70 271h105l-25 -271h-150z" />
    <glyph glyph-name="quotedblright" unicode="&#x201d;" horiz-adv-x="423" 
d="M215 676l-71 -271h-105l25 271h151zM408 676l-71 -271h-104l25 271h150z" />
    <glyph glyph-name="quotedblbase" unicode="&#x201e;" horiz-adv-x="435" 
d="M205 163l-71 -271h-104l25 271h150zM398 163l-71 -271h-104l25 271h150z" />
    <glyph glyph-name="dagger" unicode="&#x2020;" horiz-adv-x="423" 
d="M23 313h143v377h90v-377h144v-86h-144v-443h-90v443h-143v86z" />
    <glyph glyph-name="daggerdbl" unicode="&#x2021;" horiz-adv-x="457" 
d="M40 449h144v241h90v-241h143v-86h-143v-248h143v-86h-143v-245h-90v245h-144v86h144v248h-144v86z" />
    <glyph glyph-name="bullet" unicode="&#x2022;" horiz-adv-x="411" 
d="M206 126q-66 0 -109 40.5t-43 102.5t42.5 103t109.5 41q65 0 108 -41t43 -103t-43 -102.5t-108 -40.5z" />
    <glyph glyph-name="ellipsis" unicode="&#x2026;" horiz-adv-x="724" 
d="M121 -6q-39 0 -64 24t-25 60q0 37 25 61t64 24q38 0 63 -24t25 -61q0 -36 -25 -60t-63 -24zM604 -6q-38 0 -63.5 24t-25.5 60q0 37 25.5 61t63.5 24t63 -24t25 -61q0 -36 -25 -60t-63 -24zM367 -6q-38 0 -63.5 24t-25.5 60q0 37 25.5 61t63.5 24t63.5 -24t25.5 -61
q0 -36 -25.5 -60t-63.5 -24z" />
    <glyph glyph-name="perthousand" unicode="&#x2030;" horiz-adv-x="1221" 
d="M686 676l-401 -676h-109l398 676h112zM676 74q33 0 45 26t12 86t-12 86t-45 26q-32 0 -44.5 -26t-12.5 -86t12.5 -86t44.5 -26zM676 378q162 0 162 -192t-162 -192q-163 0 -163 192t163 192zM188 378q33 0 45 26t12 86t-12 86t-45 26q-32 0 -44.5 -26t-12.5 -86t12.5 -86
t44.5 -26zM188 682q162 0 162 -192t-162 -192q-163 0 -163 192t163 192zM1034 74q33 0 45 26t12 86t-12 86t-45 26q-32 0 -44.5 -26t-12.5 -86t12.5 -86t44.5 -26zM1034 378q162 0 162 -192t-162 -192q-163 0 -163 192t163 192z" />
    <glyph glyph-name="guilsinglleft" unicode="&#x2039;" horiz-adv-x="345" 
d="M15 270l209 238l89 -62l-131 -177l132 -177l-90 -61z" />
    <glyph glyph-name="guilsinglright" unicode="&#x203a;" horiz-adv-x="345" 
d="M121 508l209 -238l-209 -239l-90 61l132 177l-131 177z" />
    <glyph glyph-name="fraction" unicode="&#x2044;" horiz-adv-x="200" 
d="M355 676l-401 -676h-109l398 676h112z" />
    <glyph glyph-name="zerosuperior" unicode="&#x2070;" horiz-adv-x="378" 
d="M190 488q33 0 45 26t12 86t-12 86t-45 26q-32 0 -44.5 -26t-12.5 -86t12.5 -86t44.5 -26zM190 792q162 0 162 -192t-162 -192q-163 0 -163 192t163 192z" />
    <glyph glyph-name="foursuperior" unicode="&#x2074;" horiz-adv-x="354" 
d="M330 558v-77h-37v-65h-102v65h-177v67l170 240h109v-230h37zM119 558h72v106z" />
    <glyph glyph-name="fivesuperior" unicode="&#x2075;" horiz-adv-x="335" 
d="M312 535q0 -57 -40 -91t-111 -34t-106.5 29t-35.5 80h102q0 -29 40 -29q45 0 45 45q0 19 -12.5 32t-33.5 13q-26 0 -43 -15l-80 14l27 209h228v-77h-146l-7 -58q18 6 44 6q54 0 91.5 -29.5t37.5 -94.5z" />
    <glyph glyph-name="sixsuperior" unicode="&#x2076;" horiz-adv-x="359" 
d="M132 554q0 -66 50 -66q46 0 46 46t-46 46q-32 0 -50 -26zM189 712q-56 0 -56 -75q32 18 80 18q55 0 87.5 -32t32.5 -88q0 -55 -39 -91t-112 -36q-78 0 -116.5 49.5t-38.5 127.5q0 207 162 207q70 0 103.5 -30t33.5 -78h-102q0 28 -35 28z" />
    <glyph glyph-name="sevensuperior" unicode="&#x2077;" horiz-adv-x="306" 
d="M37 416l142 295h-162v77h278v-66l-148 -306h-110z" />
    <glyph glyph-name="eightsuperior" unicode="&#x2078;" horiz-adv-x="362" 
d="M181 409q-71 0 -112.5 28.5t-41.5 80.5q0 32 18.5 55t50.5 32q-62 21 -62 80q0 51 39 79.5t109 28.5t108 -28.5t38 -79.5q0 -59 -61 -80q69 -21 69 -87q0 -52 -41.5 -80.5t-113.5 -28.5zM181 566q-22 0 -35.5 -11t-13.5 -29q0 -16 15 -26.5t35 -10.5q19 0 33.5 10.5
t14.5 26.5q0 18 -13 29t-36 11zM181 713q-41 0 -41 -34q0 -36 41 -36q42 0 42 36q0 34 -42 34z" />
    <glyph glyph-name="ninesuperior" unicode="&#x2079;" horiz-adv-x="358" 
d="M227 645q0 67 -49 67q-46 0 -46 -46t46 -46q30 0 49 25zM33 516h103q0 -28 34 -28q57 0 57 75q-30 -19 -80 -19q-55 0 -88 32.5t-33 88.5q0 54 39.5 90.5t112.5 36.5q78 0 116 -49.5t38 -128.5q0 -206 -162 -206q-70 0 -103.5 30t-33.5 78z" />
    <glyph glyph-name="zeroinferior" unicode="&#x2080;" horiz-adv-x="378" 
d="M190 -26q33 0 45 26t12 86t-12 86t-45 26q-32 0 -44.5 -26t-12.5 -86t12.5 -86t44.5 -26zM190 278q162 0 162 -192t-162 -192q-163 0 -163 192t163 192z" />
    <glyph glyph-name="oneinferior" unicode="&#x2081;" horiz-adv-x="265" 
d="M222 -100h-103v281l-95 -34l-24 74l134 51h88v-372z" />
    <glyph glyph-name="twoinferior" unicode="&#x2082;" horiz-adv-x="331" 
d="M163 278q62 0 100.5 -33.5t38.5 -85.5q0 -55 -84 -137l-49 -45h132v-77h-268v65l118 115q46 43 46 79q0 39 -34 39q-39 0 -39 -50h-102q0 61 35 95.5t106 34.5z" />
    <glyph glyph-name="threeinferior" unicode="&#x2083;" horiz-adv-x="342" 
d="M245 88q32 -8 51 -32t19 -55q0 -48 -41 -77.5t-108 -29.5q-143 0 -143 111h102q0 -31 41 -31q18 0 30.5 8.5t12.5 24.5q0 42 -59 42h-40v77h40q53 0 53 39q0 33 -37 33q-36 0 -36 -28h-103q0 49 34.5 78.5t104.5 29.5q66 0 105 -29.5t39 -77.5q0 -29 -18 -52.5t-47 -30.5
z" />
    <glyph glyph-name="fourinferior" unicode="&#x2084;" horiz-adv-x="354" 
d="M330 42v-77h-37v-65h-102v65h-177v67l170 240h109v-230h37zM119 42h72v106z" />
    <glyph glyph-name="fiveinferior" unicode="&#x2085;" horiz-adv-x="335" 
d="M312 19q0 -57 -40 -91t-111 -34t-106.5 29t-35.5 80h102q0 -29 40 -29q45 0 45 45q0 19 -12.5 32t-33.5 13q-26 0 -43 -15l-80 14l27 209h228v-77h-146l-7 -58q18 6 44 6q54 0 91.5 -29.5t37.5 -94.5z" />
    <glyph glyph-name="sixinferior" unicode="&#x2086;" horiz-adv-x="359" 
d="M132 40q0 -66 50 -66q46 0 46 46t-46 46q-32 0 -50 -26zM189 198q-56 0 -56 -75q32 18 80 18q55 0 87.5 -32t32.5 -88q0 -55 -39 -91t-112 -36q-78 0 -116.5 49.5t-38.5 127.5q0 207 162 207q70 0 103.5 -30t33.5 -78h-102q0 28 -35 28z" />
    <glyph glyph-name="seveninferior" unicode="&#x2087;" horiz-adv-x="306" 
d="M37 -100l142 295h-162v77h278v-66l-148 -306h-110z" />
    <glyph glyph-name="eightinferior" unicode="&#x2088;" horiz-adv-x="362" 
d="M181 -106q-71 0 -112.5 28.5t-41.5 80.5q0 32 18.5 55t50.5 32q-62 21 -62 80q0 51 39 79.5t109 28.5t108 -28.5t38 -79.5q0 -59 -61 -80q69 -21 69 -87q0 -52 -41.5 -80.5t-113.5 -28.5zM181 51q-22 0 -35.5 -11t-13.5 -29q0 -17 15 -27t35 -10q19 0 33.5 10t14.5 27
q0 18 -13 29t-36 11zM181 198q-41 0 -41 -34q0 -36 41 -36q42 0 42 36q0 34 -42 34z" />
    <glyph glyph-name="nineinferior" unicode="&#x2089;" horiz-adv-x="358" 
d="M227 131q0 67 -49 67q-46 0 -46 -46t46 -46q30 0 49 25zM33 2h103q0 -28 34 -28q57 0 57 75q-30 -19 -80 -19q-55 0 -88 32.5t-33 88.5q0 54 39.5 90.5t112.5 36.5q78 0 116 -49.5t38 -128.5q0 -206 -162 -206q-70 0 -103.5 30t-33.5 78z" />
    <glyph glyph-name="rupee" unicode="&#x20a8;" horiz-adv-x="568" 
d="M40 676l497 1v-89h-119q25 -34 30 -79h89v-90h-90q-10 -50 -48.5 -87.5t-93.5 -53.5l158 -278h-173l-141 260h-109v115h105q69 0 100 8.5t46 35.5h-250v90h252q-14 30 -44 39.5t-99 9.5h-110v118z" />
    <glyph glyph-name="Euro" unicode="&#x20ac;" horiz-adv-x="562" 
d="M29 447h55q39 239 273 239q86 0 178 -38l-45 -124q-72 30 -137 30q-50 0 -77 -27t-38 -80h233l-30 -89h-211v-18q0 -19 1 -28h197l-29 -89h-154q34 -102 120 -102q67 0 129 35l35 -128q-78 -39 -172 -39q-228 0 -272 234h-56v89h46v46h-46v89z" />
    <glyph glyph-name="afii61289" unicode="&#x2113;" horiz-adv-x="375" 
d="M351 29q-47 -40 -119 -40q-55 0 -87 32.5t-32 95.5v99q-16 -16 -54 -45l-44 71q73 56 98 86v213q0 83 36 124.5t97 41.5q53 0 83 -34.5t30 -99.5q0 -74 -39 -141t-117 -140v-159q0 -26 12 -39.5t31 -13.5q35 0 75 28zM268 560q0 25 -10 36.5t-24 11.5q-31 0 -31 -48v-154
q65 70 65 154z" />
    <glyph glyph-name="uni2117" unicode="&#x2117;" horiz-adv-x="832" 
d="M33 333q0 162 109 269t274 107q166 0 274.5 -107t108.5 -269q0 -160 -108.5 -267.5t-274.5 -107.5q-164 0 -273.5 107.5t-109.5 267.5zM136 333q0 -123 78 -199.5t202 -76.5q125 0 203 76.5t78 199.5q0 124 -78 201t-203 77q-124 0 -202 -77t-78 -201zM282 520h162
q79 0 118.5 -34t39.5 -93q0 -123 -158 -123h-62v-127h-100v377zM497 395q0 45 -51 45h-64v-89h64q51 0 51 44z" />
    <glyph glyph-name="trademark" unicode="&#x2122;" horiz-adv-x="621" 
d="M37 607h217v-49h-78v-188h-64v188h-75v49zM428 438l35 169h88l21 -237h-62l-9 169l-39 -169h-71l-34 166l-12 -166h-62l21 237h90z" />
    <glyph glyph-name="Omega" unicode="&#x2126;" horiz-adv-x="740" 
d="M40 118h135q-127 109 -127 249q0 62 17.5 117t53.5 101.5t100 74t149 27.5q86 0 151 -27.5t101.5 -74t54 -101.5t17.5 -117q0 -138 -128 -249h136v-118h-289v118q50 42 85.5 105.5t35.5 131.5q0 91 -39.5 146.5t-124.5 55.5q-83 0 -121.5 -56t-38.5 -146
q0 -68 35.5 -131.5t85.5 -105.5v-118h-289v118z" />
    <glyph glyph-name="estimated" unicode="&#x212e;" horiz-adv-x="717" 
d="M691 338h-511v-230q74 -74 183 -74q80 0 139 36.5t106 115.5l45 -27q-59 -92 -125 -131.5t-165 -39.5q-146 0 -236.5 100t-90.5 250q0 151 90 250.5t237 99.5q146 0 236.5 -98t91.5 -252zM180 384h369v184q-81 75 -187 75q-107 0 -182 -75v-184z" />
    <glyph glyph-name="onethird" unicode="&#x2153;" horiz-adv-x="821" 
d="M719 188q32 -8 51 -32t19 -55q0 -48 -41 -77.5t-108 -29.5q-143 0 -143 111h102q0 -31 41 -31q18 0 30.5 8.5t12.5 24.5q0 42 -59 42h-40v77h40q53 0 53 39q0 33 -37 33q-36 0 -36 -28h-103q0 49 34.5 78.5t104.5 29.5q66 0 105 -29.5t39 -77.5q0 -29 -18 -52.5
t-47 -30.5zM647 676l-401 -676h-109l398 676h112zM245 304h-103v281l-95 -34l-24 74l134 51h88v-372z" />
    <glyph glyph-name="twothirds" unicode="&#x2154;" horiz-adv-x="857" 
d="M169 682q62 0 100.5 -33.5t38.5 -85.5q0 -55 -84 -137l-49 -45h132v-77h-268v65l118 115q46 43 46 79q0 39 -34 39q-39 0 -39 -50h-102q0 61 35 95.5t106 34.5zM761 188q32 -8 51 -32t19 -55q0 -48 -41 -77.5t-108 -29.5q-143 0 -143 111h102q0 -31 41 -31q18 0 30.5 8.5
t12.5 24.5q0 42 -59 42h-40v77h40q53 0 53 39q0 33 -37 33q-36 0 -36 -28h-103q0 49 34.5 78.5t104.5 29.5q66 0 105 -29.5t39 -77.5q0 -29 -18 -52.5t-47 -30.5zM689 676l-401 -676h-109l398 676h112z" />
    <glyph glyph-name="oneeighth" unicode="&#x215b;" horiz-adv-x="830" 
d="M644 -6q-71 0 -112.5 28.5t-41.5 80.5q0 32 18.5 55t50.5 32q-62 21 -62 80q0 51 39 79.5t109 28.5t108 -28.5t38 -79.5q0 -59 -61 -80q69 -21 69 -87q0 -52 -41.5 -80.5t-113.5 -28.5zM644 151q-22 0 -35.5 -11t-13.5 -29q0 -16 15 -26.5t35 -10.5q19 0 33.5 10.5
t14.5 26.5q0 18 -13 29t-36 11zM644 298q-41 0 -41 -34q0 -36 41 -36q42 0 42 36q0 34 -42 34zM647 676l-401 -676h-109l398 676h112zM245 304h-103v281l-95 -34l-24 74l134 51h88v-372z" />
    <glyph glyph-name="threeeighths" unicode="&#x215c;" horiz-adv-x="850" 
d="M251 492q32 -8 51 -32t19 -55q0 -48 -41 -77.5t-108 -29.5q-143 0 -143 111h102q0 -31 41 -31q18 0 30.5 8.5t12.5 24.5q0 42 -59 42h-40v77h40q53 0 53 39q0 33 -37 33q-36 0 -36 -28h-103q0 49 34.5 78.5t104.5 29.5q66 0 105 -29.5t39 -77.5q0 -29 -18 -52.5
t-47 -30.5zM672 676l-401 -676h-109l398 676h112zM669 -6q-71 0 -112.5 28.5t-41.5 80.5q0 32 18.5 55t50.5 32q-62 21 -62 80q0 51 39 79.5t109 28.5t108 -28.5t38 -79.5q0 -59 -61 -80q69 -21 69 -87q0 -52 -41.5 -80.5t-113.5 -28.5zM669 151q-22 0 -35.5 -11t-13.5 -29
q0 -16 15 -26.5t35 -10.5q19 0 33.5 10.5t14.5 26.5q0 18 -13 29t-36 11zM669 298q-41 0 -41 -34q0 -36 41 -36q42 0 42 36q0 34 -42 34z" />
    <glyph glyph-name="fiveeighths" unicode="&#x215d;" horiz-adv-x="842" 
d="M318 423q0 -57 -40 -91t-111 -34t-106.5 29t-35.5 80h102q0 -29 40 -29q45 0 45 45q0 19 -12.5 32t-33.5 13q-26 0 -43 -15l-80 14l27 209h228v-77h-146l-7 -58q18 6 44 6q54 0 91.5 -29.5t37.5 -94.5zM662 676l-401 -676h-109l398 676h112zM659 -6q-71 0 -112.5 28.5
t-41.5 80.5q0 32 18.5 55t50.5 32q-62 21 -62 80q0 51 39 79.5t109 28.5t108 -28.5t38 -79.5q0 -59 -61 -80q69 -21 69 -87q0 -52 -41.5 -80.5t-113.5 -28.5zM659 151q-22 0 -35.5 -11t-13.5 -29q0 -16 15 -26.5t35 -10.5q19 0 33.5 10.5t14.5 26.5q0 18 -13 29t-36 11z
M659 298q-41 0 -41 -34q0 -36 41 -36q42 0 42 36q0 34 -42 34z" />
    <glyph glyph-name="seveneighths" unicode="&#x215e;" horiz-adv-x="776" 
d="M47 304l142 295h-162v77h278v-66l-148 -306h-110zM595 -6q-71 0 -112.5 28.5t-41.5 80.5q0 32 18.5 55t50.5 32q-62 21 -62 80q0 51 39 79.5t109 28.5t108 -28.5t38 -79.5q0 -59 -61 -80q69 -21 69 -87q0 -52 -41.5 -80.5t-113.5 -28.5zM595 151q-22 0 -35.5 -11
t-13.5 -29q0 -16 15 -26.5t35 -10.5q19 0 33.5 10.5t14.5 26.5q0 18 -13 29t-36 11zM595 298q-41 0 -41 -34q0 -36 41 -36q42 0 42 36q0 34 -42 34zM598 676l-401 -676h-109l398 676h112z" />
    <glyph glyph-name="arrowleft" unicode="&#x2190;" horiz-adv-x="750" 
d="M49 291l297 296l77 -79l-158 -158h414v-119h-414l158 -158l-77 -78z" />
    <glyph glyph-name="arrowup" unicode="&#x2191;" horiz-adv-x="750" 
d="M375 637l296 -297l-79 -77l-158 158v-414h-119v414l-158 -158l-78 77z" />
    <glyph glyph-name="arrowright" unicode="&#x2192;" horiz-adv-x="750" 
d="M701 307l-297 -296l-77 79l158 158h-414v119h414l-158 158l77 78z" />
    <glyph glyph-name="arrowdown" unicode="&#x2193;" horiz-adv-x="750" 
d="M375 -39l-296 297l79 77l158 -158v414h119v-414l158 158l78 -77z" />
    <glyph glyph-name="uni2196" unicode="&#x2196;" horiz-adv-x="750" 
d="M150 535h419v-111h-224l293 -293l-84 -84l-293 293v-224h-111v419z" />
    <glyph glyph-name="uni2197" unicode="&#x2197;" horiz-adv-x="750" 
d="M599 535v-419h-111v224l-293 -293l-84 84l293 293h-224v111h419z" />
    <glyph glyph-name="uni2198" unicode="&#x2198;" horiz-adv-x="750" 
d="M599 63h-419v111h224l-293 293l84 84l293 -293v224h111v-419z" />
    <glyph glyph-name="uni2199" unicode="&#x2199;" horiz-adv-x="750" 
d="M150 63v419h111v-224l293 293l84 -84l-293 -293h224v-111h-419z" />
    <glyph glyph-name="partialdiff" unicode="&#x2202;" horiz-adv-x="527" 
d="M189 690h165q64 -64 102.5 -163t38.5 -213q0 -62 -13 -117.5t-39.5 -103.5t-74.5 -76t-112 -28q-112 0 -169.5 61.5t-57.5 169.5q0 103 53 165t140 62q92 0 135 -60q-2 68 -53 153t-115 150zM256 111q46 0 70.5 42.5t23.5 107.5q-31 53 -98 53q-41 0 -62.5 -27t-21.5 -74
q0 -46 22 -74t66 -28z" />
    <glyph glyph-name="Delta" unicode="&#x2206;" horiz-adv-x="714" 
d="M20 0l254 676h166l254 -676h-674zM491 118l-135 403l-134 -403h269z" />
    <glyph glyph-name="product" unicode="&#x220f;" horiz-adv-x="751" 
d="M29 676h693v-118h-65v-774h-147v775h-267v-775h-148v774h-66v118z" />
    <glyph glyph-name="summation" unicode="&#x2211;" horiz-adv-x="590" 
d="M557 -99v-118h-524v138l234 317l-234 299v139h524v-118h-378l248 -319l-248 -338h378z" />
    <glyph glyph-name="minus" unicode="&#x2212;" 
d="M28 211v120h503v-120h-503z" />
    <glyph glyph-name="uni2215" unicode="&#x2215;" horiz-adv-x="463" 
d="M487 676l-401 -676h-109l398 676h112z" />
    <glyph glyph-name="uni2219" unicode="&#x2219;" horiz-adv-x="261" 
d="M132 184q-42 0 -69.5 25.5t-27.5 64.5q0 41 27 67t70 26q40 0 67 -26.5t27 -66.5q0 -38 -27 -64t-67 -26z" />
    <glyph glyph-name="radical" unicode="&#x221a;" horiz-adv-x="621" 
d="M623 696l-245 -912h-149l-122 292l-68 -28l-41 93l194 81l99 -261l189 735h143z" />
    <glyph glyph-name="infinity" unicode="&#x221e;" horiz-adv-x="696" 
d="M662 265q0 -70 -43 -115.5t-107 -45.5q-102 0 -162 86q-37 -44 -73.5 -64.5t-89.5 -20.5q-63 0 -107.5 44t-44.5 113q0 68 43.5 113.5t106.5 45.5q97 0 165 -90q63 92 161 92q63 0 107 -44.5t44 -113.5zM555 262q0 27 -15 43t-42 16q-21 0 -43 -17.5t-37 -42.5
q41 -54 80 -54q26 0 41.5 15.5t15.5 39.5zM282 261q-38 60 -81 60q-26 0 -42.5 -17t-16.5 -42q0 -26 16 -41t42 -15q22 0 44.5 16t37.5 39z" />
    <glyph glyph-name="integral" unicode="&#x222b;" horiz-adv-x="376" 
d="M257 544v-621q0 -63 -43.5 -106t-130.5 -43q-38 0 -70 13v115q9 0 34 -1t38 -1q35 0 35 36v621q0 63 43 106t130 43q37 0 70 -13v-115q-9 0 -33.5 1t-38.5 1q-34 0 -34 -36z" />
    <glyph glyph-name="approxequal" unicode="&#x2248;" 
d="M501 449v-119q-51 -38 -108 -38q-47 0 -117 30.5t-111 30.5q-44 0 -105 -37v119q66 38 117 38q43 0 110 -30.5t112 -30.5q52 0 102 37zM501 224v-119q-53 -38 -108 -38q-48 0 -116.5 30.5t-109.5 30.5q-53 0 -107 -33v119q59 34 117 34q43 0 111 -30.5t113 -30.5
q50 0 100 37z" />
    <glyph glyph-name="notequal" unicode="&#x2260;" 
d="M59 449h229l22 91l68 -15l-18 -76h142v-120h-171l-28 -118h199v-120h-228l-23 -98l-67 14l20 84h-145v120h173l28 118h-201v120z" />
    <glyph glyph-name="lessequal" unicode="&#x2264;" 
d="M55 355v146l443 156v-127l-326 -103l326 -102v-127zM56 20v113h442v-113h-442z" />
    <glyph glyph-name="greaterequal" unicode="&#x2265;" 
d="M56 20v113h442v-113h-442zM508 501v-146l-443 -157v127l326 102l-326 103v127z" />
    <glyph glyph-name="lozenge" unicode="&#x25ca;" horiz-adv-x="617" 
d="M436 356l-127 205l-132 -205l132 -221zM595 356l-221 -356h-134l-219 356l219 340h134z" />
    <glyph glyph-name="circle" unicode="&#x25cb;" horiz-adv-x="749" 
d="M34 337q0 152 94 250.5t245 98.5q153 0 247.5 -98t94.5 -251q0 -151 -94.5 -249.5t-247.5 -98.5q-151 0 -245 98.5t-94 249.5zM129 337q0 -116 65.5 -186t178.5 -70q114 0 180 70t66 186t-66 186.5t-180 70.5q-113 0 -178.5 -70.5t-65.5 -186.5z" />
    <glyph glyph-name="commaaccent" unicode="&#xf6c3;" horiz-adv-x="600" 
d="M387 -60l-70 -156h-105l26 156h149z" />
    <glyph glyph-name="uniF8FF" unicode="&#xf8ff;" horiz-adv-x="566" 
d="M76 0v656h413v-656h-413zM114 38h337v580h-337v-580z" />
    <glyph glyph-name="exclam.sc" horiz-adv-x="242" 
d="M176 180h-110l-22 327h155zM121 -4q-35 0 -57.5 20t-22.5 51t23 51.5t57 20.5q33 0 55.5 -20.5t22.5 -51.5t-22.5 -51t-55.5 -20z" />
    <glyph glyph-name="numbersign.sc" horiz-adv-x="555" 
d="M102 106h-78l21 110h76l12 73h-77l18 110h76l18 108h124l-20 -108h57l18 108h124l-17 -108h78l-20 -110h-77l-11 -73h78l-19 -110h-78l-18 -106h-125l19 106h-54l-19 -106h-125zM255 289l-11 -73h56l12 73h-57z" />
    <glyph glyph-name="dollar.sc" horiz-adv-x="461" 
d="M267 -77h-53v69q-76 3 -123.5 29t-68.5 60l93 80q32 -49 99 -54v87l-34 9q-133 40 -133 150q0 63 40 107.5t127 52.5v56h53v-55q106 -5 163 -75l-93 -76q-26 28 -70 35v-88l30 -8q136 -41 136 -147q0 -70 -46 -110.5t-120 -49.5v-72zM189 362q0 -26 25 -37v72
q-25 -9 -25 -35zM292 143q0 22 -25 35v-67q25 8 25 32z" />
    <glyph glyph-name="percent.sc" horiz-adv-x="726" 
d="M573 507l-323 -507h-99l321 507h101zM567 64q25 0 33 17.5t8 61.5q0 43 -8 60.5t-33 17.5q-23 0 -32 -18t-9 -60q0 -43 9 -61t32 -18zM567 290q136 0 136 -147q0 -148 -136 -148t-136 148q0 147 136 147zM159 286q25 0 33 17.5t8 60.5q0 44 -8 61.5t-33 17.5
q-23 0 -32 -18t-9 -61q0 -42 9 -60t32 -18zM159 512q136 0 136 -148q0 -147 -136 -147t-136 147q0 148 136 148z" />
    <glyph glyph-name="ampersand.sc" horiz-adv-x="543" 
d="M412 276l90 -63l-59 -70l-17 -20l112 -115v-8h-141l-45 48q-72 -56 -161 -56q-75 0 -118.5 35t-43.5 96q0 48 30.5 82t81.5 66l-9 9t-11 11.5t-10.5 12t-11 13.5t-9 14t-8 16t-4.5 16t-2 18q0 57 44.5 95.5t119.5 38.5q69 0 113.5 -39t44.5 -95q0 -63 -94 -131l45 -47
q4 6 7 9zM199 95q37 0 78 33l-61 64l-9 -5q-4 -3 -12.5 -8.5t-12 -8.5t-10 -7.5t-9.5 -8t-6 -7.5t-4.5 -8.5t-1.5 -9.5q0 -34 48 -34zM197 381q0 -25 33 -55q47 32 47 55q0 14 -11 23t-29 9t-29 -8.5t-11 -23.5z" />
    <glyph glyph-name="section.sc" horiz-adv-x="470" 
d="M432 218q0 -53 -38 -83q39 -28 39 -80q0 -58 -47 -99t-157 -41q-143 0 -192 69l64 78q53 -51 137 -51q52 0 52 21q0 16 -53 30l-65 17q-68 20 -99 51t-31 76q0 56 38 89q-40 30 -40 79q0 53 49 97t150 44q48 0 84.5 -9.5t53.5 -20t38 -28.5l-70 -81q-46 40 -120 40
q-44 0 -44 -20q0 -12 50 -26l70 -20q131 -38 131 -132zM179 254q-3 -10 -3 -18q0 -18 17.5 -28.5t61.5 -21.5l41 -10q2 8 2 16q0 36 -61 49z" />
    <glyph glyph-name="paragraph.sc" horiz-adv-x="487" 
d="M188 342h104v-321h-113v79q-74 0 -111 31.5t-37 86.5q0 124 157 124zM344 -170l-76 71q58 53 58 82v359h114v-330q0 -119 -96 -182z" />
    <glyph glyph-name="parenleft.sc" horiz-adv-x="279" 
d="M254 -129l-95 -38q-127 156 -127 348q0 94 32 175.5t95 171.5l97 -37q-87 -174 -87 -310q0 -154 85 -310z" />
    <glyph glyph-name="slash.sc" horiz-adv-x="339" 
d="M319 507v-10l-168 -497h-130v11l165 496h133z" />
    <glyph glyph-name="parenright.sc" horiz-adv-x="278" 
d="M25 -129q85 156 85 310q0 136 -87 310l97 37q63 -90 94.5 -171t31.5 -176q0 -191 -126 -348z" />
    <glyph glyph-name="bracketleft.sc" horiz-adv-x="315" 
d="M50 522h235v-103h-98v-478h98v-103h-235v684z" />
    <glyph glyph-name="backslash.sc" horiz-adv-x="348" 
d="M20 497v10h133l175 -496v-11h-131z" />
    <glyph glyph-name="bracketright.sc" horiz-adv-x="314" 
d="M30 522h234v-684h-234v103h98v478h-98v103z" />
    <glyph glyph-name="braceleft.sc" horiz-adv-x="305" 
d="M231 397v-122q0 -86 -80 -97q80 -9 80 -94v-126q0 -27 35 -27v-93q-89 0 -130 25.5t-41 84.5v122q0 61 -80 61v93q80 0 80 67v116q0 59 41 85t130 26v-93q-35 0 -35 -28z" />
    <glyph glyph-name="bar.sc" horiz-adv-x="174" 
d="M124 -162h-74v684h74v-684z" />
    <glyph glyph-name="braceright.sc" horiz-adv-x="305" 
d="M74 275v122q0 28 -35 28v93q89 0 130 -26t41 -85v-116q0 -67 80 -67v-93q-80 0 -80 -61v-122q0 -59 -41 -84.5t-130 -25.5v93q35 0 35 27v126q0 85 79 94q-38 5 -58.5 27t-20.5 70z" />
    <glyph glyph-name="zero.sc" horiz-adv-x="510" 
d="M255 103q44 0 60.5 35t16.5 116t-16.5 115.5t-60.5 34.5t-60.5 -35t-16.5 -115q0 -81 16.5 -116t60.5 -35zM255 515q219 0 219 -261q0 -262 -219 -262t-219 262q0 123 53 192t166 69z" />
    <glyph glyph-name="one.sc" horiz-adv-x="360" 
d="M302 0h-139v380l-128 -45l-33 102l183 70h117v-507z" />
    <glyph glyph-name="two.sc" horiz-adv-x="448" 
d="M220 515q84 0 136 -45t52 -117q0 -47 -30 -91.5t-83 -95.5l-66 -59h178v-107h-362v90l159 156q62 57 62 107q0 51 -46 51q-52 0 -52 -66h-138q0 83 47.5 130t142.5 47z" />
    <glyph glyph-name="three.sc" horiz-adv-x="463" 
d="M331 256q42 -10 68.5 -43t26.5 -76q0 -65 -55.5 -105t-144.5 -40q-99 0 -146.5 40t-47.5 112h138q0 -41 56 -41q25 0 41.5 11t16.5 32q0 56 -80 56h-54v108h54q38 0 55 12t17 39q0 43 -50 43q-49 0 -49 -37h-139q0 68 46.5 108t141.5 40q88 0 140.5 -40t52.5 -106
q0 -39 -24.5 -71.5t-63.5 -41.5z" />
    <glyph glyph-name="four.sc" horiz-adv-x="479" 
d="M446 195v-107h-50v-88h-138v88h-238v94l230 325h146v-312h50zM161 195h97v140z" />
    <glyph glyph-name="five.sc" horiz-adv-x="450" 
d="M420 163q0 -76 -54 -123.5t-150 -47.5q-95 0 -143.5 39.5t-48.5 108.5h137q0 -37 54 -37q61 0 61 61q0 25 -16 41t-46 16q-35 0 -58 -19l-107 20l36 285h307v-107h-196l-10 -76q21 8 59 8q73 0 124 -40.5t51 -128.5z" />
    <glyph glyph-name="six.sc" horiz-adv-x="482" 
d="M177 191q0 -88 67 -88q62 0 62 61q0 60 -62 60q-42 0 -67 -33zM301 367q0 37 -48 37q-76 0 -76 -99q41 24 109 24q74 0 118 -43.5t44 -119.5q0 -75 -52.5 -124.5t-151.5 -49.5q-105 0 -157 67.5t-52 174.5q0 128 52 204.5t166 76.5q94 0 139.5 -41t45.5 -107h-137z" />
    <glyph glyph-name="seven.sc" horiz-adv-x="414" 
d="M51 0l191 400h-218v107h374v-91l-199 -416h-148z" />
    <glyph glyph-name="eight.sc" horiz-adv-x="489" 
d="M244 -8q-96 0 -152.5 39.5t-56.5 109.5q0 44 25.5 74.5t68.5 43.5q-39 14 -61 42.5t-22 65.5q0 70 52 109t147 39q94 0 145.5 -39t51.5 -109q0 -37 -22 -65.5t-60 -42.5q42 -13 67.5 -43.5t25.5 -74.5q0 -71 -56 -110t-153 -39zM244 404q-26 0 -41 -11.5t-15 -32.5
q0 -49 56 -49t56 49q0 44 -56 44zM244 103q31 0 48.5 12.5t17.5 35.5q0 54 -66 54t-66 -54q0 -22 17.5 -35t48.5 -13z" />
    <glyph glyph-name="nine.sc" horiz-adv-x="483" 
d="M307 315q0 42 -17 65.5t-50 23.5q-63 0 -63 -61q0 -28 16 -44t47 -16q41 0 67 32zM45 140h138q0 -37 47 -37q76 0 76 99q-39 -25 -108 -25q-74 0 -118.5 44t-44.5 120q0 75 53 124.5t152 49.5q105 0 156.5 -67.5t51.5 -174.5q0 -128 -51.5 -204.5t-166.5 -76.5
q-94 0 -139.5 41t-45.5 107z" />
    <glyph glyph-name="question.sc" horiz-adv-x="382" 
d="M177 -4q-35 0 -57 20t-22 51t22 51.5t57 20.5q34 0 56.5 -20.5t22.5 -51.5t-22.5 -51t-56.5 -20zM182 515q84 0 130 -40t46 -103q0 -34 -18.5 -63t-40 -45.5t-40 -38.5t-18.5 -45h-132q0 37 18.5 67.5t41.5 47t41.5 36t18.5 36.5q0 34 -38 34q-24 0 -34 -9.5t-10 -18.5
l-124 15q0 53 39.5 90t119.5 37z" />
    <glyph glyph-name="a.sc" horiz-adv-x="533" 
d="M383 0l-31 94h-171l-30 -94h-150l185 507h161l186 -507h-150zM267 366l-52 -162h104z" />
    <glyph glyph-name="b.sc" horiz-adv-x="514" 
d="M57 0v507h205q193 0 193 -139q0 -68 -72 -99q43 -11 72 -43t29 -78q0 -80 -57.5 -114t-164.5 -34h-205zM199 110h64q73 0 73 49q0 47 -74 47h-63v-96zM199 316h48q34 0 48 9.5t14 29.5q0 42 -63 42h-47v-81z" />
    <glyph glyph-name="c.sc" horiz-adv-x="505" 
d="M181 253q0 -146 109 -146q51 0 85 56l107 -66q-63 -105 -197 -105q-122 0 -186.5 68t-64.5 194t64.5 193.5t186.5 67.5q134 0 197 -105l-107 -65q-35 56 -85 56q-109 0 -109 -148z" />
    <glyph glyph-name="d.sc" horiz-adv-x="558" 
d="M57 0v507h188q141 0 210 -62t69 -191q0 -130 -69.5 -192t-209.5 -62h-188zM199 110h36q79 0 110.5 30.5t31.5 113.5q0 80 -32 111.5t-110 31.5h-36v-287z" />
    <glyph glyph-name="e.sc" horiz-adv-x="473" 
d="M200 110h237v-110h-380v507h377v-110h-234v-91h196v-111h-196v-85z" />
    <glyph glyph-name="f.sc" horiz-adv-x="446" 
d="M57 0v507h358v-110h-215v-103h178v-111h-178v-183h-143z" />
    <glyph glyph-name="g.sc" horiz-adv-x="552" 
d="M286 172v110h236q5 -40 5 -63q0 -97 -60.5 -162t-175.5 -65q-120 0 -189 66.5t-69 196.5q0 134 71.5 197t198.5 63q64 0 115.5 -26.5t75.5 -73.5l-105 -65q-35 51 -93 51q-116 0 -116 -146q0 -86 27.5 -117t83.5 -31q43 0 67.5 18.5t24.5 46.5h-97z" />
    <glyph glyph-name="h.sc" horiz-adv-x="586" 
d="M387 314v193h142v-507h-142v203h-187v-203h-143v507h143v-193h187z" />
    <glyph glyph-name="i.sc" horiz-adv-x="257" 
d="M57 0v507h143v-507h-143z" />
    <glyph glyph-name="j.sc" horiz-adv-x="409" 
d="M11 84l99 61q16 -38 57 -38q30 0 43 15.5t13 47.5v337h134v-350q0 -76 -50 -120.5t-140 -44.5q-115 0 -156 92z" />
    <glyph glyph-name="k.sc" horiz-adv-x="535" 
d="M253 200l-53 -53v-147h-143v507h143v-188l165 188h164l-182 -209l181 -298h-161z" />
    <glyph glyph-name="l.sc" horiz-adv-x="416" 
d="M200 110h200v-110h-343v507h143v-397z" />
    <glyph glyph-name="m.sc" horiz-adv-x="713" 
d="M357 165l87 342h186l46 -507h-130l-23 348l-91 -348h-155l-80 341l-32 -341h-132l57 507h187z" />
    <glyph glyph-name="n.sc" horiz-adv-x="577" 
d="M379 227v280h141v-507h-143l-177 288l1 -288h-145l1 507h150z" />
    <glyph glyph-name="o.sc" horiz-adv-x="554" 
d="M181 253q0 -72 20 -109t76 -37q54 0 75.5 38t21.5 108q0 148 -95 148q-98 0 -98 -148zM520 253q0 -117 -59.5 -189t-183.5 -72q-125 0 -184 71.5t-59 189.5q0 119 59 190.5t186 71.5q125 0 183 -71.5t58 -190.5z" />
    <glyph glyph-name="p.sc" horiz-adv-x="502" 
d="M265 169h-65v-169h-143v507h208q100 0 154.5 -43t54.5 -127q0 -83 -54.5 -125.5t-154.5 -42.5zM200 397v-118h54q73 0 73 58q0 60 -73 60h-54z" />
    <glyph glyph-name="q.sc" horiz-adv-x="554" 
d="M520 253q0 -81 -28 -140l49 -40l-74 -81l-46 38q-57 -38 -144 -38q-125 0 -184 71.5t-59 189.5q0 119 59 190.5t186 71.5q125 0 183 -71.5t58 -190.5zM181 253q0 -72 20 -109t76 -37q24 0 43 8l-103 87l71 77l84 -69q2 28 2 43q0 148 -95 148q-98 0 -98 -148z" />
    <glyph glyph-name="r.sc" horiz-adv-x="520" 
d="M57 0v507h223q207 0 207 -159q0 -55 -28.5 -94.5t-84.5 -52.5l120 -201h-157l-104 188h-33l1 -188h-144zM340 348q0 24 -16.5 36.5t-59.5 12.5h-64v-99h64q44 0 60 12t16 38z" />
    <glyph glyph-name="s.sc" horiz-adv-x="460" 
d="M426 439l-93 -76q-33 38 -91 38q-24 0 -37.5 -11t-13.5 -28q0 -30 36 -41l66 -19q136 -41 136 -147q0 -79 -58.5 -121t-147.5 -42q-81 0 -132 26.5t-73 62.5l93 80q37 -54 112 -54q28 0 43.5 10t15.5 26q0 29 -41 41l-65 19q-75 23 -103.5 61t-28.5 89q0 69 47.5 115.5
t150.5 46.5q123 0 184 -76z" />
    <glyph glyph-name="t.sc" horiz-adv-x="469" 
d="M27 507h415v-110h-136v-397h-143v397h-136v110z" />
    <glyph glyph-name="u.sc" horiz-adv-x="543" 
d="M272 -7q-103 0 -162 51.5t-59 154.5v308h143v-303q0 -48 17.5 -72t60.5 -24t60 24t17 72v303h143v-308q0 -102 -59.5 -154t-160.5 -52z" />
    <glyph glyph-name="v.sc" horiz-adv-x="520" 
d="M365 507h148l-162 -507h-183l-160 507h146l107 -367z" />
    <glyph glyph-name="w.sc" horiz-adv-x="816" 
d="M328 507h160l90 -356l77 356h144l-128 -507h-174l-89 321l-90 -321h-172l-129 507h144l78 -356z" />
    <glyph glyph-name="x.sc" horiz-adv-x="519" 
d="M10 507h158l91 -159l92 159h157l-156 -246l157 -261h-158l-92 163l-91 -163h-158l156 261z" />
    <glyph glyph-name="y.sc" horiz-adv-x="505" 
d="M324 0h-143v191l-182 316h154l101 -194l97 194h156l-183 -316v-191z" />
    <glyph glyph-name="z.sc" horiz-adv-x="453" 
d="M409 507v-97l-210 -300h221v-110h-387v94l212 303h-203v110h367z" />
    <glyph glyph-name="agrave.sc" horiz-adv-x="533" 
d="M383 0l-31 94h-171l-30 -94h-150l185 507h161l186 -507h-150zM267 366l-52 -162h104zM121 726h132l72 -167h-117z" />
    <glyph glyph-name="aacute.sc" horiz-adv-x="533" 
d="M383 0l-31 94h-171l-30 -94h-150l185 507h161l186 -507h-150zM267 366l-52 -162h104zM280 726h132l-87 -167h-117z" />
    <glyph glyph-name="acircumflex.sc" horiz-adv-x="533" 
d="M383 0l-31 94h-171l-30 -94h-150l185 507h161l186 -507h-150zM267 366l-52 -162h104zM197 726h140l100 -169h-124l-46 83l-46 -83h-124z" />
    <glyph glyph-name="atilde.sc" horiz-adv-x="533" 
d="M383 0l-31 94h-171l-30 -94h-150l185 507h161l186 -507h-150zM267 366l-52 -162h104zM422 692v-103q-45 25 -79 25q-27 0 -77.5 -21.5t-81.5 -21.5q-43 0 -72 21v103q26 -25 72 -25q23 0 71 21t88 21q41 0 79 -20z" />
    <glyph glyph-name="adieresis.sc" horiz-adv-x="533" 
d="M383 0l-31 94h-171l-30 -94h-150l185 507h161l186 -507h-150zM267 366l-52 -162h104zM168 556q-78 0 -78 74q0 38 21 57t57 19q32 0 54.5 -19.5t22.5 -56.5q0 -38 -22 -56t-55 -18zM368 556q-78 0 -78 74q0 38 21 57t57 19q32 0 54.5 -19.5t22.5 -56.5q0 -38 -22 -56
t-55 -18z" />
    <glyph glyph-name="amacron.sc" horiz-adv-x="533" 
d="M383 0l-31 94h-171l-30 -94h-150l185 507h161l186 -507h-150zM267 366l-52 -162h104zM115 676h305v-105h-305v105z" />
    <glyph glyph-name="abreve.sc" horiz-adv-x="533" 
d="M383 0l-31 94h-171l-30 -94h-150l185 507h161l186 -507h-150zM267 366l-52 -162h104zM339 710h90q0 -69 -42.5 -114t-121.5 -45q-76 0 -117.5 45t-41.5 114h87q6 -26 26 -42.5t46 -16.5q28 0 48 16.5t26 42.5z" />
    <glyph glyph-name="aring.sc" horiz-adv-x="533" 
d="M383 0l-31 94h-171l-30 -94h-150l185 507h161l186 -507h-150zM267 366l-52 -162h104zM155 647q0 43 28.5 73.5t81.5 30.5q56 0 85.5 -30.5t29.5 -73.5q0 -40 -30 -71t-85 -31q-52 0 -81 31t-29 71zM230 647q0 -13 9 -23t26 -10q19 0 28.5 10t9.5 23q0 14 -9.5 24.5
t-28.5 10.5q-17 0 -26 -10.5t-9 -24.5z" />
    <glyph glyph-name="aringacute.sc" horiz-adv-x="533" 
d="M153 647q0 64 55 91l53 91h132l-67 -95q50 -29 50 -87q0 -40 -30 -70t-84 -30q-51 0 -80 30t-29 70zM225 647q0 -14 9.5 -24.5t27.5 -10.5q20 0 30 10.5t10 24.5q0 15 -10 26.5t-30 11.5q-18 0 -27.5 -11.5t-9.5 -26.5zM383 0l-31 94h-171l-30 -94h-150l185 507h161
l186 -507h-150zM267 366l-52 -162h104z" />
    <glyph glyph-name="aogonek.sc" horiz-adv-x="531" 
d="M532 0l-66 -46q-30 -21 -30 -38q0 -11 8 -17t18 -6q31 0 70 27v-112q-51 -24 -113 -24q-59 0 -93 25.5t-34 73.5q0 58 68 112l19 15l-28 84h-171l-30 -94h-150l185 507h161zM266 366l-52 -162h104z" />
    <glyph glyph-name="ae.sc" horiz-adv-x="803" 
d="M530 110h237v-110h-380v94h-163l-62 -94h-168l353 507h417v-110h-234v-91h196v-111h-196v-85zM298 204h89v133z" />
    <glyph glyph-name="aeacute.sc" horiz-adv-x="803" 
d="M548 726h132l-87 -167h-117zM530 110h237v-110h-380v94h-163l-62 -94h-168l353 507h417v-110h-234v-91h196v-111h-196v-85zM298 204h89v133z" />
    <glyph glyph-name="cacute.sc" horiz-adv-x="505" 
d="M181 253q0 -146 109 -146q51 0 85 56l107 -66q-63 -105 -197 -105q-122 0 -186.5 68t-64.5 194t64.5 193.5t186.5 67.5q134 0 197 -105l-107 -65q-35 56 -85 56q-109 0 -109 -148zM281 726h132l-87 -167h-117z" />
    <glyph glyph-name="ccircumflex.sc" horiz-adv-x="505" 
d="M181 253q0 -146 109 -146q51 0 85 56l107 -66q-63 -105 -197 -105q-122 0 -186.5 68t-64.5 194t64.5 193.5t186.5 67.5q134 0 197 -105l-107 -65q-35 56 -85 56q-109 0 -109 -148zM203 726h140l100 -169h-124l-46 83l-46 -83h-124z" />
    <glyph glyph-name="ccaron.sc" horiz-adv-x="505" 
d="M181 253q0 -146 109 -146q51 0 85 56l107 -66q-63 -105 -197 -105q-122 0 -186.5 68t-64.5 194t64.5 193.5t186.5 67.5q134 0 197 -105l-107 -65q-35 56 -85 56q-109 0 -109 -148zM343 557h-140l-100 169h124l46 -83l46 83h124z" />
    <glyph glyph-name="cdotaccent.sc" horiz-adv-x="505" 
d="M181 253q0 -146 109 -146q51 0 85 56l107 -66q-63 -105 -197 -105q-122 0 -186.5 68t-64.5 194t64.5 193.5t186.5 67.5q134 0 197 -105l-107 -65q-35 56 -85 56q-109 0 -109 -148zM274 556q-78 0 -78 74q0 38 21 57t57 19q32 0 54.5 -19.5t22.5 -56.5q0 -38 -22 -56
t-55 -18z" />
    <glyph glyph-name="ccedilla.sc" horiz-adv-x="505" 
d="M181 253q0 -146 109 -146q51 0 85 56l107 -66q-54 -91 -161 -103l-15 -37q98 0 98 -81q0 -45 -33.5 -68.5t-87.5 -23.5q-56 0 -104 23v84q42 -32 91 -32q28 0 28 17t-37 17h-49l-7 8l35 94q-101 11 -153.5 78t-52.5 181q0 126 64.5 193.5t186.5 67.5q134 0 197 -105
l-107 -65q-35 56 -85 56q-109 0 -109 -148z" />
    <glyph glyph-name="dcaron.sc" horiz-adv-x="558" 
d="M57 0v507h188q141 0 210 -62t69 -191q0 -130 -69.5 -192t-209.5 -62h-188zM199 110h36q79 0 110.5 30.5t31.5 113.5q0 80 -32 111.5t-110 31.5h-36v-287zM332 557h-140l-100 169h124l46 -83l46 83h124z" />
    <glyph glyph-name="dcroat.sc" horiz-adv-x="568" 
d="M16 304h51v203h188q141 0 210 -62t69 -191q0 -130 -69.5 -192t-209.5 -62h-188v214h-51v90zM209 110h36q79 0 110.5 30.5t31.5 113.5q0 80 -32 111.5t-110 31.5h-36v-93h82v-90h-82v-104z" />
    <glyph glyph-name="eth.sc" horiz-adv-x="568" 
d="M16 304h51v203h188q141 0 210 -62t69 -191q0 -130 -69.5 -192t-209.5 -62h-188v214h-51v90zM209 110h36q79 0 110.5 30.5t31.5 113.5q0 80 -32 111.5t-110 31.5h-36v-93h82v-90h-82v-104z" />
    <glyph glyph-name="egrave.sc" horiz-adv-x="472" 
d="M200 110h237v-110h-380v507h377v-110h-234v-91h196v-111h-196v-85zM106 726h132l72 -167h-117z" />
    <glyph glyph-name="eacute.sc" horiz-adv-x="472" 
d="M200 110h237v-110h-380v507h377v-110h-234v-91h196v-111h-196v-85zM257 726h132l-87 -167h-117z" />
    <glyph glyph-name="ecircumflex.sc" horiz-adv-x="472" 
d="M200 110h237v-110h-380v507h377v-110h-234v-91h196v-111h-196v-85zM176 726h140l100 -169h-124l-46 83l-46 -83h-124z" />
    <glyph glyph-name="ecaron.sc" horiz-adv-x="472" 
d="M200 110h237v-110h-380v507h377v-110h-234v-91h196v-111h-196v-85zM316 557h-140l-100 169h124l46 -83l46 83h124z" />
    <glyph glyph-name="edieresis.sc" horiz-adv-x="472" 
d="M200 110h237v-110h-380v507h377v-110h-234v-91h196v-111h-196v-85zM147 556q-78 0 -78 74q0 38 21 57t57 19q32 0 54.5 -19.5t22.5 -56.5q0 -38 -22 -56t-55 -18zM347 556q-78 0 -78 74q0 38 21 57t57 19q32 0 54.5 -19.5t22.5 -56.5q0 -38 -22 -56t-55 -18z" />
    <glyph glyph-name="emacron.sc" horiz-adv-x="472" 
d="M200 110h237v-110h-380v507h377v-110h-234v-91h196v-111h-196v-85zM94 676h305v-105h-305v105z" />
    <glyph glyph-name="ebreve.sc" horiz-adv-x="472" 
d="M200 110h237v-110h-380v507h377v-110h-234v-91h196v-111h-196v-85zM318 710h90q0 -69 -42.5 -114t-121.5 -45q-76 0 -117.5 45t-41.5 114h87q6 -26 26 -42.5t46 -16.5q28 0 48 16.5t26 42.5z" />
    <glyph glyph-name="edotaccent.sc" horiz-adv-x="472" 
d="M200 110h237v-110h-380v507h377v-110h-234v-91h196v-111h-196v-85zM247 556q-78 0 -78 74q0 38 21 57t57 19q32 0 54.5 -19.5t22.5 -56.5q0 -38 -22 -56t-55 -18z" />
    <glyph glyph-name="eogonek.sc" horiz-adv-x="472" 
d="M199 110h237v-110l-66 -46q-30 -21 -30 -38q0 -11 8 -17t18 -6q31 0 70 27v-112q-51 -24 -113 -24q-59 0 -93 25.5t-34 73.5q0 58 68 112l6 5h-214v507h377v-110h-234v-91h196v-111h-196v-85z" />
    <glyph glyph-name="gcircumflex.sc" horiz-adv-x="552" 
d="M286 172v110h236q5 -40 5 -63q0 -97 -60.5 -162t-175.5 -65q-120 0 -189 66.5t-69 196.5q0 134 71.5 197t198.5 63q64 0 115.5 -26.5t75.5 -73.5l-105 -65q-35 51 -93 51q-116 0 -116 -146q0 -86 27.5 -117t83.5 -31q43 0 67.5 18.5t24.5 46.5h-97zM215 726h140l100 -169
h-124l-46 83l-46 -83h-124z" />
    <glyph glyph-name="gbreve.sc" horiz-adv-x="552" 
d="M286 172v110h236q5 -40 5 -63q0 -97 -60.5 -162t-175.5 -65q-120 0 -189 66.5t-69 196.5q0 134 71.5 197t198.5 63q64 0 115.5 -26.5t75.5 -73.5l-105 -65q-35 51 -93 51q-116 0 -116 -146q0 -86 27.5 -117t83.5 -31q43 0 67.5 18.5t24.5 46.5h-97zM357 710h90
q0 -69 -42.5 -114t-121.5 -45q-76 0 -117.5 45t-41.5 114h87q6 -26 26 -42.5t46 -16.5q28 0 48 16.5t26 42.5z" />
    <glyph glyph-name="gdotaccent.sc" horiz-adv-x="552" 
d="M286 172v110h236q5 -40 5 -63q0 -97 -60.5 -162t-175.5 -65q-120 0 -189 66.5t-69 196.5q0 134 71.5 197t198.5 63q64 0 115.5 -26.5t75.5 -73.5l-105 -65q-35 51 -93 51q-116 0 -116 -146q0 -86 27.5 -117t83.5 -31q43 0 67.5 18.5t24.5 46.5h-97zM286 556q-78 0 -78 74
q0 38 21 57t57 19q32 0 54.5 -19.5t22.5 -56.5q0 -38 -22 -56t-55 -18z" />
    <glyph glyph-name="gcommaaccent.sc" horiz-adv-x="552" 
d="M286 172v110h236q5 -40 5 -63q0 -97 -60.5 -162t-175.5 -65q-120 0 -189 66.5t-69 196.5q0 134 71.5 197t198.5 63q64 0 115.5 -26.5t75.5 -73.5l-105 -65q-35 51 -93 51q-116 0 -116 -146q0 -86 27.5 -117t83.5 -31q43 0 67.5 18.5t24.5 46.5h-97zM366 -60l-70 -156
h-105l26 156h149z" />
    <glyph glyph-name="hcircumflex.sc" horiz-adv-x="586" 
d="M387 314v193h142v-507h-142v203h-187v-203h-143v507h143v-193h187zM222 726h140l100 -169h-124l-46 83l-46 -83h-124z" />
    <glyph glyph-name="hbar.sc" horiz-adv-x="587" 
d="M29 454h28v53h143v-53h187v53h142v-53h35v-90h-35v-364h-142v203h-187v-203h-143v364h-28v90zM387 314v50h-187v-50h187z" />
    <glyph glyph-name="igrave.sc" horiz-adv-x="257" 
d="M57 0v507h143v-507h-143zM-16 726h132l72 -167h-117z" />
    <glyph glyph-name="iacute.sc" horiz-adv-x="257" 
d="M57 0v507h143v-507h-143zM143 726h132l-87 -167h-117z" />
    <glyph glyph-name="ibreve.sc" horiz-adv-x="257" 
d="M57 0v507h143v-507h-143zM200 710h90q0 -69 -42.5 -114t-121.5 -45q-76 0 -117.5 45t-41.5 114h87q6 -26 26 -42.5t46 -16.5q28 0 48 16.5t26 42.5z" />
    <glyph glyph-name="icircumflex.sc" horiz-adv-x="257" 
d="M57 0v507h143v-507h-143zM58 726h140l100 -169h-124l-46 83l-46 -83h-124z" />
    <glyph glyph-name="itilde.sc" horiz-adv-x="257" 
d="M57 0v507h143v-507h-143zM283 692v-103q-45 25 -79 25q-27 0 -77.5 -21.5t-81.5 -21.5q-43 0 -72 21v103q26 -25 72 -25q23 0 71 21t88 21q41 0 79 -20z" />
    <glyph glyph-name="idieresis.sc" horiz-adv-x="257" 
d="M57 0v507h143v-507h-143zM29 556q-78 0 -78 74q0 38 21 57t57 19q32 0 54.5 -19.5t22.5 -56.5q0 -38 -22 -56t-55 -18zM229 556q-78 0 -78 74q0 38 21 57t57 19q32 0 54.5 -19.5t22.5 -56.5q0 -38 -22 -56t-55 -18z" />
    <glyph glyph-name="imacron.sc" horiz-adv-x="257" 
d="M57 0v507h143v-507h-143zM-24 676h305v-105h-305v105z" />
    <glyph glyph-name="idotaccent.sc" horiz-adv-x="257" 
d="M57 0v507h143v-507h-143zM129 556q-78 0 -78 74q0 38 21 57t57 19q32 0 54.5 -19.5t22.5 -56.5q0 -38 -22 -56t-55 -18z" />
    <glyph glyph-name="iogonek.sc" horiz-adv-x="256" 
d="M200 0l-66 -46q-30 -21 -30 -38q0 -11 8 -17t18 -6q31 0 70 27v-112q-51 -24 -113 -24q-59 0 -93 25.5t-34 73.5q0 58 68 112l29 23v489h143v-507z" />
    <glyph glyph-name="jcircumflex.sc" horiz-adv-x="410" 
d="M11 84l99 61q16 -38 57 -38q30 0 43 15.5t13 47.5v337h134v-350q0 -76 -50 -120.5t-140 -44.5q-115 0 -156 92zM222 726h140l100 -169h-124l-46 83l-46 -83h-124z" />
    <glyph glyph-name="kcommaaccent.sc" horiz-adv-x="535" 
d="M253 200l-53 -53v-147h-143v507h143v-188l165 188h164l-182 -209l181 -298h-161zM343 -60l-70 -156h-105l26 156h149z" />
    <glyph glyph-name="lacute.sc" horiz-adv-x="416" 
d="M200 110h200v-110h-343v507h143v-397zM144 726h132l-87 -167h-117z" />
    <glyph glyph-name="lcaron.sc" horiz-adv-x="488" 
d="M200 110h200v-110h-343v507h143v-397zM486 507l-68 -175h-98l25 175h141z" />
    <glyph glyph-name="lcommaaccent.sc" horiz-adv-x="416" 
d="M200 110h200v-110h-343v507h143v-397zM298 -60l-70 -156h-105l26 156h149z" />
    <glyph glyph-name="lslash.sc" horiz-adv-x="422" 
d="M206 110h200v-110h-343v169l-45 -20v107l45 20v231h143v-168l62 27v-107l-62 -27v-122z" />
    <glyph glyph-name="ldot.sc" horiz-adv-x="462" 
d="M200 110h200v-110h-343v507h143v-397zM354 230q-78 0 -78 74q0 38 21 57t57 19q32 0 54.5 -19.5t22.5 -56.5q0 -38 -22 -56t-55 -18z" />
    <glyph glyph-name="nacute.sc" horiz-adv-x="577" 
d="M379 227v280h141v-507h-143l-177 288l1 -288h-145l1 507h150zM301 726h132l-87 -167h-117z" />
    <glyph glyph-name="ncaron.sc" horiz-adv-x="577" 
d="M379 227v280h141v-507h-143l-177 288l1 -288h-145l1 507h150zM358 557h-140l-100 169h124l46 -83l46 83h124z" />
    <glyph glyph-name="ntilde.sc" horiz-adv-x="577" 
d="M379 227v280h141v-507h-143l-177 288l1 -288h-145l1 507h150zM443 692v-103q-45 25 -79 25q-27 0 -77.5 -21.5t-81.5 -21.5q-43 0 -72 21v103q26 -25 72 -25q23 0 71 21t88 21q41 0 79 -20z" />
    <glyph glyph-name="ncommaaccent.sc" horiz-adv-x="577" 
d="M379 227v280h141v-507h-143l-177 288l1 -288h-145l1 507h150zM365 -60l-70 -156h-105l26 156h149z" />
    <glyph glyph-name="ograve.sc" horiz-adv-x="554" 
d="M181 253q0 -72 20 -109t76 -37q54 0 75.5 38t21.5 108q0 148 -95 148q-98 0 -98 -148zM520 253q0 -117 -59.5 -189t-183.5 -72q-125 0 -184 71.5t-59 189.5q0 119 59 190.5t186 71.5q125 0 183 -71.5t58 -190.5zM137 726h132l72 -167h-117z" />
    <glyph glyph-name="oacute.sc" horiz-adv-x="554" 
d="M181 253q0 -72 20 -109t76 -37q54 0 75.5 38t21.5 108q0 148 -95 148q-98 0 -98 -148zM520 253q0 -117 -59.5 -189t-183.5 -72q-125 0 -184 71.5t-59 189.5q0 119 59 190.5t186 71.5q125 0 183 -71.5t58 -190.5zM288 726h132l-87 -167h-117z" />
    <glyph glyph-name="ocircumflex.sc" horiz-adv-x="554" 
d="M181 253q0 -72 20 -109t76 -37q54 0 75.5 38t21.5 108q0 148 -95 148q-98 0 -98 -148zM520 253q0 -117 -59.5 -189t-183.5 -72q-125 0 -184 71.5t-59 189.5q0 119 59 190.5t186 71.5q125 0 183 -71.5t58 -190.5zM207 726h140l100 -169h-124l-46 83l-46 -83h-124z" />
    <glyph glyph-name="otilde.sc" horiz-adv-x="554" 
d="M181 253q0 -72 20 -109t76 -37q54 0 75.5 38t21.5 108q0 148 -95 148q-98 0 -98 -148zM520 253q0 -117 -59.5 -189t-183.5 -72q-125 0 -184 71.5t-59 189.5q0 119 59 190.5t186 71.5q125 0 183 -71.5t58 -190.5zM432 692v-103q-45 25 -79 25q-27 0 -77.5 -21.5
t-81.5 -21.5q-43 0 -72 21v103q26 -25 72 -25q23 0 71 21t88 21q41 0 79 -20z" />
    <glyph glyph-name="odieresis.sc" horiz-adv-x="554" 
d="M181 253q0 -72 20 -109t76 -37q54 0 75.5 38t21.5 108q0 148 -95 148q-98 0 -98 -148zM520 253q0 -117 -59.5 -189t-183.5 -72q-125 0 -184 71.5t-59 189.5q0 119 59 190.5t186 71.5q125 0 183 -71.5t58 -190.5zM178 556q-78 0 -78 74q0 38 21 57t57 19q32 0 54.5 -19.5
t22.5 -56.5q0 -38 -22 -56t-55 -18zM378 556q-78 0 -78 74q0 38 21 57t57 19q32 0 54.5 -19.5t22.5 -56.5q0 -38 -22 -56t-55 -18z" />
    <glyph glyph-name="omacron.sc" horiz-adv-x="554" 
d="M181 253q0 -72 20 -109t76 -37q54 0 75.5 38t21.5 108q0 148 -95 148q-98 0 -98 -148zM520 253q0 -117 -59.5 -189t-183.5 -72q-125 0 -184 71.5t-59 189.5q0 119 59 190.5t186 71.5q125 0 183 -71.5t58 -190.5zM125 676h305v-105h-305v105z" />
    <glyph glyph-name="obreve.sc" horiz-adv-x="554" 
d="M181 253q0 -72 20 -109t76 -37q54 0 75.5 38t21.5 108q0 148 -95 148q-98 0 -98 -148zM520 253q0 -117 -59.5 -189t-183.5 -72q-125 0 -184 71.5t-59 189.5q0 119 59 190.5t186 71.5q125 0 183 -71.5t58 -190.5zM349 710h90q0 -69 -42.5 -114t-121.5 -45q-76 0 -117.5 45
t-41.5 114h87q6 -26 26 -42.5t46 -16.5q28 0 48 16.5t26 42.5z" />
    <glyph glyph-name="ohungarumlaut.sc" horiz-adv-x="554" 
d="M181 253q0 -72 20 -109t76 -37q54 0 75.5 38t21.5 108q0 148 -95 148q-98 0 -98 -148zM520 253q0 -117 -59.5 -189t-183.5 -72q-125 0 -184 71.5t-59 189.5q0 119 59 190.5t186 71.5q125 0 183 -71.5t58 -190.5zM192 726h132l-87 -167h-117zM382 726h132l-87 -167h-117z
" />
    <glyph glyph-name="oslash.sc" horiz-adv-x="554" 
d="M520 253q0 -117 -59.5 -189t-183.5 -72q-76 0 -129 28l-15 -20h-102l55 72q-52 68 -52 181q0 119 59 190.5t186 71.5q70 0 124 -26l14 18h105l-54 -71q52 -68 52 -183zM374 253q0 22 -4 56l-145 -190q19 -12 52 -12q54 0 75.5 38t21.5 108zM181 253q0 -28 3 -52l143 188
q-19 12 -48 12q-98 0 -98 -148z" />
    <glyph glyph-name="oslashacute.sc" horiz-adv-x="554" 
d="M285 726h132l-87 -167h-117zM520 253q0 -117 -59.5 -189t-183.5 -72q-76 0 -129 28l-15 -20h-102l55 72q-52 68 -52 181q0 119 59 190.5t186 71.5q70 0 124 -26l14 18h105l-54 -71q52 -68 52 -183zM374 253q0 22 -4 56l-145 -190q19 -12 52 -12q54 0 75.5 38t21.5 108z
M181 253q0 -28 3 -52l143 188q-19 12 -48 12q-98 0 -98 -148z" />
    <glyph glyph-name="oe.sc" horiz-adv-x="742" 
d="M470 110h237v-110h-354q-37 -8 -76 -8q-125 0 -184 71.5t-59 189.5q0 119 59 190.5t186 71.5q38 0 73 -8h352v-110h-234v-91h196v-111h-196v-85zM277 107q34 0 50 5v282q-23 7 -48 7q-98 0 -98 -148q0 -72 20 -109t76 -37z" />
    <glyph glyph-name="racute.sc" horiz-adv-x="519" 
d="M57 0v507h223q207 0 207 -159q0 -55 -28.5 -94.5t-84.5 -52.5l120 -201h-157l-104 188h-33l1 -188h-144zM340 348q0 24 -16.5 36.5t-59.5 12.5h-64v-99h64q44 0 60 12t16 38zM252 726h132l-87 -167h-117z" />
    <glyph glyph-name="rcaron.sc" horiz-adv-x="519" 
d="M57 0v507h223q207 0 207 -159q0 -55 -28.5 -94.5t-84.5 -52.5l120 -201h-157l-104 188h-33l1 -188h-144zM340 348q0 24 -16.5 36.5t-59.5 12.5h-64v-99h64q44 0 60 12t16 38zM310 557h-140l-100 169h124l46 -83l46 83h124z" />
    <glyph glyph-name="rcommaaccent.sc" horiz-adv-x="519" 
d="M57 0v507h223q207 0 207 -159q0 -55 -28.5 -94.5t-84.5 -52.5l120 -201h-157l-104 188h-33l1 -188h-144zM340 348q0 24 -16.5 36.5t-59.5 12.5h-64v-99h64q44 0 60 12t16 38zM331 -60l-70 -156h-105l26 156h149z" />
    <glyph glyph-name="sacute.sc" horiz-adv-x="460" 
d="M426 439l-93 -76q-33 38 -91 38q-24 0 -37.5 -11t-13.5 -28q0 -30 36 -41l66 -19q136 -41 136 -147q0 -79 -58.5 -121t-147.5 -42q-81 0 -132 26.5t-73 62.5l93 80q37 -54 112 -54q28 0 43.5 10t15.5 26q0 29 -41 41l-65 19q-75 23 -103.5 61t-28.5 89q0 69 47.5 115.5
t150.5 46.5q123 0 184 -76zM251 726h132l-87 -167h-117z" />
    <glyph glyph-name="scircumflex.sc" horiz-adv-x="460" 
d="M426 439l-93 -76q-33 38 -91 38q-24 0 -37.5 -11t-13.5 -28q0 -30 36 -41l66 -19q136 -41 136 -147q0 -79 -58.5 -121t-147.5 -42q-81 0 -132 26.5t-73 62.5l93 80q37 -54 112 -54q28 0 43.5 10t15.5 26q0 29 -41 41l-65 19q-75 23 -103.5 61t-28.5 89q0 69 47.5 115.5
t150.5 46.5q123 0 184 -76zM162 726h140l100 -169h-124l-46 83l-46 -83h-124z" />
    <glyph glyph-name="scaron.sc" horiz-adv-x="460" 
d="M426 439l-93 -76q-33 38 -91 38q-24 0 -37.5 -11t-13.5 -28q0 -30 36 -41l66 -19q136 -41 136 -147q0 -79 -58.5 -121t-147.5 -42q-81 0 -132 26.5t-73 62.5l93 80q37 -54 112 -54q28 0 43.5 10t15.5 26q0 29 -41 41l-65 19q-75 23 -103.5 61t-28.5 89q0 69 47.5 115.5
t150.5 46.5q123 0 184 -76zM302 557h-140l-100 169h124l46 -83l46 83h124z" />
    <glyph glyph-name="scedilla.sc" horiz-adv-x="460" 
d="M426 439l-93 -76q-33 38 -91 38q-24 0 -37.5 -11t-13.5 -28q0 -30 36 -41l66 -19q136 -41 136 -147q0 -68 -44 -109t-116 -51l-16 -38q98 0 98 -81q0 -45 -33.5 -68.5t-87.5 -23.5q-56 0 -104 23v84q42 -32 91 -32q28 0 28 17t-37 17h-49l-7 8l35 93q-66 5 -108 30.5
t-61 56.5l93 80q37 -54 112 -54q28 0 43.5 10t15.5 26q0 29 -41 41l-65 19q-75 23 -103.5 61t-28.5 89q0 69 47.5 115.5t150.5 46.5q123 0 184 -76z" />
    <glyph glyph-name="scommaaccent.sc" horiz-adv-x="460" 
d="M426 439l-93 -76q-33 38 -91 38q-24 0 -37.5 -11t-13.5 -28q0 -30 36 -41l66 -19q136 -41 136 -147q0 -79 -58.5 -121t-147.5 -42q-81 0 -132 26.5t-73 62.5l93 80q37 -54 112 -54q28 0 43.5 10t15.5 26q0 29 -41 41l-65 19q-75 23 -103.5 61t-28.5 89q0 69 47.5 115.5
t150.5 46.5q123 0 184 -76zM320 -60l-70 -156h-105l26 156h149z" />
    <glyph glyph-name="tcaron.sc" horiz-adv-x="469" 
d="M27 507h415v-110h-136v-397h-143v397h-136v110zM304 557h-140l-100 169h124l46 -83l46 83h124z" />
    <glyph glyph-name="tcommaaccent.sc" horiz-adv-x="469" 
d="M27 507h415v-110h-136v-397h-31l-18 -43q98 0 98 -81q0 -45 -33.5 -68.5t-87.5 -23.5q-56 0 -104 23v84q42 -32 91 -32q28 0 28 17t-37 17h-49l-7 8l37 99h-30v397h-136v110z" />
    <glyph glyph-name="uni021A.sc" horiz-adv-x="468" 
d="M307 -60l-70 -156h-105l26 156h149zM27 507h415v-110h-136v-397h-143v397h-136v110z" />
    <glyph glyph-name="tbar.sc" horiz-adv-x="471" 
d="M99 281h65v116h-136v110h415v-110h-136v-116h67v-90h-67v-191h-143v191h-65v90z" />
    <glyph glyph-name="thorn.sc" horiz-adv-x="497" 
d="M265 84h-65v-84h-143v507h143v-85h65q100 0 154.5 -43t54.5 -127q0 -83 -54.5 -125.5t-154.5 -42.5zM200 312v-118h54q73 0 73 58q0 60 -73 60h-54z" />
    <glyph glyph-name="ugrave.sc" horiz-adv-x="543" 
d="M272 -7q-103 0 -162 51.5t-59 154.5v308h143v-303q0 -48 17.5 -72t60.5 -24t60 24t17 72v303h143v-308q0 -102 -59.5 -154t-160.5 -52zM130 726h132l72 -167h-117z" />
    <glyph glyph-name="uacute.sc" horiz-adv-x="543" 
d="M272 -7q-103 0 -162 51.5t-59 154.5v308h143v-303q0 -48 17.5 -72t60.5 -24t60 24t17 72v303h143v-308q0 -102 -59.5 -154t-160.5 -52zM283 726h132l-87 -167h-117z" />
    <glyph glyph-name="ucircumflex.sc" horiz-adv-x="543" 
d="M272 -7q-103 0 -162 51.5t-59 154.5v308h143v-303q0 -48 17.5 -72t60.5 -24t60 24t17 72v303h143v-308q0 -102 -59.5 -154t-160.5 -52zM201 726h140l100 -169h-124l-46 83l-46 -83h-124z" />
    <glyph glyph-name="utilde.sc" horiz-adv-x="543" 
d="M272 -7q-103 0 -162 51.5t-59 154.5v308h143v-303q0 -48 17.5 -72t60.5 -24t60 24t17 72v303h143v-308q0 -102 -59.5 -154t-160.5 -52zM426 692v-103q-45 25 -79 25q-27 0 -77.5 -21.5t-81.5 -21.5q-43 0 -72 21v103q26 -25 72 -25q23 0 71 21t88 21q41 0 79 -20z" />
    <glyph glyph-name="udieresis.sc" horiz-adv-x="543" 
d="M272 -7q-103 0 -162 51.5t-59 154.5v308h143v-303q0 -48 17.5 -72t60.5 -24t60 24t17 72v303h143v-308q0 -102 -59.5 -154t-160.5 -52zM172 556q-78 0 -78 74q0 38 21 57t57 19q32 0 54.5 -19.5t22.5 -56.5q0 -38 -22 -56t-55 -18zM372 556q-78 0 -78 74q0 38 21 57
t57 19q32 0 54.5 -19.5t22.5 -56.5q0 -38 -22 -56t-55 -18z" />
    <glyph glyph-name="umacron.sc" horiz-adv-x="543" 
d="M272 -7q-103 0 -162 51.5t-59 154.5v308h143v-303q0 -48 17.5 -72t60.5 -24t60 24t17 72v303h143v-308q0 -102 -59.5 -154t-160.5 -52zM119 676h305v-105h-305v105z" />
    <glyph glyph-name="ubreve.sc" horiz-adv-x="543" 
d="M272 -7q-103 0 -162 51.5t-59 154.5v308h143v-303q0 -48 17.5 -72t60.5 -24t60 24t17 72v303h143v-308q0 -102 -59.5 -154t-160.5 -52zM343 710h90q0 -69 -42.5 -114t-121.5 -45q-76 0 -117.5 45t-41.5 114h87q6 -26 26 -42.5t46 -16.5q28 0 48 16.5t26 42.5z" />
    <glyph glyph-name="uring.sc" horiz-adv-x="543" 
d="M272 -7q-103 0 -162 51.5t-59 154.5v308h143v-303q0 -48 17.5 -72t60.5 -24t60 24t17 72v303h143v-308q0 -102 -59.5 -154t-160.5 -52zM159 647q0 43 28.5 73.5t81.5 30.5q56 0 85.5 -30.5t29.5 -73.5q0 -40 -30 -71t-85 -31q-52 0 -81 31t-29 71zM234 647q0 -13 9 -23
t26 -10q19 0 28.5 10t9.5 23q0 14 -9.5 24.5t-28.5 10.5q-17 0 -26 -10.5t-9 -24.5z" />
    <glyph glyph-name="uhungarumlaut.sc" horiz-adv-x="543" 
d="M272 -7q-103 0 -162 51.5t-59 154.5v308h143v-303q0 -48 17.5 -72t60.5 -24t60 24t17 72v303h143v-308q0 -102 -59.5 -154t-160.5 -52zM190 726h132l-87 -167h-117zM380 726h132l-87 -167h-117z" />
    <glyph glyph-name="uogonek.sc" horiz-adv-x="543" 
d="M377 11l-66 -46q-30 -21 -30 -38q0 -11 8 -17t18 -6q31 0 70 27v-112q-51 -24 -113 -24q-59 0 -93 25.5t-34 73.5q0 56 61 107q-70 16 -108.5 66t-38.5 132v308h143v-303q0 -48 17.5 -72t60.5 -24t60 24t17 72v303h143v-308q0 -143 -115 -188z" />
    <glyph glyph-name="wacute.sc" horiz-adv-x="816" 
d="M328 507h160l90 -356l77 356h144l-128 -507h-174l-89 321l-90 -321h-172l-129 507h144l78 -356zM422 726h132l-87 -167h-117z" />
    <glyph glyph-name="wcircumflex.sc" horiz-adv-x="816" 
d="M328 507h160l90 -356l77 356h144l-128 -507h-174l-89 321l-90 -321h-172l-129 507h144l78 -356zM338 726h140l100 -169h-124l-46 83l-46 -83h-124z" />
    <glyph glyph-name="wdieresis.sc" horiz-adv-x="816" 
d="M328 507h160l90 -356l77 356h144l-128 -507h-174l-89 321l-90 -321h-172l-129 507h144l78 -356zM309 556q-78 0 -78 74q0 38 21 57t57 19q32 0 54.5 -19.5t22.5 -56.5q0 -38 -22 -56t-55 -18zM509 556q-78 0 -78 74q0 38 21 57t57 19q32 0 54.5 -19.5t22.5 -56.5
q0 -38 -22 -56t-55 -18z" />
    <glyph glyph-name="wgrave.sc" horiz-adv-x="816" 
d="M328 507h160l90 -356l77 356h144l-128 -507h-174l-89 321l-90 -321h-172l-129 507h144l78 -356zM262 726h132l72 -167h-117z" />
    <glyph glyph-name="yacute.sc" horiz-adv-x="504" 
d="M324 0h-143v191l-182 316h154l101 -194l97 194h156l-183 -316v-191zM266 726h132l-87 -167h-117z" />
    <glyph glyph-name="ycircumflex.sc" horiz-adv-x="504" 
d="M324 0h-143v191l-182 316h154l101 -194l97 194h156l-183 -316v-191zM184 726h140l100 -169h-124l-46 83l-46 -83h-124z" />
    <glyph glyph-name="ydieresis.sc" horiz-adv-x="504" 
d="M324 0h-143v191l-182 316h154l101 -194l97 194h156l-183 -316v-191zM155 556q-78 0 -78 74q0 38 21 57t57 19q32 0 54.5 -19.5t22.5 -56.5q0 -38 -22 -56t-55 -18zM355 556q-78 0 -78 74q0 38 21 57t57 19q32 0 54.5 -19.5t22.5 -56.5q0 -38 -22 -56t-55 -18z" />
    <glyph glyph-name="ygrave.sc" horiz-adv-x="504" 
d="M324 0h-143v191l-182 316h154l101 -194l97 194h156l-183 -316v-191zM113 726h132l72 -167h-117z" />
    <glyph glyph-name="zacute.sc" horiz-adv-x="452" 
d="M409 507v-97l-210 -300h221v-110h-387v94l212 303h-203v110h367zM235 726h132l-87 -167h-117z" />
    <glyph glyph-name="zcaron.sc" horiz-adv-x="452" 
d="M409 507v-97l-210 -300h221v-110h-387v94l212 303h-203v110h367zM295 557h-140l-100 169h124l46 -83l46 83h124z" />
    <glyph glyph-name="zdotaccent.sc" horiz-adv-x="452" 
d="M409 507v-97l-210 -300h221v-110h-387v94l212 303h-203v110h367zM226 556q-78 0 -78 74q0 38 21 57t57 19q32 0 54.5 -19.5t22.5 -56.5q0 -38 -22 -56t-55 -18z" />
    <glyph glyph-name="ij.sc" horiz-adv-x="669" 
d="M55 0v507h143v-507h-143zM270 84l99 61q16 -38 57 -38q30 0 43 15.5t13 47.5v337h134v-350q0 -76 -50 -120.5t-140 -44.5q-115 0 -156 92z" />
    <glyph glyph-name="germandbls.sc" horiz-adv-x="935" 
d="M901 439l-93 -76q-33 38 -91 38q-24 0 -37.5 -11t-13.5 -28q0 -30 36 -41l66 -19q136 -41 136 -147q0 -79 -58.5 -121t-147.5 -42q-81 0 -132 26.5t-73 62.5l93 80q37 -54 112 -54q28 0 43.5 10t15.5 26q0 29 -41 41l-65 19q-75 23 -103.5 61t-28.5 89q0 69 47.5 115.5
t150.5 46.5q123 0 184 -76zM426 439l-93 -76q-33 38 -91 38q-24 0 -37.5 -11t-13.5 -28q0 -30 36 -41l66 -19q136 -41 136 -147q0 -79 -58.5 -121t-147.5 -42q-81 0 -132 26.5t-73 62.5l93 80q37 -54 112 -54q28 0 43.5 10t15.5 26q0 29 -41 41l-65 19q-75 23 -103.5 61
t-28.5 89q0 69 47.5 115.5t150.5 46.5q123 0 184 -76z" />
    <glyph glyph-name="fi.sc" horiz-adv-x="704" 
d="M57 0v507h358v-110h-215v-103h178v-111h-178v-183h-143zM504 0v507h143v-507h-143z" />
    <glyph glyph-name="fl.sc" horiz-adv-x="863" 
d="M57 0v507h358v-110h-215v-103h178v-111h-178v-183h-143zM647 110h200v-110h-343v507h143v-397z" />
    <glyph glyph-name="eng.sc" horiz-adv-x="575" 
d="M378 227v280h141v-497q0 -108 -107 -179l-97 86q56 38 62 84l-178 287q0 -48 0.5 -144t0.5 -144h-145q0 84 0.5 253t0.5 254h150z" />
    <glyph glyph-name="grave.sc" horiz-adv-x="600" 
d="M198 726h132l72 -167h-117z" />
    <glyph glyph-name="acute.sc" horiz-adv-x="600" 
d="M270 726h132l-87 -167h-117z" />
    <glyph glyph-name="circumflex.sc" horiz-adv-x="600" 
d="M230 726h140l100 -169h-124l-46 83l-46 -83h-124z" />
    <glyph glyph-name="caron.sc" horiz-adv-x="600" 
d="M370 557h-140l-100 169h124l46 -83l46 83h124z" />
    <glyph glyph-name="caronalt.sc" horiz-adv-x="600" 
d="M383 507l-68 -175h-98l25 175h141z" />
    <glyph glyph-name="tilde.sc" horiz-adv-x="600" 
d="M455 692v-103q-45 25 -79 25q-27 0 -77.5 -21.5t-81.5 -21.5q-43 0 -72 21v103q26 -25 72 -25q23 0 71 21t88 21q41 0 79 -20z" />
    <glyph glyph-name="dieresis.sc" horiz-adv-x="600" 
d="M200 556q-78 0 -78 74q0 38 21 57t57 19q32 0 54.5 -19.5t22.5 -56.5q0 -38 -22 -56t-55 -18zM400 556q-78 0 -78 74q0 38 21 57t57 19q32 0 54.5 -19.5t22.5 -56.5q0 -38 -22 -56t-55 -18z" />
    <glyph glyph-name="macron.sc" horiz-adv-x="600" 
d="M147 676h305v-105h-305v105z" />
    <glyph glyph-name="breve.sc" horiz-adv-x="600" 
d="M371 710h90q0 -69 -42.5 -114t-121.5 -45q-76 0 -117.5 45t-41.5 114h87q6 -26 26 -42.5t46 -16.5q28 0 48 16.5t26 42.5z" />
    <glyph glyph-name="ring.sc" horiz-adv-x="600" 
d="M187 647q0 43 28.5 73.5t81.5 30.5q56 0 85.5 -30.5t29.5 -73.5q0 -40 -30 -71t-85 -31q-52 0 -81 31t-29 71zM262 647q0 -13 9 -23t26 -10q19 0 28.5 10t9.5 23q0 14 -9.5 24.5t-28.5 10.5q-17 0 -26 -10.5t-9 -24.5z" />
    <glyph glyph-name="hungarumlaut.sc" horiz-adv-x="600" 
d="M175 726h132l-87 -167h-117zM365 726h132l-87 -167h-117z" />
    <glyph glyph-name="dotaccent.sc" horiz-adv-x="600" 
d="M300 556q-78 0 -78 74q0 38 21 57t57 19q32 0 54.5 -19.5t22.5 -56.5q0 -38 -22 -56t-55 -18z" />
    <glyph glyph-name="exclamdown.sc" horiz-adv-x="242" 
d="M66 327h110l22 -327h-155zM121 511q35 0 57.5 -20t22.5 -51t-23 -51.5t-57 -20.5q-33 0 -55.5 20.5t-22.5 51.5t22.5 51t55.5 20z" />
    <glyph glyph-name="questiondown.sc" horiz-adv-x="382" 
d="M205 511q35 0 57 -20t22 -51t-22 -51.5t-57 -20.5q-34 0 -56.5 20.5t-22.5 51.5t22.5 51t56.5 20zM200 -8q-84 0 -130 40t-46 103q0 34 18.5 63t40 45.5t40 38.5t18.5 45h132q0 -37 -18.5 -67.5t-41.5 -47t-41.5 -36t-18.5 -36.5q0 -34 38 -34q24 0 34 9.5t10 18.5
l124 -15q0 -53 -39.5 -90t-119.5 -37z" />
    <glyph glyph-name="Euro.sc" horiz-adv-x="468" 
d="M29 340h44q32 175 226 175q67 0 145 -27l-41 -110q-62 20 -108 20q-64 0 -81 -58h182l-26 -76h-163v-9q0 -11 1 -16h156l-26 -76h-117q11 -26 34.5 -40.5t50.5 -14.5q50 0 99 23l32 -113q-62 -26 -138 -26q-188 0 -225 171h-45v76h36v25h-36v76z" />
    <glyph glyph-name="cent.sc" horiz-adv-x="401" 
d="M32 171q0 77 43.5 128t133.5 51q3 0 11 -0.5t11 -0.5l15 56l59 -12l-15 -57q55 -23 78 -70l-81 -62q-11 18 -25 27l-35 -135q41 5 61 42l80 -63q-40 -83 -159 -83h-9l-12 -48l-59 12l12 46q-56 18 -82.5 63.5t-26.5 105.5zM157 171q0 -33 14 -53l33 125q-47 -11 -47 -72z
" />
    <glyph glyph-name="sterling.sc" horiz-adv-x="474" 
d="M32 261h47v69q0 80 45 132.5t144 52.5q42 0 78 -12.5t56 -26.5t51 -42l-83 -86q-28 25 -48 36.5t-48 11.5q-60 0 -60 -64v-71h116v-76h-116v-81h194v-104h-330l1 185h-47v76z" />
    <glyph glyph-name="florin.sc" horiz-adv-x="330" 
d="M217 237v-296q0 -45 -33.5 -78t-90.5 -33q-54 0 -85 12v106q19 -6 50 -6q33 0 33 30v265h-63v105h63v73q0 45 34.5 77.5t97.5 32.5q47 0 76 -11v-105q-27 5 -50 5q-32 0 -32 -29v-43h70v-105h-70z" />
    <glyph glyph-name="yen.sc" horiz-adv-x="522" 
d="M40 239h125l-10 24h-115v77h73l-86 167h152l80 -186l81 186h153l-88 -167h77v-77h-120l-11 -24h131v-77h-156v-162h-136v162h-150v77z" />
    <glyph glyph-name="rupee.sc" horiz-adv-x="497" 
d="M39 507h428v-82h-100q17 -27 22 -49h78v-61h-79q-11 -85 -86 -114l120 -201h-158l-104 182h-121v108h81q69 0 90.5 4t24.5 21h-196v61h196q-4 15 -18.5 19.5t-55.5 4.5h-122v107z" />
    <glyph glyph-name="perthousand.sc" horiz-adv-x="1024" 
d="M573 507l-323 -507h-99l321 507h101zM567 64q25 0 33 17.5t8 61.5q0 43 -8 60.5t-33 17.5q-23 0 -32 -18t-9 -60q0 -43 9 -61t32 -18zM567 290q136 0 136 -147q0 -148 -136 -148t-136 148q0 147 136 147zM159 286q25 0 33 17.5t8 60.5q0 44 -8 61.5t-33 17.5
q-23 0 -32 -18t-9 -61q0 -42 9 -60t32 -18zM159 512q136 0 136 -148q0 -147 -136 -147t-136 147q0 148 136 148zM866 64q24 0 32.5 17.5t8.5 61.5q0 43 -8.5 60.5t-32.5 17.5t-32.5 -17.5t-8.5 -60.5q0 -44 8.5 -61.5t32.5 -17.5zM866 290q135 0 135 -147q0 -148 -135 -148
q-137 0 -137 148q0 147 137 147z" />
    <glyph glyph-name="zero.tf" 
d="M280 115q55 0 75 52.5t20 170.5t-20 170.5t-75 52.5t-75.5 -52.5t-20.5 -170.5t20.5 -170.5t75.5 -52.5zM280 687q250 0 250 -349t-250 -349q-251 0 -251 349t251 349z" />
    <glyph glyph-name="one.tf" 
d="M66 0v125h159v400l-143 -56l-39 119l204 88h133v-551h136v-125h-450z" />
    <glyph glyph-name="two.tf" 
d="M276 687q101 0 163.5 -59t62.5 -152q0 -63 -36 -120.5t-102 -127.5l-100 -106h240v-122h-441v103l201 215q83 88 83 158q0 38 -18 61.5t-53 23.5q-77 0 -77 -101h-150q0 105 57 166t170 61z" />
    <glyph glyph-name="three.tf" 
d="M394 343q53 -12 87.5 -56.5t34.5 -104.5q0 -86 -66.5 -139.5t-175.5 -53.5q-118 0 -176.5 52.5t-58.5 142.5h150q0 -33 22.5 -51t62.5 -18q38 0 62.5 20t24.5 56q0 91 -112 91h-66v122h66q102 0 102 83q0 35 -20.5 54.5t-56.5 19.5t-56 -17.5t-20 -48.5h-151
q0 86 56.5 139t170.5 53q106 0 169.5 -53t63.5 -139q0 -55 -31.5 -97.5t-81.5 -54.5z" />
    <glyph glyph-name="four.tf" 
d="M535 248v-122h-70v-126h-150v126h-301v107l292 443h159v-428h70zM169 248h146v232z" />
    <glyph glyph-name="five.tf" 
d="M516 217q0 -100 -64.5 -164t-180.5 -64t-174.5 53.5t-58.5 142.5h150q0 -34 22 -52t60 -18q90 0 90 103q0 43 -23.5 69t-66.5 26q-47 0 -83 -30l-118 21l44 372h372v-122h-251l-15 -133q40 18 84 18q89 0 151 -54t62 -168z" />
    <glyph glyph-name="six.tf" 
d="M188 258q0 -64 25 -103.5t73 -39.5q45 0 68 27t23 75q0 46 -23 72.5t-68 26.5q-64 0 -98 -58zM369 495q0 31 -19.5 48.5t-53.5 17.5q-108 0 -108 -171q54 46 141 46q93 0 148 -58.5t55 -158.5q0 -99 -63.5 -164.5t-182.5 -65.5q-128 0 -190.5 89.5t-62.5 234.5
q0 83 14.5 149t45 117.5t82 79.5t121.5 28q112 0 167.5 -53.5t55.5 -138.5h-150z" />
    <glyph glyph-name="seven.tf" 
d="M102 0l239 554h-282v122h451v-104l-246 -572h-162z" />
    <glyph glyph-name="eight.tf" 
d="M280 -11q-116 0 -184 52t-68 145q0 61 33 102.5t87 57.5q-49 18 -78 56t-29 91q0 91 63.5 142.5t176.5 51.5t175.5 -51.5t62.5 -142.5q0 -53 -28.5 -91t-77.5 -56q53 -16 86 -57t33 -103q0 -93 -68 -145t-184 -52zM280 561q-39 0 -61.5 -20t-22.5 -56q0 -39 23.5 -59
t60.5 -20q38 0 61 19.5t23 59.5q0 36 -22.5 56t-61.5 20zM280 115q45 0 71 22t26 61q0 43 -26.5 65t-70.5 22q-43 0 -70 -22t-27 -65q0 -39 26 -61t71 -22z" />
    <glyph glyph-name="nine.tf" 
d="M372 417q0 65 -24.5 104.5t-72.5 39.5q-45 0 -68.5 -27t-23.5 -75q0 -46 23.5 -72.5t68.5 -26.5q62 0 97 57zM41 181h151q0 -31 19 -48.5t53 -17.5q108 0 108 171q-56 -47 -141 -47q-93 0 -148 59t-55 159q0 99 64 164.5t183 65.5q65 0 114.5 -25t79 -70t44 -102.5
t14.5 -126.5q0 -172 -63 -273t-200 -101q-112 0 -167.5 53.5t-55.5 138.5z" />
    <glyph glyph-name="zero.tosf" 
d="M280 120q54 0 76.5 42t22.5 125q0 84 -22 126t-77 42t-77 -42t-22 -126q0 -83 22.5 -125t76.5 -42zM280 586q125 0 189 -80t64 -219q0 -138 -64.5 -218t-188.5 -80q-126 0 -189.5 79.5t-63.5 218.5t64.5 219t188.5 80z" />
    <glyph glyph-name="one.tosf" 
d="M76 0v129h160v293l-142 -52l-39 113l203 92h126v-446h130v-129h-438z" />
    <glyph glyph-name="two.tosf" 
d="M500 0h-440v93l198 156q97 75 97 131q0 38 -21.5 60t-55.5 22q-81 0 -81 -85h-143q0 94 58.5 151.5t165.5 57.5t165.5 -57.5t58.5 -135.5q0 -65 -35 -114.5t-99 -94.5l-93 -72h225v-112z" />
    <glyph glyph-name="three.tosf" 
d="M394 242q53 -12 87.5 -56.5t34.5 -104.5q0 -86 -66.5 -139.5t-175.5 -53.5q-118 0 -176.5 52.5t-58.5 142.5h150q0 -33 22.5 -51t62.5 -18q38 0 62.5 20t24.5 56q0 91 -112 91h-66v122h66q102 0 102 83q0 35 -20.5 54.5t-56.5 19.5t-56 -17.5t-20 -48.5h-151
q0 86 56.5 139t170.5 53q106 0 169.5 -53t63.5 -139q0 -55 -31.5 -97.5t-81.5 -54.5z" />
    <glyph glyph-name="four.tosf" 
d="M534 148v-122h-70v-126h-150v126h-301v107l292 443h159v-428h70zM168 148h146v232z" />
    <glyph glyph-name="five.tosf" 
d="M515 117q0 -100 -64.5 -164t-180.5 -64t-174.5 53.5t-58.5 142.5h150q0 -34 22 -52t60 -18q90 0 90 103q0 43 -23.5 69t-66.5 26q-47 0 -83 -30l-118 21l44 372h372v-122h-251l-15 -133q40 18 84 18q89 0 151 -54t62 -168z" />
    <glyph glyph-name="six.tosf" 
d="M188 258q0 -64 25 -103.5t73 -39.5q45 0 68 27t23 75q0 46 -23 72.5t-68 26.5q-64 0 -98 -58zM369 495q0 31 -19.5 48.5t-53.5 17.5q-108 0 -108 -171q54 46 141 46q93 0 148 -58.5t55 -158.5q0 -99 -63.5 -164.5t-182.5 -65.5q-128 0 -190.5 89.5t-62.5 234.5
q0 83 14.5 149t45 117.5t82 79.5t121.5 28q112 0 167.5 -53.5t55.5 -138.5h-150z" />
    <glyph glyph-name="seven.tosf" 
d="M101 -100l239 554h-282v122h451v-104l-246 -572h-162z" />
    <glyph glyph-name="eight.tosf" 
d="M280 -11q-116 0 -184 52t-68 145q0 61 33 102.5t87 57.5q-49 18 -78 56t-29 91q0 91 63.5 142.5t176.5 51.5t175.5 -51.5t62.5 -142.5q0 -53 -28.5 -91t-77.5 -56q53 -16 86 -57t33 -103q0 -93 -68 -145t-184 -52zM280 561q-39 0 -61.5 -20t-22.5 -56q0 -39 23.5 -59
t60.5 -20q38 0 61 19.5t23 59.5q0 36 -22.5 56t-61.5 20zM280 115q45 0 71 22t26 61q0 43 -26.5 65t-70.5 22q-43 0 -70 -22t-27 -65q0 -39 26 -61t71 -22z" />
    <glyph glyph-name="nine.tosf" 
d="M372 316q0 65 -24.5 104.5t-72.5 39.5q-45 0 -68.5 -27t-23.5 -75q0 -46 23.5 -72.5t68.5 -26.5q62 0 97 57zM41 80h151q0 -31 19 -48.5t53 -17.5q108 0 108 171q-56 -47 -141 -47q-93 0 -148 59t-55 159q0 99 64 164.5t183 65.5q65 0 114.5 -25t79 -70t44 -102.5
t14.5 -126.5q0 -172 -63 -273t-200 -101q-112 0 -167.5 53.5t-55.5 138.5z" />
    <glyph glyph-name="Euro.tf" 
d="M28 447h55q39 239 273 239q86 0 178 -38l-45 -124q-72 30 -137 30q-50 0 -77 -27t-38 -80h233l-30 -89h-211v-18q0 -19 1 -28h197l-29 -89h-154q34 -102 120 -102q67 0 129 35l35 -128q-78 -39 -172 -39q-228 0 -272 234h-56v89h46v46h-46v89z" />
    <glyph glyph-name="cent.tf" 
d="M78 228q0 103 53 170.5t162 67.5q19 0 28 -1l18 75l68 -15l-19 -76q65 -26 95 -89l-98 -70q-14 22 -27 33l-51 -210q49 1 79 53l97 -71q-49 -106 -190 -106q-11 0 -16 1l-15 -63l-67 15l14 60q-66 24 -98.5 85t-32.5 141zM222 228q0 -57 21 -86l48 199q-69 -10 -69 -113z
" />
    <glyph glyph-name="sterling.tf" 
d="M28 342h60v99q0 107 54.5 176t173.5 69q74 0 123.5 -26t100.5 -78l-92 -96q-32 34 -60 50t-65 16q-88 0 -88 -109v-101h155v-89h-155v-135h253v-118h-401l1 253h-60v89z" />
    <glyph glyph-name="florin.tf" 
d="M350 336v-413q0 -62 -39 -105.5t-110 -43.5q-63 0 -95 13v121q25 -8 59 -8q26 0 37 12.5t11 39.5v384h-83v120h83v95q0 63 40.5 106t116.5 43q54 0 86 -13v-121q-30 8 -59 8q-24 0 -35.5 -11t-11.5 -39v-68h91v-120h-91z" />
    <glyph glyph-name="yen.tf" 
d="M20 312h157l-20 46h-137v89h90l-113 229h166l115 -270l117 270h167l-116 -229h94v-89h-142l-21 -46h163v-89h-189v-223h-148v223h-183v89z" />
    <glyph glyph-name="rupee.tf" 
d="M36 676l497 1v-89h-119q25 -34 30 -79h89v-90h-90q-10 -50 -48.5 -87.5t-93.5 -53.5l158 -278h-173l-141 260h-109v115h105q69 0 100 8.5t46 35.5h-250v90h252q-14 30 -44 39.5t-99 9.5h-110v118z" />
    <glyph glyph-name="dollar.tf" 
d="M332 -103h-83v93q-88 5 -141.5 40t-78.5 81l103 88q20 -34 46 -54t71 -25v155l-28 9q-162 51 -162 192q0 79 46.5 137t143.5 71v75h83v-74q124 -10 189 -99l-103 -85q-32 43 -86 53v-155l27 -8q92 -29 129.5 -76.5t37.5 -113.5q0 -87 -53.5 -141t-140.5 -67v-96zM369 188
q0 39 -37 59v-118q37 17 37 59zM216 486q0 -39 33 -59v118q-33 -18 -33 -59z" />
    <glyph glyph-name="zero.osf" horiz-adv-x="602" 
d="M301 120q60 0 85 42t25 125q0 84 -25 126t-85 42t-85 -42t-25 -126q0 -83 25 -125t85 -42zM301 586q131 0 197.5 -79.5t66.5 -219.5q0 -138 -67 -218t-197 -80q-132 0 -198 79.5t-66 218.5t67 219t197 80z" />
    <glyph glyph-name="one.osf" horiz-adv-x="400" 
d="M336 0h-148v434l-146 -57l-36 114l202 84h128v-575z" />
    <glyph glyph-name="two.osf" horiz-adv-x="526" 
d="M483 0h-440v93l198 156q97 75 97 131q0 38 -21.5 60t-55.5 22q-81 0 -81 -85h-143q0 94 58.5 151.5t165.5 57.5t165.5 -57.5t58.5 -135.5q0 -65 -35 -114.5t-99 -94.5l-93 -72h225v-112z" />
    <glyph glyph-name="three.osf" horiz-adv-x="546" 
d="M387 243q53 -12 87.5 -56.5t34.5 -104.5q0 -86 -66.5 -139.5t-175.5 -53.5q-118 0 -176.5 52.5t-58.5 142.5h150q0 -33 22.5 -51t62.5 -18q38 0 62.5 20t24.5 56q0 91 -112 91h-66v122h66q102 0 102 83q0 35 -20.5 54.5t-56.5 19.5t-56 -17.5t-20 -48.5h-151
q0 86 56.5 139t170.5 53q106 0 169.5 -53t63.5 -139q0 -55 -31.5 -97.5t-81.5 -54.5z" />
    <glyph glyph-name="four.osf" horiz-adv-x="573" 
d="M541 148v-122h-70v-126h-150v126h-301v107l292 443h159v-428h70zM175 148h146v232z" />
    <glyph glyph-name="five.osf" horiz-adv-x="532" 
d="M501 117q0 -100 -64.5 -164t-180.5 -64t-174.5 53.5t-58.5 142.5h150q0 -34 22 -52t60 -18q90 0 90 103q0 43 -23.5 69t-66.5 26q-47 0 -83 -30l-118 21l44 372h372v-122h-251l-15 -133q40 18 84 18q89 0 151 -54t62 -168z" />
    <glyph glyph-name="six.osf" horiz-adv-x="569" 
d="M192 258q0 -64 25 -103.5t73 -39.5q45 0 68 27t23 75q0 46 -23 72.5t-68 26.5q-64 0 -98 -58zM373 495q0 31 -19.5 48.5t-53.5 17.5q-108 0 -108 -171q54 46 141 46q93 0 148 -58.5t55 -158.5q0 -99 -63.5 -164.5t-182.5 -65.5q-128 0 -190.5 89.5t-62.5 234.5
q0 83 14.5 149t45 117.5t82 79.5t121.5 28q112 0 167.5 -53.5t55.5 -138.5h-150z" />
    <glyph glyph-name="seven.osf" horiz-adv-x="501" 
d="M72 -100l239 554h-282v122h451v-104l-246 -572h-162z" />
    <glyph glyph-name="eight.osf" horiz-adv-x="578" 
d="M289 -11q-116 0 -184 52t-68 145q0 61 33 102.5t87 57.5q-49 18 -78 56t-29 91q0 91 63.5 142.5t176.5 51.5t175.5 -51.5t62.5 -142.5q0 -53 -28.5 -91t-77.5 -56q53 -16 86 -57t33 -103q0 -93 -68 -145t-184 -52zM289 561q-39 0 -61.5 -20t-22.5 -56q0 -39 23.5 -59
t60.5 -20q38 0 61 19.5t23 59.5q0 36 -22.5 56t-61.5 20zM289 115q45 0 71 22t26 61q0 43 -26.5 65t-70.5 22q-43 0 -70 -22t-27 -65q0 -39 26 -61t71 -22z" />
    <glyph glyph-name="nine.osf" horiz-adv-x="568" 
d="M376 316q0 65 -24.5 104.5t-72.5 39.5q-45 0 -68.5 -27t-23.5 -75q0 -46 23.5 -72.5t68.5 -26.5q62 0 97 57zM45 80h151q0 -31 19 -48.5t53 -17.5q108 0 108 171q-56 -47 -141 -47q-93 0 -148 59t-55 159q0 99 64 164.5t183 65.5q127 0 189.5 -89.5t62.5 -234.5
q0 -172 -63 -273t-200 -101q-112 0 -167.5 53.5t-55.5 138.5z" />
    <glyph glyph-name="zero.denom" horiz-adv-x="379" 
d="M190 74q33 0 45 26t12 86t-12 86t-45 26q-32 0 -44.5 -26t-12.5 -86t12.5 -86t44.5 -26zM190 378q162 0 162 -192t-162 -192q-163 0 -163 192t163 192z" />
    <glyph glyph-name="one.denom" horiz-adv-x="266" 
d="M222 0h-103v281l-95 -34l-24 74l134 51h88v-372z" />
    <glyph glyph-name="two.denom" horiz-adv-x="332" 
d="M163 378q62 0 100.5 -33.5t38.5 -85.5q0 -55 -84 -137l-49 -45h132v-77h-268v65l118 115q46 43 46 79q0 39 -34 39q-39 0 -39 -50h-102q0 61 35 95.5t106 34.5z" />
    <glyph glyph-name="three.denom" horiz-adv-x="342" 
d="M245 188q32 -8 51 -32t19 -55q0 -48 -41 -77.5t-108 -29.5q-143 0 -143 111h102q0 -31 41 -31q18 0 30.5 8.5t12.5 24.5q0 42 -59 42h-40v77h40q53 0 53 39q0 33 -37 33q-36 0 -36 -28h-103q0 49 34.5 78.5t104.5 29.5q66 0 105 -29.5t39 -77.5q0 -29 -18 -52.5
t-47 -30.5z" />
    <glyph glyph-name="four.denom" horiz-adv-x="354" 
d="M330 142v-77h-37v-65h-102v65h-177v67l170 240h109v-230h37zM119 142h72v106z" />
    <glyph glyph-name="five.denom" horiz-adv-x="335" 
d="M312 119q0 -57 -40 -91t-111 -34t-106.5 29t-35.5 80h102q0 -29 40 -29q45 0 45 45q0 19 -12.5 32t-33.5 13q-26 0 -43 -15l-80 14l27 209h228v-77h-146l-7 -58q18 6 44 6q54 0 91.5 -29.5t37.5 -94.5z" />
    <glyph glyph-name="six.denom" horiz-adv-x="359" 
d="M132 140q0 -66 50 -66q46 0 46 46t-46 46q-32 0 -50 -26zM189 298q-56 0 -56 -75q32 18 80 18q55 0 87.5 -32t32.5 -88q0 -55 -39 -91t-112 -36q-78 0 -116.5 49.5t-38.5 127.5q0 207 162 207q70 0 103.5 -30t33.5 -78h-102q0 28 -35 28z" />
    <glyph glyph-name="seven.denom" horiz-adv-x="306" 
d="M37 0l142 295h-162v77h278v-66l-148 -306h-110z" />
    <glyph glyph-name="eight.denom" horiz-adv-x="363" 
d="M181 -6q-71 0 -112.5 28.5t-41.5 80.5q0 32 18.5 55t50.5 32q-62 21 -62 80q0 51 39 79.5t109 28.5t108 -28.5t38 -79.5q0 -59 -61 -80q69 -21 69 -87q0 -52 -41.5 -80.5t-113.5 -28.5zM181 151q-22 0 -35.5 -11t-13.5 -29q0 -16 15 -26.5t35 -10.5q19 0 33.5 10.5
t14.5 26.5q0 18 -13 29t-36 11zM181 298q-41 0 -41 -34q0 -36 41 -36q42 0 42 36q0 34 -42 34z" />
    <glyph glyph-name="nine.denom" horiz-adv-x="359" 
d="M227 231q0 67 -49 67q-46 0 -46 -46t46 -46q30 0 49 25zM33 102h103q0 -28 34 -28q57 0 57 75q-30 -19 -80 -19q-55 0 -88 32.5t-33 88.5q0 54 39.5 90.5t112.5 36.5q78 0 116 -49.5t38 -128.5q0 -206 -162 -206q-70 0 -103.5 30t-33.5 78z" />
    <glyph glyph-name="zero.num" horiz-adv-x="379" 
d="M190 378q33 0 45 26t12 86t-12 86t-45 26q-32 0 -44.5 -26t-12.5 -86t12.5 -86t44.5 -26zM190 682q162 0 162 -192t-162 -192q-163 0 -163 192t163 192z" />
    <glyph glyph-name="one.num" horiz-adv-x="266" 
d="M222 304h-103v281l-95 -34l-24 74l134 51h88v-372z" />
    <glyph glyph-name="two.num" horiz-adv-x="332" 
d="M163 682q62 0 100.5 -33.5t38.5 -85.5q0 -55 -84 -137l-49 -45h132v-77h-268v65l118 115q46 43 46 79q0 39 -34 39q-39 0 -39 -50h-102q0 61 35 95.5t106 34.5z" />
    <glyph glyph-name="three.num" horiz-adv-x="342" 
d="M245 492q32 -8 51 -32t19 -55q0 -48 -41 -77.5t-108 -29.5q-143 0 -143 111h102q0 -31 41 -31q18 0 30.5 8.5t12.5 24.5q0 42 -59 42h-40v77h40q53 0 53 39q0 33 -37 33q-36 0 -36 -28h-103q0 49 34.5 78.5t104.5 29.5q66 0 105 -29.5t39 -77.5q0 -29 -18 -52.5
t-47 -30.5z" />
    <glyph glyph-name="four.num" horiz-adv-x="354" 
d="M330 446v-77h-37v-65h-102v65h-177v67l170 240h109v-230h37zM119 446h72v106z" />
    <glyph glyph-name="five.num" horiz-adv-x="335" 
d="M312 423q0 -57 -40 -91t-111 -34t-106.5 29t-35.5 80h102q0 -29 40 -29q45 0 45 45q0 19 -12.5 32t-33.5 13q-26 0 -43 -15l-80 14l27 209h228v-77h-146l-7 -58q18 6 44 6q54 0 91.5 -29.5t37.5 -94.5z" />
    <glyph glyph-name="six.num" horiz-adv-x="359" 
d="M132 444q0 -66 50 -66q46 0 46 46t-46 46q-32 0 -50 -26zM189 602q-56 0 -56 -75q32 18 80 18q55 0 87.5 -32t32.5 -88q0 -55 -39 -91t-112 -36q-78 0 -116.5 49.5t-38.5 127.5q0 207 162 207q70 0 103.5 -30t33.5 -78h-102q0 28 -35 28z" />
    <glyph glyph-name="seven.num" horiz-adv-x="306" 
d="M37 304l142 295h-162v77h278v-66l-148 -306h-110z" />
    <glyph glyph-name="eight.num" horiz-adv-x="363" 
d="M181 298q-71 0 -112.5 28.5t-41.5 80.5q0 32 18.5 55t50.5 32q-62 21 -62 80q0 51 39 79.5t109 28.5t108 -28.5t38 -79.5q0 -59 -61 -80q69 -21 69 -87q0 -52 -41.5 -80.5t-113.5 -28.5zM181 455q-22 0 -35.5 -11t-13.5 -29q0 -16 15 -26.5t35 -10.5q19 0 33.5 10
t14.5 27q0 18 -13 29t-36 11zM181 602q-41 0 -41 -34q0 -36 41 -36q42 0 42 36q0 34 -42 34z" />
    <glyph glyph-name="nine.num" horiz-adv-x="359" 
d="M227 535q0 67 -49 67q-46 0 -46 -46t46 -46q30 0 49 25zM33 406h103q0 -28 34 -28q57 0 57 75q-30 -19 -80 -19q-55 0 -88 32.5t-33 88.5q0 54 39.5 90.5t112.5 36.5q78 0 116 -49.5t38 -128.5q0 -206 -162 -206q-70 0 -103.5 30t-33.5 78z" />
    <glyph glyph-name="parenleft.case" horiz-adv-x="311" 
d="M291 -80l-105 -42q-152 211 -152 463q0 132 38 239t114 224l107 -42q-110 -228 -110 -421q0 -211 108 -421z" />
    <glyph glyph-name="parenright.case" horiz-adv-x="310" 
d="M20 -80q108 210 108 421q0 193 -110 421l106 42q76 -117 114 -224t38 -239q0 -252 -152 -463z" />
    <glyph glyph-name="hyphen.case" horiz-adv-x="399" 
d="M49 391h301v-120h-301v120z" />
    <glyph glyph-name="bracketleft.case" horiz-adv-x="355" 
d="M54 790h270v-118h-121v-670h121v-118h-270v906z" />
    <glyph glyph-name="bracketright.case" horiz-adv-x="355" 
d="M31 790h270v-906h-270v118h121v670h-121v118z" />
    <glyph glyph-name="braceleft.case" horiz-adv-x="347" 
d="M259 646v-186q0 -110 -92 -123q92 -11 92 -120v-189q0 -38 49 -38v-106q-103 0 -150 32.5t-47 111.5v174q0 82 -97 82v106q97 0 97 87v169q0 78 47 111t150 33v-106q-49 0 -49 -38z" />
    <glyph glyph-name="bar.case" horiz-adv-x="198" 
d="M144 -116h-90v906h90v-906z" />
    <glyph glyph-name="braceright.case" horiz-adv-x="347" 
d="M88 460v186q0 38 -49 38v106q103 0 150 -33t47 -111v-169q0 -87 97 -87v-106q-97 0 -97 -82v-174q0 -79 -47 -111.5t-150 -32.5v106q49 0 49 38v189q0 109 92 120q-92 13 -92 123z" />
    <glyph glyph-name="guilsinglleft.case" horiz-adv-x="364" 
d="M22 330l209 238l89 -62l-131 -177l132 -177l-90 -61z" />
    <glyph glyph-name="guilsinglright.case" horiz-adv-x="363" 
d="M132 568l209 -238l-209 -239l-90 61l132 177l-131 177z" />
    <glyph glyph-name="guillemotleft.case" horiz-adv-x="597" 
d="M22 330l209 238l89 -62l-131 -177l132 -177l-90 -61zM255 330l209 238l89 -62l-131 -177l132 -177l-90 -61z" />
    <glyph glyph-name="guillemotright.case" horiz-adv-x="597" 
d="M365 568l209 -238l-209 -239l-90 61l132 177l-131 177zM132 568l209 -238l-209 -239l-90 61l132 177l-131 177z" />
    <glyph glyph-name="endash.case" horiz-adv-x="600" 
d="M49 391h502v-120h-502v120z" />
    <glyph glyph-name="emdash.case" horiz-adv-x="740" 
d="M49 391h642v-120h-642v120z" />
    <glyph glyph-name="bullet.case" horiz-adv-x="409" 
d="M205 186q-66 0 -109 40.5t-43 102.5t42.5 103t109.5 41q65 0 108 -41t43 -103t-43 -102.5t-108 -40.5z" />
    <glyph glyph-name="periodcentered.case" horiz-adv-x="269" 
d="M136 284q-42 0 -69.5 25.5t-27.5 64.5q0 41 27 67t70 26q40 0 67 -26.5t27 -66.5q0 -38 -27 -64t-67 -26z" />
    <glyph glyph-name="a.alt" horiz-adv-x="521" 
d="M339 422v34h135v-456h-135v34q-47 -44 -122 -44q-88 0 -137 62t-49 177q0 113 49 175t138 62q72 0 121 -44zM175 229q0 -110 85 -110q42 0 72 19v180q-34 19 -72 19q-85 0 -85 -108z" />
    <glyph glyph-name="agrave.alt" horiz-adv-x="521" 
d="M339 422v34h135v-456h-135v34q-47 -44 -122 -44q-88 0 -137 62t-49 177q0 113 49 175t138 62q72 0 121 -44zM175 229q0 -110 85 -110q42 0 72 19v180q-34 19 -72 19q-85 0 -85 -108zM130 696h141l71 -169h-125z" />
    <glyph glyph-name="aacute.alt" horiz-adv-x="521" 
d="M339 422v34h135v-456h-135v34q-47 -44 -122 -44q-88 0 -137 62t-49 177q0 113 49 175t138 62q72 0 121 -44zM175 229q0 -110 85 -110q42 0 72 19v180q-34 19 -72 19q-85 0 -85 -108zM270 696h141l-87 -169h-125z" />
    <glyph glyph-name="acircumflex.alt" horiz-adv-x="521" 
d="M339 422v34h135v-456h-135v34q-47 -44 -122 -44q-88 0 -137 62t-49 177q0 113 49 175t138 62q72 0 121 -44zM175 229q0 -110 85 -110q42 0 72 19v180q-34 19 -72 19q-85 0 -85 -108zM197 696h140l100 -169h-124l-46 83l-46 -83h-124z" />
    <glyph glyph-name="atilde.alt" horiz-adv-x="521" 
d="M339 422v34h135v-456h-135v34q-47 -44 -122 -44q-88 0 -137 62t-49 177q0 113 49 175t138 62q72 0 121 -44zM175 229q0 -110 85 -110q42 0 72 19v180q-34 19 -72 19q-85 0 -85 -108zM422 662v-103q-45 25 -79 25q-27 0 -77.5 -21.5t-81.5 -21.5q-43 0 -72 21v103
q26 -25 72 -25q23 0 71 21t88 21q41 0 79 -20z" />
    <glyph glyph-name="adieresis.alt" horiz-adv-x="521" 
d="M339 422v34h135v-456h-135v34q-47 -44 -122 -44q-88 0 -137 62t-49 177q0 113 49 175t138 62q72 0 121 -44zM175 229q0 -110 85 -110q42 0 72 19v180q-34 19 -72 19q-85 0 -85 -108zM166 520q-81 0 -81 78q0 40 22 60t59 20q34 0 57.5 -20.5t23.5 -59.5q0 -40 -23.5 -59
t-57.5 -19zM369 520q-81 0 -81 78q0 40 22 60t59 20q34 0 57.5 -20.5t23.5 -59.5q0 -40 -23.5 -59t-57.5 -19z" />
    <glyph glyph-name="amacron.alt" horiz-adv-x="521" 
d="M339 422v34h135v-456h-135v34q-47 -44 -122 -44q-88 0 -137 62t-49 177q0 113 49 175t138 62q72 0 121 -44zM175 229q0 -110 85 -110q42 0 72 19v180q-34 19 -72 19q-85 0 -85 -108zM113 659h309v-112h-309v112z" />
    <glyph glyph-name="abreve.alt" horiz-adv-x="521" 
d="M339 422v34h135v-456h-135v34q-47 -44 -122 -44q-88 0 -137 62t-49 177q0 113 49 175t138 62q72 0 121 -44zM175 229q0 -110 85 -110q42 0 72 19v180q-34 19 -72 19q-85 0 -85 -108zM339 690h90q0 -69 -42.5 -114t-121.5 -45q-76 0 -117.5 45t-41.5 114h87
q6 -26 26 -42.5t46 -16.5q28 0 48 16.5t26 42.5z" />
    <glyph glyph-name="aring.alt" horiz-adv-x="521" 
d="M155 618q0 43 28.5 73.5t81.5 30.5q56 0 85.5 -30.5t29.5 -73.5q0 -40 -30 -71t-85 -31q-52 0 -81 31t-29 71zM230 618q0 -13 9 -23t26 -10q19 0 28.5 10t9.5 23q0 14 -9.5 24.5t-28.5 10.5q-17 0 -26 -10.5t-9 -24.5zM339 422v34h135v-456h-135v34q-47 -44 -122 -44
q-88 0 -137 62t-49 177q0 113 49 175t138 62q72 0 121 -44zM175 229q0 -110 85 -110q42 0 72 19v180q-34 19 -72 19q-85 0 -85 -108z" />
    <glyph glyph-name="aringacute.alt" horiz-adv-x="521" 
d="M156 607q0 35 20 63t57 37l33 79h135l-63 -94q43 -29 43 -85q0 -40 -30 -70.5t-85 -30.5q-52 0 -81 31t-29 70zM231 607q0 -13 9 -22.5t26 -9.5q19 0 28.5 9.5t9.5 22.5q0 14 -9.5 25t-28.5 11q-17 0 -26 -11t-9 -25zM339 422v34h135v-456h-135v34q-47 -44 -122 -44
q-88 0 -137 62t-49 177q0 113 49 175t138 62q72 0 121 -44zM175 229q0 -110 85 -110q42 0 72 19v180q-34 19 -72 19q-85 0 -85 -108z" />
    <glyph glyph-name="g.alt" horiz-adv-x="500" 
d="M480 459v-103h-71q31 -28 31 -72q0 -74 -51.5 -112.5t-141.5 -38.5q-44 0 -65 4q0 -2 -1 -10t-1 -11q0 -24 45 -24h70q177 0 177 -138q0 -75 -63.5 -123t-178.5 -48q-105 0 -159 32t-54 83q0 34 24.5 62.5t49.5 33.5q-16 7 -26.5 26.5t-10.5 39.5q0 59 51 97
q-74 41 -74 135q0 80 55.5 127t161.5 47q43 0 104 -16zM243 230q40 0 56.5 15t16.5 45q0 59 -73 59q-81 0 -81 -60q0 -30 18.5 -44.5t62.5 -14.5zM164 -22q-20 -18 -20 -40q0 -52 87 -52q101 0 101 51q0 17 -11 29t-34 12h-123z" />
    <glyph glyph-name="gcircumflex.alt" horiz-adv-x="500" 
d="M480 459v-103h-71q31 -28 31 -72q0 -74 -51.5 -112.5t-141.5 -38.5q-44 0 -65 4q0 -2 -1 -10t-1 -11q0 -24 45 -24h70q177 0 177 -138q0 -75 -63.5 -123t-178.5 -48q-105 0 -159 32t-54 83q0 34 24.5 62.5t49.5 33.5q-16 7 -26.5 26.5t-10.5 39.5q0 59 51 97
q-74 41 -74 135q0 80 55.5 127t161.5 47q43 0 104 -16zM243 230q40 0 56.5 15t16.5 45q0 59 -73 59q-81 0 -81 -60q0 -30 18.5 -44.5t62.5 -14.5zM164 -22q-20 -18 -20 -40q0 -52 87 -52q101 0 101 51q0 17 -11 29t-34 12h-123zM178 696h140l100 -169h-124l-46 83l-46 -83
h-124z" />
    <glyph glyph-name="gbreve.alt" horiz-adv-x="500" 
d="M313 690h90q0 -69 -42.5 -114t-121.5 -45q-76 0 -117.5 45t-41.5 114h87q6 -26 26 -42.5t46 -16.5q28 0 48 16.5t26 42.5zM480 459v-103h-71q31 -28 31 -72q0 -74 -51.5 -112.5t-141.5 -38.5q-44 0 -65 4q0 -2 -1 -10t-1 -11q0 -24 45 -24h70q177 0 177 -138
q0 -75 -63.5 -123t-178.5 -48q-105 0 -159 32t-54 83q0 34 24.5 62.5t49.5 33.5q-16 7 -26.5 26.5t-10.5 39.5q0 59 51 97q-74 41 -74 135q0 80 55.5 127t161.5 47q43 0 104 -16zM243 230q40 0 56.5 15t16.5 45q0 59 -73 59q-81 0 -81 -60q0 -30 18.5 -44.5t62.5 -14.5z
M164 -22q-20 -18 -20 -40q0 -52 87 -52q101 0 101 51q0 17 -11 29t-34 12h-123z" />
    <glyph glyph-name="gdotaccent.alt" horiz-adv-x="500" 
d="M245 520q-82 0 -82 78q0 40 22.5 60t59.5 20q34 0 57.5 -20.5t23.5 -59.5q0 -40 -23.5 -59t-57.5 -19zM480 459v-103h-71q31 -28 31 -72q0 -74 -51.5 -112.5t-141.5 -38.5q-44 0 -65 4q0 -2 -1 -10t-1 -11q0 -24 45 -24h70q177 0 177 -138q0 -75 -63.5 -123t-178.5 -48
q-105 0 -159 32t-54 83q0 34 24.5 62.5t49.5 33.5q-16 7 -26.5 26.5t-10.5 39.5q0 59 51 97q-74 41 -74 135q0 80 55.5 127t161.5 47q43 0 104 -16zM243 230q40 0 56.5 15t16.5 45q0 59 -73 59q-81 0 -81 -60q0 -30 18.5 -44.5t62.5 -14.5zM164 -22q-20 -18 -20 -40
q0 -52 87 -52q101 0 101 51q0 17 -11 29t-34 12h-123z" />
    <glyph glyph-name="brokenbar.sc" horiz-adv-x="195" 
d="M135 290h-75v292h75v-292zM60 188h75v-290h-75v290z" />
    <glyph glyph-name="gcommaaccent.alt" horiz-adv-x="500" 
d="M480 459v-103h-71q31 -28 31 -72q0 -74 -51.5 -112.5t-141.5 -38.5q-44 0 -65 4q0 -2 -1 -10t-1 -11q0 -24 45 -24h70q177 0 177 -138q0 -75 -63.5 -123t-178.5 -48q-105 0 -159 32t-54 83q0 34 24.5 62.5t49.5 33.5q-16 7 -26.5 26.5t-10.5 39.5q0 59 51 97
q-74 41 -74 135q0 80 55.5 127t161.5 47q43 0 104 -16zM243 230q40 0 56.5 15t16.5 45q0 59 -73 59q-81 0 -81 -60q0 -30 18.5 -44.5t62.5 -14.5zM164 -22q-20 -18 -20 -40q0 -52 87 -52q101 0 101 51q0 17 -11 29t-34 12h-123zM167 555l73 184h109l-26 -184h-156z" />
    <glyph glyph-name="aogonek.alt" horiz-adv-x="521" 
d="M339 422v34h135v-456l-66 -46q-30 -21 -30 -38q0 -11 8 -17t18 -6q31 0 70 27v-112q-51 -24 -113 -24q-59 0 -93 25.5t-34 73.5q0 58 68 112l37 29v10q-47 -44 -122 -44q-88 0 -137 62t-49 177q0 113 49 175t138 62q72 0 121 -44zM175 229q0 -110 85 -110q42 0 72 19v180
q-34 19 -72 19q-85 0 -85 -108z" />
    </font>
</defs>
</svg>
