<?xml version="1.0" standalone="no"?>
<!DOCTYPE svg PUBLIC "-//W3C//DTD SVG 1.1//EN" "http://www.w3.org/Graphics/SVG/1.1/DTD/svg11.dtd" >
<svg xmlns="http://www.w3.org/2000/svg" xmlns:xlink="http://www.w3.org/1999/xlink" version="1.1">
<metadata></metadata>
<defs>
<font id="eon_brix_sansregular" horiz-adv-x="1146" >
<font-face units-per-em="2048" ascent="1475" descent="-573" />
<missing-glyph horiz-adv-x="438" />
<glyph unicode="&#xfb01;" horiz-adv-x="1153" d="M45 791v122l160 21v149q0 330 299 330h106v-143h-100q-79 0 -110 -47t-31 -140v-149h647v-934h-164v791h-483v-791h-164v791h-160zM817 1272q0 57 31.5 85.5t83.5 28.5q48 0 81.5 -29t33.5 -85t-33 -83.5t-82 -27.5q-53 0 -84 27t-31 84z" />
<glyph unicode="&#xfb02;" horiz-adv-x="1155" d="M45 791v122l160 21v149q0 330 299 330h106v-143h-100q-79 0 -110 -47t-31 -140v-149h272v-143h-272v-791h-164v791h-160zM807 246v1167h164v-1149q0 -62 20 -89.5t74 -27.5h51v-151h-96q-116 0 -164.5 63.5t-48.5 186.5z" />
<glyph horiz-adv-x="0" />
<glyph horiz-adv-x="0" />
<glyph horiz-adv-x="682" />
<glyph unicode=" "  horiz-adv-x="438" />
<glyph unicode="&#x09;" horiz-adv-x="438" />
<glyph unicode="&#xa0;" horiz-adv-x="438" />
<glyph unicode="!" horiz-adv-x="475" d="M113 106q0 52 35.5 86.5t89.5 34.5t89 -34t35 -87q0 -51 -35 -85.5t-89 -34.5t-89.5 34.5t-35.5 85.5zM137 1384h201l-35 -950h-135z" />
<glyph unicode="&#x22;" horiz-adv-x="731" d="M119 1384h172l-25 -499h-125zM446 1384h166l-22 -499h-125z" />
<glyph unicode="#" horiz-adv-x="1273" d="M84 408l16 147h213l45 315h-202l16 146h209l57 368h158l-57 -368h276l55 368h160l-57 -368h217l-16 -146h-224l-47 -315h215l-16 -147h-223l-62 -408h-162l66 408h-275l-63 -408h-160l66 408h-205zM469 555h274l48 315h-275z" />
<glyph unicode="$" horiz-adv-x="1124" d="M82 240l131 92q38 -87 104 -139t193 -60v492l-59 18q-318 97 -318 361q0 100 39.5 183t126.5 142t211 72v153h115v-151q139 -8 237 -64t148 -137l-131 -96q-80 128 -254 143v-483l71 -21q163 -50 247.5 -136t84.5 -226q0 -168 -107.5 -276t-295.5 -125v-193h-115v191 q-317 14 -428 260zM311 1012q0 -85 47.5 -133t149.5 -78l2 -2v446q-97 -18 -148 -81t-51 -152zM625 135q110 15 166.5 77.5t56.5 158.5q0 87 -53.5 137t-155.5 80l-14 4v-457z" />
<glyph unicode="%" horiz-adv-x="1646" d="M82 1022q0 175 72 273t221 98q293 0 293 -371q0 -175 -71.5 -272t-221.5 -97t-221.5 97t-71.5 272zM213 1022q0 -133 38 -198.5t124 -65.5q87 0 124.5 65.5t37.5 198.5q0 135 -37.5 200.5t-124.5 65.5q-86 0 -124 -66t-38 -200zM334 0l829 1384h146l-834 -1384h-141z M973 358q0 175 72 273t221 98q293 0 293 -371q0 -174 -71.5 -271t-221.5 -97t-221.5 97t-71.5 271zM1104 358q0 -133 38 -198.5t124 -65.5q87 0 124 65t37 199q0 135 -37 201t-124 66q-86 0 -124 -66.5t-38 -200.5z" />
<glyph unicode="&#x26;" horiz-adv-x="1329" d="M88 289q0 54 18 105t42.5 88t67 78t73.5 65t80 59l30 23l-51 53q-33 34 -46.5 48.5t-44 52.5t-45 66t-27.5 69.5t-13 82.5q0 139 106.5 232.5t284.5 93.5q167 0 272 -94t105 -232q0 -99 -61 -174.5t-187 -167.5l-71 -53l258 -266l30 43l193 272l121 -94l-197 -277 l-39 -55l283 -293v-14h-195l-182 188q-88 -99 -192.5 -155t-241.5 -56q-172 0 -271.5 89.5t-99.5 222.5zM248 293q0 -71 61.5 -120.5t149.5 -49.5q98 0 176.5 46.5t150.5 131.5l-284 297l-39 -29q-107 -81 -139 -114q-76 -77 -76 -162zM334 1079q0 -64 32.5 -114.5 t98.5 -116.5l53 -55l78 57q37 27 52.5 39t43 34.5t39 36.5t26.5 34.5t20 41t5 43.5q0 74 -59 128.5t-160 54.5q-104 0 -166.5 -55t-62.5 -128z" />
<glyph unicode="'" horiz-adv-x="405" d="M121 1384h166l-23 -499h-125z" />
<glyph unicode="(" horiz-adv-x="555" d="M96 492q0 155 21 289.5t63 251t88 207.5t113 200l129 -45q-116 -227 -178 -437.5t-62 -465.5q0 -249 57 -457.5t179 -442.5l-125 -47q-142 221 -213.5 443t-71.5 504z" />
<glyph unicode=")" horiz-adv-x="555" d="M45 1395l129 45q67 -109 112 -200t87.5 -207.5t63 -251t20.5 -289.5q0 -282 -71 -503.5t-212 -443.5l-125 47q122 234 179 442.5t57 457.5q0 255 -62 465.5t-178 437.5z" />
<glyph unicode="*" horiz-adv-x="958" d="M92 1065l45 147l283 -98l-12 311h157l-14 -309l283 88l34 -151l-278 -58l186 -239l-129 -88l-172 258l-196 -258l-105 96l201 235z" />
<glyph unicode="+" d="M98 481v142h394v409h157v-409h400v-142h-400v-407h-157v407h-394z" />
<glyph unicode="," horiz-adv-x="450" d="M92 -229l51 458h187l-111 -458h-127z" />
<glyph unicode="-" horiz-adv-x="790" d="M129 481v144h533v-144h-533z" />
<glyph unicode="." horiz-adv-x="477" d="M109 113q0 55 37 91t94 36q56 0 92.5 -36t36.5 -91q0 -54 -37 -90.5t-92 -36.5q-57 0 -94 36.5t-37 90.5z" />
<glyph unicode="/" horiz-adv-x="720" d="M63 0l422 1384h174l-430 -1384h-166z" />
<glyph unicode="0" horiz-adv-x="1220" d="M111 692q0 165 29.5 295t89 224t156 144t224.5 50q254 0 377 -187.5t123 -525.5q0 -337 -123.5 -524.5t-376.5 -187.5q-254 0 -376.5 187t-122.5 525zM289 692q0 -563 321 -563q167 0 244.5 143t77.5 420t-77.5 420t-244.5 143q-321 0 -321 -563z" />
<glyph unicode="1" horiz-adv-x="796" d="M29 1200l444 184h154v-1384h-172v1219l-381 -158z" />
<glyph unicode="2" horiz-adv-x="1064" d="M102 989q0 188 108.5 302t307.5 114q192 0 306 -111.5t114 -289.5q0 -72 -19.5 -138t-61 -130.5t-82.5 -115t-107 -120.5l-330 -353h629v-147h-861v129l443 475q107 115 160 208.5t53 191.5q0 112 -64 181.5t-180 69.5q-117 0 -179.5 -72t-62.5 -194h-174z" />
<glyph unicode="3" horiz-adv-x="1124" d="M100 340h174q0 -94 74 -152.5t203 -58.5q132 0 208.5 67.5t76.5 178.5q0 121 -87.5 191.5t-234.5 70.5h-125v147h125q135 0 217 62t82 176q0 105 -70 169t-192 64q-123 0 -190.5 -60.5t-67.5 -152.5h-174q0 73 26 137t77 115.5t136 81t193 29.5q200 0 320 -106t120 -271 q0 -125 -73.5 -207.5t-182.5 -107.5q53 -10 101.5 -37.5t88 -70t63.5 -104t24 -132.5q0 -174 -126 -283t-335 -109q-221 0 -336 102t-115 261z" />
<glyph unicode="4" horiz-adv-x="1179" d="M68 301v131l655 952h180v-935h197v-148h-197v-301h-172v301h-663zM252 449h479v694z" />
<glyph unicode="5" horiz-adv-x="1085" d="M84 369h174q0 -107 68 -173.5t202 -66.5q139 0 211 87.5t72 227.5q0 133 -71 209t-203 76q-130 0 -248 -84l-142 17l86 722h709v-147h-567l-53 -428q125 72 245 72q188 0 305 -112.5t117 -324.5q0 -97 -29.5 -181t-86 -148t-145.5 -101t-200 -37q-114 0 -201 31t-139 86 t-78 124.5t-26 150.5z" />
<glyph unicode="6" horiz-adv-x="1159" d="M111 649q0 232 52.5 399t164.5 262t276 95q206 0 314 -102.5t108 -260.5h-172q0 97 -67 155t-183 58q-155 0 -235 -144.5t-80 -393.5q44 61 136.5 111.5t203.5 50.5q201 0 315.5 -120t114.5 -319q0 -95 -29.5 -177.5t-85.5 -147t-146.5 -101.5t-205.5 -37 q-123 0 -216.5 49.5t-150.5 140t-85.5 211.5t-28.5 271zM295 543q0 -113 29.5 -203.5t98.5 -150.5t169 -60q139 0 214 83.5t75 225.5q0 137 -74.5 215t-214.5 78q-96 0 -176.5 -55t-120.5 -133z" />
<glyph unicode="7" horiz-adv-x="970" d="M66 1237v147h852v-129l-510 -1255h-189l506 1237h-659z" />
<glyph unicode="8" horiz-adv-x="1175" d="M111 373q0 139 78.5 226.5t191.5 115.5q-108 30 -176 108t-68 201q0 175 122 278t331 103q205 0 326.5 -103t121.5 -278q0 -124 -67 -201.5t-176 -107.5q115 -28 193.5 -115t78.5 -227q0 -187 -130.5 -291.5t-346.5 -104.5q-219 0 -349 104t-130 292zM287 387 q0 -124 81.5 -191t219.5 -67q139 0 220 67t81 191q0 119 -84.5 186.5t-216.5 67.5t-216.5 -68t-84.5 -186zM315 1018q0 -108 76.5 -170t196.5 -62t196 61.5t76 170.5q0 114 -73 175.5t-199 61.5q-125 0 -199 -62t-74 -175z" />
<glyph unicode="9" horiz-adv-x="1159" d="M100 944q0 95 29.5 177.5t86 147t147 101.5t204.5 37q123 0 216.5 -49.5t151 -140t86 -211.5t28.5 -271q0 -231 -52.5 -398t-165.5 -262t-278 -95q-204 0 -312 102t-108 260h174q0 -98 65.5 -155.5t180.5 -57.5q105 0 177 69t106 188.5t34 283.5q-47 -60 -139 -112 t-201 -52q-200 0 -315 119.5t-115 318.5zM279 946q0 -137 74.5 -215t213.5 -78q97 0 177 55t120 132q0 84 -17.5 157t-52 131.5t-93 92.5t-134.5 34q-139 0 -213.5 -83.5t-74.5 -225.5z" />
<glyph unicode=":" horiz-adv-x="501" d="M127 106q0 53 34.5 87t88.5 34t89.5 -34.5t35.5 -86.5q0 -51 -35.5 -85.5t-89.5 -34.5t-88.5 34.5t-34.5 85.5zM127 834q0 53 34.5 86.5t88.5 33.5t89.5 -34t35.5 -86q0 -53 -35.5 -88t-89.5 -35t-88.5 35t-34.5 88z" />
<glyph unicode=";" horiz-adv-x="491" d="M113 -229l51 458h186l-108 -458h-129zM125 834q0 52 35.5 86t89.5 34t89.5 -34t35.5 -86q0 -53 -35.5 -88t-89.5 -35t-89.5 35t-35.5 88z" />
<glyph unicode="&#x3c;" d="M152 471v164l809 340v-156l-662 -266l662 -264v-158z" />
<glyph unicode="=" d="M170 244v143h807v-143h-807zM170 721v141h807v-141h-807z" />
<glyph unicode="&#x3e;" d="M186 131v158l662 264l-662 266v156l807 -340v-164z" />
<glyph unicode="?" horiz-adv-x="919" d="M76 1081q0 67 22 125t65.5 103t114.5 70.5t162 25.5q185 0 292.5 -99t107.5 -249q0 -58 -17.5 -109.5t-46 -91.5t-62.5 -78t-68 -75t-62.5 -76t-46 -88.5t-17.5 -104.5h-168q0 88 33 164t79.5 130t93 103t79.5 105t33 115q0 82 -58 140t-161 58q-97 0 -154 -49t-57 -131z M309 106q0 52 35.5 86.5t89.5 34.5q55 0 91 -34t36 -87q0 -51 -36 -85.5t-91 -34.5q-54 0 -89.5 34.5t-35.5 85.5z" />
<glyph unicode="@" horiz-adv-x="1841" d="M100 373q0 159 39.5 304t118.5 266t189 210t258 138.5t319 49.5q147 0 267 -33.5t201 -91t136 -137.5t80 -170.5t25 -191.5q0 -163 -39.5 -297t-106 -219.5t-150 -131.5t-173.5 -46q-88 0 -129.5 34.5t-51.5 100.5q-52 -54 -126.5 -88.5t-165.5 -34.5q-142 0 -217.5 86.5 t-75.5 253.5q0 142 51 264t149.5 199t225.5 77q151 0 235 -102l15 84h141l-103 -578q-16 -85 -1.5 -127t69.5 -42q45 0 89 21t84.5 66t71.5 110t49.5 160.5t18.5 209.5q0 82 -18.5 153t-61.5 134.5t-107.5 108.5t-162 71t-219.5 26q-187 0 -338 -67.5t-247 -183.5 t-147.5 -266.5t-51.5 -321.5q0 -141 33 -250t101 -188.5t178 -121.5t259 -42q217 0 397 86l33 -123q-205 -94 -430 -94q-182 0 -319.5 52.5t-222.5 150.5t-127 231t-42 301zM645 385q0 -108 47.5 -161.5t126.5 -53.5q73 0 137 31.5t105 77.5l78 409q-38 44 -82.5 70 t-114.5 26q-86 0 -155 -56.5t-105.5 -147t-36.5 -195.5z" />
<glyph unicode="A" horiz-adv-x="1249" d="M25 0l495 1384h209l500 -1384h-193l-125 365h-573l-125 -365h-188zM385 512h479l-237 692z" />
<glyph unicode="B" horiz-adv-x="1193" d="M168 0v1384h434q214 0 320 -92.5t106 -257.5q0 -124 -58 -203.5t-157 -103.5q122 -22 203.5 -108.5t81.5 -235.5q0 -383 -482 -383h-448zM344 150h254q166 0 241.5 58t75.5 185q0 248 -315 248h-256v-491zM344 791h231q271 0 271 231q0 213 -271 213h-231v-444z" />
<glyph unicode="C" horiz-adv-x="1198" d="M109 690q0 340 142 527.5t427 187.5q155 0 272 -66t176 -176l-137 -88q-41 81 -124 128.5t-183 47.5q-104 0 -181 -41t-122.5 -117t-67.5 -176t-22 -227q0 -125 22 -224.5t67.5 -175t122.5 -116.5t181 -41q100 0 183 47.5t124 128.5l137 -88q-59 -110 -176 -175.5 t-272 -65.5q-285 0 -427 186t-142 524z" />
<glyph unicode="D" horiz-adv-x="1329" d="M168 0v1384h391q356 0 509 -162t153 -530q0 -366 -153.5 -529t-508.5 -163h-391zM344 150h207q143 0 235.5 28t149 94.5t79.5 166.5t23 253q0 150 -23 249.5t-79.5 167t-149.5 97t-235 29.5h-207v-1085z" />
<glyph unicode="E" horiz-adv-x="1101" d="M168 0v1384h831v-149h-655v-453h582v-149h-582v-483h664v-150h-840z" />
<glyph unicode="F" horiz-adv-x="1062" d="M168 0v1384h817v-149h-641v-492h547v-149h-547v-594h-176z" />
<glyph unicode="G" horiz-adv-x="1310" d="M109 692q0 713 604 713q156 0 266.5 -62t171.5 -172l-133 -90q-55 87 -127 128.5t-184 41.5q-116 0 -198 -39.5t-129.5 -115t-69 -174.5t-21.5 -230q0 -279 94.5 -420t302.5 -141q97 0 168.5 35t111.5 99t59 144t19 179h-344v151h514q9 -70 9 -100q0 -112 -17.5 -208 t-57.5 -180t-101 -143.5t-152 -93.5t-207 -34q-288 0 -433.5 181t-145.5 531z" />
<glyph unicode="H" horiz-adv-x="1382" d="M168 0v1384h176v-583h694v583h176v-1384h-176v651h-694v-651h-176z" />
<glyph unicode="I" horiz-adv-x="509" d="M168 0v1384h176v-1384h-176z" />
<glyph unicode="J" horiz-adv-x="997" d="M45 190l131 84q39 -73 93.5 -107t138.5 -34q130 0 196 81.5t66 270.5v899h170v-903q0 -255 -113.5 -378t-318.5 -123q-130 0 -222 56t-141 154z" />
<glyph unicode="K" horiz-adv-x="1239" d="M168 0v1384h176v-688l641 688h219l-526 -573l524 -811h-211l-438 686l-209 -217v-469h-176z" />
<glyph unicode="L" horiz-adv-x="974" d="M168 0v1384h176v-1234h590v-150h-766z" />
<glyph unicode="M" horiz-adv-x="1759" d="M92 0l187 1384h241l361 -1161l370 1161h234l178 -1384h-170l-145 1176l-375 -1176h-191l-368 1176l-150 -1176h-172z" />
<glyph unicode="N" horiz-adv-x="1392" d="M166 0l2 1384h188l693 -1099l2 1099h174v-1384h-185l-696 1106v-1106h-178z" />
<glyph unicode="O" horiz-adv-x="1343" d="M109 690q0 127 18.5 233.5t61 197t107 152.5t160 97t216.5 35q120 0 215.5 -35t160.5 -97.5t108 -153t62 -196.5t19 -233q0 -159 -32 -285.5t-98 -223t-177 -149t-260 -52.5q-120 0 -215 34.5t-159 96.5t-106.5 151.5t-61.5 195t-19 232.5zM289 690q0 -131 18.5 -228.5 t61 -173.5t118 -115.5t183.5 -39.5q109 0 186 39.5t120 115.5t62 174t19 228q0 103 -11.5 185.5t-39 154t-70.5 119.5t-110 75t-154 27q-106 0 -182 -40.5t-119 -117.5t-62.5 -175.5t-19.5 -227.5z" />
<glyph unicode="P" horiz-adv-x="1153" d="M168 0v1384h440q233 0 349 -109.5t116 -309.5q0 -199 -116.5 -309.5t-348.5 -110.5h-264v-545h-176zM344 694h254q295 0 295 271q0 270 -295 270h-254v-541z" />
<glyph unicode="Q" horiz-adv-x="1343" d="M109 690q0 127 18.5 233.5t61 197t107 152.5t160 97t216.5 35q120 0 215.5 -35t160.5 -97.5t108 -153t62 -196.5t19 -233q0 -268 -88 -440l168 -162l-98 -111l-156 152q-143 -149 -393 -149q-120 0 -215 34.5t-159 96.5t-106.5 151.5t-61.5 195t-19 232.5zM289 690 q0 -131 18.5 -228.5t61 -173.5t118 -115.5t183.5 -39.5q183 0 274 111l-340 331l96 105l316 -303q41 122 41 313q0 103 -11.5 185.5t-39 154t-70.5 119.5t-110 75t-154 27q-106 0 -182 -40.5t-119 -117.5t-62.5 -175.5t-19.5 -227.5z" />
<glyph unicode="R" horiz-adv-x="1218" d="M168 0v1384h479q235 0 355 -101t120 -284q0 -155 -93 -253t-263 -123l393 -623h-203l-372 608h-240l-2 -608h-174zM344 758h289q166 0 237.5 61t71.5 180q0 116 -72 176t-237 60h-289v-477z" />
<glyph unicode="S" horiz-adv-x="1116" d="M74 242l133 90q20 -44 43 -75.5t61.5 -62t98.5 -46t139 -15.5q142 0 216.5 64.5t74.5 175.5q0 85 -54 135t-157 80l-185 55q-317 96 -317 361q0 80 27 151t80 127.5t140.5 89.5t198.5 33q157 0 266.5 -57.5t161.5 -145.5l-129 -96q-90 145 -299 145q-127 0 -196.5 -67.5 t-69.5 -171.5q0 -85 47.5 -133t149.5 -78l184 -56q164 -50 249 -135.5t85 -226.5q0 -182 -127 -292.5t-346 -110.5q-110 0 -196 24t-140 66t-85 82t-54 90z" />
<glyph unicode="T" horiz-adv-x="1101" d="M66 1235v149h972v-149h-399v-1235h-176v1235h-397z" />
<glyph unicode="U" horiz-adv-x="1333" d="M156 516v868h176v-870q0 -199 83.5 -290t250.5 -91q166 0 249.5 91t83.5 290v870h177v-868q0 -142 -37 -247t-106.5 -167.5t-160.5 -92t-206 -29.5t-206 30t-160.5 92.5t-106.5 167t-37 246.5z" />
<glyph unicode="V" horiz-adv-x="1220" d="M33 1384h186l391 -1200l391 1200h189l-467 -1384h-225z" />
<glyph unicode="W" horiz-adv-x="1982" d="M43 1384h186l326 -1179l334 1179h205l333 -1179l326 1179h186l-397 -1384h-219l-332 1143l-332 -1143h-219z" />
<glyph unicode="X" horiz-adv-x="1175" d="M33 0l438 715l-416 669h201l332 -548l332 548h202l-417 -669l438 -715h-203l-352 584l-350 -584h-205z" />
<glyph unicode="Y" horiz-adv-x="1175" d="M27 1384h196l367 -667l362 667h199l-475 -831v-553h-176v553z" />
<glyph unicode="Z" horiz-adv-x="1054" d="M72 0v131l680 1104h-641v149h847v-133l-675 -1101h690v-150h-901z" />
<glyph unicode="[" horiz-adv-x="614" d="M139 -442v1855h418v-141h-248v-1573h248v-141h-418z" />
<glyph unicode="\" horiz-adv-x="720" d="M61 1384h172l424 -1384h-165z" />
<glyph unicode="]" horiz-adv-x="614" d="M57 -301h248v1573h-248v141h418v-1855h-418v141z" />
<glyph unicode="^" d="M82 940l491 492l492 -492l-113 -113l-379 381l-378 -379z" />
<glyph unicode="_" horiz-adv-x="1024" d="M102 -63h820v-119h-820v119z" />
<glyph unicode="`" horiz-adv-x="1228" d="M449 1425h176l155 -319h-153z" />
<glyph unicode="a" horiz-adv-x="962" d="M80 244q0 136 111.5 208t316.5 93l160 16v92q0 84 -43.5 125t-151.5 41q-94 0 -143 -30.5t-49 -83.5v-54h-146q-6 35 -6 68q0 106 91.5 170.5t260.5 64.5q172 0 261 -75t89 -224v-655h-155v115q-48 -57 -128 -96t-186 -39q-132 0 -207 70t-75 194zM246 252 q0 -68 41.5 -104.5t122.5 -36.5q77 0 144 32t114 82v224l-154 -19q-132 -18 -200 -60.5t-68 -117.5z" />
<glyph unicode="b" horiz-adv-x="1054" d="M139 0v1413h164v-567q93 108 258 108q203 0 302.5 -128t99.5 -357t-101 -359t-301 -130q-183 0 -282 110l-48 -90h-92zM303 250q31 -48 90 -83.5t139 -35.5q75 0 127.5 25t82 72t42.5 106t13 135q0 77 -13 135t-43 104.5t-82.5 70.5t-126.5 24q-84 0 -142 -34t-87 -79 v-440z" />
<glyph unicode="c" horiz-adv-x="915" d="M92 465q0 105 24.5 192.5t73 154.5t129.5 104.5t187 37.5q249 0 348 -190l-119 -82q-73 125 -219 125q-133 0 -195.5 -92.5t-62.5 -249.5t62.5 -248.5t195.5 -91.5q148 0 219 127l119 -84q-49 -92 -138.5 -140t-209.5 -48q-106 0 -187 37t-130 103.5t-73 153t-24 191.5z " />
<glyph unicode="d" horiz-adv-x="1056" d="M92 469q0 229 99.5 357t295.5 128q91 0 160 -30.5t109 -77.5v567h162v-1413h-158v88q-42 -48 -113.5 -78t-161.5 -30q-194 0 -293.5 129t-99.5 360zM260 469q0 -338 262 -338q83 0 142.5 31.5t91.5 81.5v446q-85 113 -234 113q-73 0 -125 -24t-81.5 -70t-42.5 -104.5 t-13 -135.5z" />
<glyph unicode="e" horiz-adv-x="964" d="M92 469q0 102 25 189t74 153.5t129 104.5t182 38q95 0 168.5 -33t117.5 -89t66.5 -124.5t22.5 -146.5q0 -61 -13 -145h-608q3 -139 67 -217t197 -78q64 0 134 26t120 74l82 -110q-49 -54 -141.5 -92.5t-194.5 -38.5q-220 0 -324 130.5t-104 358.5zM258 541h459q4 24 4 41 q0 107 -58.5 171t-160.5 64q-119 0 -177.5 -74.5t-66.5 -201.5z" />
<glyph unicode="f" horiz-adv-x="673" d="M45 791v122l160 21v149q0 330 299 330h106v-143h-100q-79 0 -110 -47t-31 -140v-149h272v-143h-272v-791h-164v791h-160z" />
<glyph unicode="g" horiz-adv-x="1048" d="M92 467q0 230 100 358.5t297 128.5q169 0 265 -110v90h157v-1006q0 -150 -106 -248t-285 -98q-174 0 -270 81.5t-96 201.5h147q0 -57 60.5 -102.5t158.5 -45.5q106 0 167 57.5t61 147.5v174q-42 -52 -110 -84t-146 -32q-200 0 -300 128.5t-100 358.5zM260 467 q0 -336 260 -336q72 0 132 31.5t96 81.5v446q-81 113 -228 113q-73 0 -125 -24t-81 -70.5t-41.5 -105t-12.5 -136.5z" />
<glyph unicode="h" horiz-adv-x="1062" d="M139 0v1413h164v-582q43 54 123.5 88.5t177.5 34.5q170 0 249 -90t79 -268v-596h-162v582q0 113 -48.5 167t-166.5 54q-79 0 -146.5 -30.5t-105.5 -78.5v-694h-164z" />
<glyph unicode="i" horiz-adv-x="442" d="M104 1272q0 57 31.5 85.5t83.5 28.5q48 0 81.5 -29t33.5 -85t-33 -83.5t-82 -27.5q-53 0 -84 27t-31 84zM139 0v934h164v-934h-164z" />
<glyph unicode="j" horiz-adv-x="444" d="M-31 -348q97 45 133.5 110t36.5 183v989h164v-965q0 -171 -59.5 -273.5t-188.5 -158.5zM104 1272q0 57 32 85.5t85 28.5q47 0 80 -29t33 -85t-32.5 -83.5t-80.5 -27.5q-53 0 -85 27t-32 84z" />
<glyph unicode="k" horiz-adv-x="968" d="M139 0v1413h164v-899l432 420h209l-377 -361l367 -573h-189l-292 461l-150 -144v-317h-164z" />
<glyph unicode="l" horiz-adv-x="479" d="M131 246v1167h164v-1149q0 -62 20 -89.5t74 -27.5h51v-151h-96q-116 0 -164.5 63.5t-48.5 186.5z" />
<glyph unicode="m" horiz-adv-x="1654" d="M137 0v934h160v-109q116 129 276 129q110 0 179 -36t118 -107q54 64 138 103.5t186 39.5q173 0 252.5 -87.5t79.5 -260.5v-606h-164v596q0 105 -47.5 156t-155.5 51q-146 0 -241 -109v-694h-162v684q-61 119 -217 119q-127 0 -238 -107v-696h-164z" />
<glyph unicode="n" horiz-adv-x="1060" d="M137 0v934h160v-113q42 60 124 96.5t183 36.5q170 0 249 -90t79 -268v-596h-164v582q0 113 -48 167t-165 54q-80 0 -147 -30.5t-107 -78.5v-694h-164z" />
<glyph unicode="o" horiz-adv-x="1024" d="M92 467q0 222 105 354.5t317 132.5q107 0 188.5 -36t131.5 -102t75 -153t25 -194q0 -225 -105 -357t-321 -132q-138 0 -233.5 64t-139 171.5t-43.5 251.5zM258 469q0 -340 252 -340q256 0 256 338t-256 338q-128 0 -190 -87.5t-62 -248.5z" />
<glyph unicode="p" horiz-adv-x="1058" d="M137 -442v1376h158v-90q42 49 114.5 79.5t161.5 30.5q195 0 295.5 -130t100.5 -361q0 -228 -100.5 -355.5t-297.5 -127.5q-91 0 -159.5 29.5t-108.5 76.5v-528h-164zM301 242q84 -111 234 -111q144 0 204 86t60 246q0 340 -262 340q-84 0 -144 -32.5t-92 -82.5v-446z" />
<glyph unicode="q" horiz-adv-x="1048" d="M92 463q0 229 101 360t299 131q179 0 280 -112l47 92h92v-1376h-163v528q-91 -106 -256 -106q-201 0 -300.5 127t-99.5 356zM260 463q0 -77 12.5 -135t42 -103.5t81.5 -69.5t126 -24q83 0 140 33.5t86 77.5v440q-31 49 -89 85t-137 36q-75 0 -127.5 -25.5t-81 -73 t-41 -106t-12.5 -135.5z" />
<glyph unicode="r" horiz-adv-x="700" d="M137 0v934h160v-154h2q89 174 260 174q70 0 113 -14l-19 -172q-67 18 -125 18q-148 0 -227 -176v-610h-164z" />
<glyph unicode="s" horiz-adv-x="880" d="M70 135l100 101q32 -38 58.5 -61.5t80.5 -44.5t123 -21q91 0 146 35.5t55 103.5q0 50 -35 80.5t-104 48.5l-164 39q-114 27 -171 92.5t-57 161.5q0 41 12 80.5t39 77t66.5 65t99.5 44.5t134 17q116 0 198.5 -38t128.5 -93l-96 -100q-93 100 -238 100q-90 0 -135 -39.5 t-45 -101.5q0 -96 115 -123l160 -37q260 -61 260 -262q0 -123 -96 -201.5t-279 -78.5q-238 0 -356 155z" />
<glyph unicode="t" horiz-adv-x="694" d="M39 793v120l178 21v233l162 31v-264h250v-141h-250v-523q0 -139 127 -139q56 0 127 29l16 -142q-78 -38 -190 -38q-123 0 -182.5 72t-59.5 200v541h-178z" />
<glyph unicode="u" horiz-adv-x="1060" d="M129 338v596h164v-582q0 -113 48 -167t165 -54q80 0 147 30.5t107 78.5v694h164v-934h-160v113q-42 -60 -124 -96.5t-183 -36.5q-170 0 -249 90t-79 268z" />
<glyph unicode="v" horiz-adv-x="976" d="M39 934h178l272 -776l269 776h176l-346 -934h-199z" />
<glyph unicode="w" horiz-adv-x="1550" d="M47 934h172l234 -756l241 756h162l242 -756l233 756h174l-305 -934h-182l-242 725l-244 -725h-182z" />
<glyph unicode="x" horiz-adv-x="927" d="M47 0l313 469l-313 465h191l225 -352l229 352h189l-314 -467l314 -467h-191l-225 352l-229 -352h-189z" />
<glyph unicode="y" horiz-adv-x="983" d="M31 934h184l293 -682l262 682h180l-567 -1376h-172l213 501z" />
<glyph unicode="z" horiz-adv-x="841" d="M78 0v115l469 676h-447v143h650v-115l-467 -676h473v-143h-678z" />
<glyph unicode="{" horiz-adv-x="602" d="M35 420v131q100 0 142 36.5t42 131.5v414q0 153 73.5 216.5t237.5 63.5v-131q-77 0 -110 -32.5t-33 -116.5v-428q0 -198 -145 -220q145 -18 145 -221v-424q0 -86 33 -118.5t110 -32.5v-131q-166 0 -238.5 60.5t-72.5 219.5v414q0 93 -42.5 130.5t-141.5 37.5z" />
<glyph unicode="|" horiz-adv-x="399" d="M139 -442v1855h119v-1855h-119z" />
<glyph unicode="}" horiz-adv-x="602" d="M72 -311q77 0 110 32.5t33 118.5v424q0 203 145 221q-145 22 -145 220v428q0 84 -33 116.5t-110 32.5v131q164 0 237.5 -63.5t73.5 -216.5v-414q0 -95 42 -131.5t142 -36.5v-131q-99 0 -141.5 -37.5t-42.5 -130.5v-414q0 -159 -72.5 -219.5t-238.5 -60.5v131z" />
<glyph unicode="~" d="M209 469l12 158q28 -23 46 -35.5t49 -24.5t63 -12q43 0 90 23.5t83.5 51.5t90 51.5t107.5 23.5q93 0 186 -72l-18 -156q-91 72 -166 72q-39 0 -87 -23.5t-87 -51.5t-92 -51.5t-101 -23.5q-50 0 -98 21.5t-78 48.5z" />
<glyph unicode="&#xa1;" horiz-adv-x="454" d="M102 834q0 53 35 86.5t90 33.5q54 0 89.5 -34t35.5 -86t-35.5 -86.5t-89.5 -34.5q-55 0 -90 34t-35 87zM127 -444l35 950h135l29 -950h-199z" />
<glyph unicode="&#xa2;" horiz-adv-x="976" d="M106 465q0 105 24.5 192.5t73.5 154.5t130 104.5t186 37.5q24 0 64 -4l37 156l100 -23l-39 -155q123 -47 188 -164l-120 -82q-41 71 -103 100l-160 -655q14 -2 43 -2q151 0 222 127l118 -84q-49 -92 -139 -140t-211 -48q-21 0 -67 4l-29 -125l-98 22l30 127 q-125 48 -187.5 168.5t-62.5 288.5zM274 465q0 -227 119 -305l156 647h-19q-133 0 -194.5 -92t-61.5 -250z" />
<glyph unicode="&#xa3;" d="M78 551v121h137v239q0 104 24 191t73 156t134 108t199 39q264 0 426 -193l-113 -110q-65 78 -138 111.5t-169 33.5q-266 0 -266 -340v-235h391v-121h-391v-408h604v-143h-774v551h-137z" />
<glyph unicode="&#xa4;" horiz-adv-x="1103" d="M109 885l114 114l152 -153q70 47 176 47q110 0 178 -49l154 151l106 -108l-158 -164q29 -69 29 -160t-31 -164l164 -170l-112 -112l-164 157q-64 -43 -170 -43q-108 0 -172 43l-150 -151l-110 110l155 158q-32 68 -32 170q0 94 28 160zM385 563q0 -184 164 -184t164 182 t-164 182t-164 -180z" />
<glyph unicode="&#xa5;" horiz-adv-x="1204" d="M61 1384h193l346 -659l350 659h195l-283 -497h185v-121h-252l-90 -160h342v-119h-365v-487h-172v487h-356v119h333l-86 160h-247v121h182z" />
<glyph unicode="&#xa6;" horiz-adv-x="413" d="M147 348h119v-790h-119v790zM147 627v786h119v-786h-119z" />
<glyph unicode="&#xa7;" horiz-adv-x="1138" d="M92 -35l103 107q132 -168 374 -168q123 0 198 37t75 112q0 25 -13 47t-30.5 37.5t-50 32.5t-55 26.5t-62.5 24.5l-217 84q-136 49 -209.5 121.5t-73.5 181.5q0 72 38.5 140.5t106.5 113.5q-139 89 -139 230q0 56 27.5 110.5t80 100.5t139.5 74t194 28q300 0 440 -193 l-109 -102q-129 154 -344 154q-107 0 -179.5 -43t-72.5 -111q0 -61 57 -99.5t177 -82.5l164 -58q159 -58 237 -131t78 -190q0 -72 -41 -138.5t-111 -113.5q146 -86 146 -223q0 -134 -120.5 -222t-338.5 -88q-164 0 -284.5 54.5t-184.5 146.5zM303 633q0 -64 51.5 -108 t159.5 -83l223 -86q48 30 81.5 74.5t33.5 95.5q0 72 -55 116.5t-164 82.5l-219 78q-50 -27 -80.5 -74.5t-30.5 -95.5z" />
<glyph unicode="&#xa8;" horiz-adv-x="1228" d="M311 1251q0 58 31.5 86.5t83.5 28.5q48 0 81.5 -29.5t33.5 -85.5t-33 -83t-82 -27q-115 0 -115 110zM688 1251q0 58 30.5 86.5t82.5 28.5q48 0 81 -29t33 -86q0 -56 -32.5 -83t-81.5 -27q-113 0 -113 110z" />
<glyph unicode="&#xa9;" horiz-adv-x="1667" d="M104 690q0 161 56 298.5t153 232.5t232.5 148.5t290.5 53.5q207 0 372 -91t260 -259t95 -383q0 -161 -55.5 -299t-152 -234t-231 -150t-288.5 -54q-155 0 -290.5 54t-232.5 149.5t-153 234t-56 299.5zM240 690q0 -183 76.5 -322t211.5 -212.5t308 -73.5q263 0 428.5 166 t165.5 442t-165.5 441t-428.5 165q-264 0 -430 -165t-166 -441zM451 686q0 191 104.5 304.5t271.5 113.5q177 0 306 -137l-99 -90q-46 46 -91.5 70t-111.5 24q-115 0 -173 -76t-58 -209q0 -136 56 -212.5t173 -76.5q131 0 209 109l103 -92q-62 -75 -136.5 -112.5 t-179.5 -37.5q-170 0 -272 113.5t-102 308.5z" />
<glyph unicode="&#xaa;" horiz-adv-x="731" d="M100 866q0 169 285 195l90 10v49q0 46 -25 68t-85 22q-115 0 -115 -57v-33h-115q-2 16 -2 41q0 65 62 106.5t174 41.5q111 0 171 -48.5t60 -138.5v-405h-119v67q-78 -82 -194 -82q-90 0 -138.5 43.5t-48.5 120.5zM227 872q0 -36 24.5 -54.5t65.5 -18.5q93 0 158 75v113 l-84 -10q-164 -22 -164 -105z" />
<glyph unicode="&#xab;" horiz-adv-x="1019" d="M59 553l367 440l109 -78l-277 -362l277 -365l-109 -77zM451 553l366 440l109 -78l-277 -362l277 -365l-109 -77z" />
<glyph unicode="&#xac;" d="M88 639v141h948v-534h-157v393h-791z" />
<glyph unicode="&#xad;" horiz-adv-x="790" d="M129 481v144h533v-144h-533z" />
<glyph unicode="&#xae;" horiz-adv-x="1667" d="M104 690q0 161 56 298.5t153 232.5t232.5 148.5t290.5 53.5q207 0 372 -91t260 -259t95 -383q0 -161 -55.5 -299t-152 -234t-231 -150t-288.5 -54q-155 0 -290.5 54t-232.5 149.5t-153 234t-56 299.5zM240 690q0 -183 76.5 -322t211.5 -212.5t308 -73.5q263 0 428.5 166 t165.5 442t-165.5 441t-428.5 165q-264 0 -430 -165t-166 -441zM537 272v824h299q307 0 307 -234q0 -90 -59 -151t-164 -78l245 -361h-149l-230 349h-120v-349h-129zM666 723h168q92 0 136 41t44 94q0 57 -40.5 95t-131.5 38h-176v-268z" />
<glyph unicode="&#xaf;" horiz-adv-x="1228" d="M326 1178v135h575v-135h-575z" />
<glyph unicode="&#xb0;" horiz-adv-x="735" d="M88 1118q0 123 76 205t201 82q130 0 206 -81.5t76 -205.5q0 -120 -76.5 -201t-205.5 -81q-124 0 -200.5 81.5t-76.5 200.5zM197 1118q0 -77 46 -127.5t122 -50.5q81 0 127.5 50.5t46.5 127.5q0 78 -46.5 130t-127.5 52q-76 0 -122 -52.5t-46 -129.5z" />
<glyph unicode="&#xb1;" d="M98 68v143h949v-143h-949zM98 756v143h394v406h155v-406h400v-143h-400v-355h-155v355h-394z" />
<glyph unicode="&#xb2;" horiz-adv-x="634" d="M63 1395q0 105 62.5 167t183.5 62q113 0 181.5 -60t68.5 -155q0 -69 -41 -129t-119 -135l-157 -148h327v-102h-499v88l245 236q56 53 83.5 97.5t27.5 92.5q0 49 -31 80t-86 31q-60 0 -89.5 -33t-29.5 -92h-127z" />
<glyph unicode="&#xb3;" horiz-adv-x="661" d="M59 1079h129q0 -42 36 -67t98 -25q64 0 101.5 28t37.5 77q0 54 -43 85t-121 31h-72v103h72q70 0 111 27t41 77q0 46 -34.5 74.5t-92.5 28.5t-90.5 -26t-32.5 -67h-129q0 85 64 141t188 56q118 0 188 -56t70 -145q0 -61 -39 -104t-99 -57q62 -11 106 -58.5t44 -116.5 q0 -91 -74 -147.5t-196 -56.5q-130 0 -196.5 54.5t-66.5 143.5z" />
<glyph unicode="&#xb4;" horiz-adv-x="1228" d="M449 1106l155 319h176l-178 -319h-153z" />
<glyph unicode="&#xb5;" horiz-adv-x="1062" d="M135 -442v1376h162v-582q0 -113 48.5 -167t166.5 -54q80 0 147 30.5t107 78.5v694h162v-934h-158v113q-44 -60 -126 -96.5t-181 -36.5q-96 0 -166 28v-450h-162z" />
<glyph unicode="&#xb6;" horiz-adv-x="1026" d="M68 633q0 139 84.5 220t255.5 81h219v-1020h-152v418q-215 0 -311 70.5t-96 230.5zM582 -352q91 44 128.5 105.5t37.5 178.5v1002h149v-977q0 -76 -9 -133.5t-33 -114.5t-72 -100t-119 -72z" />
<glyph unicode="&#xb7;" horiz-adv-x="499" d="M119 555q0 55 37 91t94 36q56 0 92.5 -36t36.5 -91q0 -54 -37 -90.5t-92 -36.5q-57 0 -94 36.5t-37 90.5z" />
<glyph unicode="&#xb8;" horiz-adv-x="1228" d="M438 -279q77 -57 168 -57q40 0 62 17t22 43q0 39 -27.5 54t-82.5 15h-74l-8 12l71 207l113 -12l-43 -111q84 0 136 -39t52 -126q0 -70 -56.5 -118t-154.5 -48q-90 0 -178 45v118z" />
<glyph unicode="&#xb9;" horiz-adv-x="483" d="M12 1516l254 94h113v-717h-129v600l-207 -76z" />
<glyph unicode="&#xba;" horiz-adv-x="749" d="M96 1006q0 137 70 220t211 83q138 0 207 -83.5t69 -217.5q0 -139 -69 -222.5t-211 -83.5q-138 0 -207.5 83.5t-69.5 220.5zM223 1008q0 -93 37.5 -146t114.5 -53t114 52.5t37 144.5q0 196 -151 196q-77 0 -114.5 -51.5t-37.5 -142.5z" />
<glyph unicode="&#xbb;" horiz-adv-x="1019" d="M94 188l277 365l-277 362l109 78l366 -440l-366 -442zM485 188l277 365l-277 362l109 78l367 -440l-367 -442z" />
<glyph unicode="&#xbc;" horiz-adv-x="1452" d="M66 1286l253 94h113v-716h-129v600l-207 -76zM238 0l829 1384h145l-833 -1384h-141zM772 143v93l363 481h133v-471h100v-103h-100v-143h-127v143h-369zM907 246h234v307z" />
<glyph unicode="&#xbd;" horiz-adv-x="1511" d="M66 1286l253 94h113v-716h-129v600l-207 -76zM238 0l829 1384h145l-833 -1384h-141zM911 500q0 105 62.5 167t183.5 62q113 0 181.5 -60t68.5 -155q0 -69 -41 -129t-119 -135l-157 -148h327v-102h-499v88l245 236q56 53 83.5 97.5t27.5 92.5q0 49 -31 80t-86 31 q-60 0 -89.5 -33t-29.5 -92h-127z" />
<glyph unicode="&#xbe;" horiz-adv-x="1531" d="M90 850h129q0 -42 35.5 -67t97.5 -25q64 0 102 27.5t38 76.5q0 54 -43.5 85.5t-120.5 31.5h-72v102h72q70 0 110.5 27.5t40.5 77.5q0 46 -34.5 74t-92.5 28t-90.5 -25.5t-32.5 -66.5h-129q0 85 64 141t188 56q118 0 188 -56t70 -145q0 -61 -39 -104.5t-98 -57.5 q62 -11 106 -58t44 -116q0 -91 -74.5 -148t-196.5 -57q-130 0 -196 55t-66 144zM319 0l830 1384h145l-833 -1384h-142zM856 143v93l363 481h133v-471h100v-103h-100v-143h-127v143h-369zM991 246h234v307z" />
<glyph unicode="&#xbf;" horiz-adv-x="903" d="M72 -115q0 67 23.5 126.5t59 101.5t77 88.5t77 87.5t59 98.5t23.5 120.5h168q0 -74 -23.5 -140.5t-58.5 -112.5t-76.5 -93.5t-76.5 -85.5t-58.5 -86.5t-23.5 -98.5q0 -82 58 -140t161 -58q97 0 154 49t57 131l164 -12q0 -67 -22.5 -125t-66 -103t-114.5 -70.5t-162 -25.5 q-185 0 -292 99t-107 249zM350 836q0 51 36 85.5t91 34.5q54 0 89.5 -34.5t35.5 -85.5q0 -52 -35.5 -86.5t-89.5 -34.5q-55 0 -91 34t-36 87z" />
<glyph unicode="&#xc0;" horiz-adv-x="1249" d="M25 0l495 1384h209l500 -1384h-193l-125 365h-573l-125 -365h-188zM375 1843h176l156 -319h-154zM385 512h479l-237 692z" />
<glyph unicode="&#xc1;" horiz-adv-x="1249" d="M25 0l495 1384h209l500 -1384h-193l-125 365h-573l-125 -365h-188zM385 512h479l-237 692zM545 1524l155 319h177l-179 -319h-153z" />
<glyph unicode="&#xc2;" horiz-adv-x="1249" d="M25 0l495 1384h209l500 -1384h-193l-125 365h-573l-125 -365h-188zM336 1524l207 319h166l209 -319h-152l-141 207l-138 -207h-151zM385 512h479l-237 692z" />
<glyph unicode="&#xc3;" horiz-adv-x="1249" d="M25 0l495 1384h209l500 -1384h-193l-125 365h-573l-125 -365h-188zM340 1614l12 125q49 -49 125 -49q48 0 136 38.5t155 38.5q72 0 143 -49l-12 -129q-67 53 -131 53q-45 0 -137 -39.5t-154 -39.5q-41 0 -78.5 15t-58.5 36zM385 512h479l-237 692z" />
<glyph unicode="&#xc4;" horiz-adv-x="1249" d="M25 0l495 1384h209l500 -1384h-193l-125 365h-573l-125 -365h-188zM324 1669q0 58 31 86.5t83 28.5q48 0 81.5 -29.5t33.5 -85.5t-33 -83t-82 -27q-114 0 -114 110zM385 512h479l-237 692zM700 1669q0 58 30.5 86.5t82.5 28.5q48 0 81.5 -29.5t33.5 -85.5t-33 -83 t-82 -27q-113 0 -113 110z" />
<glyph unicode="&#xc5;" horiz-adv-x="1249" d="M25 0l495 1384h209l500 -1384h-193l-125 365h-573l-125 -365h-188zM385 512h479l-237 692zM414 1659q0 84 57 139t154 55q100 0 158.5 -55t58.5 -139q0 -81 -59 -138t-158 -57q-96 0 -153.5 57t-57.5 138zM522 1659q0 -43 27.5 -70.5t75.5 -27.5q51 0 79.5 27.5 t28.5 70.5q0 44 -28.5 72t-79.5 28q-48 0 -75.5 -28t-27.5 -72z" />
<glyph unicode="&#xc6;" horiz-adv-x="1925" d="M-2 0l930 1384h895v-149h-656v-453h584v-149h-584v-490h664v-143h-840v365h-555l-246 -365h-192zM526 510h465v707z" />
<glyph unicode="&#xc7;" horiz-adv-x="1198" d="M109 690q0 340 142 527.5t427 187.5q155 0 272 -66t176 -176l-137 -88q-41 81 -124 128.5t-183 47.5q-104 0 -181 -41t-122.5 -117t-67.5 -176t-22 -227q0 -125 22 -224.5t67.5 -175t122.5 -116.5t181 -41q100 0 183 47.5t124 128.5l137 -88q-56 -103 -161 -166.5 t-246 -72.5l-35 -93q84 0 136 -39t52 -126q0 -71 -56 -118.5t-154 -47.5q-91 0 -179 45v118q77 -57 168 -57q40 0 62 17t22 43q0 39 -27.5 54t-82.5 15h-74l-8 12l61 179q-248 23 -371.5 207t-123.5 499z" />
<glyph unicode="&#xc8;" horiz-adv-x="1103" d="M168 0v1384h831v-149h-655v-453h582v-149h-582v-483h664v-150h-840zM344 1843h176l156 -319h-154z" />
<glyph unicode="&#xc9;" horiz-adv-x="1103" d="M168 0v1384h831v-149h-655v-453h582v-149h-582v-483h664v-150h-840zM504 1524l155 319h177l-179 -319h-153z" />
<glyph unicode="&#xca;" horiz-adv-x="1103" d="M168 0v1384h831v-149h-655v-453h582v-149h-582v-483h664v-150h-840zM295 1524l207 319h166l209 -319h-152l-141 207l-138 -207h-151z" />
<glyph unicode="&#xcb;" horiz-adv-x="1103" d="M168 0v1384h831v-149h-655v-453h582v-149h-582v-483h664v-150h-840zM283 1669q0 58 31 86.5t83 28.5q48 0 81.5 -29.5t33.5 -85.5t-33 -83t-82 -27q-114 0 -114 110zM659 1669q0 58 30.5 86.5t82.5 28.5q48 0 81.5 -29.5t33.5 -85.5t-33 -83t-82 -27q-113 0 -113 110z " />
<glyph unicode="&#xcc;" horiz-adv-x="509" d="M2 1843h176l156 -319h-154zM168 0v1384h176v-1384h-176z" />
<glyph unicode="&#xcd;" horiz-adv-x="509" d="M168 0v1384h176v-1384h-176zM180 1524l156 319h176l-178 -319h-154z" />
<glyph unicode="&#xce;" horiz-adv-x="509" d="M-35 1524l207 319h166l209 -319h-152l-141 207l-137 -207h-152zM168 0v1384h176v-1384h-176z" />
<glyph unicode="&#xcf;" horiz-adv-x="509" d="M-47 1669q0 58 31.5 86.5t83.5 28.5q48 0 81 -29t33 -86q0 -56 -32.5 -83t-81.5 -27q-115 0 -115 110zM168 0v1384h176v-1384h-176zM330 1669q0 58 30 86.5t82 28.5q48 0 81.5 -29.5t33.5 -85.5t-33 -83t-82 -27q-112 0 -112 110z" />
<glyph unicode="&#xd0;" horiz-adv-x="1343" d="M45 643v129h137v612h391q356 0 509 -162t153 -530q0 -366 -153.5 -529t-508.5 -163h-391v643h-137zM358 150h207q143 0 235.5 28t149.5 94.5t80 166.5t23 253q0 150 -23 249.5t-79.5 167t-150 97t-235.5 29.5h-207v-463h236v-129h-236v-493z" />
<glyph unicode="&#xd1;" horiz-adv-x="1392" d="M166 0l2 1384h188l693 -1099l2 1099h174v-1384h-185l-696 1106v-1106h-178zM410 1614l12 125q49 -49 125 -49q48 0 136 38.5t155 38.5q72 0 143 -49l-12 -129q-67 53 -131 53q-45 0 -137 -39.5t-154 -39.5q-41 0 -78.5 15t-58.5 36z" />
<glyph unicode="&#xd2;" horiz-adv-x="1343" d="M109 690q0 127 18.5 233.5t61 197t107 152.5t160 97t216.5 35q120 0 215.5 -35t160.5 -97.5t108 -153t62 -196.5t19 -233q0 -159 -32 -285.5t-98 -223t-177 -149t-260 -52.5q-120 0 -215 34.5t-159 96.5t-106.5 151.5t-61.5 195t-19 232.5zM289 690q0 -131 18.5 -228.5 t61 -173.5t118 -115.5t183.5 -39.5q109 0 186 39.5t120 115.5t62 174t19 228q0 103 -11.5 185.5t-39 154t-70.5 119.5t-110 75t-154 27q-106 0 -182 -40.5t-119 -117.5t-62.5 -175.5t-19.5 -227.5zM430 1843h176l156 -319h-154z" />
<glyph unicode="&#xd3;" horiz-adv-x="1343" d="M109 690q0 127 18.5 233.5t61 197t107 152.5t160 97t216.5 35q120 0 215.5 -35t160.5 -97.5t108 -153t62 -196.5t19 -233q0 -159 -32 -285.5t-98 -223t-177 -149t-260 -52.5q-120 0 -215 34.5t-159 96.5t-106.5 151.5t-61.5 195t-19 232.5zM289 690q0 -131 18.5 -228.5 t61 -173.5t118 -115.5t183.5 -39.5q109 0 186 39.5t120 115.5t62 174t19 228q0 103 -11.5 185.5t-39 154t-70.5 119.5t-110 75t-154 27q-106 0 -182 -40.5t-119 -117.5t-62.5 -175.5t-19.5 -227.5zM592 1524l156 319h176l-179 -319h-153z" />
<glyph unicode="&#xd4;" horiz-adv-x="1343" d="M109 690q0 127 18.5 233.5t61 197t107 152.5t160 97t216.5 35q120 0 215.5 -35t160.5 -97.5t108 -153t62 -196.5t19 -233q0 -159 -32 -285.5t-98 -223t-177 -149t-260 -52.5q-120 0 -215 34.5t-159 96.5t-106.5 151.5t-61.5 195t-19 232.5zM289 690q0 -131 18.5 -228.5 t61 -173.5t118 -115.5t183.5 -39.5q109 0 186 39.5t120 115.5t62 174t19 228q0 103 -11.5 185.5t-39 154t-70.5 119.5t-110 75t-154 27q-106 0 -182 -40.5t-119 -117.5t-62.5 -175.5t-19.5 -227.5zM381 1524l207 319h166l209 -319h-152l-141 207l-138 -207h-151z" />
<glyph unicode="&#xd5;" horiz-adv-x="1343" d="M109 690q0 127 18.5 233.5t61 197t107 152.5t160 97t216.5 35q120 0 215.5 -35t160.5 -97.5t108 -153t62 -196.5t19 -233q0 -159 -32 -285.5t-98 -223t-177 -149t-260 -52.5q-120 0 -215 34.5t-159 96.5t-106.5 151.5t-61.5 195t-19 232.5zM289 690q0 -131 18.5 -228.5 t61 -173.5t118 -115.5t183.5 -39.5q109 0 186 39.5t120 115.5t62 174t19 228q0 103 -11.5 185.5t-39 154t-70.5 119.5t-110 75t-154 27q-106 0 -182 -40.5t-119 -117.5t-62.5 -175.5t-19.5 -227.5zM385 1614l12 125q49 -49 125 -49q48 0 136 38.5t155 38.5q72 0 143 -49 l-12 -129q-67 53 -131 53q-45 0 -137 -39.5t-154 -39.5q-41 0 -78.5 15t-58.5 36z" />
<glyph unicode="&#xd6;" horiz-adv-x="1343" d="M109 690q0 127 18.5 233.5t61 197t107 152.5t160 97t216.5 35q120 0 215.5 -35t160.5 -97.5t108 -153t62 -196.5t19 -233q0 -159 -32 -285.5t-98 -223t-177 -149t-260 -52.5q-120 0 -215 34.5t-159 96.5t-106.5 151.5t-61.5 195t-19 232.5zM289 690q0 -131 18.5 -228.5 t61 -173.5t118 -115.5t183.5 -39.5q109 0 186 39.5t120 115.5t62 174t19 228q0 103 -11.5 185.5t-39 154t-70.5 119.5t-110 75t-154 27q-106 0 -182 -40.5t-119 -117.5t-62.5 -175.5t-19.5 -227.5zM369 1669q0 58 31 86.5t83 28.5q48 0 81.5 -29.5t33.5 -85.5t-33 -83 t-82 -27q-114 0 -114 110zM745 1669q0 58 30.5 86.5t82.5 28.5q48 0 81.5 -29.5t33.5 -85.5t-33 -83t-82 -27q-113 0 -113 110z" />
<glyph unicode="&#xd7;" d="M135 877l111 112l329 -330l326 326l105 -106l-326 -326l330 -328l-113 -112l-328 329l-321 -321l-105 106l320 322z" />
<glyph unicode="&#xd8;" horiz-adv-x="1349" d="M76 0l149 199q-114 178 -114 491q0 127 18.5 233.5t61 197t107 152.5t160 97t216.5 35q230 0 368 -129l82 108h162l-160 -208q113 -181 113 -486q0 -159 -32 -285.5t-98 -223t-177 -149t-260 -52.5q-231 0 -363 120l-78 -100h-155zM291 690q0 -213 49 -342l602 795 q-91 108 -268 108q-106 0 -182 -40.5t-119 -117.5t-62.5 -175.5t-19.5 -227.5zM410 233q89 -100 262 -100q109 0 186 39.5t120 115.5t62 174t19 228q0 206 -49 332z" />
<glyph unicode="&#xd9;" horiz-adv-x="1333" d="M156 516v868h176v-870q0 -199 83.5 -290t250.5 -91q166 0 249.5 91t83.5 290v870h177v-868q0 -142 -37 -247t-106.5 -167.5t-160.5 -92t-206 -29.5t-206 30t-160.5 92.5t-106.5 167t-37 246.5zM414 1843h176l155 -319h-153z" />
<glyph unicode="&#xda;" horiz-adv-x="1333" d="M156 516v868h176v-870q0 -199 83.5 -290t250.5 -91q166 0 249.5 91t83.5 290v870h177v-868q0 -142 -37 -247t-106.5 -167.5t-160.5 -92t-206 -29.5t-206 30t-160.5 92.5t-106.5 167t-37 246.5zM588 1524l155 319h177l-179 -319h-153z" />
<glyph unicode="&#xdb;" horiz-adv-x="1333" d="M156 516v868h176v-870q0 -199 83.5 -290t250.5 -91q166 0 249.5 91t83.5 290v870h177v-868q0 -142 -37 -247t-106.5 -167.5t-160.5 -92t-206 -29.5t-206 30t-160.5 92.5t-106.5 167t-37 246.5zM375 1524l207 319h166l208 -319h-151l-141 207l-138 -207h-151z" />
<glyph unicode="&#xdc;" horiz-adv-x="1333" d="M156 516v868h176v-870q0 -199 83.5 -290t250.5 -91q166 0 249.5 91t83.5 290v870h177v-868q0 -142 -37 -247t-106.5 -167.5t-160.5 -92t-206 -29.5t-206 30t-160.5 92.5t-106.5 167t-37 246.5zM362 1669q0 58 31.5 86.5t83.5 28.5q48 0 81.5 -29.5t33.5 -85.5t-33 -83 t-82 -27q-115 0 -115 110zM739 1669q0 58 30.5 86.5t82.5 28.5q48 0 81.5 -29.5t33.5 -85.5t-33 -83t-82 -27q-113 0 -113 110z" />
<glyph unicode="&#xdd;" horiz-adv-x="1179" d="M27 1384h196l367 -667l362 667h199l-475 -831v-553h-176v553zM508 1524l156 319h176l-178 -319h-154z" />
<glyph unicode="&#xde;" horiz-adv-x="1150" d="M168 0v1386h174v-268h266q232 0 348.5 -110t116.5 -310q0 -199 -116.5 -309t-348.5 -110h-264v-279h-176zM344 428h254q158 0 226.5 71t68.5 199q0 271 -295 271h-254v-541z" />
<glyph unicode="&#xdf;" horiz-adv-x="1122" d="M137 0v1008q0 94 20.5 170t63.5 134t115.5 90t169.5 32q98 0 172 -28t117.5 -76t64.5 -106.5t21 -125.5q0 -60 -28.5 -120t-62 -99t-62 -79.5t-28.5 -66.5q0 -60 105 -123l78 -51q94 -62 136 -130t42 -159q0 -128 -91.5 -210.5t-246.5 -82.5q-121 0 -238 60l54 133 q88 -53 170 -53q87 0 136.5 43t49.5 110q0 54 -26.5 95.5t-90.5 83.5l-88 59q-84 55 -121 98.5t-37 110.5q0 35 18.5 72.5t45 71t52.5 67.5t44.5 75t18.5 82q0 99 -54.5 151t-154.5 52q-62 0 -103.5 -20t-62.5 -60t-29 -85.5t-8 -110.5v-1012h-162z" />
<glyph unicode="&#xe0;" horiz-adv-x="962" d="M80 244q0 136 111.5 208t316.5 93l160 16v92q0 84 -43.5 125t-151.5 41q-94 0 -143 -30.5t-49 -83.5v-54h-146q-6 35 -6 68q0 106 91.5 170.5t260.5 64.5q172 0 261 -75t89 -224v-655h-155v115q-48 -57 -128 -96t-186 -39q-132 0 -207 70t-75 194zM246 252 q0 -68 41.5 -104.5t122.5 -36.5q77 0 144 32t114 82v224l-154 -19q-132 -18 -200 -60.5t-68 -117.5zM258 1425h176l156 -319h-154z" />
<glyph unicode="&#xe1;" horiz-adv-x="962" d="M80 244q0 136 111.5 208t316.5 93l160 16v92q0 84 -43.5 125t-151.5 41q-94 0 -143 -30.5t-49 -83.5v-54h-146q-6 35 -6 68q0 106 91.5 170.5t260.5 64.5q172 0 261 -75t89 -224v-655h-155v115q-48 -57 -128 -96t-186 -39q-132 0 -207 70t-75 194zM246 252 q0 -68 41.5 -104.5t122.5 -36.5q77 0 144 32t114 82v224l-154 -19q-132 -18 -200 -60.5t-68 -117.5zM414 1106l155 319h176l-178 -319h-153z" />
<glyph unicode="&#xe2;" horiz-adv-x="960" d="M80 244q0 136 111.5 208t316.5 93l160 16v92q0 84 -43.5 125t-151.5 41q-94 0 -143 -30.5t-49 -83.5v-54h-146q-6 35 -6 68q0 106 91.5 170.5t260.5 64.5q172 0 261 -75t89 -224v-655h-155v115q-48 -57 -128 -96t-186 -39q-132 0 -207 70t-75 194zM205 1106l207 319h166 l208 -319h-151l-141 207l-138 -207h-151zM246 252q0 -68 41.5 -104.5t122.5 -36.5q77 0 144 32t114 82v224l-154 -19q-132 -18 -200 -60.5t-68 -117.5z" />
<glyph unicode="&#xe3;" horiz-adv-x="962" d="M80 244q0 136 111.5 208t316.5 93l160 16v92q0 84 -43.5 125t-151.5 41q-94 0 -143 -30.5t-49 -83.5v-54h-146q-6 35 -6 68q0 106 91.5 170.5t260.5 64.5q172 0 261 -75t89 -224v-655h-155v115q-48 -57 -128 -96t-186 -39q-132 0 -207 70t-75 194zM211 1196l12 125 q49 -49 125 -49q48 0 136 39t155 39q71 0 143 -50l-12 -129q-68 54 -131 54q-45 0 -137 -40t-154 -40q-41 0 -78.5 15t-58.5 36zM246 252q0 -68 41.5 -104.5t122.5 -36.5q77 0 144 32t114 82v224l-154 -19q-132 -18 -200 -60.5t-68 -117.5z" />
<glyph unicode="&#xe4;" horiz-adv-x="962" d="M80 244q0 136 111.5 208t316.5 93l160 16v92q0 84 -43.5 125t-151.5 41q-94 0 -143 -30.5t-49 -83.5v-54h-146q-6 35 -6 68q0 106 91.5 170.5t260.5 64.5q172 0 261 -75t89 -224v-655h-155v115q-48 -57 -128 -96t-186 -39q-132 0 -207 70t-75 194zM193 1251q0 58 31 86.5 t83 28.5q48 0 81.5 -29.5t33.5 -85.5t-33 -83t-82 -27q-114 0 -114 110zM246 252q0 -68 41.5 -104.5t122.5 -36.5q77 0 144 32t114 82v224l-154 -19q-132 -18 -200 -60.5t-68 -117.5zM569 1251q0 58 30.5 86.5t82.5 28.5q48 0 81.5 -29.5t33.5 -85.5t-33 -83t-82 -27 q-113 0 -113 110z" />
<glyph unicode="&#xe5;" horiz-adv-x="962" d="M80 244q0 136 111.5 208t316.5 93l160 16v92q0 84 -43.5 125t-151.5 41q-94 0 -143 -30.5t-49 -83.5v-54h-146q-6 35 -6 68q0 106 91.5 170.5t260.5 64.5q172 0 261 -75t89 -224v-655h-155v115q-48 -57 -128 -96t-186 -39q-132 0 -207 70t-75 194zM246 252 q0 -68 41.5 -104.5t122.5 -36.5q77 0 144 32t114 82v224l-154 -19q-132 -18 -200 -60.5t-68 -117.5zM283 1274q0 84 57 139t154 55q100 0 158.5 -55t58.5 -139q0 -81 -59 -138t-158 -57q-96 0 -153.5 57t-57.5 138zM391 1274q0 -43 27.5 -70.5t75.5 -27.5q51 0 79.5 27.5 t28.5 70.5q0 44 -28.5 72t-79.5 28q-48 0 -75.5 -28t-27.5 -72z" />
<glyph unicode="&#xe6;" horiz-adv-x="1542" d="M78 244q0 256 430 301l160 16v92q0 83 -44.5 124.5t-150.5 41.5q-96 0 -145 -30.5t-49 -83.5v-54h-146q-4 46 -4 68q0 106 91 170.5t261 64.5q228 0 301 -143q99 143 297 143q95 0 168.5 -33t117.5 -89t66.5 -124.5t22.5 -146.5q0 -77 -14 -145h-606q3 -139 67 -217 t195 -78q65 0 134.5 25.5t121.5 74.5l82 -110q-49 -54 -141.5 -92.5t-196.5 -38.5q-242 0 -342 165q-63 -74 -159 -119.5t-214 -45.5q-145 0 -224 69.5t-79 194.5zM246 252q0 -141 164 -141q77 0 144 32t114 82v224l-156 -19q-130 -18 -198 -60.5t-68 -117.5zM836 541h458 q4 24 4 41q0 107 -58.5 171t-160.5 64q-120 0 -178.5 -74.5t-64.5 -201.5z" />
<glyph unicode="&#xe7;" horiz-adv-x="917" d="M92 465q0 105 24.5 192.5t73 154.5t129.5 104.5t187 37.5q249 0 348 -190l-119 -82q-73 125 -219 125q-133 0 -195.5 -92.5t-62.5 -249.5t62.5 -248.5t195.5 -91.5q148 0 219 127l119 -84q-89 -170 -307 -186l-35 -93q84 0 136 -39t52 -126q0 -70 -56.5 -118t-154.5 -48 q-90 0 -178 45v118q77 -57 168 -57q40 0 62 17t22 43q0 39 -27.5 54t-82.5 15h-74l-8 12l61 181q-115 15 -193 82.5t-112.5 167.5t-34.5 229z" />
<glyph unicode="&#xe8;" horiz-adv-x="964" d="M92 469q0 102 25 189t74 153.5t129 104.5t182 38q95 0 168.5 -33t117.5 -89t66.5 -124.5t22.5 -146.5q0 -61 -13 -145h-608q3 -139 67 -217t197 -78q64 0 134 26t120 74l82 -110q-49 -54 -141.5 -92.5t-194.5 -38.5q-220 0 -324 130.5t-104 358.5zM258 541h459q4 24 4 41 q0 107 -58.5 171t-160.5 64q-119 0 -177.5 -74.5t-66.5 -201.5zM270 1425h176l156 -319h-153z" />
<glyph unicode="&#xe9;" horiz-adv-x="964" d="M92 469q0 102 25 189t74 153.5t129 104.5t182 38q95 0 168.5 -33t117.5 -89t66.5 -124.5t22.5 -146.5q0 -61 -13 -145h-608q3 -139 67 -217t197 -78q64 0 134 26t120 74l82 -110q-49 -54 -141.5 -92.5t-194.5 -38.5q-220 0 -324 130.5t-104 358.5zM258 541h459q4 24 4 41 q0 107 -58.5 171t-160.5 64q-119 0 -177.5 -74.5t-66.5 -201.5zM416 1106l155 319h177l-179 -319h-153z" />
<glyph unicode="&#xea;" horiz-adv-x="964" d="M92 469q0 102 25 189t74 153.5t129 104.5t182 38q95 0 168.5 -33t117.5 -89t66.5 -124.5t22.5 -146.5q0 -61 -13 -145h-608q3 -139 67 -217t197 -78q64 0 134 26t120 74l82 -110q-49 -54 -141.5 -92.5t-194.5 -38.5q-220 0 -324 130.5t-104 358.5zM213 1106l207 319h166 l209 -319h-152l-141 207l-137 -207h-152zM258 541h459q4 24 4 41q0 107 -58.5 171t-160.5 64q-119 0 -177.5 -74.5t-66.5 -201.5z" />
<glyph unicode="&#xeb;" horiz-adv-x="964" d="M92 469q0 102 25 189t74 153.5t129 104.5t182 38q95 0 168.5 -33t117.5 -89t66.5 -124.5t22.5 -146.5q0 -61 -13 -145h-608q3 -139 67 -217t197 -78q64 0 134 26t120 74l82 -110q-49 -54 -141.5 -92.5t-194.5 -38.5q-220 0 -324 130.5t-104 358.5zM205 1251q0 58 31 86.5 t83 28.5q48 0 81.5 -29.5t33.5 -85.5t-33 -83t-82 -27q-114 0 -114 110zM258 541h459q4 24 4 41q0 107 -58.5 171t-160.5 64q-119 0 -177.5 -74.5t-66.5 -201.5zM582 1251q0 58 30 86.5t82 28.5q48 0 81.5 -29.5t33.5 -85.5t-33 -83t-82 -27q-112 0 -112 110z" />
<glyph unicode="&#xec;" horiz-adv-x="442" d="M-23 1425h177l155 -319h-153zM139 0v934h164v-934h-164z" />
<glyph unicode="&#xed;" horiz-adv-x="442" d="M133 1106l156 319h176l-178 -319h-154zM139 0v934h164v-934h-164z" />
<glyph unicode="&#xee;" horiz-adv-x="442" d="M-68 1106l207 319h166l209 -319h-152l-141 207l-137 -207h-152zM139 0v934h164v-934h-164z" />
<glyph unicode="&#xef;" horiz-adv-x="442" d="M-82 1251q0 58 31.5 86.5t83.5 28.5q48 0 81 -29t33 -86q0 -56 -32.5 -83t-81.5 -27q-115 0 -115 110zM139 0v934h164v-934h-164zM295 1251q0 58 30.5 86.5t82.5 28.5q48 0 81 -29t33 -86q0 -56 -32.5 -83t-81.5 -27q-113 0 -113 110z" />
<glyph unicode="&#xf0;" horiz-adv-x="1075" d="M92 449q0 210 104 338t291 128q120 0 200.5 -56t121.5 -142q-3 196 -98 375l-166 -76l-47 110l151 68q-87 126 -200 219h208q81 -71 138 -153l125 57l47 -107l-113 -53q117 -229 117 -514q0 -110 -14 -205t-47 -181t-84 -146t-129 -95.5t-177 -35.5q-142 0 -239.5 61.5 t-143 165t-45.5 242.5zM254 444q0 -141 64.5 -230t201.5 -89q263 0 279 410q-41 98 -112.5 162.5t-174.5 64.5q-129 0 -193.5 -86t-64.5 -232z" />
<glyph unicode="&#xf1;" horiz-adv-x="1060" d="M137 0v934h160v-113q42 60 124 96.5t183 36.5q170 0 249 -90t79 -268v-596h-164v582q0 113 -48 167t-165 54q-80 0 -147 -30.5t-107 -78.5v-694h-164zM254 1196l12 125q49 -49 125 -49q48 0 136 39t155 39q70 0 143 -50l-12 -129q-68 54 -131 54q-45 0 -137 -40t-154 -40 q-41 0 -78.5 15t-58.5 36z" />
<glyph unicode="&#xf2;" horiz-adv-x="1024" d="M92 467q0 222 105 354.5t317 132.5q107 0 188.5 -36t131.5 -102t75 -153t25 -194q0 -225 -105 -357t-321 -132q-138 0 -233.5 64t-139 171.5t-43.5 251.5zM258 469q0 -340 252 -340q256 0 256 338t-256 338q-128 0 -190 -87.5t-62 -248.5zM279 1425h176l155 -319h-153z " />
<glyph unicode="&#xf3;" horiz-adv-x="1024" d="M92 467q0 222 105 354.5t317 132.5q107 0 188.5 -36t131.5 -102t75 -153t25 -194q0 -225 -105 -357t-321 -132q-138 0 -233.5 64t-139 171.5t-43.5 251.5zM258 469q0 -340 252 -340q256 0 256 338t-256 338q-128 0 -190 -87.5t-62 -248.5zM424 1106l156 319h176 l-178 -319h-154z" />
<glyph unicode="&#xf4;" horiz-adv-x="1024" d="M92 467q0 222 105 354.5t317 132.5q107 0 188.5 -36t131.5 -102t75 -153t25 -194q0 -225 -105 -357t-321 -132q-138 0 -233.5 64t-139 171.5t-43.5 251.5zM223 1106l207 319h166l209 -319h-152l-141 207l-137 -207h-152zM258 469q0 -340 252 -340q256 0 256 338t-256 338 q-128 0 -190 -87.5t-62 -248.5z" />
<glyph unicode="&#xf5;" horiz-adv-x="1024" d="M92 467q0 222 105 354.5t317 132.5q107 0 188.5 -36t131.5 -102t75 -153t25 -194q0 -225 -105 -357t-321 -132q-138 0 -233.5 64t-139 171.5t-43.5 251.5zM231 1196l13 125q49 -49 125 -49q48 0 135.5 39t154.5 39q71 0 144 -50l-12 -129q-68 54 -132 54 q-45 0 -136.5 -40t-153.5 -40q-42 0 -79.5 15t-58.5 36zM258 469q0 -340 252 -340q256 0 256 338t-256 338q-128 0 -190 -87.5t-62 -248.5z" />
<glyph unicode="&#xf6;" horiz-adv-x="1024" d="M92 467q0 222 105 354.5t317 132.5q107 0 188.5 -36t131.5 -102t75 -153t25 -194q0 -225 -105 -357t-321 -132q-138 0 -233.5 64t-139 171.5t-43.5 251.5zM213 1251q0 58 31.5 86.5t83.5 28.5q48 0 81 -29t33 -86q0 -56 -32.5 -83t-81.5 -27q-115 0 -115 110zM258 469 q0 -340 252 -340q256 0 256 338t-256 338q-128 0 -190 -87.5t-62 -248.5zM590 1251q0 58 30 86.5t82 28.5q48 0 81.5 -29.5t33.5 -85.5t-33 -83t-82 -27q-112 0 -112 110z" />
<glyph unicode="&#xf7;" d="M98 481v144h949v-144h-949zM453 180q0 52 35.5 86.5t89.5 34.5t89 -34t35 -87q0 -51 -35 -85t-89 -34t-89.5 34t-35.5 85zM453 922q0 53 35 86.5t90 33.5q54 0 89 -33t35 -87q0 -53 -35 -88t-89 -35t-89.5 35t-35.5 88z" />
<glyph unicode="&#xf8;" horiz-adv-x="1024" d="M88 0l96 127q-92 126 -92 340q0 222 105 354.5t317 132.5q149 0 248 -71l39 51h141l-100 -129q92 -126 92 -336q0 -225 -105 -357t-321 -132q-150 0 -244 69l-39 -49h-137zM258 469q0 -124 33 -203l375 492q-59 47 -156 47q-128 0 -190 -87.5t-62 -248.5zM358 174 q61 -45 152 -45q256 0 256 338q0 121 -33 197z" />
<glyph unicode="&#xf9;" horiz-adv-x="1060" d="M129 338v596h164v-582q0 -113 48 -167t165 -54q80 0 147 30.5t107 78.5v694h164v-934h-160v113q-42 -60 -124 -96.5t-183 -36.5q-170 0 -249 90t-79 268zM289 1425h176l156 -319h-154z" />
<glyph unicode="&#xfa;" horiz-adv-x="1060" d="M129 338v596h164v-582q0 -113 48 -167t165 -54q80 0 147 30.5t107 78.5v694h164v-934h-160v113q-42 -60 -124 -96.5t-183 -36.5q-170 0 -249 90t-79 268zM446 1106l156 319h176l-178 -319h-154z" />
<glyph unicode="&#xfb;" horiz-adv-x="1060" d="M129 338v596h164v-582q0 -113 48 -167t165 -54q80 0 147 30.5t107 78.5v694h164v-934h-160v113q-42 -60 -124 -96.5t-183 -36.5q-170 0 -249 90t-79 268zM233 1106l207 319h166l209 -319h-151l-142 207l-137 -207h-152z" />
<glyph unicode="&#xfc;" horiz-adv-x="1060" d="M129 338v596h164v-582q0 -113 48 -167t165 -54q80 0 147 30.5t107 78.5v694h164v-934h-160v113q-42 -60 -124 -96.5t-183 -36.5q-170 0 -249 90t-79 268zM227 1251q0 58 31.5 86.5t83.5 28.5q48 0 81.5 -29.5t33.5 -85.5t-33 -83t-82 -27q-115 0 -115 110zM604 1251 q0 58 30.5 86.5t82.5 28.5q48 0 81 -29t33 -86q0 -56 -32.5 -83t-81.5 -27q-113 0 -113 110z" />
<glyph unicode="&#xfd;" horiz-adv-x="983" d="M31 934h184l293 -682l262 682h180l-567 -1376h-172l213 501zM428 1106l156 319h176l-178 -319h-154z" />
<glyph unicode="&#xfe;" horiz-adv-x="1060" d="M139 -442v1826h164v-536q92 106 270 106q195 0 294.5 -129.5t99.5 -361.5q0 -228 -99.5 -355.5t-296.5 -127.5q-92 0 -161 29.5t-107 76.5v-528h-164zM303 242q32 -45 91.5 -78t142.5 -33q144 0 204 86t60 246q0 340 -264 340q-82 0 -142 -32.5t-92 -82.5v-446z" />
<glyph unicode="&#xff;" horiz-adv-x="983" d="M31 934h184l293 -682l262 682h180l-567 -1376h-172l213 501zM201 1251q0 58 31 86.5t83 28.5q48 0 81.5 -29.5t33.5 -85.5t-33 -83t-82 -27q-114 0 -114 110zM578 1251q0 58 30 86.5t82 28.5q48 0 81.5 -29.5t33.5 -85.5t-33 -83t-82 -27q-112 0 -112 110z" />
<glyph unicode="&#x152;" horiz-adv-x="1796" d="M109 690q0 127 18.5 233.5t61 197t107 152.5t160 97t216.5 35q92 0 192 -21h828v-149h-656v-453h582v-149h-582v-483h664v-150h-838q-88 -20 -192 -20q-120 0 -215 34.5t-159 96.5t-106.5 151.5t-61.5 195t-19 232.5zM291 690q0 -104 11 -186t37.5 -153t69.5 -118 t108.5 -73.5t152.5 -26.5q101 0 190 29v1057q-88 32 -188 32q-106 0 -181.5 -40.5t-118.5 -117.5t-62 -175.5t-19 -227.5z" />
<glyph unicode="&#x153;" horiz-adv-x="1646" d="M92 467q0 222 105 354.5t317 132.5q243 0 342 -194q93 194 330 194q76 0 139 -21.5t106 -58.5t72 -87.5t42.5 -107t13.5 -118.5q0 -82 -13 -145h-608q3 -138 68 -216.5t196 -78.5q64 0 134 26t120 74l82 -110q-47 -54 -140 -92.5t-196 -38.5q-253 0 -350 190 q-94 -190 -344 -190q-138 0 -233.5 64t-139 171.5t-43.5 251.5zM258 469q0 -340 252 -340q256 0 256 338t-256 338q-128 0 -190 -87.5t-62 -248.5zM940 541h459q4 24 4 41q0 107 -58.5 171t-158.5 64q-120 0 -179 -74.5t-67 -201.5z" />
<glyph unicode="&#x178;" horiz-adv-x="1179" d="M27 1384h196l367 -667l362 667h199l-475 -831v-553h-176v553zM287 1669q0 58 31 86.5t83 28.5q48 0 81.5 -29.5t33.5 -85.5t-33 -83t-82 -27q-114 0 -114 110zM664 1669q0 58 30 86.5t82 28.5q48 0 81.5 -29.5t33.5 -85.5t-33 -83t-82 -27q-112 0 -112 110z" />
<glyph unicode="&#x2c6;" horiz-adv-x="1228" d="M324 1106l206 319h166l209 -319h-151l-142 207l-137 -207h-151z" />
<glyph unicode="&#x2dc;" horiz-adv-x="1228" d="M328 1196l12 125q49 -49 125 -49q48 0 136 39t155 39q70 0 143 -50l-12 -129q-68 54 -131 54q-45 0 -137 -40t-154 -40q-41 0 -78.5 15t-58.5 36z" />
<glyph unicode="&#x2000;" horiz-adv-x="926" />
<glyph unicode="&#x2001;" horiz-adv-x="1853" />
<glyph unicode="&#x2002;" horiz-adv-x="926" />
<glyph unicode="&#x2003;" horiz-adv-x="1853" />
<glyph unicode="&#x2004;" horiz-adv-x="617" />
<glyph unicode="&#x2005;" horiz-adv-x="463" />
<glyph unicode="&#x2006;" horiz-adv-x="308" />
<glyph unicode="&#x2007;" horiz-adv-x="308" />
<glyph unicode="&#x2008;" horiz-adv-x="231" />
<glyph unicode="&#x2009;" horiz-adv-x="370" />
<glyph unicode="&#x200a;" horiz-adv-x="102" />
<glyph unicode="&#x2010;" horiz-adv-x="790" d="M129 481v144h533v-144h-533z" />
<glyph unicode="&#x2011;" horiz-adv-x="790" d="M129 481v144h533v-144h-533z" />
<glyph unicode="&#x2012;" horiz-adv-x="790" d="M129 481v144h533v-144h-533z" />
<glyph unicode="&#x2013;" horiz-adv-x="1200" d="M129 481v144h942v-144h-942z" />
<glyph unicode="&#x2014;" horiz-adv-x="1486" d="M129 481v144h1229v-144h-1229z" />
<glyph unicode="&#x2018;" horiz-adv-x="436" d="M98 926l111 458h127l-51 -458h-187z" />
<glyph unicode="&#x2019;" horiz-adv-x="425" d="M113 926l51 458h186l-108 -458h-129z" />
<glyph unicode="&#x201a;" horiz-adv-x="450" d="M92 -229l51 458h187l-111 -458h-127z" />
<glyph unicode="&#x201c;" horiz-adv-x="720" d="M98 926l111 458h127l-51 -458h-187zM383 926l111 458h127l-52 -458h-186z" />
<glyph unicode="&#x201d;" horiz-adv-x="710" d="M113 926l51 458h186l-108 -458h-129zM399 926l52 458h184l-109 -458h-127z" />
<glyph unicode="&#x201e;" horiz-adv-x="735" d="M92 -229l51 458h187l-111 -458h-127zM377 -229l51 458h186l-110 -458h-127z" />
<glyph unicode="&#x2022;" horiz-adv-x="784" d="M160 551q0 97 66 160t167 63t166.5 -63t65.5 -160t-65.5 -160t-166.5 -63t-167 63t-66 160z" />
<glyph unicode="&#x2026;" horiz-adv-x="1263" d="M109 106q0 53 35 87t89 34t89.5 -34.5t35.5 -86.5q0 -51 -35.5 -85.5t-89.5 -34.5t-89 34.5t-35 85.5zM510 106q0 52 35.5 86.5t89.5 34.5t89.5 -34.5t35.5 -86.5q0 -51 -35.5 -85.5t-89.5 -34.5t-89.5 34.5t-35.5 85.5zM905 106q0 52 35.5 86.5t89.5 34.5t89.5 -34.5 t35.5 -86.5q0 -51 -35.5 -85.5t-89.5 -34.5t-89.5 34.5t-35.5 85.5z" />
<glyph unicode="&#x202f;" horiz-adv-x="370" />
<glyph unicode="&#x2039;" horiz-adv-x="628" d="M59 553l367 440l109 -78l-277 -362l277 -365l-109 -77z" />
<glyph unicode="&#x203a;" horiz-adv-x="628" d="M94 188l277 365l-277 362l109 78l366 -440l-366 -442z" />
<glyph unicode="&#x205f;" horiz-adv-x="463" />
<glyph unicode="&#x20ac;" horiz-adv-x="1179" d="M88 485v121h102q-2 29 -2 90q0 45 2 70h-102v119h113q34 246 164 383t360 137q180 0 356 -88l-59 -148q-146 80 -301 80q-150 0 -233.5 -96.5t-108.5 -267.5h534l-49 -119h-495q-2 -25 -2 -70q0 -32 4 -90h436l-45 -121h-377q31 -163 115.5 -257.5t230.5 -94.5 q163 0 313 96l43 -153q-178 -99 -362 -99q-228 0 -357 131t-165 377h-115z" />
<glyph unicode="&#x2122;" horiz-adv-x="1312" d="M109 1167v76h409v-76h-162v-409h-92v409h-155zM596 758l57 485h131l103 -381l108 381h127l58 -485h-93l-36 385l-115 -385h-102l-105 381l-43 -381h-90z" />
<glyph unicode="&#x25fc;" horiz-adv-x="931" d="M0 0v932h932v-932h-932z" />
</font>
</defs>
</svg>
