<?xml version="1.0" standalone="no"?>
<!DOCTYPE svg PUBLIC "-//W3C//DTD SVG 1.1//EN" "http://www.w3.org/Graphics/SVG/1.1/DTD/svg11.dtd" >
<svg xmlns="http://www.w3.org/2000/svg" xmlns:xlink="http://www.w3.org/1999/xlink" version="1.1">
<metadata>
Created by FontForge 20200314 at Fri Jan  7 05:45:11 2000
 By Unknown
(c) Dutch Design: Albert-Jan Pool, 1995. Published by FontShop International FontFont release 15
</metadata>
<defs>
<font id="DINBold" horiz-adv-x="543" >
  <font-face 
    font-family="DIN"
    font-weight="400"
    font-stretch="normal"
    units-per-em="1000"
    panose-1="0 0 4 0 0 0 0 0 0 0"
    ascent="800"
    descent="-200"
    x-height="521"
    cap-height="712"
    bbox="-115 -206 1158 1015"
    underline-thickness="87"
    underline-position="-178"
    unicode-range="U+0020-F002"
  />
<missing-glyph horiz-adv-x="500" 
d="M63 0v803h375v-803h-375zM125 63h250v678h-250v-678z" />
    <glyph glyph-name=".notdef" horiz-adv-x="500" 
d="M63 0v803h375v-803h-375zM125 63h250v678h-250v-678z" />
    <glyph glyph-name=".null" horiz-adv-x="0" 
 />
    <glyph glyph-name="nonmarkingreturn" horiz-adv-x="232" 
 />
    <glyph glyph-name="space" unicode=" " horiz-adv-x="232" 
 />
    <glyph glyph-name="exclam" unicode="!" horiz-adv-x="347" 
d="M272 712l-31 -489h-98l-31 489h160zM261 0h-138v133h138v-133z" />
    <glyph glyph-name="quotedbl" unicode="&#x22;" horiz-adv-x="464" 
d="M395 501h-121v211h121v-211zM190 501h-122v211h122v-211z" />
    <glyph glyph-name="numbersign" unicode="#" horiz-adv-x="691" 
d="M643 420h-89l-16 -108h69v-122h-89l-30 -190h-137l31 190h-116l-30 -190h-137l30 190h-69v122h89l16 108h-70v121h89l28 177h137l-28 -177h116l28 177h136l-27 -177h69v-121zM417 420h-115l-17 -108h116z" />
    <glyph glyph-name="dollar" unicode="$" horiz-adv-x="619" 
d="M571 210q0 -89 -61 -146q-57 -54 -154 -66v-112h-101v108q-148 5 -236 94l90 90q57 -57 159 -60v181l-32 4q-89 11 -139 61t-50 138q0 87 55.5 145.5t152.5 68.5v90h101v-89q120 -7 197 -82l-88 -87q-44 42 -123 48v-174l38 -6q92 -15 136 -56q55 -52 55 -150zM268 428
v167q-87 -12 -87 -88q0 -31 22 -52t65 -27zM435 206q0 39 -22 60q-19 18 -71 26v-172q93 11 93 86z" />
    <glyph glyph-name="percent" unicode="%" horiz-adv-x="848" 
d="M796 131q0 -65 -41.5 -101t-103.5 -36t-102 35q-43 37 -43 102v99q0 65 43 102q40 35 102 35t103.5 -36t41.5 -101v-99zM644 712l-337 -712h-102l337 712h102zM342 482q0 -65 -41.5 -101t-103.5 -36t-102 35q-43 37 -43 102v99q0 65 43 102q40 35 102 35t103.5 -36
t41.5 -101v-99zM702 135v91q0 57 -51 57t-51 -57v-91q0 -57 51 -57t51 57zM248 486v91q0 57 -51 57t-51 -57v-91q0 -57 51 -57t51 57z" />
    <glyph glyph-name="ampersand" unicode="&#x26;" horiz-adv-x="721" 
d="M696 0h-165l-52 62q-40 -31 -66 -44q-51 -24 -118 -24q-116 0 -175.5 57t-59.5 159q0 106 128 191q-71 81 -71 151q0 74 51 120t139 46q83 0 132.5 -47t49.5 -121q0 -71 -73 -124q-16 -12 -51 -37l120 -142q33 44 36 125h123q-8 -145 -76 -221zM366 549q0 25 -16 41.5
t-43 16.5q-59 0 -59 -58q0 -25 47 -80l30 20q41 27 41 60zM400 154l-142 167q-72 -50 -72 -109q0 -44 31 -72t77 -28q58 0 106 42z" />
    <glyph glyph-name="quotesingle" unicode="'" horiz-adv-x="259" 
d="M191 501h-123v211h123v-211z" />
    <glyph glyph-name="parenleft" unicode="(" horiz-adv-x="336" 
d="M281 -7l-87 -87q-36 36 -48 49q-25 28 -40 54q-26 45 -26 129v436q0 84 26 129q21 36 88 103l87 -87q-24 -24 -31 -32q-14 -16 -25 -35q-15 -26 -15 -84v-424q0 -58 15 -84t56 -67z" />
    <glyph glyph-name="parenright" unicode=")" horiz-adv-x="336" 
d="M256 138q0 -84 -26 -129q-21 -36 -88 -103l-88 88l31 31q14 16 25 35q15 26 15 84v424q0 58 -14.5 83t-56.5 67l88 88q36 -36 48 -49q25 -28 40 -54q26 -45 26 -129v-436z" />
    <glyph glyph-name="asterisk" unicode="*" horiz-adv-x="494" 
d="M440 460l-46 -79l-105 66l4 -125h-92l5 125l-106 -66l-45 79l110 58l-110 58l45 80l106 -67l-5 125h92l-4 -125l105 67l46 -80l-111 -58z" />
    <glyph glyph-name="plus" unicode="+" 
d="M493 216h-160v-160h-122v160h-161v122h161v160h122v-160h160v-122z" />
    <glyph glyph-name="comma" unicode="," horiz-adv-x="279" 
d="M211 -55l-143 -110v307h143v-197z" />
    <glyph glyph-name="hyphen" unicode="-" horiz-adv-x="426" 
d="M367 225h-308v121h308v-121z" />
    <glyph glyph-name="hyphen" unicode="&#x2010;" horiz-adv-x="426" 
d="M367 225h-308v121h308v-121z" />
    <glyph glyph-name="period" unicode="." horiz-adv-x="285" 
d="M217 0h-149v148h149v-148z" />
    <glyph glyph-name="slash" unicode="/" horiz-adv-x="403" 
d="M407 786l-285 -860h-122l285 860h122z" />
    <glyph glyph-name="zero" unicode="0" 
d="M488 206q0 -98 -64 -157q-61 -55 -152 -55t-152 55q-65 59 -65 157v300q0 98 65 157q61 55 152 55t152 -55q64 -59 64 -157v-300zM358 207v297q0 45 -23.5 71t-62.5 26t-63 -26.5t-24 -70.5v-297q0 -44 24 -70t63 -26t62.5 26t23.5 70z" />
    <glyph glyph-name="one" unicode="1" 
d="M378 0h-130v572l-145 -126v140l145 126h130v-712z" />
    <glyph glyph-name="two" unicode="2" 
d="M492 0h-433v117l266 309q37 43 37 86q0 40 -22.5 64.5t-63.5 24.5q-87 0 -87 -91h-130q0 95 63 153q60 55 154 55q96 0 156 -56t60 -151q0 -48 -20 -86q-14 -29 -56 -77l-199 -231h275v-117z" />
    <glyph glyph-name="three" unicode="3" 
d="M495 206q0 -102 -67 -159q-62 -53 -159 -53q-95 0 -156 49q-70 56 -71 161h130q1 -46 30 -70q26 -23 67 -23q43 0 69.5 26t26.5 73q0 45 -26.5 71.5t-73.5 26.5h-19v113h19q90 0 90 89q0 43 -25 67t-62 24t-61.5 -23t-26.5 -63h-130q2 93 64 148t154 55q95 0 156 -57
t61 -147q0 -102 -82 -146q92 -49 92 -162z" />
    <glyph glyph-name="four" unicode="4" 
d="M512 101h-65v-101h-125v101h-291v123l244 488h142l-244 -488h149v133h125v-133h65v-123z" />
    <glyph glyph-name="five" unicode="5" 
d="M494 240q0 -65 -12 -104q-14 -47 -51 -84q-58 -58 -157 -58q-102 0 -159 57q-50 50 -58 148h130q11 -88 87 -88q39 0 62 23q28 28 28 106q0 128 -87 128q-67 0 -86 -58h-119v402h406v-117h-288v-153q38 36 107 36q85 0 133 -48q64 -64 64 -190z" />
    <glyph glyph-name="six" unicode="6" 
d="M492 216q0 -103 -62.5 -162.5t-159.5 -59.5t-158 57q-64 60 -64 163q0 67 60 190l150 308h142l-148 -294q22 9 53 9q76 0 130 -56q57 -60 57 -155zM362 215q0 47 -25.5 75.5t-66.5 28.5t-66.5 -28t-25.5 -76t25.5 -76t66.5 -28t66.5 28t25.5 76z" />
    <glyph glyph-name="seven" unicode="7" 
d="M503 595l-231 -595h-141l231 595h-188v-112h-124v229h453v-117z" />
    <glyph glyph-name="eight" unicode="8" 
d="M500 207q0 -100 -67 -158q-62 -55 -161 -55t-161 55q-67 58 -67 158q0 101 89 160q-80 56 -80 148t65 149q62 54 154 54t154 -54q64 -57 64 -149t-80 -148q90 -60 90 -160zM360 511q0 38 -25 64t-63 26t-63.5 -26t-25.5 -64q0 -39 25.5 -64.5t63.5 -25.5t63 25.5t25 64.5
zM370 209q0 41 -28.5 70t-69.5 29t-69.5 -29t-28.5 -70t28.5 -69.5t69.5 -28.5t69.5 28.5t28.5 69.5z" />
    <glyph glyph-name="nine" unicode="9" 
d="M495 498q0 -70 -59 -190l-151 -308h-141l148 294q-22 -9 -53 -9q-76 0 -130 56q-58 60 -58 155q0 103 64 164q61 58 158 58t158 -57q64 -60 64 -163zM365 497q0 48 -25.5 76t-66.5 28t-66.5 -28t-25.5 -76q0 -47 25.5 -75.5t66.5 -28.5t66.5 28t25.5 76z" />
    <glyph glyph-name="colon" unicode=":" horiz-adv-x="309" 
d="M241 271h-148v148h148v-148zM241 0h-148v148h148v-148z" />
    <glyph glyph-name="semicolon" unicode=";" horiz-adv-x="309" 
d="M241 271h-148v148h148v-148zM238 -55l-142 -110v307h142v-197z" />
    <glyph glyph-name="less" unicode="&#x3c;" horiz-adv-x="1027" 
d="M976 224h-703l326 -324h-164l-385 385l385 385h164l-326 -323h703v-123z" />
    <glyph glyph-name="equal" unicode="=" 
d="M493 333h-443v122h443v-122zM493 116h-443v122h443v-122z" />
    <glyph glyph-name="greater" unicode="&#x3e;" horiz-adv-x="1027" 
d="M977 285l-385 -385h-164l326 324h-704v123h704l-326 323h164z" />
    <glyph glyph-name="question" unicode="?" horiz-adv-x="523" 
d="M487 518q0 -60 -49 -125l-74 -98q-18 -24 -18 -51v-21h-130v30q0 55 38 104l74 95q29 37 29 67q0 36 -22 59t-59 23q-38 0 -59 -23.5t-21 -59.5h-130q0 91 62 147q58 53 148 53q89 0 148 -52q63 -56 63 -148zM350 0h-138v133h138v-133z" />
    <glyph glyph-name="at" unicode="@" horiz-adv-x="758" 
d="M700 -3l-121 3v46q-48 -52 -120 -52q-79 0 -126 50q-31 34 -41 88q-6 32 -6 99q0 66 6 98q9 53 40 87q46 51 126 51q73 0 118 -49v45q0 67 -35 102t-100 35h-124q-65 0 -100 -35t-35 -102v-289q0 -37 9.5 -57t34.5 -42l-90 -90q-44 40 -61 76q-18 40 -18 106v299
q0 127 61.5 188.5t188.5 61.5h144q127 0 188 -61t61 -189v-469zM576 231q0 128 -83 128q-82 0 -82 -128q0 -129 82 -129q83 0 83 129z" />
    <glyph glyph-name="A" unicode="A" horiz-adv-x="638" 
d="M633 0h-145l-42 126h-253l-43 -126h-145l259 712h109zM409 243l-87 259l-90 -259h177z" />
    <glyph glyph-name="B" unicode="B" horiz-adv-x="658" 
d="M599 205q0 -97 -60 -151t-158 -54h-298v712h286q103 0 161.5 -54t58.5 -146q0 -54 -30 -97q-25 -34 -58 -50q98 -46 98 -160zM450 506q0 37 -24 59.5t-68 22.5h-136v-164h136q44 0 68 22.5t24 59.5zM460 212q0 38 -24 62.5t-69 24.5h-145v-175h145q45 0 69 25t24 63z" />
    <glyph glyph-name="C" unicode="C" horiz-adv-x="620" 
d="M583 219q-18 -109 -91 -168q-69 -57 -171 -57q-114 0 -192 78q-48 48 -62 123q-8 44 -8 161t8 161q14 75 62 123q78 78 192 78q103 0 173.5 -58t88.5 -167h-141q-25 101 -120 101q-63 0 -97 -47q-27 -38 -27 -191q0 -83 2 -104q7 -67 33 -97q33 -37 89 -37q95 0 120 101
h141z" />
    <glyph glyph-name="D" unicode="D" horiz-adv-x="659" 
d="M600 359q0 -119 -6 -156q-13 -82 -66 -135q-68 -68 -188 -68h-257v712h257q120 0 188 -68q53 -53 66 -132q6 -36 6 -153zM461 359q0 86 -5 121q-6 41 -25 64q-36 44 -104 44h-105v-464h105q68 0 104 44q19 23 25 67q5 37 5 124z" />
    <glyph glyph-name="E" unicode="E" horiz-adv-x="605" 
d="M552 0h-469v712h469v-124h-330v-167h281v-124h-281v-173h330v-124z" />
    <glyph glyph-name="F" unicode="F" horiz-adv-x="590" 
d="M552 588h-330v-175h281v-124h-281v-289h-139v712h469v-124z" />
    <glyph glyph-name="G" unicode="G" horiz-adv-x="648" 
d="M590 292q0 -146 -68 -217q-78 -81 -201 -81q-114 0 -192 78q-48 48 -62 123q-8 44 -8 161t8 161q14 75 62 123q78 78 192 78q116 0 189 -69q63 -61 79 -159h-140q-25 104 -128 104q-55 0 -89 -38q-26 -30 -32 -96q-2 -18 -2 -104t2 -104q6 -67 32 -97q33 -37 89 -37
q63 0 99 40q32 35 32 95v27h-131v116h269v-104z" />
    <glyph glyph-name="H" unicode="H" horiz-adv-x="685" 
d="M602 0h-139v298h-241v-298h-139v712h139v-291h241v291h139v-712z" />
    <glyph glyph-name="I" unicode="I" horiz-adv-x="305" 
d="M222 0h-139v712h139v-712z" />
    <glyph glyph-name="J" unicode="J" horiz-adv-x="511" 
d="M437 234q0 -113 -76 -179q-70 -61 -175 -61q-110 0 -183 73l92 91q40 -40 91 -40q112 0 112 122v472h139v-478z" />
    <glyph glyph-name="K" unicode="K" horiz-adv-x="665" 
d="M659 0h-162l-183 324l-92 -110v-214h-139v712h139v-310l251 310h169l-236 -283z" />
    <glyph glyph-name="L" unicode="L" horiz-adv-x="575" 
d="M545 0h-462v712h139v-588h323v-124z" />
    <glyph glyph-name="M" unicode="M" horiz-adv-x="811" 
d="M728 0h-139v415l-136 -270h-94l-137 270v-415h-139v712h137l186 -385l185 385h137v-712z" />
    <glyph glyph-name="N" unicode="N" horiz-adv-x="711" 
d="M628 0h-124l-282 437v-437h-139v712h124l282 -436v436h139v-712z" />
    <glyph glyph-name="O" unicode="O" horiz-adv-x="644" 
d="M585 356q0 -116 -9 -161q-13 -74 -62 -123q-78 -78 -192 -78q-115 0 -193 78q-48 48 -62 123q-8 44 -8 161t8 161q14 75 62 123q78 78 193 78q114 0 192 -78q49 -49 62 -123q9 -45 9 -161zM446 356q0 82 -2 104q-6 66 -33 96q-34 38 -89 38q-56 0 -90 -38
q-26 -30 -32 -96q-2 -18 -2 -104t2 -104q6 -66 32 -96q34 -38 90 -38q62 0 97 48q27 37 27 190z" />
    <glyph glyph-name="P" unicode="P" horiz-adv-x="628" 
d="M594 490q0 -94 -62 -156q-66 -66 -173 -66h-137v-268h-139v712h276q107 0 173 -66q62 -62 62 -156zM455 490q0 44 -28 71t-75 27h-130v-195h130q47 0 75 26.5t28 70.5z" />
    <glyph glyph-name="Q" unicode="Q" horiz-adv-x="643" 
d="M602 43l-73 -73l-63 63q-60 -39 -144 -39q-115 0 -193 78q-48 48 -62 123q-8 44 -8 161t8 161q14 75 62 123q78 78 193 78q114 0 192 -78q49 -49 62 -123q9 -45 9 -161q0 -102 -5 -141q-9 -67 -39 -111zM446 356q0 82 -2 104q-6 66 -33 96q-34 38 -89 38q-56 0 -90 -38
q-26 -30 -32 -96q-2 -18 -2 -104t2 -104q6 -66 32 -96q34 -38 90 -38q27 0 46 13l-62 61l74 73l53 -53q13 37 13 144z" />
    <glyph glyph-name="R" unicode="R" horiz-adv-x="654" 
d="M622 0h-161l-139 284h-100v-284h-139v712h279q106 0 170 -64q61 -61 61 -154q0 -71 -39 -122q-35 -45 -91 -65zM454 494q0 42 -28 68t-73 26h-131v-188h131q45 0 73 26t28 68z" />
    <glyph glyph-name="S" unicode="S" horiz-adv-x="591" 
d="M543 210q0 -101 -74.5 -158.5t-189.5 -57.5q-167 0 -260 94l90 90q60 -60 172 -60q126 0 126 88q0 40 -21 59.5t-64 25.5l-86 12q-189 26 -189 199q0 97 67 156.5t181 59.5q144 0 230 -83l-88 -87q-51 49 -146 49q-53 0 -81.5 -25.5t-28.5 -64.5q0 -31 22.5 -52t64.5 -27
l84 -12q91 -13 136 -55q55 -52 55 -151z" />
    <glyph glyph-name="T" unicode="T" horiz-adv-x="571" 
d="M541 588h-186v-588h-139v588h-186v124h511v-124z" />
    <glyph glyph-name="U" unicode="U" horiz-adv-x="668" 
d="M596 244q0 -111 -75 -180.5t-187 -69.5t-187 69.5t-75 180.5v468h139v-463q0 -61 33 -96t90 -35t90.5 35t33.5 96v463h138v-468z" />
    <glyph glyph-name="V" unicode="V" horiz-adv-x="581" 
d="M578 712l-236 -712h-104l-235 712h144l143 -464l143 464h145z" />
    <glyph glyph-name="W" unicode="W" horiz-adv-x="887" 
d="M881 712l-191 -712h-116l-131 432l-131 -432h-116l-190 712h145l110 -449l130 449h104l130 -449l111 449h145z" />
    <glyph glyph-name="X" unicode="X" horiz-adv-x="603" 
d="M598 0h-159l-138 248l-137 -248h-159l221 365l-207 347h158l124 -230l125 230h157l-207 -347z" />
    <glyph glyph-name="Y" unicode="Y" horiz-adv-x="572" 
d="M569 712l-214 -420v-292h-138v292l-214 420h151l133 -287l131 287h151z" />
    <glyph glyph-name="Z" unicode="Z" horiz-adv-x="548" 
d="M508 0h-468v112l304 476h-291v124h455v-110l-305 -478h305v-124z" />
    <glyph glyph-name="bracketleft" unicode="[" horiz-adv-x="378" 
d="M337 -74h-257v860h257v-117h-127v-626h127v-117z" />
    <glyph glyph-name="backslash" unicode="\" horiz-adv-x="403" 
d="M403 -74h-122l-281 847h122z" />
    <glyph glyph-name="bracketright" unicode="]" horiz-adv-x="378" 
d="M299 -74h-257v116h127v628h-127v116h257v-860z" />
    <glyph glyph-name="asciicircum" unicode="^" horiz-adv-x="602" 
d="M539 389h-136l-102 188l-102 -188h-136l178 330h120z" />
    <glyph glyph-name="underscore" unicode="_" horiz-adv-x="602" 
d="M602 -178h-602v87h602v-87z" />
    <glyph glyph-name="grave" unicode="`" horiz-adv-x="500" 
d="M305 604h-87l-114 170h137z" />
    <glyph glyph-name="a" unicode="a" horiz-adv-x="534" 
d="M467 0h-127v45q-50 -50 -128 -50q-88 0 -132 45t-44 118q0 66 45.5 108.5t132.5 42.5h123v26q0 82 -97 82q-63 0 -100 -43l-83 81q37 41 81 57q40 15 107 15q222 0 222 -184v-343zM337 192v28h-103q-73 0 -73 -59q0 -60 75 -60q67 0 89 33q12 18 12 58z" />
    <glyph glyph-name="b" unicode="b" horiz-adv-x="560" 
d="M509 261q0 -80 -7 -120q-11 -65 -46 -100q-47 -47 -127 -47t-130 55v-49h-126v712h130v-237q47 52 126 52q80 0 127 -47q35 -35 46 -100q7 -40 7 -119zM379 261q0 69 -11 99q-20 50 -77 50t-77 -50q-11 -30 -11 -99t11 -99q20 -51 77 -51t77 51q11 30 11 99z" />
    <glyph glyph-name="c" unicode="c" horiz-adv-x="480" 
d="M452 65q-68 -71 -172 -71q-95 0 -155 54q-78 70 -78 213t78 212q60 54 155 54q105 0 172 -70l-88 -88q-38 41 -84 41t-74.5 -35t-28.5 -114q0 -80 28.5 -115t74.5 -35t84 41z" />
    <glyph glyph-name="d" unicode="d" horiz-adv-x="561" 
d="M488 0h-127v49q-49 -55 -129 -55q-81 0 -128 47q-35 35 -46 100q-7 40 -7 120q0 79 7 119q11 65 46 100q47 47 127 47t127 -52v237h130v-712zM358 261q0 74 -15 106q-20 43 -74 43q-57 0 -77 -50q-11 -30 -11 -99t11 -99q20 -51 77 -51q54 0 74 43q15 33 15 107z" />
    <glyph glyph-name="e" unicode="e" horiz-adv-x="548" 
d="M501 220h-326q0 -52 30.5 -84t83.5 -32q69 0 118 49l79 -77q-43 -43 -84 -61q-47 -21 -114 -21q-241 0 -241 267q0 125 63 197q61 69 164 69q106 0 168 -71q59 -68 59 -178v-58zM373 309q-1 32 -12 56q-24 54 -87 54t-87 -54q-11 -24 -12 -56h198z" />
    <glyph glyph-name="f" unicode="f" horiz-adv-x="342" 
d="M315 407h-96v-407h-130v407h-54v99h54v65q0 61 36 102q42 47 116 47h74v-110h-51q-45 0 -45 -47v-57h96v-99z" />
    <glyph glyph-name="g" unicode="g" horiz-adv-x="555" 
d="M482 19q0 -95 -62.5 -155.5t-166.5 -60.5q-118 0 -189 68l81 82q41 -40 102 -40q54 0 82 34q23 29 23 74v53q-47 -52 -124 -52q-78 0 -124 46q-34 34 -45 88q-8 39 -8 119t8 119q11 53 45 87q46 46 125 46q78 0 127 -55v49h126v-502zM352 275q0 61 -13 90q-19 45 -73 45
q-52 0 -71 -42q-14 -29 -14 -93t14 -94q19 -42 71 -42q54 0 73 45q13 30 13 91z" />
    <glyph glyph-name="h" unicode="h" horiz-adv-x="569" 
d="M502 0h-130v318q0 48 -27 72q-23 20 -58 20t-57 -20q-27 -25 -27 -72v-318h-130v712h130v-239q53 54 125 54q83 0 130 -54q44 -51 44 -136v-337z" />
    <glyph glyph-name="i" unicode="i" horiz-adv-x="275" 
d="M204 610h-133v106h133v-106zM203 0h-130v521h130v-521z" />
    <glyph glyph-name="j" unicode="j" horiz-adv-x="275" 
d="M204 610h-133v106h133v-106zM203 -46q0 -61 -36 -102q-41 -47 -116 -47h-74v110h50q46 0 46 47v559h130v-567z" />
    <glyph glyph-name="k" unicode="k" horiz-adv-x="559" 
d="M547 0h-161l-128 217l-55 -62v-155h-130v712h130v-404l173 213h157l-186 -210z" />
    <glyph glyph-name="l" unicode="l" horiz-adv-x="325" 
d="M294 0h-74q-75 0 -116 47q-36 41 -36 102v563h130v-555q0 -47 46 -47h50v-110z" />
    <glyph glyph-name="m" unicode="m" horiz-adv-x="876" 
d="M809 0h-130v315q0 49 -28 74q-23 21 -58 21t-58 -20q-29 -25 -29 -72v-318h-130v315q0 49 -28 74q-23 21 -58 21q-36 0 -59 -21q-28 -25 -28 -74v-315h-130v521h127v-48q52 54 130 54q90 0 138 -66q63 66 156 66q82 0 128 -46q57 -57 57 -148v-333z" />
    <glyph glyph-name="n" unicode="n" horiz-adv-x="573" 
d="M506 0h-130v315q0 49 -28 74q-23 21 -58 21q-36 0 -59 -21q-28 -25 -28 -74v-315h-130v521h127v-48q51 54 130 54q77 0 123 -46q53 -53 53 -148v-333z" />
    <glyph glyph-name="o" unicode="o" 
d="M492 261q0 -75 -12 -119q-13 -49 -47 -84q-61 -64 -162 -64q-100 0 -161 64q-34 35 -47 84q-12 44 -12 119q0 140 60 203t160 63q101 0 161 -63t60 -203zM362 261q0 96 -30 126q-23 23 -61 23q-37 0 -60 -23q-30 -30 -30 -126q0 -97 30 -127q23 -23 60 -23q38 0 61 23
q30 30 30 127z" />
    <glyph glyph-name="p" unicode="p" horiz-adv-x="560" 
d="M509 261q0 -80 -7 -120q-11 -65 -46 -100q-47 -47 -127 -47q-79 0 -126 52v-237h-130v712h126v-49q50 55 130 55t127 -47q35 -35 46 -100q7 -40 7 -119zM379 261q0 69 -11 99q-20 50 -77 50t-77 -50q-11 -30 -11 -99t11 -99q20 -51 77 -51t77 51q11 30 11 99z" />
    <glyph glyph-name="q" unicode="q" horiz-adv-x="561" 
d="M488 -191h-130v237q-47 -52 -127 -52t-127 47q-35 35 -46 100q-7 40 -7 120q0 79 7 119q11 65 46 100q47 47 128 47q80 0 129 -55v49h127v-712zM358 261q0 74 -15 106q-20 43 -74 43q-57 0 -77 -50q-11 -30 -11 -99t11 -99q20 -51 77 -51q54 0 74 43q15 33 15 107z" />
    <glyph glyph-name="r" unicode="r" horiz-adv-x="455" 
d="M454 478l-98 -99q-31 31 -69 31q-33 0 -57 -23q-27 -27 -27 -73v-314h-130v521h127v-50q47 56 131 56q74 0 123 -49z" />
    <glyph glyph-name="s" unicode="s" horiz-adv-x="501" 
d="M465 164q0 -83 -64 -128q-60 -42 -157 -42q-73 0 -119 13q-58 17 -103 62l85 85q49 -49 139 -49q92 0 92 54q0 43 -55 48l-82 8q-152 15 -152 146q0 78 61 124q56 42 140 42q134 0 199 -61l-80 -81q-39 35 -121 35q-74 0 -74 -50q0 -40 54 -45l82 -8q155 -15 155 -153z
" />
    <glyph glyph-name="t" unicode="t" horiz-adv-x="352" 
d="M307 0h-71q-74 0 -115 47q-36 41 -36 102v258h-55v99h55v154h130v-154h92v-99h-92v-250q0 -47 45 -47h47v-110z" />
    <glyph glyph-name="u" unicode="u" horiz-adv-x="573" 
d="M500 0h-127v48q-51 -54 -130 -54q-77 0 -123 46q-53 53 -53 148v333h130v-315q0 -49 28 -74q23 -21 58 -21q36 0 59 21q28 25 28 74v315h130v-521z" />
    <glyph glyph-name="v" unicode="v" horiz-adv-x="493" 
d="M489 521l-191 -521h-102l-192 521h137l106 -322l105 322h137z" />
    <glyph glyph-name="w" unicode="w" horiz-adv-x="759" 
d="M755 521l-159 -521h-107l-109 327l-109 -327h-107l-160 521h138l84 -322l106 322h95l107 -322l84 322h137z" />
    <glyph glyph-name="x" unicode="x" horiz-adv-x="527" 
d="M515 0h-156l-96 156l-95 -156h-156l180 266l-173 255h156l88 -149l89 149h156l-173 -255z" />
    <glyph glyph-name="y" unicode="y" horiz-adv-x="494" 
d="M490 521l-223 -605q-16 -44 -39 -67q-40 -40 -112 -40h-51v117h30q29 0 42.5 10t22.5 37l22 64l-178 484h137l108 -322l104 322h137z" />
    <glyph glyph-name="z" unicode="z" horiz-adv-x="478" 
d="M434 0h-397v99l231 305h-218v117h384v-99l-234 -305h234v-117z" />
    <glyph glyph-name="braceleft" unicode="{" horiz-adv-x="457" 
d="M414 -74h-102q-75 0 -112 37q-42 42 -42 111v145q0 43 -18 61t-51 18h-46v116h46q33 0 51 18t18 61v145q0 69 42 111q37 37 112 37h102v-117h-53q-44 0 -57 -14q-16 -17 -16 -64v-135q0 -73 -69 -100q69 -27 69 -100v-135q0 -65 35 -75q13 -3 38 -3h53v-117z" />
    <glyph glyph-name="bar" unicode="|" horiz-adv-x="350" 
d="M240 -74h-130v860h130v-860z" />
    <glyph glyph-name="braceright" unicode="}" horiz-adv-x="457" 
d="M414 298h-46q-33 0 -51 -18t-18 -61v-145q0 -69 -42 -111q-37 -37 -112 -37h-102v117h53q44 0 58.5 15.5t14.5 62.5v135q0 73 69 100q-69 27 -69 100v135q0 65 -35 75q-13 3 -38 3h-53v117h102q75 0 112 -37q42 -42 42 -111v-145q0 -43 18 -61t51 -18h46v-116z" />
    <glyph glyph-name="asciitilde" unicode="~" horiz-adv-x="606" 
d="M569 281q-47 -47 -83.5 -66.5t-81.5 -19.5q-53 0 -117 34q-45 24 -82 24q-44 0 -86 -42l-82 82q48 48 83.5 67t80.5 19q53 0 117 -34q45 -24 81 -24q45 0 87 42z" />
    <glyph glyph-name="nonbreakingspace" unicode="&#xa0;" horiz-adv-x="232" 
 />
    <glyph glyph-name="exclamdown" unicode="&#xa1;" horiz-adv-x="347" 
d="M224 388h-137v133h137v-133zM236 -191h-161l32 489h97z" />
    <glyph glyph-name="cent" unicode="&#xa2;" horiz-adv-x="499" 
d="M469 180q-58 -61 -136 -75v-105h-101v105q-83 17 -132 81q-53 69 -53 180t53 180q49 64 132 81v85h101v-85q78 -14 136 -75l-86 -84q-31 32 -64 41v-286q33 9 64 41zM246 225v282q-22 -6 -38 -26q-31 -38 -31 -115q0 -76 31 -115q16 -20 38 -26z" />
    <glyph glyph-name="sterling" unicode="&#xa3;" horiz-adv-x="579" 
d="M534 0h-433v297h-61v100h61v81q0 113 76 179q70 61 175 61q109 0 182 -73l-91 -91q-40 40 -91 40q-113 0 -113 -122v-75h113v-100h-113v-173h295v-124z" />
    <glyph glyph-name="currency" unicode="&#xa4;" horiz-adv-x="669" 
d="M610 96l-85 -86l-74 73q-54 -32 -117 -32q-62 0 -116 32l-74 -73l-86 86l74 73q-33 56 -33 117t33 117l-74 73l86 86l74 -73q54 32 116 32q63 0 117 -32l74 73l85 -86l-73 -73q32 -54 32 -117t-32 -117zM452 286q0 49 -34.5 83t-83.5 34t-83 -34t-34 -83t34 -83t83 -34
t83.5 34t34.5 83z" />
    <glyph glyph-name="yen" unicode="&#xa5;" horiz-adv-x="571" 
d="M568 712l-136 -270h74v-100h-125l-26 -50v-51h151v-100h-151v-141h-138v141h-152v100h152v51l-26 50h-126v100h75l-137 270h151l132 -288l132 288h150z" />
    <glyph glyph-name="brokenbar" unicode="&#xa6;" horiz-adv-x="353" 
d="M240 436h-130v350h130v-350zM240 -74h-130v350h130v-350z" />
    <glyph glyph-name="section" unicode="&#xa7;" horiz-adv-x="531" 
d="M473 274q0 -50 -31 -94q-25 -36 -59 -55q81 -40 81 -139q0 -87 -62 -138q-55 -45 -136 -45t-135 41q-63 48 -64 137h125q3 -63 74 -63q73 0 73 64q0 50 -70 74l-62 21q-75 25 -109 66q-37 45 -37 122q0 51 31 94q25 36 60 55q-76 40 -76 131q0 73 47 120q53 53 145 53
q94 0 145 -50q46 -46 47 -122h-122q-3 61 -70 61q-70 0 -70 -59q0 -44 67 -66l62 -20q75 -24 109 -66q37 -46 37 -122zM348 269q0 44 -25 68q-22 21 -56 21q-36 0 -57 -21q-24 -24 -24 -68q0 -43 24 -67q21 -21 57 -21q35 0 56 21q25 25 25 67z" />
    <glyph glyph-name="dieresis" unicode="&#xa8;" horiz-adv-x="500" 
d="M416 606h-111v125h111v-125zM195 606h-111v125h111v-125z" />
    <glyph glyph-name="copyright" unicode="&#xa9;" horiz-adv-x="844" 
d="M784 356q0 -150 -106 -256t-256 -106t-256 106t-106 256t106 256t256 106t256 -106t106 -256zM697 356q0 120 -79 200.5t-196 80.5t-196.5 -80.5t-79.5 -200.5t79.5 -200.5t196.5 -80.5t196 80.5t79 200.5zM561 212q-58 -52 -132 -52q-78 0 -127 50q-52 53 -52 146
t52 147q49 50 127 50q71 0 132 -53l-56 -56q-38 32 -76 32q-94 0 -94 -120t94 -120q38 0 76 32z" />
    <glyph glyph-name="ordfeminine" unicode="&#xaa;" horiz-adv-x="454" 
d="M392 296h-103v36q-40 -40 -101 -40q-68 0 -104 37t-36 93q0 53 35 85q38 36 107 36h97v20q0 65 -77 65q-49 0 -79 -34l-67 65q53 58 151 58q177 0 177 -147v-274zM287 449v23h-81q-56 0 -56 -47q0 -46 57 -46q42 0 61 15t19 55z" />
    <glyph glyph-name="guillemotleft" unicode="&#xab;" horiz-adv-x="628" 
d="M562 27l-250 248l250 248v-155l-96 -93l96 -93v-155zM283 27l-249 248l249 248v-155l-94 -93l94 -93v-155z" />
    <glyph glyph-name="logicalnot" unicode="&#xac;" 
d="M497 94h-121v145h-330v121h451v-266z" />
    <glyph glyph-name="minus" unicode="&#xad;" 
d="M493 225h-443v121h443v-121z" />
    <glyph glyph-name="minus" unicode="&#x2212;" 
d="M493 225h-443v121h443v-121z" />
    <glyph glyph-name="registered" unicode="&#xae;" horiz-adv-x="844" 
d="M784 356q0 -150 -106 -256t-256 -106t-256 106t-106 256t106 256t256 106t256 -106t106 -256zM698 356q0 120 -79.5 200.5t-196.5 80.5t-196.5 -80.5t-79.5 -200.5t79.5 -200.5t196.5 -80.5t196.5 80.5t79.5 200.5zM585 164h-98l-70 149h-41v-149h-86v385h157
q57 0 92.5 -35.5t35.5 -85.5q0 -73 -71 -102zM489 428q0 21 -15 35.5t-38 14.5h-60v-100h60q23 0 38 14.5t15 35.5z" />
    <glyph glyph-name="macron" unicode="&#xaf;" horiz-adv-x="500" 
d="M408 630h-316v87h316v-87z" />
    <glyph glyph-name="macron" unicode="&#x2c9;" horiz-adv-x="500" 
d="M408 630h-316v87h316v-87z" />
    <glyph glyph-name="degree" unicode="&#xb0;" horiz-adv-x="478" 
d="M423 542q0 -76 -53.5 -130t-130.5 -54q-76 0 -130 54t-54 130q0 77 54 131t130 54t130 -54t54 -131zM318 542q0 34 -23.5 57t-56.5 23t-55.5 -23t-22.5 -57t23 -57t56 -23t56 23t23 57z" />
    <glyph glyph-name="plusminus" unicode="&#xb1;" 
d="M493 341h-160v-161h-122v161h-161v121h161v161h122v-161h160v-121zM493 0h-443v122h443v-122z" />
    <glyph glyph-name="twosuperior" unicode="&#xb2;" horiz-adv-x="358" 
d="M315 285h-272v85l156 171q22 24 22 47q0 43 -42 43t-42 -44h-94q0 60 40 96q37 33 96 33q60 0 98 -34.5t38 -93.5q0 -48 -52 -104l-105 -114h157v-85z" />
    <glyph glyph-name="threesuperior" unicode="&#xb3;" horiz-adv-x="368" 
d="M325 412q0 -63 -42 -99q-39 -32 -99 -32q-59 0 -97 31q-44 35 -44 101h94q0 -48 47 -48t47 50q0 48 -49 48h-13v81h13q44 0 44 43q0 44 -42 44t-42 -42h-94q0 58 39 92.5t97 34.5q59 0 97.5 -35.5t38.5 -90.5q0 -57 -45 -84q50 -32 50 -94z" />
    <glyph glyph-name="acute" unicode="&#xb4;" horiz-adv-x="500" 
d="M396 774l-114 -170h-87l64 170h137z" />
    <glyph glyph-name="mu" unicode="&#xb5;" horiz-adv-x="576" 
d="M503 0h-127v48q-51 -54 -130 -54q-27 0 -46 14v-199h-130v712h130v-315q0 -49 28 -74q23 -21 58 -21q36 0 59 21q28 25 28 74v315h130v-521z" />
    <glyph glyph-name="mu" unicode="&#x3bc;" horiz-adv-x="576" 
d="M503 0h-127v48q-51 -54 -130 -54q-27 0 -46 14v-199h-130v712h130v-315q0 -49 28 -74q23 -21 58 -21q36 0 59 21q28 25 28 74v315h130v-521z" />
    <glyph glyph-name="paragraph" unicode="&#xb6;" horiz-adv-x="668" 
d="M585 -191h-130v779h-100v-779h-130v499q-76 0 -133 59.5t-57 141.5q0 97 64 151q61 52 167 52h319v-903z" />
    <glyph glyph-name="periodcentered" unicode="&#xb7;" horiz-adv-x="285" 
d="M217 212h-149v148h149v-148z" />
    <glyph glyph-name="periodcentered" unicode="&#x2219;" horiz-adv-x="285" 
d="M217 212h-149v148h149v-148z" />
    <glyph glyph-name="cedilla" unicode="&#xb8;" horiz-adv-x="500" 
d="M325 -60l-44 -146h-121l69 146h96z" />
    <glyph glyph-name="onesuperior" unicode="&#xb9;" horiz-adv-x="292" 
d="M223 285h-95v321l-90 -78v106l90 78h95v-427z" />
    <glyph glyph-name="ordmasculine" unicode="&#xba;" horiz-adv-x="462" 
d="M407 504q0 -111 -48.5 -161.5t-127.5 -50.5t-127.5 50.5t-48.5 161.5q0 112 48.5 162.5t127.5 50.5t127.5 -50.5t48.5 -162.5zM302 504q0 78 -23 101q-18 18 -48 18t-48 -18q-23 -23 -23 -101q0 -77 23 -100q18 -18 48 -18t48 18q23 23 23 100z" />
    <glyph glyph-name="guillemotright" unicode="&#xbb;" horiz-adv-x="628" 
d="M595 275l-250 -248v155l94 93l-94 93v155zM316 275l-249 -248v155l95 93l-95 93v155z" />
    <glyph glyph-name="onequarter" unicode="&#xbc;" horiz-adv-x="836" 
d="M796 57h-33v-57h-90v57h-176v89l143 281h103l-144 -281h74v62h90v-62h33v-89zM625 712l-337 -712h-102l337 712h102zM223 285h-95v321l-90 -78v106l90 78h95v-427z" />
    <glyph glyph-name="onehalf" unicode="&#xbd;" horiz-adv-x="862" 
d="M819 0h-272v85l156 171q23 25 23 47q0 43 -43 43q-41 0 -41 -44h-95q0 60 40 96q37 33 96 33q60 0 98 -34.5t38 -93.5q0 -48 -52 -104l-105 -114h157v-85zM620 712l-337 -712h-101l337 712h101zM223 285h-95v321l-90 -78v106l90 78h95v-427z" />
    <glyph glyph-name="threequarters" unicode="&#xbe;" horiz-adv-x="865" 
d="M825 57h-33v-57h-90v57h-176v89l143 281h103l-144 -281h74v62h90v-62h33v-89zM657 712l-337 -712h-102l337 712h102zM325 412q0 -63 -42 -99q-39 -32 -99 -32q-59 0 -97 31q-44 35 -44 101h94q0 -48 47 -48t47 50q0 48 -49 48h-13v81h13q44 0 44 43q0 44 -42 44t-42 -42
h-94q0 58 39 92.5t97 34.5q59 0 97.5 -35.5t38.5 -90.5q0 -57 -45 -84q50 -32 50 -94z" />
    <glyph glyph-name="questiondown" unicode="&#xbf;" horiz-adv-x="523" 
d="M311 388h-138v133h138v-133zM457 4q0 -91 -60.5 -146t-150.5 -55q-88 0 -147 52q-63 56 -63 148q0 59 49 125l74 99q18 24 18 51v20h130v-30q0 -55 -38 -104l-74 -95q-29 -37 -29 -67q0 -36 21.5 -59t58.5 -23q38 0 59.5 24t21.5 60h130z" />
    <glyph glyph-name="Agrave" unicode="&#xc0;" horiz-adv-x="638" 
d="M633 0h-145l-42 126h-253l-43 -126h-145l259 712h109zM409 243l-87 259l-90 -259h177zM372 781h-87l-114 170h137z" />
    <glyph glyph-name="Aacute" unicode="&#xc1;" horiz-adv-x="638" 
d="M633 0h-145l-42 126h-253l-43 -126h-145l259 712h109zM409 243l-87 259l-90 -259h177zM463 951l-114 -170h-87l64 170h137z" />
    <glyph glyph-name="Acircumflex" unicode="&#xc2;" horiz-adv-x="638" 
d="M633 0h-145l-42 126h-253l-43 -126h-145l259 712h109zM409 243l-87 259l-90 -259h177zM501 781h-101l-83 91l-83 -91h-101l132 169h104z" />
    <glyph glyph-name="Atilde" unicode="&#xc3;" horiz-adv-x="638" 
d="M633 0h-145l-42 126h-253l-43 -126h-145l259 712h109zM409 243l-87 259l-90 -259h177zM497 851q-59 -59 -113 -59q-37 0 -77 23q-31 18 -56 18q-30 0 -59 -29l-56 57q59 59 112 59q39 0 77 -23q30 -18 55 -18q30 0 59 29z" />
    <glyph glyph-name="Adieresis" unicode="&#xc4;" horiz-adv-x="638" 
d="M633 0h-145l-42 126h-253l-43 -126h-145l259 712h109zM409 243l-87 259l-90 -259h177zM483 783h-111v125h111v-125zM262 783h-111v125h111v-125z" />
    <glyph glyph-name="Aring" unicode="&#xc5;" horiz-adv-x="638" 
d="M633 0h-145l-42 126h-253l-43 -126h-145l259 712h109zM409 243l-87 259l-90 -259h177zM448 884q0 -54 -38.5 -92.5t-92.5 -38.5t-92.5 38.5t-38.5 92.5t38.5 92.5t92.5 38.5t92.5 -38t38.5 -93zM375 884q0 24 -17 41t-41 17t-41 -17t-17 -41t17 -41.5t41 -17.5t41 17.5
t17 41.5z" />
    <glyph glyph-name="AE" unicode="&#xc6;" horiz-adv-x="979" 
d="M926 0h-468v156h-225l-81 -156h-149l372 712h551v-124h-330v-168h282v-124h-282v-172h330v-124zM458 273v315l-165 -315h165z" />
    <glyph glyph-name="Ccedilla" unicode="&#xc7;" horiz-adv-x="620" 
d="M583 219q-18 -109 -91 -168q-69 -57 -171 -57q-114 0 -192 78q-48 48 -62 123q-8 44 -8 161t8 161q14 75 62 123q78 78 192 78q103 0 173.5 -58t88.5 -167h-141q-25 101 -120 101q-63 0 -97 -47q-27 -38 -27 -191q0 -83 2 -104q7 -67 33 -97q33 -37 89 -37q95 0 120 101
h141zM379 -60l-44 -146h-121l69 146h96z" />
    <glyph glyph-name="Egrave" unicode="&#xc8;" horiz-adv-x="605" 
d="M552 0h-469v712h469v-124h-330v-167h281v-124h-281v-173h330v-124zM365 781h-87l-114 170h137z" />
    <glyph glyph-name="Eacute" unicode="&#xc9;" horiz-adv-x="605" 
d="M552 0h-469v712h469v-124h-330v-167h281v-124h-281v-173h330v-124zM455 951l-114 -170h-87l64 170h137z" />
    <glyph glyph-name="Ecircumflex" unicode="&#xca;" horiz-adv-x="605" 
d="M552 0h-469v712h469v-124h-330v-167h281v-124h-281v-173h330v-124zM494 781h-101l-83 91l-83 -91h-101l132 169h104z" />
    <glyph glyph-name="Edieresis" unicode="&#xcb;" horiz-adv-x="605" 
d="M552 0h-469v712h469v-124h-330v-167h281v-124h-281v-173h330v-124zM476 783h-111v125h111v-125zM255 783h-111v125h111v-125z" />
    <glyph glyph-name="Igrave" unicode="&#xcc;" horiz-adv-x="305" 
d="M222 0h-139v712h139v-712zM234 781h-87l-114 170h137z" />
    <glyph glyph-name="Iacute" unicode="&#xcd;" horiz-adv-x="305" 
d="M222 0h-139v712h139v-712zM275 951l-114 -170h-87l64 170h137z" />
    <glyph glyph-name="Icircumflex" unicode="&#xce;" horiz-adv-x="305" 
d="M222 0h-139v712h139v-712zM335 781h-101l-83 91l-83 -91h-101l132 169h104z" />
    <glyph glyph-name="Idieresis" unicode="&#xcf;" horiz-adv-x="305" 
d="M222 0h-139v712h139v-712zM319 783h-111v125h111v-125zM98 783h-111v125h111v-125z" />
    <glyph glyph-name="Eth" unicode="&#xd0;" horiz-adv-x="682" 
d="M623 356q0 -120 -7 -158q-11 -65 -56 -115q-75 -83 -199 -83h-255v307h-69v106h69v299h257q123 0 197 -84q45 -51 57 -117q6 -37 6 -155zM484 354q0 79 -1 95q-5 60 -24 88q-37 52 -109 52h-105v-176h116v-106h-116v-184h105q75 0 111 53q18 27 22 85q1 11 1 93z" />
    <glyph glyph-name="Ntilde" unicode="&#xd1;" horiz-adv-x="711" 
d="M628 0h-124l-282 437v-437h-139v712h124l282 -436v436h139v-712zM536 851q-59 -59 -113 -59q-37 0 -77 23q-31 18 -56 18q-30 0 -59 -29l-56 57q59 59 112 59q39 0 77 -23q30 -18 55 -18q30 0 59 29z" />
    <glyph glyph-name="Ograve" unicode="&#xd2;" horiz-adv-x="644" 
d="M585 356q0 -116 -9 -161q-13 -74 -62 -123q-78 -78 -192 -78q-115 0 -193 78q-48 48 -62 123q-8 44 -8 161t8 161q14 75 62 123q78 78 193 78q114 0 192 -78q49 -49 62 -123q9 -45 9 -161zM446 356q0 82 -2 104q-6 66 -33 96q-34 38 -89 38q-56 0 -90 -38
q-26 -30 -32 -96q-2 -18 -2 -104t2 -104q6 -66 32 -96q34 -38 90 -38q62 0 97 48q27 37 27 190zM377 781h-87l-114 170h137z" />
    <glyph glyph-name="Oacute" unicode="&#xd3;" horiz-adv-x="644" 
d="M585 356q0 -116 -9 -161q-13 -74 -62 -123q-78 -78 -192 -78q-115 0 -193 78q-48 48 -62 123q-8 44 -8 161t8 161q14 75 62 123q78 78 193 78q114 0 192 -78q49 -49 62 -123q9 -45 9 -161zM446 356q0 82 -2 104q-6 66 -33 96q-34 38 -89 38q-56 0 -90 -38
q-26 -30 -32 -96q-2 -18 -2 -104t2 -104q6 -66 32 -96q34 -38 90 -38q62 0 97 48q27 37 27 190zM468 951l-114 -170h-87l64 170h137z" />
    <glyph glyph-name="Ocircumflex" unicode="&#xd4;" horiz-adv-x="644" 
d="M585 356q0 -116 -9 -161q-13 -74 -62 -123q-78 -78 -192 -78q-115 0 -193 78q-48 48 -62 123q-8 44 -8 161t8 161q14 75 62 123q78 78 193 78q114 0 192 -78q49 -49 62 -123q9 -45 9 -161zM446 356q0 82 -2 104q-6 66 -33 96q-34 38 -89 38q-56 0 -90 -38
q-26 -30 -32 -96q-2 -18 -2 -104t2 -104q6 -66 32 -96q34 -38 90 -38q62 0 97 48q27 37 27 190zM506 781h-101l-83 91l-83 -91h-101l132 169h104z" />
    <glyph glyph-name="Otilde" unicode="&#xd5;" horiz-adv-x="644" 
d="M585 356q0 -116 -9 -161q-13 -74 -62 -123q-78 -78 -192 -78q-115 0 -193 78q-48 48 -62 123q-8 44 -8 161t8 161q14 75 62 123q78 78 193 78q114 0 192 -78q49 -49 62 -123q9 -45 9 -161zM446 356q0 82 -2 104q-6 66 -33 96q-34 38 -89 38q-56 0 -90 -38
q-26 -30 -32 -96q-2 -18 -2 -104t2 -104q6 -66 32 -96q34 -38 90 -38q62 0 97 48q27 37 27 190zM502 851q-59 -59 -113 -59q-37 0 -77 23q-31 18 -56 18q-30 0 -59 -29l-56 57q59 59 112 59q39 0 77 -23q30 -18 55 -18q30 0 59 29z" />
    <glyph glyph-name="Odieresis" unicode="&#xd6;" horiz-adv-x="644" 
d="M585 356q0 -116 -9 -161q-13 -74 -62 -123q-78 -78 -192 -78q-115 0 -193 78q-48 48 -62 123q-8 44 -8 161t8 161q14 75 62 123q78 78 193 78q114 0 192 -78q49 -49 62 -123q9 -45 9 -161zM446 356q0 82 -2 104q-6 66 -33 96q-34 38 -89 38q-56 0 -90 -38
q-26 -30 -32 -96q-2 -18 -2 -104t2 -104q6 -66 32 -96q34 -38 90 -38q62 0 97 48q27 37 27 190zM488 783h-111v125h111v-125zM267 783h-111v125h111v-125z" />
    <glyph glyph-name="multiply" unicode="&#xd7;" 
d="M494 145l-82 -82l-141 141l-140 -141l-82 82l141 141l-141 141l82 82l140 -141l141 141l82 -82l-141 -141z" />
    <glyph glyph-name="Oslash" unicode="&#xd8;" horiz-adv-x="652" 
d="M585 356q0 -116 -9 -161q-13 -74 -62 -123q-78 -78 -192 -78q-65 0 -113 22l-29 -60h-99l53 111l-5 5q-48 48 -62 123q-8 44 -8 161t8 161q14 75 62 123q78 78 193 78q65 0 113 -22l29 60h98l-53 -111l5 -5q49 -49 62 -123q9 -45 9 -161zM385 578q-26 16 -63 16
q-56 0 -90 -38q-26 -30 -32 -96q-2 -18 -2 -104q0 -114 9 -151zM446 356q0 110 -10 151l-178 -372q28 -17 64 -17q62 0 97 48q27 37 27 190z" />
    <glyph glyph-name="Ugrave" unicode="&#xd9;" horiz-adv-x="668" 
d="M596 244q0 -111 -75 -180.5t-187 -69.5t-187 69.5t-75 180.5v468h139v-463q0 -61 33 -96t90 -35t90.5 35t33.5 96v463h138v-468zM389 781h-87l-114 170h137z" />
    <glyph glyph-name="Uacute" unicode="&#xda;" horiz-adv-x="668" 
d="M596 244q0 -111 -75 -180.5t-187 -69.5t-187 69.5t-75 180.5v468h139v-463q0 -61 33 -96t90 -35t90.5 35t33.5 96v463h138v-468zM480 951l-114 -170h-87l64 170h137z" />
    <glyph glyph-name="Ucircumflex" unicode="&#xdb;" horiz-adv-x="668" 
d="M596 244q0 -111 -75 -180.5t-187 -69.5t-187 69.5t-75 180.5v468h139v-463q0 -61 33 -96t90 -35t90.5 35t33.5 96v463h138v-468zM518 781h-101l-83 91l-83 -91h-101l132 169h104z" />
    <glyph glyph-name="Udieresis" unicode="&#xdc;" horiz-adv-x="668" 
d="M596 244q0 -111 -75 -180.5t-187 -69.5t-187 69.5t-75 180.5v468h139v-463q0 -61 33 -96t90 -35t90.5 35t33.5 96v463h138v-468zM500 783h-111v125h111v-125zM279 783h-111v125h111v-125z" />
    <glyph glyph-name="Yacute" unicode="&#xdd;" horiz-adv-x="572" 
d="M569 712l-214 -420v-292h-138v292l-214 420h151l133 -287l131 287h151zM431 951l-114 -170h-87l64 170h137z" />
    <glyph glyph-name="Thorn" unicode="&#xde;" horiz-adv-x="633" 
d="M594 360q0 -94 -62 -156q-66 -66 -173 -66h-137v-138h-139v712h139v-131h137q107 0 173 -65q62 -62 62 -156zM455 360q0 44 -28 70.5t-75 26.5h-130v-195h130q47 0 75 27t28 71z" />
    <glyph glyph-name="germandbls" unicode="&#xdf;" horiz-adv-x="574" 
d="M516 161q0 -79 -42 -120t-125 -41h-52v110h26q29 0 45.5 15t16.5 47v144q0 30 -15.5 45.5t-44.5 15.5h-28v102h28q60 0 60 60q0 66 -89 66q-93 0 -93 -94v-511h-130v521q0 100 64 151q59 46 161 46q99 0 156 -42q61 -46 61 -133q0 -76 -61 -113q62 -32 62 -109v-160z" />
    <glyph glyph-name="agrave" unicode="&#xe0;" horiz-adv-x="534" 
d="M467 0h-127v45q-50 -50 -128 -50q-88 0 -132 45t-44 118q0 66 45.5 108.5t132.5 42.5h123v26q0 82 -97 82q-63 0 -100 -43l-83 81q37 41 81 57q40 15 107 15q222 0 222 -184v-343zM337 192v28h-103q-73 0 -73 -59q0 -60 75 -60q67 0 89 33q12 18 12 58zM316 604h-87
l-114 170h137z" />
    <glyph glyph-name="aacute" unicode="&#xe1;" horiz-adv-x="534" 
d="M467 0h-127v45q-50 -50 -128 -50q-88 0 -132 45t-44 118q0 66 45.5 108.5t132.5 42.5h123v26q0 82 -97 82q-63 0 -100 -43l-83 81q37 41 81 57q40 15 107 15q222 0 222 -184v-343zM337 192v28h-103q-73 0 -73 -59q0 -60 75 -60q67 0 89 33q12 18 12 58zM407 774
l-114 -170h-87l64 170h137z" />
    <glyph glyph-name="acircumflex" unicode="&#xe2;" horiz-adv-x="534" 
d="M467 0h-127v45q-50 -50 -128 -50q-88 0 -132 45t-44 118q0 66 45.5 108.5t132.5 42.5h123v26q0 82 -97 82q-63 0 -100 -43l-83 81q37 41 81 57q40 15 107 15q222 0 222 -184v-343zM337 192v28h-103q-73 0 -73 -59q0 -60 75 -60q67 0 89 33q12 18 12 58zM445 604h-101
l-83 91l-83 -91h-101l132 169h104z" />
    <glyph glyph-name="atilde" unicode="&#xe3;" horiz-adv-x="534" 
d="M467 0h-127v45q-50 -50 -128 -50q-88 0 -132 45t-44 118q0 66 45.5 108.5t132.5 42.5h123v26q0 82 -97 82q-63 0 -100 -43l-83 81q37 41 81 57q40 15 107 15q222 0 222 -184v-343zM337 192v28h-103q-73 0 -73 -59q0 -60 75 -60q67 0 89 33q12 18 12 58zM441 674
q-59 -59 -113 -59q-37 0 -77 23q-31 18 -56 18q-30 0 -59 -29l-56 57q59 59 112 59q39 0 77 -23q30 -18 55 -18q30 0 59 29z" />
    <glyph glyph-name="adieresis" unicode="&#xe4;" horiz-adv-x="534" 
d="M467 0h-127v45q-50 -50 -128 -50q-88 0 -132 45t-44 118q0 66 45.5 108.5t132.5 42.5h123v26q0 82 -97 82q-63 0 -100 -43l-83 81q37 41 81 57q40 15 107 15q222 0 222 -184v-343zM337 192v28h-103q-73 0 -73 -59q0 -60 75 -60q67 0 89 33q12 18 12 58zM427 606h-111v125
h111v-125zM206 606h-111v125h111v-125z" />
    <glyph glyph-name="aring" unicode="&#xe5;" horiz-adv-x="534" 
d="M467 0h-127v45q-50 -50 -128 -50q-88 0 -132 45t-44 118q0 66 45.5 108.5t132.5 42.5h123v26q0 82 -97 82q-63 0 -100 -43l-83 81q37 41 81 57q40 15 107 15q222 0 222 -184v-343zM337 192v28h-103q-73 0 -73 -59q0 -60 75 -60q67 0 89 33q12 18 12 58zM392 715
q0 -54 -38.5 -92.5t-92.5 -38.5t-92.5 38.5t-38.5 92.5t38.5 92.5t92.5 38.5t92.5 -38t38.5 -93zM319 715q0 24 -17 41t-41 17t-41 -17t-17 -41t17 -41.5t41 -17.5t41 17.5t17 41.5z" />
    <glyph glyph-name="ae" unicode="&#xe6;" horiz-adv-x="838" 
d="M791 220h-326q0 -52 30.5 -84t83.5 -32q69 0 118 49l79 -77q-43 -43 -84 -61q-47 -21 -114 -21q-120 0 -183 73q-40 -44 -85 -60q-38 -13 -98 -13q-87 0 -133 47q-43 44 -43 117q0 66 45.5 108.5t132.5 42.5h123v26q0 82 -97 82q-63 0 -100 -43l-83 81q37 41 81 57
q40 15 107 15q119 0 171 -57q56 57 148 57q106 0 168 -71q59 -68 59 -178v-58zM663 309q-1 32 -12 56q-24 54 -87 54t-87 -54q-11 -24 -12 -56h198zM337 192v28h-103q-73 0 -73 -59q0 -60 75 -60q67 0 89 33q12 18 12 58z" />
    <glyph glyph-name="ccedilla" unicode="&#xe7;" horiz-adv-x="482" 
d="M452 65q-68 -71 -172 -71q-95 0 -155 54q-78 70 -78 213t78 212q60 54 155 54q105 0 172 -70l-88 -88q-38 41 -84 41t-74.5 -35t-28.5 -114q0 -80 28.5 -115t74.5 -35t84 41zM325 -60l-44 -146h-121l69 146h96z" />
    <glyph glyph-name="egrave" unicode="&#xe8;" horiz-adv-x="548" 
d="M501 220h-326q0 -52 30.5 -84t83.5 -32q69 0 118 49l79 -77q-43 -43 -84 -61q-47 -21 -114 -21q-241 0 -241 267q0 125 63 197q61 69 164 69q106 0 168 -71q59 -68 59 -178v-58zM373 309q-1 32 -12 56q-24 54 -87 54t-87 -54q-11 -24 -12 -56h198zM332 604h-87l-114 170
h137z" />
    <glyph glyph-name="eacute" unicode="&#xe9;" horiz-adv-x="548" 
d="M501 220h-326q0 -52 30.5 -84t83.5 -32q69 0 118 49l79 -77q-43 -43 -84 -61q-47 -21 -114 -21q-241 0 -241 267q0 125 63 197q61 69 164 69q106 0 168 -71q59 -68 59 -178v-58zM373 309q-1 32 -12 56q-24 54 -87 54t-87 -54q-11 -24 -12 -56h198zM423 774l-114 -170h-87
l64 170h137z" />
    <glyph glyph-name="ecircumflex" unicode="&#xea;" horiz-adv-x="548" 
d="M501 220h-326q0 -52 30.5 -84t83.5 -32q69 0 118 49l79 -77q-43 -43 -84 -61q-47 -21 -114 -21q-241 0 -241 267q0 125 63 197q61 69 164 69q106 0 168 -71q59 -68 59 -178v-58zM373 309q-1 32 -12 56q-24 54 -87 54t-87 -54q-11 -24 -12 -56h198zM461 604h-101l-83 91
l-83 -91h-101l132 169h104z" />
    <glyph glyph-name="edieresis" unicode="&#xeb;" horiz-adv-x="548" 
d="M501 220h-326q0 -52 30.5 -84t83.5 -32q69 0 118 49l79 -77q-43 -43 -84 -61q-47 -21 -114 -21q-241 0 -241 267q0 125 63 197q61 69 164 69q106 0 168 -71q59 -68 59 -178v-58zM373 309q-1 32 -12 56q-24 54 -87 54t-87 -54q-11 -24 -12 -56h198zM443 606h-111v125h111
v-125zM222 606h-111v125h111v-125z" />
    <glyph glyph-name="igrave" unicode="&#xec;" horiz-adv-x="275" 
d="M203 0h-130v521h130v-521zM220 604h-87l-114 170h137z" />
    <glyph glyph-name="iacute" unicode="&#xed;" horiz-adv-x="275" 
d="M203 0h-130v521h130v-521zM260 774l-114 -170h-87l64 170h137z" />
    <glyph glyph-name="icircumflex" unicode="&#xee;" horiz-adv-x="275" 
d="M203 0h-130v521h130v-521zM324 604h-101l-83 91l-83 -91h-101l132 169h104z" />
    <glyph glyph-name="idieresis" unicode="&#xef;" horiz-adv-x="275" 
d="M203 0h-130v521h130v-521zM303 606h-111v125h111v-125zM82 606h-111v125h111v-125z" />
    <glyph glyph-name="eth" unicode="&#xf0;" 
d="M486 254q0 -138 -59 -199t-156 -61t-156 61t-59 199q0 136 58 197q33 34 89 49q42 11 76 7l-34 62h-114v91h68l-31 60h139l31 -60h92v-91h-46l40 -77q37 -72 49.5 -118.5t12.5 -119.5zM356 254q0 92 -27 120q-21 22 -58 22q-36 0 -57 -22q-28 -29 -28 -120q0 -92 28 -121
q21 -22 57 -22q37 0 58 22q27 28 27 121z" />
    <glyph glyph-name="ntilde" unicode="&#xf1;" horiz-adv-x="573" 
d="M506 0h-130v315q0 49 -28 74q-23 21 -58 21q-36 0 -59 -21q-28 -25 -28 -74v-315h-130v521h127v-48q51 54 130 54q77 0 123 -46q53 -53 53 -148v-333zM470 674q-59 -59 -113 -59q-37 0 -77 23q-31 18 -56 18q-30 0 -59 -29l-56 57q59 59 112 59q39 0 77 -23
q30 -18 55 -18q30 0 59 29z" />
    <glyph glyph-name="ograve" unicode="&#xf2;" 
d="M492 261q0 -75 -12 -119q-13 -49 -47 -84q-61 -64 -162 -64q-100 0 -161 64q-34 35 -47 84q-12 44 -12 119q0 140 60 203t160 63q101 0 161 -63t60 -203zM362 261q0 96 -30 126q-23 23 -61 23q-37 0 -60 -23q-30 -30 -30 -126q0 -97 30 -127q23 -23 60 -23q38 0 61 23
q30 30 30 127zM323 604h-87l-114 170h137z" />
    <glyph glyph-name="oacute" unicode="&#xf3;" 
d="M492 261q0 -75 -12 -119q-13 -49 -47 -84q-61 -64 -162 -64q-100 0 -161 64q-34 35 -47 84q-12 44 -12 119q0 140 60 203t160 63q101 0 161 -63t60 -203zM362 261q0 96 -30 126q-23 23 -61 23q-37 0 -60 -23q-30 -30 -30 -126q0 -97 30 -127q23 -23 60 -23q38 0 61 23
q30 30 30 127zM418 774l-114 -170h-87l64 170h137z" />
    <glyph glyph-name="ocircumflex" unicode="&#xf4;" 
d="M492 261q0 -75 -12 -119q-13 -49 -47 -84q-61 -64 -162 -64q-100 0 -161 64q-34 35 -47 84q-12 44 -12 119q0 140 60 203t160 63q101 0 161 -63t60 -203zM362 261q0 96 -30 126q-23 23 -61 23q-37 0 -60 -23q-30 -30 -30 -126q0 -97 30 -127q23 -23 60 -23q38 0 61 23
q30 30 30 127zM456 604h-101l-83 91l-83 -91h-101l132 169h104z" />
    <glyph glyph-name="otilde" unicode="&#xf5;" 
d="M492 261q0 -75 -12 -119q-13 -49 -47 -84q-61 -64 -162 -64q-100 0 -161 64q-34 35 -47 84q-12 44 -12 119q0 140 60 203t160 63q101 0 161 -63t60 -203zM362 261q0 96 -30 126q-23 23 -61 23q-37 0 -60 -23q-30 -30 -30 -126q0 -97 30 -127q23 -23 60 -23q38 0 61 23
q30 30 30 127zM452 674q-59 -59 -113 -59q-37 0 -77 23q-31 18 -56 18q-30 0 -59 -29l-56 57q59 59 112 59q39 0 77 -23q30 -18 55 -18q30 0 59 29z" />
    <glyph glyph-name="odieresis" unicode="&#xf6;" 
d="M492 261q0 -75 -12 -119q-13 -49 -47 -84q-61 -64 -162 -64q-100 0 -161 64q-34 35 -47 84q-12 44 -12 119q0 140 60 203t160 63q101 0 161 -63t60 -203zM362 261q0 96 -30 126q-23 23 -61 23q-37 0 -60 -23q-30 -30 -30 -126q0 -97 30 -127q23 -23 60 -23q38 0 61 23
q30 30 30 127zM438 606h-111v125h111v-125zM217 606h-111v125h111v-125z" />
    <glyph glyph-name="divide" unicode="&#xf7;" 
d="M337 423h-130v130h130v-130zM497 225h-451v121h451v-121zM337 18h-130v130h130v-130z" />
    <glyph glyph-name="oslash" unicode="&#xf8;" 
d="M492 261q0 -75 -12 -119q-13 -49 -47 -84q-61 -64 -162 -64q-58 0 -104 23l-36 -61h-79l59 101l-1 1q-34 34 -47 84q-12 43 -12 119q0 140 60 203t160 63q61 0 105 -22l35 60h80l-60 -101l2 -1q59 -62 59 -202zM320 397q-21 13 -49 13q-37 0 -60 -23q-30 -30 -30 -126
q0 -58 7 -86zM362 261q0 53 -8 85l-131 -222q21 -13 48 -13q38 0 61 23q30 30 30 127z" />
    <glyph glyph-name="ugrave" unicode="&#xf9;" horiz-adv-x="573" 
d="M500 0h-127v48q-51 -54 -130 -54q-77 0 -123 46q-53 53 -53 148v333h130v-315q0 -49 28 -74q23 -21 58 -21q36 0 59 21q28 25 28 74v315h130v-521zM338 604h-87l-114 170h137z" />
    <glyph glyph-name="uacute" unicode="&#xfa;" horiz-adv-x="573" 
d="M500 0h-127v48q-51 -54 -130 -54q-77 0 -123 46q-53 53 -53 148v333h130v-315q0 -49 28 -74q23 -21 58 -21q36 0 59 21q28 25 28 74v315h130v-521zM429 774l-114 -170h-87l64 170h137z" />
    <glyph glyph-name="ucircumflex" unicode="&#xfb;" horiz-adv-x="573" 
d="M500 0h-127v48q-51 -54 -130 -54q-77 0 -123 46q-53 53 -53 148v333h130v-315q0 -49 28 -74q23 -21 58 -21q36 0 59 21q28 25 28 74v315h130v-521zM467 604h-101l-83 91l-83 -91h-101l132 169h104z" />
    <glyph glyph-name="udieresis" unicode="&#xfc;" horiz-adv-x="573" 
d="M500 0h-127v48q-51 -54 -130 -54q-77 0 -123 46q-53 53 -53 148v333h130v-315q0 -49 28 -74q23 -21 58 -21q36 0 59 21q28 25 28 74v315h130v-521zM449 606h-111v125h111v-125zM228 606h-111v125h111v-125z" />
    <glyph glyph-name="yacute" unicode="&#xfd;" horiz-adv-x="494" 
d="M490 521l-223 -605q-16 -44 -39 -67q-40 -40 -112 -40h-51v117h30q29 0 42.5 10t22.5 37l22 64l-178 484h137l108 -322l104 322h137zM390 774l-114 -170h-87l64 170h137z" />
    <glyph glyph-name="thorn" unicode="&#xfe;" horiz-adv-x="562" 
d="M509 261q0 -80 -7 -120q-11 -65 -46 -100q-47 -47 -127 -47q-79 0 -126 52v-237h-130v903h130v-237q47 52 126 52q80 0 127 -47q35 -35 46 -100q7 -40 7 -119zM379 261q0 69 -11 99q-20 50 -77 50t-77 -50q-11 -30 -11 -99t11 -99q20 -51 77 -51t77 51q11 30 11 99z" />
    <glyph glyph-name="ydieresis" unicode="&#xff;" horiz-adv-x="494" 
d="M490 521l-223 -605q-16 -44 -39 -67q-40 -40 -112 -40h-51v117h30q29 0 42.5 10t22.5 37l22 64l-178 484h137l108 -322l104 322h137zM410 606h-111v125h111v-125zM189 606h-111v125h111v-125z" />
    <glyph glyph-name="dotlessi" unicode="&#x131;" horiz-adv-x="275" 
d="M203 0h-130v521h130v-521z" />
    <glyph glyph-name="Lslash" unicode="&#x141;" horiz-adv-x="593" 
d="M563 0h-462v244l-64 -41v116l64 41v352h139v-265l128 81v-115l-128 -81v-208h323v-124z" />
    <glyph glyph-name="lslash" unicode="&#x142;" horiz-adv-x="336" 
d="M309 0h-74q-75 0 -116 47q-35 40 -35 102v153l-54 -33v109l54 34v300h130v-222l60 37v-109l-60 -38v-223q0 -47 45 -47h50v-110z" />
    <glyph glyph-name="OE" unicode="&#x152;" horiz-adv-x="966" 
d="M912 0h-466v44q-47 -50 -128 -50q-114 0 -189 75q-48 48 -62 124q-8 46 -8 163t8 163q14 76 62 124q75 75 189 75q81 0 128 -50v44h465v-123h-327q0 -14 1 -84v-85h278v-122h-278v-87q-1 -73 -1 -88h328v-123zM446 356q0 82 -2 104q-6 66 -33 96q-34 38 -89 38
q-56 0 -90 -38q-26 -30 -32 -96q-2 -18 -2 -104t2 -104q6 -66 32 -96q34 -38 90 -38q62 0 97 48q27 37 27 190z" />
    <glyph glyph-name="oe" unicode="&#x153;" horiz-adv-x="863" 
d="M816 220h-326q0 -52 30.5 -84t83.5 -32q68 0 117 49l80 -77q-43 -43 -84 -61q-47 -21 -114 -21q-115 0 -174 66q-54 -66 -158 -66q-100 0 -161 64q-34 35 -47 84q-12 44 -12 119q0 140 60 203t160 63q106 0 161 -69q57 69 157 69q106 0 168 -71q59 -68 59 -178v-58z
M687 309q-1 34 -11 56q-24 54 -87 54q-64 0 -88 -54q-10 -22 -11 -56h197zM362 261q0 96 -30 126q-23 23 -61 23q-37 0 -60 -23q-30 -30 -30 -126q0 -97 30 -127q23 -23 60 -23q38 0 61 23q30 30 30 127z" />
    <glyph glyph-name="Scaron" unicode="&#x160;" horiz-adv-x="591" 
d="M543 210q0 -101 -74.5 -158.5t-189.5 -57.5q-167 0 -260 94l90 90q60 -60 172 -60q126 0 126 88q0 40 -21 59.5t-64 25.5l-86 12q-189 26 -189 199q0 97 67 156.5t181 59.5q144 0 230 -83l-88 -87q-51 49 -146 49q-53 0 -81.5 -25.5t-28.5 -64.5q0 -31 22.5 -52t64.5 -27
l84 -12q91 -13 136 -55q55 -52 55 -151zM478 950l-132 -169h-104l-132 169h101l83 -90l83 90h101z" />
    <glyph glyph-name="scaron" unicode="&#x161;" horiz-adv-x="501" 
d="M465 164q0 -83 -64 -128q-60 -42 -157 -42q-73 0 -119 13q-58 17 -103 62l85 85q49 -49 139 -49q92 0 92 54q0 43 -55 48l-82 8q-152 15 -152 146q0 78 61 124q56 42 140 42q134 0 199 -61l-80 -81q-39 35 -121 35q-74 0 -74 -50q0 -40 54 -45l82 -8q155 -15 155 -153z
M434 773l-132 -169h-104l-132 169h101l83 -90l83 90h101z" />
    <glyph glyph-name="Ydieresis" unicode="&#x178;" horiz-adv-x="572" 
d="M569 712l-214 -420v-292h-138v292l-214 420h151l133 -287l131 287h151zM451 783h-111v125h111v-125zM230 783h-111v125h111v-125z" />
    <glyph glyph-name="Zcaron" unicode="&#x17d;" horiz-adv-x="548" 
d="M508 0h-468v112l304 476h-291v124h455v-110l-305 -478h305v-124zM461 950l-132 -169h-104l-132 169h101l83 -90l83 90h101z" />
    <glyph glyph-name="zcaron" unicode="&#x17e;" horiz-adv-x="478" 
d="M434 0h-397v99l231 305h-218v117h384v-99l-234 -305h234v-117zM426 773l-132 -169h-104l-132 169h101l83 -90l83 90h101z" />
    <glyph glyph-name="florin" unicode="&#x192;" horiz-adv-x="427" 
d="M397 610h-69q-46 0 -54 -47l-29 -166h96v-100h-113l-87 -488h-130l87 488h-67v100h84l31 174q11 62 54 103q49 47 123 46l74 -1v-109z" />
    <glyph glyph-name="circumflex" unicode="&#x2c6;" horiz-adv-x="500" 
d="M434 604h-101l-83 91l-83 -91h-101l132 169h104z" />
    <glyph glyph-name="caron" unicode="&#x2c7;" horiz-adv-x="500" 
d="M434 773l-132 -169h-104l-132 169h101l83 -90l83 90h101z" />
    <glyph glyph-name="breve" unicode="&#x2d8;" horiz-adv-x="500" 
d="M414 742q-4 -77 -51 -116q-43 -35 -112 -35q-70 0 -113 35q-48 39 -52 116h88q7 -60 77 -60q69 0 76 60h87z" />
    <glyph glyph-name="dotaccent" unicode="&#x2d9;" horiz-adv-x="500" 
d="M317 608h-134v106h134v-106z" />
    <glyph glyph-name="ring" unicode="&#x2da;" horiz-adv-x="500" 
d="M381 715q0 -54 -38.5 -92.5t-92.5 -38.5t-92.5 38.5t-38.5 92.5t38.5 92.5t92.5 38.5t92.5 -38t38.5 -93zM308 715q0 24 -17 41t-41 17t-41 -17t-17 -41t17 -41.5t41 -17.5t41 17.5t17 41.5z" />
    <glyph glyph-name="ogonek" unicode="&#x2db;" horiz-adv-x="500" 
d="M334 -206h-121l-44 146h97z" />
    <glyph glyph-name="tilde" unicode="&#x2dc;" horiz-adv-x="500" 
d="M430 674q-59 -59 -113 -59q-37 0 -77 23q-31 18 -56 18q-30 0 -59 -29l-56 57q59 59 112 59q39 0 77 -23q30 -18 55 -18q30 0 59 29z" />
    <glyph glyph-name="hungarumlaut" unicode="&#x2dd;" horiz-adv-x="500" 
d="M465 774l-115 -170h-86l63 170h138zM258 774l-114 -170h-87l63 170h138z" />
    <glyph glyph-name="Delta" unicode="&#x394;" horiz-adv-x="634" 
d="M631 0h-628l260 712h108zM450 117l-130 385l-134 -385h264z" />
    <glyph glyph-name="Delta" unicode="&#x2206;" horiz-adv-x="634" 
d="M631 0h-628l260 712h108zM450 117l-130 385l-134 -385h264z" />
    <glyph glyph-name="Omega" unicode="&#x3a9;" horiz-adv-x="644" 
d="M585 0h-219v109q35 16 54 44q26 39 26 196q0 100 -8 143q-7 40 -27 63q-34 39 -89 39q-65 0 -98 -49q-26 -39 -26 -196t26 -196q19 -28 54 -44v-109h-219v123h59q-24 25 -36 55q-23 56 -23 178q0 117 8 161q14 75 62 123q78 78 193 78q114 0 192 -78q49 -49 62 -123
q9 -45 9 -161q0 -122 -23 -178q-12 -30 -36 -55h59v-123z" />
    <glyph glyph-name="Omega" unicode="&#x2126;" horiz-adv-x="644" 
d="M585 0h-219v109q35 16 54 44q26 39 26 196q0 100 -8 143q-7 40 -27 63q-34 39 -89 39q-65 0 -98 -49q-26 -39 -26 -196t26 -196q19 -28 54 -44v-109h-219v123h59q-24 25 -36 55q-23 56 -23 178q0 117 8 161q14 75 62 123q78 78 193 78q114 0 192 -78q49 -49 62 -123
q9 -45 9 -161q0 -122 -23 -178q-12 -30 -36 -55h59v-123z" />
    <glyph glyph-name="pi" unicode="&#x3c0;" horiz-adv-x="592" 
d="M515 0h-129v399h-180v-399h-130v521h439v-521z" />
    <glyph glyph-name="endash" unicode="&#x2013;" 
d="M493 225h-443v121h443v-121z" />
    <glyph glyph-name="emdash" unicode="&#x2014;" horiz-adv-x="1027" 
d="M968 226h-909v125h909v-125z" />
    <glyph glyph-name="quoteleft" unicode="&#x2018;" horiz-adv-x="273" 
d="M204 589h-136v123l136 105v-228z" />
    <glyph glyph-name="quoteright" unicode="&#x2019;" horiz-adv-x="273" 
d="M204 588l-136 -103v227h136v-124z" />
    <glyph glyph-name="quotesinglbase" unicode="&#x201a;" horiz-adv-x="271" 
d="M204 0l-136 -104v228h136v-124z" />
    <glyph glyph-name="quotedblleft" unicode="&#x201c;" horiz-adv-x="482" 
d="M414 589h-136v123l136 105v-228zM203 589h-135v123l135 105v-228z" />
    <glyph glyph-name="quotedblright" unicode="&#x201d;" horiz-adv-x="482" 
d="M414 588l-136 -103v227h136v-124zM203 588l-135 -103v227h135v-124z" />
    <glyph glyph-name="quotedblbase" unicode="&#x201e;" horiz-adv-x="485" 
d="M414 0l-136 -104v228h136v-124zM203 0l-135 -104v228h135v-124z" />
    <glyph glyph-name="dagger" unicode="&#x2020;" horiz-adv-x="579" 
d="M522 410h-168v-410h-130v410h-167v117h167v185h130v-185h168v-117z" />
    <glyph glyph-name="daggerdbl" unicode="&#x2021;" horiz-adv-x="579" 
d="M522 -6h-168v-185h-130v185h-167v117h167v299h-167v117h167v185h130v-185h168v-117h-168v-299h168v-117z" />
    <glyph glyph-name="bullet" unicode="&#x2022;" horiz-adv-x="493" 
d="M409 334q0 -67 -47.5 -115t-115.5 -48q-67 0 -115 48t-48 115q0 68 48 115.5t115 47.5q68 0 115.5 -47.5t47.5 -115.5z" />
    <glyph glyph-name="ellipsis" unicode="&#x2026;" horiz-adv-x="846" 
d="M778 0h-141v141h141v-141zM493 0h-141v141h141v-141zM210 0h-142v141h142v-141z" />
    <glyph glyph-name="perthousand" unicode="&#x2030;" horiz-adv-x="1211" 
d="M1158 131q0 -65 -41.5 -101t-103.5 -36t-102 35q-43 37 -43 102v99q0 65 43 102q40 35 102 35t103.5 -36t41.5 -101v-99zM796 131q0 -65 -41.5 -101t-103.5 -36t-102 35q-43 37 -43 102v99q0 65 43 102q40 35 102 35t103.5 -36t41.5 -101v-99zM644 712l-337 -712h-102
l337 712h102zM342 482q0 -65 -41.5 -101t-103.5 -36t-102 35q-43 37 -43 102v99q0 65 43 102q40 35 102 35t103.5 -36t41.5 -101v-99zM1064 134v92q0 57 -51 57t-51 -57v-91q0 -57 51 -57t51 56zM702 135v91q0 57 -51 57t-51 -57v-91q0 -57 51 -57t51 57zM248 486v91
q0 57 -51 57t-51 -57v-91q0 -57 51 -57t51 57z" />
    <glyph glyph-name="guilsinglleft" unicode="&#x2039;" horiz-adv-x="350" 
d="M283 27l-249 248l249 248v-155l-94 -93l94 -93v-155z" />
    <glyph glyph-name="guilsinglright" unicode="&#x203a;" horiz-adv-x="350" 
d="M316 275l-249 -248v155l95 93l-95 93v155z" />
    <glyph glyph-name="fraction" unicode="&#x2044;" horiz-adv-x="208" 
d="M323 712l-337 -712h-101l337 712h101z" />
    <glyph glyph-name="trademark" unicode="&#x2122;" horiz-adv-x="924" 
d="M860 285h-95v252l-80 -157h-84l-80 157v-252h-95v427h95l122 -228l122 228h95v-427zM360 627h-110v-342h-95v342h-110v85h315v-85z" />
    <glyph glyph-name="partialdiff" unicode="&#x2202;" horiz-adv-x="555" 
d="M482 254q0 -137 -57.5 -198.5t-155.5 -61.5q-97 0 -155 62t-58 198q0 137 57 198t151 61q55 0 87 -29v27q0 35 -22 62q-28 35 -82 35q-61 0 -102 -40l-81 82q71 68 189 68q111 0 172 -67q57 -63 57 -170v-227zM352 254q0 92 -27 120q-21 22 -56 22t-56 -22
q-27 -28 -27 -120q0 -93 27 -121q21 -22 56 -22t56 22q27 28 27 121z" />
    <glyph glyph-name="product" unicode="&#x220f;" horiz-adv-x="685" 
d="M602 -191h-139v828h-241v-828h-139v951h519v-951z" />
    <glyph glyph-name="summation" unicode="&#x2211;" horiz-adv-x="552" 
d="M515 -191h-475v110l189 376l-186 355v110h468v-124h-306l141 -279v-129l-146 -295h315v-124z" />
    <glyph glyph-name="radical" unicode="&#x221a;" horiz-adv-x="596" 
d="M566 588h-92l-194 -588h-105l-172 521h141l84 -273l143 464h195v-124z" />
    <glyph glyph-name="infinity" unicode="&#x221e;" horiz-adv-x="851" 
d="M796 284q0 -82 -48 -133q-52 -55 -142 -55q-98 0 -181 94q-83 -94 -180 -94q-90 0 -141 55q-49 51 -49 133t49 134q51 56 141 56q96 0 180 -95q84 95 181 95q90 0 142 -56q48 -52 48 -134zM670 281q0 30 -19 47.5t-46 17.5q-37 0 -91 -65q54 -65 91 -65q27 0 46 17.5
t19 47.5zM337 281q-55 66 -92 66q-27 0 -45.5 -18t-18.5 -48t18.5 -47.5t45.5 -17.5q38 0 92 65z" />
    <glyph glyph-name="integral" unicode="&#x222b;" horiz-adv-x="490" 
d="M433 615h-49q-71 0 -71 -71v-549q0 -86 -52 -133.5t-139 -47.5h-65v110h49q71 0 71 70v549q0 86 52 134t139 48h65v-110z" />
    <glyph glyph-name="approxequal" unicode="&#x2248;" horiz-adv-x="606" 
d="M569 393q-47 -47 -83.5 -66.5t-81.5 -19.5q-54 0 -117 33q-45 24 -82 24q-44 0 -86 -42l-82 82q48 48 83.5 67t80.5 19q54 0 117 -33q47 -25 81 -25q44 0 87 43zM569 167q-48 -48 -82 -66q-37 -20 -82 -20q-54 0 -117 33q-47 25 -81 25q-44 0 -87 -43l-83 82
q47 47 84 66.5t82 19.5q53 0 116 -33q45 -24 82 -24q44 0 86 42z" />
    <glyph glyph-name="approxequal" unicode="&#x22f2;" horiz-adv-x="606" 
d="M569 393q-47 -47 -83.5 -66.5t-81.5 -19.5q-54 0 -117 33q-45 24 -82 24q-44 0 -86 -42l-82 82q48 48 83.5 67t80.5 19q54 0 117 -33q47 -25 81 -25q44 0 87 43zM569 167q-48 -48 -82 -66q-37 -20 -82 -20q-54 0 -117 33q-47 25 -81 25q-44 0 -87 -43l-83 82
q47 47 84 66.5t82 19.5q53 0 116 -33q45 -24 82 -24q44 0 86 42z" />
    <glyph glyph-name="notequal" unicode="&#x2260;" horiz-adv-x="602" 
d="M552 116h-320l-103 -129l-79 62l55 67h-55v122h149l78 95h-227v122h320l103 129l79 -62l-55 -67h55v-122h-148l-78 -95h226v-122z" />
    <glyph glyph-name="lessequal" unicode="&#x2264;" horiz-adv-x="1027" 
d="M884 1l-87 -87l-497 498l1 -460l-116 116v545h546l116 -116l-460 2z" />
    <glyph glyph-name="greaterequal" unicode="&#x2265;" horiz-adv-x="1027" 
d="M841 69l-116 -116l2 459l-498 -498l-87 87l498 498l-460 -2l116 116h545v-544z" />
    <glyph glyph-name="lozenge" unicode="&#x25ca;" horiz-adv-x="636" 
d="M581 341l-263 -367l-263 367l263 366zM435 341l-117 164l-117 -164l117 -165z" />
    <glyph glyph-name="fi" unicode="&#xf001;" horiz-adv-x="602" 
d="M532 610h-134v106h134v-106zM530 0h-130v506h130v-506zM311 407h-96v-407h-130v407h-54v99h54v65q0 61 36 102q42 47 116 47h74v-110h-50q-46 0 -46 -47v-57h96v-99z" />
    <glyph glyph-name="fl" unicode="&#xf002;" horiz-adv-x="648" 
d="M624 0h-74q-75 0 -116 47q-36 41 -36 102v563h130v-555q0 -47 46 -47h50v-110zM311 407h-96v-407h-130v407h-54v99h54v65q0 61 36 102q42 47 116 47h74v-110h-50q-46 0 -46 -47v-57h96v-99z" />
    <glyph glyph-name="DC4" horiz-adv-x="328" 
d="M309 60h-39v-60h-76v60h-175v74l147 293h86l-147 -293h89v80h76v-80h39v-74z" />
  </font>
</defs>
</svg>
