<?xml version="1.0" standalone="no"?>
<!DOCTYPE svg PUBLIC "-//W3C//DTD SVG 1.1//EN" "http://www.w3.org/Graphics/SVG/1.1/DTD/svg11.dtd" >
<svg xmlns="http://www.w3.org/2000/svg" xmlns:xlink="http://www.w3.org/1999/xlink" version="1.1">
<metadata>
Created by FontForge 20200427 at Tue Oct 24 23:44:21 2017
 By www
Copyright (c) 2017 by Gayane Bagdasaryan, Vyacheslav Kirilenko. All rights reserved.
</metadata>
<defs>
<font id="Aeroport" horiz-adv-x="620" >
  <font-face 
    font-family="Aeroport"
    font-weight="400"
    font-stretch="normal"
    units-per-em="1000"
    panose-1="2 0 0 0 0 0 0 0 0 0"
    ascent="800"
    descent="-200"
    x-height="460"
    cap-height="664"
    bbox="-338 -251 1255 1024"
    underline-thickness="50"
    underline-position="-100"
    unicode-range="U+000D-FB02"
  />
<missing-glyph 
d="M85 664h450v-664h-450v664zM449 76v512h-278v-512h278z" />
    <glyph glyph-name=".notdef" 
d="M85 664h450v-664h-450v664zM449 76v512h-278v-512h278z" />
    <glyph glyph-name=".null" horiz-adv-x="0" 
 />
    <glyph glyph-name=".null" horiz-adv-x="0" 
 />
    <glyph glyph-name="nonmarkingreturn" unicode="&#xd;" horiz-adv-x="230" 
 />
    <glyph glyph-name="space" unicode=" " horiz-adv-x="230" 
 />
    <glyph glyph-name="exclam" unicode="!" horiz-adv-x="324" 
d="M207 199h-90v465h90v-465zM110 104h104v-104h-104v104z" />
    <glyph glyph-name="quotedbl" unicode="&#x22;" horiz-adv-x="356" 
d="M220 664h86v-263h-86v263zM50 664h86v-263h-86v263z" />
    <glyph glyph-name="numbersign" unicode="#" horiz-adv-x="672" 
d="M353 664l-48 -179h142l48 179h86l-48 -179h129v-82h-151l-38 -142h129v-82h-151l-47 -179h-86l47 179h-142l-47 -179h-86l47 179h-127v82h149l38 142h-127v82h149l48 179h86zM245 261h142l38 142h-142z" />
    <glyph glyph-name="dollar" unicode="$" horiz-adv-x="579" 
d="M119 165q23 -42 68 -68t106 -26q35 0 64.5 8.5t50.5 23.5t32.5 35t11.5 43q0 48 -31.5 72t-97.5 32l-107 14q-90 12 -132.5 60t-42.5 119q0 78 51 131.5t145 64.5v121h86v-121q47 -6 84.5 -24t65 -42.5t45 -53t26.5 -55.5h-95q-20 41 -65.5 67.5t-104.5 26.5
q-37 0 -65 -9.5t-46.5 -25t-27.5 -35.5t-9 -41q0 -45 29.5 -69t82.5 -31l114 -15q85 -11 135 -58.5t50 -122.5q0 -35 -14 -68.5t-41.5 -61t-68.5 -46t-95 -22.5v-120h-86v123q-47 7 -83 24.5t-62 41.5t-42.5 52t-25.5 56h95z" />
    <glyph glyph-name="percent" unicode="%" horiz-adv-x="876" 
d="M201 0l389 664h87l-389 -664h-87zM220 671q36 0 67.5 -13t54 -35.5t35.5 -53t13 -64.5t-13 -64.5t-35.5 -53t-54 -35.5t-67.5 -13t-67.5 13t-54 35.5t-35.5 53t-13 64.5t13 64.5t35.5 53t54 35.5t67.5 13zM220 414q39 0 64 27t25 64t-25 64.5t-64 27.5t-64 -27.5
t-25 -64.5t25 -64t64 -27zM656 325q36 0 67.5 -13t54 -35.5t35.5 -53t13 -64.5t-13 -64.5t-35.5 -53t-54 -35.5t-67.5 -13t-67.5 13t-54 35.5t-35.5 53t-13 64.5t13 64.5t35.5 53t54 35.5t67.5 13zM656 68q39 0 64 27t25 64t-25 64.5t-64 27.5t-64 -27.5t-25 -64.5t25 -64
t64 -27z" />
    <glyph glyph-name="ampersand" unicode="&#x26;" horiz-adv-x="670" 
d="M670 0h-119l-102 90q-45 -45 -95.5 -74t-113.5 -29q-50 0 -87.5 14.5t-62 38t-37 54t-12.5 62.5t9.5 56.5t26 44.5t39 38t49.5 38l11 8l-28 28q-13 13 -26.5 28t-24.5 32.5t-18 37t-7 42.5q0 41 16 72.5t42 52.5t59 32t68 11q41 0 75.5 -11.5t60 -33.5t40 -52.5
t14.5 -67.5q0 -25 -8.5 -47t-22.5 -41.5t-32.5 -36t-37.5 -30.5l-39 -28l138 -123l175 186v-111l-120 -129zM258 597q-17 0 -35 -5t-32.5 -15.5t-23.5 -27t-9 -38.5q0 -28 19.5 -52t38.5 -41l36 -33l46 32q34 23 48.5 47t14.5 48q0 18 -8 34t-22.5 27t-33 17.5t-39.5 6.5z
M234 287l-25 -19q-14 -11 -28.5 -22t-26.5 -24t-19.5 -29t-7.5 -35q0 -36 30 -63.5t82 -27.5q48 0 85 24t68 56z" />
    <glyph glyph-name="quotesingle" unicode="'" horiz-adv-x="186" 
d="M50 664h86v-263h-86v263z" />
    <glyph glyph-name="parenleft" unicode="(" horiz-adv-x="329" 
d="M310 664q-27 -36 -53 -78t-46 -92.5t-32.5 -109.5t-12.5 -130t12.5 -130t32.5 -109.5t46 -92.5t53 -78h-93q-30 36 -55 80.5t-43 96.5t-28.5 110.5t-10.5 122.5t10.5 122.5t28.5 110.5t43 96.5t55 80.5h93z" />
    <glyph glyph-name="parenright" unicode=")" horiz-adv-x="329" 
d="M19.0381 664q26.9961 -36 52.9932 -78t45.9941 -92.5q19.998 -50.5 32.4961 -109.5q12.499 -59 12.499 -130t-12.499 -130q-12.498 -59 -32.4961 -109.5q-19.9971 -50.5 -45.9941 -92.5t-52.9932 -78h92.9883q29.9961 36 54.9932 80.5t42.9951 96.5t28.4961 110.5
q10.499 58.5 10.499 122.5t-10.499 122.5q-10.498 58.5 -28.4961 110.5t-42.9951 96.5t-54.9932 80.5h-92.9883z" />
    <glyph glyph-name="asterisk" unicode="*" horiz-adv-x="435" 
d="M40 542l34 60l109 -64v126h69v-126l108 64l35 -60l-110 -63l110 -62l-35 -60l-108 63v-125h-69v125l-109 -63l-34 60l109 62z" />
    <glyph glyph-name="plus" unicode="+" horiz-adv-x="545" 
d="M232 296v177h81v-177h177v-81h-177v-177h-81v177h-177v81h177z" />
    <glyph glyph-name="comma" unicode="," horiz-adv-x="231" 
d="M43 -117l70 117h-53v111h111v-121l-65 -107h-63z" />
    <glyph glyph-name="hyphen" unicode="-" horiz-adv-x="400" 
d="M330 296v-81h-260v81h260z" />
    <glyph glyph-name="period" unicode="." horiz-adv-x="231" 
d="M60 111h111v-111h-111v111z" />
    <glyph glyph-name="slash" unicode="/" horiz-adv-x="360" 
d="M266 664h89l-262 -744h-88z" />
    <glyph glyph-name="zero" unicode="0" horiz-adv-x="628" 
d="M314 677q50 0 88.5 -16t66.5 -43t47 -62.5t30.5 -73.5t16.5 -77t5 -73t-5 -73t-16.5 -77t-30.5 -73.5t-47 -62.5t-66.5 -43t-88.5 -16t-88.5 16t-66.5 43t-47 62.5t-30.5 73.5t-16.5 77t-5 73t5 73t16.5 77t30.5 73.5t47 62.5t66.5 43t88.5 16zM314 71q47 0 78.5 25
t50.5 63.5t27 84.5t8 88t-8 88t-27 84.5t-50.5 63.5t-78.5 25t-78.5 -25t-50.5 -63.5t-27 -84.5t-8 -88t8 -88t27 -84.5t50.5 -63.5t78.5 -25z" />
    <glyph glyph-name="one" unicode="1" horiz-adv-x="387" 
d="M192 560l-142 -128v110l138 122h94v-664h-90v560z" />
    <glyph glyph-name="two" unicode="2" horiz-adv-x="569" 
d="M514 84v-84h-453v84l271 249q31 29 56 62.5t25 76.5q0 28 -10.5 50t-28.5 38t-42 24.5t-52 8.5q-51 0 -89.5 -26.5t-51.5 -81.5h-94q8 42 27 77.5t48.5 61t68.5 39.5t86 14q50 0 92 -14.5t72 -40.5t46.5 -63.5t16.5 -83.5q0 -55 -27.5 -101t-72.5 -87l-220 -203h332z" />
    <glyph glyph-name="three" unicode="3" horiz-adv-x="579" 
d="M284 380q63 0 100 28t37 80q0 47 -38 76t-99 29q-50 0 -88.5 -22t-57.5 -72h-93q12 46 35.5 80t55 55.5t69.5 32t79 10.5q54 0 96 -15.5t71.5 -42t44.5 -60.5t15 -71q0 -39 -18 -77t-66 -71q51 -35 69 -75.5t18 -81.5q0 -39 -15.5 -74.5t-45.5 -62.5t-73.5 -43t-98.5 -16
q-42 0 -80 10.5t-70 32.5t-55 55.5t-35 79.5h93q21 -52 58.5 -73t88.5 -21q63 0 103 31t40 80q0 54 -38.5 84.5t-104.5 30.5h-75v83h78v0z" />
    <glyph glyph-name="four" unicode="4" horiz-adv-x="597" 
d="M468 422v-197h114v-84h-114v-141h-90v141h-358v84l324 439h104l-324 -439h254v197h90z" />
    <glyph glyph-name="five" unicode="5" horiz-adv-x="580" 
d="M138 156q18 -45 57 -65t88 -20q34 0 62 11t48 30t31 44.5t11 55.5t-11 55.5t-31 44.5t-48 29.5t-62 10.5q-36 0 -71 -13t-58 -36h-90l38 361h392v-84h-315l-18 -178q26 15 58 24.5t75 9.5q42 0 83.5 -15t74 -43.5t53 -70.5t20.5 -97q0 -44 -17.5 -84.5t-49 -71t-75.5 -49
t-98 -18.5q-47 0 -87 12.5t-70.5 34.5t-52 53t-30.5 69h93z" />
    <glyph glyph-name="six" unicode="6" horiz-adv-x="603" 
d="M324 426q46 0 88 -16.5t73 -46t49.5 -69.5t18.5 -88q0 -44 -17.5 -83.5t-49 -69.5t-75 -48t-95.5 -18q-56 0 -102.5 18.5t-81 58.5t-53.5 102.5t-19 151.5q0 67 15 131.5t47 115t83.5 81.5t123.5 31q162 0 220 -155h-92q-19 38 -52 54.5t-75 16.5q-37 0 -69 -16
t-56.5 -46.5t-39.5 -75.5t-16 -103q26 32 72.5 53t102.5 21zM312 71q31 0 58.5 10t48 28t32.5 42.5t12 54.5t-12 55t-32.5 43t-48 28t-58.5 10t-58 -10t-47 -28t-31.5 -43t-11.5 -55t11.5 -55t31.5 -42.5t47 -27.5t58 -10z" />
    <glyph glyph-name="seven" unicode="7" horiz-adv-x="532" 
d="M45 580v84h452v-84l-319 -580h-100l321 580h-354z" />
    <glyph glyph-name="eight" unicode="8" horiz-adv-x="608" 
d="M304 -13q-58 0 -103 16t-76.5 43t-48 62.5t-16.5 74.5q0 40 20 81t73 76q-50 33 -68 71.5t-18 77.5q0 37 16 71t46.5 60t74.5 41.5t100 15.5t100 -15.5t74.5 -41.5t46.5 -60t16 -71q0 -39 -18 -77.5t-68 -71.5q53 -35 73 -76t20 -81q0 -39 -16.5 -74.5t-48 -62.5
t-76.5 -43t-103 -16zM451 489q0 46 -41 75t-106 29t-106 -29t-41 -75q0 -51 40 -79t107 -28t107 28t40 79zM304 71q33 0 61 8.5t49 23.5t32.5 35.5t11.5 44.5q0 54 -42.5 84.5t-111.5 30.5t-111.5 -30.5t-42.5 -84.5q0 -24 11.5 -44.5t32.5 -35.5t49 -23.5t61 -8.5z" />
    <glyph glyph-name="nine" unicode="9" horiz-adv-x="603" 
d="M279 240q-47 0 -89 16t-73 44.5t-49 69t-18 89.5q0 43 17.5 82.5t49 69.5t75 48t95.5 18q55 0 102 -18.5t81.5 -58.5t53.5 -102.5t19 -150.5q0 -68 -14 -132.5t-45.5 -115t-81.5 -81.5t-123 -31q-161 0 -219 155h92q19 -38 51.5 -54.5t74.5 -16.5q37 0 69 16t55.5 47
t37 76t14.5 103q-26 -33 -72 -53t-103 -20zM291 593q-31 0 -58.5 -10t-48 -27.5t-32.5 -42t-12 -54.5t12 -55t32 -43t47.5 -27.5t59.5 -9.5q31 0 58.5 9.5t47 27.5t31 43t11.5 55q0 29 -11.5 53.5t-31.5 42.5t-47 28t-58 10z" />
    <glyph glyph-name="colon" unicode=":" horiz-adv-x="231" 
d="M60 421h111v-111h-111v111zM60 111h111v-111h-111v111z" />
    <glyph glyph-name="semicolon" unicode=";" horiz-adv-x="231" 
d="M43 -117l70 117h-53v111h111v-121l-65 -107h-63zM60 421h111v-111h-111v111z" />
    <glyph glyph-name="less" unicode="&#x3c;" horiz-adv-x="535" 
d="M480 103v-91l-435 204v81l435 204v-91l-330 -154z" />
    <glyph glyph-name="equal" unicode="=" horiz-adv-x="545" 
d="M490 214v-82h-435v82h435zM490 381v-82h-435v82h435z" />
    <glyph glyph-name="greater" unicode="&#x3e;" horiz-adv-x="535" 
d="M55.0586 103v-91l434.947 204v81l-434.947 204v-91l329.96 -154z" />
    <glyph glyph-name="question" unicode="?" horiz-adv-x="524" 
d="M199 104h104v-104h-104v104zM265 677q51 0 88 -14t62 -36.5t37 -52.5t12 -61q0 -32 -7 -55t-20 -41t-31 -34t-40 -34l-14 -11q-18 -14 -29 -25t-17 -22.5t-8 -24t-2 -30.5v-37h-90v37q0 30 4 51.5t14.5 40.5t30 37.5t50.5 41.5t50 46.5t19 55.5q0 40 -31 62t-78 22
q-54 0 -84.5 -25t-42.5 -65h-98q8 36 26.5 67.5t47 55t66.5 37.5t85 14z" />
    <glyph glyph-name="at" unicode="@" horiz-adv-x="973" 
d="M586 252q0 64 -35 96.5t-84 32.5q-26 0 -47 -10.5t-36 -28t-23 -41t-8 -49.5q0 -27 8 -51t23 -42t36 -28.5t47 -10.5q24 0 46 8.5t38 25t25.5 41t9.5 57.5zM801 -31q-24 -28 -54.5 -54t-69 -46t-84.5 -32t-100 -12q-88 0 -165 33.5t-134.5 91.5t-90.5 135.5t-33 165.5
t33 165.5t90.5 135.5t134.5 91.5t165 33.5q85 0 160 -28t130.5 -79t87.5 -122.5t32 -158.5q0 -49 -11.5 -93t-34 -77.5t-57.5 -53.5t-81 -20q-40 0 -71 15.5t-51 42.5q-7 -9 -18.5 -19t-28 -19t-38 -14.5t-49.5 -5.5q-35 0 -69.5 13.5t-61.5 39.5t-43.5 64.5t-16.5 88.5
q0 51 17 89.5t44 64.5t62 39.5t71 13.5q22 0 40.5 -5t33 -12t25.5 -15.5t18 -14.5v36h77v-250q0 -30 15.5 -53t50.5 -23q47 0 72 46.5t25 124.5q0 67 -25 124t-69.5 97.5t-105 63.5t-130.5 23q-71 0 -133 -27.5t-108.5 -74.5t-73 -111t-26.5 -136t26.5 -136t73 -111
t108.5 -74.5t133 -27.5q56 0 107.5 17.5t95.5 49.5h105z" />
    <glyph glyph-name="A" unicode="A" horiz-adv-x="681" 
d="M93 0h-93l292 664h98l291 -664h-96l-67 154h-358zM339 566l-143 -329h286z" />
    <glyph glyph-name="B" unicode="B" horiz-adv-x="655" 
d="M397 664q37 0 73 -10t65 -32.5t47 -58t18 -86.5t-20.5 -86t-57.5 -59q37 -24 57.5 -59t20.5 -86t-18 -86.5t-47 -58t-65 -32.5t-73 -10h-312v664h312zM510 187q0 51 -31.5 77t-82.5 26h-221v-206h221q51 0 82.5 26t31.5 77zM510 477q0 51 -31.5 77t-82.5 26h-221v-206
h221q51 0 82.5 26t31.5 77z" />
    <glyph glyph-name="C" unicode="C" horiz-adv-x="715" 
d="M386 593q-54 0 -99.5 -19.5t-79.5 -54.5t-53 -83t-19 -104t19 -104t53 -83t79.5 -54.5t99.5 -19.5q63 0 109.5 25.5t77.5 68.5h102q-40 -80 -113.5 -129t-175.5 -49q-72 0 -134.5 26.5t-108.5 72.5t-72 109t-26 137q0 73 26 136.5t72 109.5t108.5 72.5t134.5 26.5
q102 0 175.5 -49t113.5 -129h-102q-31 43 -77.5 68.5t-109.5 25.5z" />
    <glyph glyph-name="D" unicode="D" horiz-adv-x="717" 
d="M308 664q87 0 154.5 -26.5t114 -71.5t71 -105.5t24.5 -128.5t-24.5 -128.5t-71 -105.5t-114 -71.5t-154.5 -26.5h-223v664h223zM582 332q0 55 -18.5 100.5t-53 78.5t-84 51t-112.5 18h-139v-496h139q63 0 112.5 18t84 51t53 78.5t18.5 100.5z" />
    <glyph glyph-name="E" unicode="E" horiz-adv-x="600" 
d="M175 580v-206h353v-84h-353v-206h360v-84h-450v664h450v-84h-360z" />
    <glyph glyph-name="F" unicode="F" horiz-adv-x="580" 
d="M175 580v-206h353v-84h-353v-290h-90v664h450v-84h-360z" />
    <glyph glyph-name="G" unicode="G" horiz-adv-x="753" 
d="M386 593q-54 0 -99.5 -19.5t-79.5 -54.5t-53 -83t-19 -104t19 -104t52.5 -83t80 -54.5t100.5 -19.5q45 0 82.5 14t66 39t48 60t28.5 77h-239v84h335q0 -81 -25 -147t-68.5 -113t-101.5 -72.5t-123 -25.5q-73 0 -136 26.5t-109.5 72.5t-73 109t-26.5 137q0 73 26 136.5
t72 109.5t108.5 72.5t134.5 26.5q50 0 94.5 -13t82 -36.5t67.5 -56.5t50 -72h-103q-30 42 -79.5 68t-111.5 26z" />
    <glyph glyph-name="H" unicode="H" horiz-adv-x="738" 
d="M563 0v290h-388v-290h-90v664h90v-290h388v290h90v-664h-90z" />
    <glyph glyph-name="I" unicode="I" horiz-adv-x="260" 
d="M175 0h-90v664h90v-664z" />
    <glyph glyph-name="J" unicode="J" horiz-adv-x="407" 
d="M327 664v-484q0 -87 -53.5 -133.5t-140.5 -46.5h-128v84h128q50 0 77 23t27 73v484h90z" />
    <glyph glyph-name="K" unicode="K" horiz-adv-x="612" 
d="M607 0h-120l-312 287v-287h-90v664h90v-287l312 287h120l-355 -332z" />
    <glyph glyph-name="L" unicode="L" horiz-adv-x="565" 
d="M175 84h360v-84h-450v664h90v-580z" />
    <glyph glyph-name="M" unicode="M" horiz-adv-x="956" 
d="M871 664v-664h-90v516l-252 -516h-102l-252 516v-516h-90v664h114l280 -574l280 574h112z" />
    <glyph glyph-name="N" unicode="N" horiz-adv-x="766" 
d="M681 664v-664h-101l-405 536v-536h-90v664h101l405 -536v536h90z" />
    <glyph glyph-name="O" unicode="O" horiz-adv-x="772" 
d="M386 677q72 0 134.5 -26.5t108.5 -72.5t72 -109.5t26 -136.5q0 -74 -26 -137t-72 -109t-108.5 -72.5t-134.5 -26.5t-134.5 26.5t-108.5 72.5t-72 109t-26 137q0 73 26 136.5t72 109.5t108.5 72.5t134.5 26.5zM386 593q-54 0 -99.5 -19.5t-79.5 -54.5t-53 -83t-19 -104
t19 -104t53 -83t79.5 -54.5t99.5 -19.5t99.5 19.5t79.5 54.5t53 83t19 104t-19 104t-53 83t-79.5 54.5t-99.5 19.5z" />
    <glyph glyph-name="P" unicode="P" horiz-adv-x="660" 
d="M620 469q0 -47 -15.5 -83.5t-43.5 -61t-67 -37.5t-86 -13h-233v-274h-90v664h323q47 0 86 -13t67 -37.5t43.5 -61t15.5 -83.5zM530 469q0 54 -34 82.5t-88 28.5h-233v-222h233q54 0 88 28.5t34 82.5z" />
    <glyph glyph-name="Q" unicode="Q" horiz-adv-x="772" 
d="M386 677q72 0 134.5 -26.5t108.5 -72.5t72 -109.5t26 -136.5q0 -78 -28.5 -142.5t-78.5 -111.5l70 -91h-110l-31 40q-74 -40 -163 -40q-72 0 -134.5 26.5t-108.5 72.5t-72 109t-26 137q0 73 26 136.5t72 109.5t108.5 72.5t134.5 26.5zM471 274l96 -126q32 35 51 81.5
t19 102.5t-19 104t-53 83t-79.5 54.5t-99.5 19.5t-99.5 -19.5t-79.5 -54.5t-53 -83t-19 -104t19 -104t53 -83t79.5 -54.5t99.5 -19.5q59 0 111 25l-136 178h110z" />
    <glyph glyph-name="R" unicode="R" horiz-adv-x="663" 
d="M620 469q0 -89 -53 -139t-138 -56l209 -274h-112l-209 274h-142v-274h-90v664h323q47 0 86 -13t67 -37.5t43.5 -61t15.5 -83.5zM530 469q0 54 -34 82.5t-88 28.5h-233v-222h233q54 0 88 28.5t34 82.5z" />
    <glyph glyph-name="S" unicode="S" horiz-adv-x="614" 
d="M123 165q23 -43 73.5 -68.5t116.5 -25.5q38 0 69.5 8.5t54.5 23t36 35t13 44.5q0 48 -34.5 72.5t-106.5 32.5l-116 12q-49 5 -84.5 20.5t-58 39t-33 54t-10.5 65.5q0 44 18 80.5t51 63t80.5 41t106.5 14.5q61 0 108.5 -16.5t82 -42t56.5 -57.5t33 -62h-98q-20 42 -70 68
t-115 26q-78 0 -120.5 -33t-42.5 -78q0 -46 32 -70.5t91 -30.5l125 -13q92 -10 143.5 -58.5t51.5 -122.5q0 -37 -16.5 -73t-49.5 -64t-82.5 -45.5t-114.5 -17.5q-66 0 -115 15.5t-83.5 41t-56.5 57.5t-33 64h98z" />
    <glyph glyph-name="T" unicode="T" horiz-adv-x="600" 
d="M575 664v-84h-230v-580h-90v580h-230v84h550z" />
    <glyph glyph-name="U" unicode="U" horiz-adv-x="736" 
d="M80 664h90v-389q0 -102 53 -153t145 -51t145 51t53 153v389h90v-389q0 -69 -20.5 -123t-58 -90.5t-91 -55.5t-118.5 -19t-118.5 19t-91 55.5t-58 90.5t-20.5 123v389z" />
    <glyph glyph-name="V" unicode="V" horiz-adv-x="674" 
d="M338 98l237 566h94l-283 -664h-99l-282 664h96z" />
    <glyph glyph-name="W" unicode="W" horiz-adv-x="1058" 
d="M107 664l186 -548l183 548h105l187 -547l184 547h96l-226 -664h-105l-189 558l-185 -558h-105l-228 664h97z" />
    <glyph glyph-name="X" unicode="X" horiz-adv-x="610" 
d="M305 261l-188 -261h-102l238 332l-238 332h103l187 -260l187 260h103l-239 -332l239 -332h-102z" />
    <glyph glyph-name="Y" unicode="Y" horiz-adv-x="590" 
d="M494 664h96l-250 -417v-247h-90v247l-250 417h99l197 -333z" />
    <glyph glyph-name="Z" unicode="Z" horiz-adv-x="638" 
d="M583 577l-421 -493h421v-84h-527v86l420 494h-421v84h528v-87z" />
    <glyph glyph-name="bracketleft" unicode="[" horiz-adv-x="381" 
d="M191 -82h161v-74h-247v820h247v-74h-161v-672z" />
    <glyph glyph-name="backslash" unicode="\" horiz-adv-x="360" 
d="M94.0322 664h-88.9893l261.969 -744h87.9893z" />
    <glyph glyph-name="bracketright" unicode="]" horiz-adv-x="381" 
d="M190 590h-161v74h247v-820h-247v74h161v672z" />
    <glyph glyph-name="asciicircum" unicode="^" horiz-adv-x="570" 
d="M55 314l182 350h96l182 -350h-94l-136 262l-136 -262h-94z" />
    <glyph glyph-name="underscore" unicode="_" horiz-adv-x="494" 
d="M-4 -36h502v-81h-502v81z" />
    <glyph glyph-name="grave" unicode="`" horiz-adv-x="356" 
d="M154 719l142 -185h-94l-142 185h94z" />
    <glyph glyph-name="a" unicode="a" horiz-adv-x="554" 
d="M264 473q49 0 89.5 -12t69.5 -35t45 -56.5t16 -76.5v-293h-86v50q-27 -29 -66.5 -46t-93.5 -17q-41 0 -75 9.5t-59 28.5t-39 47.5t-14 67.5q0 42 16.5 70.5t44.5 46t64.5 25t76.5 7.5h145q0 57 -38.5 80.5t-95.5 23.5q-42 0 -78.5 -17t-50.5 -50h-95q10 36 31.5 63t51 46
t65.5 28.5t76 9.5zM398 214h-146q-54 0 -84.5 -18t-30.5 -56t30 -55.5t80 -17.5q70 0 110.5 32.5t40.5 84.5v30z" />
    <glyph glyph-name="b" unicode="b" horiz-adv-x="604" 
d="M166 669v-259q26 29 66 46t89 17q57 0 100.5 -20t73 -54t44.5 -77.5t15 -91.5t-15 -91.5t-44.5 -77.5t-73 -54t-100.5 -20q-49 0 -89 17t-66 46v-50h-86v669h86zM163 230q0 -41 13 -71.5t34.5 -51t49.5 -30.5t58 -10q33 0 61 13t47.5 35.5t30.5 52t11 62.5t-11 62.5
t-30.5 52t-47.5 35.5t-61 13q-30 0 -58 -10t-49.5 -30.5t-34.5 -51t-13 -71.5z" />
    <glyph glyph-name="c" unicode="c" horiz-adv-x="552" 
d="M413 326q-18 31 -50 49t-73 18q-34 0 -62 -12.5t-48.5 -34.5t-32 -52t-11.5 -64t11.5 -64t32 -52t48.5 -34.5t62 -12.5q41 0 73 18t50 49h94q-25 -67 -82.5 -107t-134.5 -40q-51 0 -95 18.5t-76 51t-50.5 77t-18.5 96.5t18.5 96.5t50.5 77t76 51t95 18.5q77 0 134.5 -40
t82.5 -107h-94z" />
    <glyph glyph-name="d" unicode="d" horiz-adv-x="604" 
d="M524 669v-669h-86v50q-26 -29 -66 -46t-89 -17q-57 0 -100.5 20t-73 54t-44.5 77.5t-15 91.5t15 91.5t44.5 77.5t73 54t100.5 20q49 0 89 -17t66 -46v259h86zM441 230q0 41 -13 71.5t-34.5 51t-49.5 30.5t-58 10q-33 0 -61 -13t-47.5 -35.5t-30.5 -52t-11 -62.5t11 -62.5
t30.5 -52t47.5 -35.5t61 -13q30 0 58 10t49.5 30.5t34.5 51t13 71.5z" />
    <glyph glyph-name="e" unicode="e" horiz-adv-x="562" 
d="M291 67q41 0 72.5 15.5t49.5 46.5h93q-24 -67 -81.5 -104.5t-133.5 -37.5q-52 0 -96 18t-76.5 50.5t-50.5 77.5t-18 98q0 52 17.5 96t48.5 76.5t74.5 51t95.5 18.5q49 0 90.5 -18.5t71.5 -50.5t47 -75.5t17 -92.5v-18t-2 -20h-371q4 -28 17 -52t33 -41.5t46 -27.5t56 -10
zM286 393q-60 0 -99 -33t-47 -87h282q-8 54 -43.5 87t-92.5 33z" />
    <glyph glyph-name="f" unicode="f" horiz-adv-x="353" 
d="M100 0v384h-85v76h85v61q0 75 43.5 111.5t118.5 36.5h71v-76h-63q-45 0 -64.5 -22.5t-19.5 -67.5v-43h147v-76h-147v-384h-86z" />
    <glyph glyph-name="g" unicode="g" horiz-adv-x="604" 
d="M524 460v-438q0 -54 -16 -98.5t-46 -75.5t-74 -48t-100 -17q-37 0 -72 10t-65 28.5t-53 46t-37 63.5h94q18 -32 51.5 -50t81.5 -18q72 0 111 45t39 116v26q-26 -29 -66 -46t-89 -17q-57 0 -100.5 20t-73 54t-44.5 77.5t-15 91.5t15 91.5t44.5 77.5t73 54t100.5 20
q49 0 89 -17t66 -46v50h86zM441 230q0 41 -13 71.5t-34.5 51t-49.5 30.5t-58 10q-33 0 -61 -13t-47.5 -35.5t-30.5 -52t-11 -62.5t11 -62.5t30.5 -52t47.5 -35.5t61 -13q30 0 58 10t49.5 30.5t34.5 51t13 71.5z" />
    <glyph glyph-name="h" unicode="h" horiz-adv-x="591" 
d="M321 473q47 0 84.5 -15t63 -42t39 -64t13.5 -81v-271h-86v264q0 57 -30 93t-93 36q-28 0 -54.5 -10.5t-46.5 -30t-32.5 -48.5t-12.5 -65v-239h-86v669h86v-259q23 28 62 45.5t93 17.5z" />
    <glyph glyph-name="i" unicode="i" horiz-adv-x="250" 
d="M168 460v-460h-86v460h86zM75 669h100v-104h-100v104z" />
    <glyph glyph-name="j" unicode="j" horiz-adv-x="265" 
d="M90 669h100v-104h-100v104zM183 460v-516q0 -75 -43.5 -111.5t-118.5 -36.5h-71v76h63q45 0 64.5 22.5t19.5 67.5v498h86z" />
    <glyph glyph-name="k" unicode="k" horiz-adv-x="507" 
d="M166 669v-410l221 201h115l-255 -230l255 -230h-115l-221 189v-189h-86v669h86z" />
    <glyph glyph-name="l" unicode="l" horiz-adv-x="246" 
d="M166 669v-669h-86v669h86z" />
    <glyph glyph-name="m" unicode="m" horiz-adv-x="931" 
d="M775 268q0 56 -29.5 90.5t-90.5 34.5q-27 0 -52.5 -10t-45.5 -29.5t-32 -48t-12 -64.5v-241h-86v268q0 56 -29.5 90.5t-90.5 34.5q-27 0 -52.5 -10t-45 -29t-31.5 -47t-12 -63v-244h-86v460h86v-50q22 26 59 44.5t89 18.5q60 0 103 -23.5t68 -62.5q29 38 73 62t104 24
q47 0 84 -15t62.5 -41t39 -63t13.5 -80v-274h-86v268z" />
    <glyph glyph-name="n" unicode="n" horiz-adv-x="591" 
d="M321 473q47 0 84.5 -15t63 -42t39 -64t13.5 -81v-271h-86v264q0 57 -30 93t-93 36q-28 0 -54.5 -10.5t-46.5 -30t-32.5 -48.5t-12.5 -65v-239h-86v460h86v-50q23 28 62 45.5t93 17.5z" />
    <glyph glyph-name="o" unicode="o" horiz-adv-x="582" 
d="M291 473q52 0 96 -18.5t76 -51t50.5 -77t18.5 -96.5t-18.5 -96.5t-50.5 -77t-76 -51t-96 -18.5t-96 18.5t-76.5 51t-50.5 77t-18 96.5t18 96.5t50.5 77t76.5 51t96 18.5zM291 67q34 0 62.5 13t49 35t32 51.5t11.5 63.5t-11.5 64t-32 52t-49 34.5t-62.5 12.5t-62.5 -12.5
t-49 -34.5t-32 -52t-11.5 -64t11.5 -63.5t32 -51.5t49 -35t62.5 -13z" />
    <glyph glyph-name="p" unicode="p" horiz-adv-x="604" 
d="M80 -204v664h86v-50q26 29 66 46t89 17q57 0 100.5 -20t73 -54t44.5 -77.5t15 -91.5t-15 -91.5t-44.5 -77.5t-73 -54t-100.5 -20q-49 0 -89 17t-66 46v-254h-86zM163 230q0 -41 13 -71.5t34.5 -51t49.5 -30.5t58 -10q33 0 61 13t47.5 35.5t30.5 52t11 62.5t-11 62.5
t-30.5 52t-47.5 35.5t-61 13q-30 0 -58 -10t-49.5 -30.5t-34.5 -51t-13 -71.5z" />
    <glyph glyph-name="q" unicode="q" horiz-adv-x="604" 
d="M438 -204v254q-26 -29 -66 -46t-89 -17q-57 0 -100.5 20t-73 54t-44.5 77.5t-15 91.5t15 91.5t44.5 77.5t73 54t100.5 20q49 0 89 -17t66 -46v50h86v-664h-86zM441 230q0 41 -13 71.5t-34.5 51t-49.5 30.5t-58 10q-33 0 -61 -13t-47.5 -35.5t-30.5 -52t-11 -62.5
t11 -62.5t30.5 -52t47.5 -35.5t61 -13q30 0 58 10t49.5 30.5t34.5 51t13 71.5z" />
    <glyph glyph-name="r" unicode="r" horiz-adv-x="395" 
d="M166 460v-65q19 27 59 48t103 21h27v-82h-27q-76 0 -119 -44.5t-43 -116.5v-221h-86v460h86z" />
    <glyph glyph-name="s" unicode="s" horiz-adv-x="520" 
d="M391 330q-16 33 -51.5 48t-87.5 15q-50 0 -80.5 -17t-30.5 -46t24.5 -41.5t70.5 -16.5l93 -7q72 -6 111.5 -38.5t39.5 -95.5q0 -30 -14 -56t-40 -45.5t-64 -31t-86 -11.5q-51 0 -91 11.5t-70 32t-49 47t-26 56.5h94q14 -33 53 -50t100 -17q45 0 76 16.5t31 45.5t-24.5 42
t-71.5 17l-96 8q-147 13 -147 131q0 30 14 57t39.5 46.5t62 31t82.5 11.5q51 0 91 -12t68.5 -31.5t46.5 -45.5t26 -54h-94z" />
    <glyph glyph-name="t" unicode="t" horiz-adv-x="393" 
d="M201 586v-126h147v-76h-147v-218q0 -45 19.5 -67.5t64.5 -22.5h63v-76h-71q-75 0 -118.5 36.5t-43.5 111.5v236h-85v76h85v126h86z" />
    <glyph glyph-name="u" unicode="u" horiz-adv-x="585" 
d="M267 -13q-47 0 -83.5 15t-61.5 42t-38.5 64t-13.5 81v271h86v-264q0 -57 29.5 -93t90.5 -36q27 0 53 10.5t46 30t32 48.5t12 65v239h86v-460h-86v50q-23 -28 -61.5 -45.5t-90.5 -17.5z" />
    <glyph glyph-name="v" unicode="v" horiz-adv-x="517" 
d="M301 0h-85l-206 460h97l154 -347l155 347h91z" />
    <glyph glyph-name="w" unicode="w" horiz-adv-x="835" 
d="M112 460l131 -350l131 350h92l130 -350l132 350h87l-172 -460h-94l-132 350l-132 -350h-93l-172 460h92z" />
    <glyph glyph-name="x" unicode="x" horiz-adv-x="521" 
d="M312 233l189 -233h-105l-138 169l-139 -169h-99l188 230l-186 230h107l133 -165l134 165h103z" />
    <glyph glyph-name="y" unicode="y" horiz-adv-x="523" 
d="M13 460h97l154 -347l155 347h91l-217 -485q-23 -52 -39.5 -86.5t-35 -55t-43.5 -29t-66 -8.5h-44v76h28q20 0 34.5 4t26 14.5t21.5 27.5t22 44l19 44z" />
    <glyph glyph-name="z" unicode="z" horiz-adv-x="496" 
d="M45 0v76l292 308h-292v76h401v-76l-293 -308h298v-76h-406z" />
    <glyph glyph-name="braceleft" unicode="{" horiz-adv-x="367" 
d="M227 373q0 -23 -6.5 -42t-17.5 -33.5t-25 -25t-28 -17.5q14 -7 28 -17.5t25 -25t17.5 -33.5t6.5 -42v-143q0 -38 19.5 -57t61.5 -19h40v-74h-50q-34 0 -62.5 8.5t-49.5 26.5t-33 45t-12 64v132q0 43 -28.5 68.5t-74.5 30.5v72q46 5 74.5 30.5t28.5 68.5v130q0 37 12 64
t33 45t49.5 26.5t62.5 8.5h50v-74h-40q-42 0 -61.5 -19t-19.5 -57v-141v0z" />
    <glyph glyph-name="bar" unicode="|" horiz-adv-x="226" 
d="M156 -156h-86v820h86v-820z" />
    <glyph glyph-name="braceright" unicode="}" horiz-adv-x="367" 
d="M140.027 373q0 -23 6.5 -42q6.49902 -19 17.4971 -33.5q10.999 -14.5 24.9971 -25t27.9971 -17.5q-13.999 -7 -27.9971 -17.5t-24.9971 -25q-10.998 -14.5 -17.4971 -33.5q-6.5 -19 -6.5 -42v-143q0 -38 -19.4971 -57q-19.498 -19 -61.4932 -19h-39.9941v-74h49.9932
q33.9961 0 62.4922 8.5q28.4971 8.5 49.4941 26.5q20.998 18 32.9961 45q11.999 27 11.999 64v132q0 43 28.4961 68.5t74.4912 30.5v72q-45.9951 5 -74.4912 30.5t-28.4961 68.5v130q0 37 -11.999 64q-11.998 27 -32.9961 45q-20.9971 18 -49.4941 26.5
q-28.4961 8.5 -62.4922 8.5h-49.9932v-74h39.9941q41.9951 0 61.4932 -19q19.4971 -19 19.4971 -57v-141v0z" />
    <glyph glyph-name="asciitilde" unicode="~" horiz-adv-x="545" 
d="M363 253q25 0 36 19.5t11 64.5h80q0 -77 -33 -120.5t-93 -43.5q-30 0 -55 13t-47.5 29t-42 29t-37.5 13q-25 0 -36 -19.5t-11 -64.5h-80q0 76 32.5 120t93.5 44q30 0 56 -13t48.5 -29t41.5 -29t36 -13z" />
    <glyph glyph-name="nonbreakingspace" unicode="&#xa0;" horiz-adv-x="230" 
 />
    <glyph glyph-name="exclamdown" unicode="&#xa1;" horiz-adv-x="324" 
d="M207 -204h-90v465h90v-465zM110 460h104v-104h-104v104z" />
    <glyph glyph-name="cent" unicode="&#xa2;" horiz-adv-x="552" 
d="M242 581h86v-111q63 -9 110 -47.5t69 -96.5h-95q-18 31 -49.5 49t-72.5 18q-34 0 -62 -12.5t-48.5 -34.5t-32 -52t-11.5 -64t11.5 -64t32 -52t48.5 -34.5t62 -12.5q41 0 72.5 18t49.5 49h95q-22 -59 -69 -97t-110 -47v-110h-86v112q-42 8 -77.5 29t-61 52t-39.5 71
t-14 86t14 86t39.5 71t61 52t77.5 29v113z" />
    <glyph glyph-name="sterling" unicode="&#xa3;" horiz-adv-x="588" 
d="M46 84q42 1 64.5 22t22.5 59v127h-88v76h88v109q0 37 13 73t39.5 64t65.5 45.5t90 17.5q41 0 74.5 -13.5t59 -36t42.5 -52t26 -60.5h-92q-14 34 -41 56t-72 22q-57 0 -86 -33t-29 -83v-109h185v-76h-185v-131q0 -22 -6.5 -45t-32.5 -32h359v-84h-497v84z" />
    <glyph glyph-name="currency" unicode="&#xa4;" horiz-adv-x="591" 
d="M479 105l-69 69q-51 -34 -114 -34q-64 0 -115 34l-70 -70l-60 61l69 70q-16 25 -25 53.5t-9 60.5t9 61t25 54l-70 71l60 60l71 -71q25 17 54 26t61 9t60.5 -9t53.5 -26l70 70l61 -60l-70 -70q16 -25 25 -54t9 -61t-9 -60.5t-25 -53.5l69 -69zM418 349q0 25 -9.5 47.5
t-26 39t-39 26t-47.5 9.5q-26 0 -48 -9.5t-39 -26t-26.5 -39t-9.5 -47.5t9.5 -47.5t26.5 -39t39 -26t48 -9.5q25 0 47.5 9.5t39 26t26 39t9.5 47.5z" />
    <glyph glyph-name="yen" unicode="&#xa5;" horiz-adv-x="590" 
d="M494 664h96l-151 -252h102v-76h-148l-41 -69h189v-76h-201v-191h-90v191h-201v76h189l-42 69h-147v76h102l-151 252h99l197 -333z" />
    <glyph glyph-name="brokenbar" unicode="&#xa6;" horiz-adv-x="226" 
d="M156 -156h-86v341h86v-341zM156 323h-86v341h86v-341z" />
    <glyph glyph-name="section" unicode="&#xa7;" horiz-adv-x="590" 
d="M540 225q0 -48 -31 -83t-92 -55q32 -22 51 -56.5t19 -75.5q0 -43 -16.5 -75t-43.5 -53.5t-61 -32t-69 -10.5q-82 0 -134.5 40.5t-72.5 113.5h92q14 -35 40 -53t72 -18q49 0 76 26t27 58q0 20 -6.5 35.5t-22.5 28t-42.5 22.5t-66.5 20q-50 12 -89 27t-66 36t-41 49.5
t-14 67.5q0 99 123 138q-32 22 -51 56t-19 75q0 43 16.5 75t43.5 53.5t61.5 32t69.5 10.5q81 0 133.5 -41t72.5 -113h-92q-13 34 -39.5 52t-71.5 18q-50 0 -77 -25.5t-27 -57.5q0 -20 6.5 -35.5t22.5 -27.5t42.5 -22t66.5 -20q50 -12 89 -27t66 -36t41 -49.5t14 -67.5z
M313 144q23 0 47 4.5t44 14.5t33 25.5t13 38.5q0 22 -14 39t-37.5 28.5t-55 17.5t-66.5 6q-24 0 -48.5 -4.5t-44.5 -14t-32.5 -25.5t-12.5 -39q0 -22 14 -39t38 -28.5t55.5 -17.5t66.5 -6z" />
    <glyph glyph-name="dieresis" unicode="&#xa8;" horiz-adv-x="399" 
d="M243 664h96v-99h-96v99zM60 664h96v-99h-96v99z" />
    <glyph glyph-name="copyright" unicode="&#xa9;" horiz-adv-x="830" 
d="M415 677q71 0 134 -27t110 -74t74 -110t27 -134t-27 -134t-74 -110t-110 -74t-134 -27t-134 27t-110 74t-74 110t-27 134t27 134t74 110t110 74t134 27zM415 47q59 0 111 22.5t90.5 61t61 90.5t22.5 111t-22.5 111t-61 90.5t-90.5 61t-111 22.5t-111 -22.5t-90.5 -61
t-61 -90.5t-22.5 -111t22.5 -111t61 -90.5t90.5 -61t111 -22.5zM426 459q-26 0 -48 -9.5t-38.5 -26.5t-25.5 -40.5t-9 -51.5q0 -27 9 -50t25.5 -39.5t38.5 -26t48 -9.5q31 0 53.5 12.5t39.5 35.5h75q-24 -51 -67.5 -82t-100.5 -31q-40 0 -74.5 14.5t-60 40t-40 60
t-14.5 75.5t14.5 76.5t40 61.5t60 40.5t74.5 14.5q57 0 100.5 -31.5t67.5 -82.5h-75q-17 23 -39.5 36t-53.5 13z" />
    <glyph glyph-name="ordfeminine" unicode="&#xaa;" horiz-adv-x="412" 
d="M286 488h-96q-36 0 -56 -11.5t-20 -36.5q0 -23 19 -35t52 -12q46 0 73.5 21t27.5 56v18zM197 671q69 0 112 -32.5t43 -93.5v-203h-66v34q-19 -20 -46.5 -31.5t-62.5 -11.5q-57 0 -93 26.5t-36 80.5q0 30 12 49.5t32 31.5t45.5 17t53.5 5h95q0 38 -25.5 53t-63.5 15
q-29 0 -53 -11t-32 -34h-72q14 53 57.5 79t99.5 26z" />
    <glyph glyph-name="guillemotleft" unicode="&#xab;" horiz-adv-x="547" 
d="M517 424l-170 -189l170 -189h-112l-132 146v86l132 146h112zM294 424l-170 -189l170 -189h-112l-132 146v86l132 146h112z" />
    <glyph glyph-name="logicalnot" unicode="&#xac;" horiz-adv-x="545" 
d="M490 128h-81v168h-354v81h435v-249z" />
    <glyph glyph-name="uni00AD" unicode="&#xad;" horiz-adv-x="400" 
d="M330 296v-81h-260v81h260z" />
    <glyph glyph-name="registered" unicode="&#xae;" horiz-adv-x="830" 
d="M415 677q71 0 134 -27t110 -74t74 -110t27 -134t-27 -134t-74 -110t-110 -74t-134 -27t-134 27t-110 74t-74 110t-27 134t27 134t74 110t110 74t134 27zM415 47q59 0 111 22.5t90.5 61t61 90.5t22.5 111t-22.5 111t-61 90.5t-90.5 61t-111 22.5t-111 -22.5t-90.5 -61
t-61 -90.5t-22.5 -111t22.5 -111t61 -90.5t90.5 -61t111 -22.5zM576 404q0 -41 -24 -72t-75 -39l111 -145h-84l-110 143h-44v-143h-68v369h166q33 0 57 -9t40 -24.5t23.5 -36t7.5 -43.5zM508 404q0 23 -14.5 35.5t-37.5 12.5h-106v-96h106q23 0 37.5 12.5t14.5 35.5z" />
    <glyph glyph-name="macron" unicode="&#xaf;" horiz-adv-x="471" 
d="M411 639v-74h-351v74h351z" />
    <glyph glyph-name="degree" unicode="&#xb0;" horiz-adv-x="440" 
d="M220 671q36 0 67.5 -13t54 -35.5t35.5 -53t13 -64.5t-13 -64.5t-35.5 -53t-54 -35.5t-67.5 -13t-67.5 13t-54 35.5t-35.5 53t-13 64.5t13 64.5t35.5 53t54 35.5t67.5 13zM220 414q39 0 64 27t25 64t-25 64.5t-64 27.5t-64 -27.5t-25 -64.5t25 -64t64 -27z" />
    <glyph glyph-name="plusminus" unicode="&#xb1;" horiz-adv-x="545" 
d="M232 355v144h81v-144h177v-81h-177v-144h-81v144h-177v81h177zM490 81v-81h-435v81h435z" />
    <glyph glyph-name="twosuperior" unicode="&#xb2;" horiz-adv-x="361" 
d="M311 386v-60h-250v60l138 118q16 14 26.5 28t10.5 31q0 22 -16 35.5t-40 13.5q-23 0 -40.5 -11.5t-23.5 -37.5h-68q9 49 43 79t87 30q57 0 91 -29t34 -79q0 -26 -13 -51t-37 -45l-96 -82h154z" />
    <glyph glyph-name="threesuperior" unicode="&#xb3;" horiz-adv-x="362" 
d="M116 423q7 -23 25 -33.5t43 -10.5q28 0 44.5 12.5t16.5 32.5t-14.5 31.5t-43.5 11.5h-45v61h44q58 0 58 41q0 20 -16 31.5t-44 11.5q-24 0 -42 -10t-25 -32h-67q10 55 48 78.5t85 23.5q30 0 53.5 -8.5t40 -22.5t25.5 -32.5t9 -39.5q0 -20 -9 -38.5t-31 -32.5
q23 -14 32 -34t9 -40q0 -21 -9 -40t-25.5 -33.5t-40.5 -23t-54 -8.5q-48 0 -85.5 24.5t-47.5 79.5h66z" />
    <glyph glyph-name="acute" unicode="&#xb4;" horiz-adv-x="356" 
d="M296 719l-142 -185h-94l142 185h94z" />
    <glyph glyph-name="mu" unicode="&#xb5;" horiz-adv-x="595" 
d="M277 -13q-33 0 -60.5 7.5t-50.5 21.5v-220h-86v664h86v-264q0 -57 29.5 -93t90.5 -36q27 0 53 10.5t46 30t32 48.5t12 65v239h86v-460h-86v50q-23 -28 -61.5 -45.5t-90.5 -17.5z" />
    <glyph glyph-name="paragraph" unicode="&#xb6;" horiz-adv-x="623" 
d="M270 277h-20q-43 0 -81.5 12.5t-67 37t-45 61t-16.5 83.5q0 46 16.5 82t45 61t67 37.5t81.5 12.5h106v-820h-86v433zM452 664h86v-820h-86v820z" />
    <glyph glyph-name="periodcentered" unicode="&#xb7;" horiz-adv-x="231" 
d="M60 315h111v-111h-111v111z" />
    <glyph glyph-name="cedilla" unicode="&#xb8;" horiz-adv-x="355" 
d="M295 0l-141 -184h-94l142 184h93z" />
    <glyph glyph-name="onesuperior" unicode="&#xb9;" horiz-adv-x="261" 
d="M114 588l-74 -64v78l71 63h70v-339h-67v262z" />
    <glyph glyph-name="ordmasculine" unicode="&#xba;" horiz-adv-x="438" 
d="M388 502q0 -36 -13 -67t-35.5 -53.5t-53.5 -35.5t-67 -13t-67 13t-53.5 35.5t-35.5 53.5t-13 67t13 67t35.5 53.5t53.5 35.5t67 13t67 -13t53.5 -35.5t35.5 -53.5t13 -67zM322 502q0 47 -28.5 78t-74.5 31t-74.5 -31t-28.5 -78t28.5 -78t74.5 -31t74.5 31t28.5 78z" />
    <glyph glyph-name="guillemotright" unicode="&#xbb;" horiz-adv-x="547" 
d="M365 424l132 -146v-86l-132 -146h-112l170 189l-170 189h112zM142 424l132 -146v-86l-132 -146h-112l170 189l-170 189h112z" />
    <glyph glyph-name="onequarter" unicode="&#xbc;" horiz-adv-x="742" 
d="M502 664h80l-386 -664h-79zM635 212v-81h57v-59h-57v-72h-66v72h-181v59l167 208h78l-167 -208h103v81h66zM114 587l-74 -64v78l71 63h70v-339h-67v262z" />
    <glyph glyph-name="onehalf" unicode="&#xbd;" horiz-adv-x="762" 
d="M712 60v-60h-250v60l138 118q16 14 26.5 28t10.5 31q0 22 -16 35.5t-40 13.5q-23 0 -40.5 -11.5t-23.5 -37.5h-68q9 49 43 79t87 30q57 0 91 -29t34 -79q0 -26 -13 -51t-37 -45l-96 -82h154zM502 664h80l-386 -664h-79zM114 587l-74 -64v78l71 63h70v-339h-67v262z" />
    <glyph glyph-name="threequarters" unicode="&#xbe;" horiz-adv-x="816" 
d="M116 422q7 -23 25 -33.5t43 -10.5q28 0 44.5 12.5t16.5 32.5t-14.5 31.5t-43.5 11.5h-45v61h44q58 0 58 41q0 20 -16 31.5t-44 11.5q-24 0 -42 -10t-25 -32h-67q10 55 48 78.5t85 23.5q30 0 53.5 -8.5t40 -22.5t25.5 -32.5t9 -39.5q0 -20 -9 -38.5t-31 -32.5
q23 -14 32 -34t9 -40q0 -21 -9 -40t-25.5 -33.5t-40.5 -23t-54 -8.5q-48 0 -85.5 24.5t-47.5 79.5h66zM576 664h80l-386 -664h-79zM709 212v-81h57v-59h-57v-72h-66v72h-181v59l167 208h78l-167 -208h103v81h66z" />
    <glyph glyph-name="questiondown" unicode="&#xbf;" horiz-adv-x="524" 
d="M325 356h-104v104h104v-104zM259 -217q-51 0 -88 14t-62 36.5t-37 52.5t-12 61q0 32 7 55t20 41t31 34t40 34l14 11q18 14 29 25t17 22.5t8 24t2 30.5v37h90v-37q0 -30 -4 -51.5t-14.5 -40.5t-30 -37.5t-50.5 -41.5t-50 -46.5t-19 -55.5q0 -40 31 -62t78 -22
q54 0 84.5 25t42.5 65h98q-8 -36 -26.5 -67.5t-47 -55t-66.5 -37.5t-85 -14z" />
    <glyph glyph-name="Agrave" unicode="&#xc0;" horiz-adv-x="681" 
d="M93 0h-93l292 664h98l291 -664h-96l-67 154h-358zM339 566l-143 -329h286zM242 891l142 -166h-94l-142 166h94z" />
    <glyph glyph-name="Aacute" unicode="&#xc1;" horiz-adv-x="681" 
d="M93 0h-93l292 664h98l291 -664h-96l-67 154h-358zM339 566l-143 -329h286zM534 891l-142 -166h-94l142 166h94z" />
    <glyph glyph-name="Acircumflex" unicode="&#xc2;" horiz-adv-x="681" 
d="M93 0h-93l292 664h98l291 -664h-96l-67 154h-358zM339 566l-143 -329h286zM294 891h93l150 -166h-94l-102 111l-102 -111h-95z" />
    <glyph glyph-name="Atilde" unicode="&#xc3;" horiz-adv-x="681" 
d="M93 0h-93l292 664h98l291 -664h-96l-67 154h-358zM339 566l-143 -329h286zM418 800q22 0 32.5 21.5t10.5 68.5h72q0 -77 -30.5 -120.5t-85.5 -43.5q-26 0 -47 14t-39.5 31t-35 31t-32.5 14q-43 0 -43 -90h-72q0 76 30.5 120t85.5 44q26 0 47.5 -14t40.5 -31t35 -31
t31 -14z" />
    <glyph glyph-name="Adieresis" unicode="&#xc4;" horiz-adv-x="681" 
d="M93 0h-93l292 664h98l291 -664h-96l-67 154h-358zM339 566l-143 -329h286zM384 844h96v-100h-96v100zM201 844h96v-100h-96v100z" />
    <glyph glyph-name="Aring" unicode="&#xc5;" horiz-adv-x="681" 
d="M93 0h-93l292 664h98l291 -664h-96l-67 154h-358zM339 566l-143 -329h286zM205 845q0 28 10.5 52.5t29 43t43 29t52.5 10.5t52.5 -10.5t43 -29t29 -43t10.5 -52.5t-10.5 -52.5t-29 -43t-43 -29t-52.5 -10.5t-52.5 10.5t-43 29t-29 43t-10.5 52.5zM275 845
q0 -28 18.5 -46.5t46.5 -18.5t46.5 18.5t18.5 46.5t-18.5 46.5t-46.5 18.5t-46.5 -18.5t-18.5 -46.5z" />
    <glyph glyph-name="AE" unicode="&#xc6;" horiz-adv-x="997" 
d="M572 580v-206h353v-84h-353v-206h360v-84h-450v154h-277l-109 -154h-106l473 664h469v-84h-360zM482 237v309l-219 -309h219z" />
    <glyph glyph-name="Ccedilla" unicode="&#xc7;" horiz-adv-x="715" 
d="M386 593q-54 0 -99.5 -19.5t-79.5 -54.5t-53 -83t-19 -104t19 -104t53 -83t79.5 -54.5t99.5 -19.5q63 0 109.5 25.5t77.5 68.5h102q-35 -71 -96.5 -117.5t-146.5 -57.5l-133 -174h-94l134 174q-63 8 -117 37.5t-93.5 74.5t-61.5 103.5t-22 126.5q0 73 26 136.5t72 109.5
t108.5 72.5t134.5 26.5q102 0 175.5 -49t113.5 -129h-102q-31 43 -77.5 68.5t-109.5 25.5z" />
    <glyph glyph-name="Egrave" unicode="&#xc8;" horiz-adv-x="600" 
d="M175 580v-206h353v-84h-353v-206h360v-84h-450v664h450v-84h-360zM248 891l142 -166h-94l-142 166h94z" />
    <glyph glyph-name="Eacute" unicode="&#xc9;" horiz-adv-x="600" 
d="M175 580v-206h353v-84h-353v-206h360v-84h-450v664h450v-84h-360zM485 891l-142 -166h-94l142 166h94z" />
    <glyph glyph-name="Ecircumflex" unicode="&#xca;" horiz-adv-x="600" 
d="M175 580v-206h353v-84h-353v-206h360v-84h-450v664h450v-84h-360zM264 891h93l150 -166h-94l-102 111l-102 -111h-95z" />
    <glyph glyph-name="Edieresis" unicode="&#xcb;" horiz-adv-x="600" 
d="M175 580v-206h353v-84h-353v-206h360v-84h-450v664h450v-84h-360zM354 844h96v-100h-96v100zM171 844h96v-100h-96v100z" />
    <glyph glyph-name="Igrave" unicode="&#xcc;" horiz-adv-x="260" 
d="M175 0h-90v664h90v-664zM37 891l142 -166h-94l-142 166h94z" />
    <glyph glyph-name="Iacute" unicode="&#xcd;" horiz-adv-x="260" 
d="M175 0h-90v664h90v-664zM318 891l-142 -166h-94l142 166h94z" />
    <glyph glyph-name="Icircumflex" unicode="&#xce;" horiz-adv-x="260" 
d="M175 0h-90v664h90v-664zM85 891h93l150 -166h-94l-102 111l-102 -111h-95z" />
    <glyph glyph-name="Idieresis" unicode="&#xcf;" horiz-adv-x="260" 
d="M175 0h-90v664h90v-664zM175 844h96v-100h-96v100zM-8 844h96v-100h-96v100z" />
    <glyph glyph-name="Eth" unicode="&#xd0;" horiz-adv-x="743" 
d="M334 664q87 0 154.5 -26.5t114 -71.5t71 -105.5t24.5 -128.5t-24.5 -128.5t-71 -105.5t-114 -71.5t-154.5 -26.5h-223v290h-91v84h91v290h223zM608 332q0 55 -18.5 100.5t-53 78.5t-84 51t-112.5 18h-139v-206h220v-84h-220v-206h139q63 0 112.5 18t84 51t53 78.5
t18.5 100.5z" />
    <glyph glyph-name="Ntilde" unicode="&#xd1;" horiz-adv-x="766" 
d="M681 664v-664h-101l-405 536v-536h-90v664h101l405 -536v536h90zM461 800q22 0 32.5 21.5t10.5 68.5h72q0 -77 -30.5 -120.5t-85.5 -43.5q-26 0 -47 14t-39.5 31t-35 31t-32.5 14q-43 0 -43 -90h-72q0 76 30.5 120t85.5 44q26 0 47.5 -14t40.5 -31t35 -31t31 -14z" />
    <glyph glyph-name="Ograve" unicode="&#xd2;" horiz-adv-x="772" 
d="M386 677q72 0 134.5 -26.5t108.5 -72.5t72 -109.5t26 -136.5q0 -74 -26 -137t-72 -109t-108.5 -72.5t-134.5 -26.5t-134.5 26.5t-108.5 72.5t-72 109t-26 137q0 73 26 136.5t72 109.5t108.5 72.5t134.5 26.5zM386 593q-54 0 -99.5 -19.5t-79.5 -54.5t-53 -83t-19 -104
t19 -104t53 -83t79.5 -54.5t99.5 -19.5t99.5 19.5t79.5 54.5t53 83t19 104t-19 104t-53 83t-79.5 54.5t-99.5 19.5zM310 891l142 -166h-94l-142 166h94z" />
    <glyph glyph-name="Oacute" unicode="&#xd3;" horiz-adv-x="772" 
d="M386 677q72 0 134.5 -26.5t108.5 -72.5t72 -109.5t26 -136.5q0 -74 -26 -137t-72 -109t-108.5 -72.5t-134.5 -26.5t-134.5 26.5t-108.5 72.5t-72 109t-26 137q0 73 26 136.5t72 109.5t108.5 72.5t134.5 26.5zM386 593q-54 0 -99.5 -19.5t-79.5 -54.5t-53 -83t-19 -104
t19 -104t53 -83t79.5 -54.5t99.5 -19.5t99.5 19.5t79.5 54.5t53 83t19 104t-19 104t-53 83t-79.5 54.5t-99.5 19.5zM557 891l-142 -166h-94l142 166h94z" />
    <glyph glyph-name="Ocircumflex" unicode="&#xd4;" horiz-adv-x="772" 
d="M386 677q72 0 134.5 -26.5t108.5 -72.5t72 -109.5t26 -136.5q0 -74 -26 -137t-72 -109t-108.5 -72.5t-134.5 -26.5t-134.5 26.5t-108.5 72.5t-72 109t-26 137q0 73 26 136.5t72 109.5t108.5 72.5t134.5 26.5zM386 593q-54 0 -99.5 -19.5t-79.5 -54.5t-53 -83t-19 -104
t19 -104t53 -83t79.5 -54.5t99.5 -19.5t99.5 19.5t79.5 54.5t53 83t19 104t-19 104t-53 83t-79.5 54.5t-99.5 19.5zM340 891h93l150 -166h-94l-102 111l-102 -111h-95z" />
    <glyph glyph-name="Otilde" unicode="&#xd5;" horiz-adv-x="772" 
d="M386 677q72 0 134.5 -26.5t108.5 -72.5t72 -109.5t26 -136.5q0 -74 -26 -137t-72 -109t-108.5 -72.5t-134.5 -26.5t-134.5 26.5t-108.5 72.5t-72 109t-26 137q0 73 26 136.5t72 109.5t108.5 72.5t134.5 26.5zM386 593q-54 0 -99.5 -19.5t-79.5 -54.5t-53 -83t-19 -104
t19 -104t53 -83t79.5 -54.5t99.5 -19.5t99.5 19.5t79.5 54.5t53 83t19 104t-19 104t-53 83t-79.5 54.5t-99.5 19.5zM464 800q22 0 32.5 21.5t10.5 68.5h72q0 -77 -30.5 -120.5t-85.5 -43.5q-26 0 -47 14t-39.5 31t-35 31t-32.5 14q-43 0 -43 -90h-72q0 76 30.5 120t85.5 44
q26 0 47.5 -14t40.5 -31t35 -31t31 -14z" />
    <glyph glyph-name="Odieresis" unicode="&#xd6;" horiz-adv-x="772" 
d="M386 677q72 0 134.5 -26.5t108.5 -72.5t72 -109.5t26 -136.5q0 -74 -26 -137t-72 -109t-108.5 -72.5t-134.5 -26.5t-134.5 26.5t-108.5 72.5t-72 109t-26 137q0 73 26 136.5t72 109.5t108.5 72.5t134.5 26.5zM386 593q-54 0 -99.5 -19.5t-79.5 -54.5t-53 -83t-19 -104
t19 -104t53 -83t79.5 -54.5t99.5 -19.5t99.5 19.5t79.5 54.5t53 83t19 104t-19 104t-53 83t-79.5 54.5t-99.5 19.5zM430 844h96v-100h-96v100zM247 844h96v-100h-96v100z" />
    <glyph glyph-name="multiply" unicode="&#xd7;" horiz-adv-x="517" 
d="M258 313l147 146l57 -57l-146 -147l146 -146l-57 -57l-147 146l-146 -146l-57 57l146 146l-146 147l57 57z" />
    <glyph glyph-name="Oslash" unicode="&#xd8;" horiz-adv-x="794" 
d="M397 677q57 0 106.5 -16.5t91.5 -45.5l54 62h105l-101 -114q40 -46 62.5 -104.5t22.5 -126.5q0 -74 -26 -137t-72 -109t-108.5 -72.5t-134.5 -26.5q-57 0 -106.5 16t-91.5 45l-54 -61h-105l100 113q-40 46 -62 104.5t-22 127.5q0 73 26 136.5t72 109.5t108.5 72.5
t134.5 26.5zM397 593q-54 0 -99.5 -19.5t-79.5 -54.5t-53 -83t-19 -104q0 -48 14 -90t39 -75l339 384q-62 42 -141 42zM648 332q0 48 -14 89.5t-39 74.5l-339 -383q29 -20 65 -31t76 -11q54 0 99.5 19.5t79.5 54.5t53 83t19 104z" />
    <glyph glyph-name="Ugrave" unicode="&#xd9;" horiz-adv-x="736" 
d="M80 664h90v-389q0 -102 53 -153t145 -51t145 51t53 153v389h90v-389q0 -69 -20.5 -123t-58 -90.5t-91 -55.5t-118.5 -19t-118.5 19t-91 55.5t-58 90.5t-20.5 123v389zM284 891l142 -166h-94l-142 166h94z" />
    <glyph glyph-name="Uacute" unicode="&#xda;" horiz-adv-x="736" 
d="M80 664h90v-389q0 -102 53 -153t145 -51t145 51t53 153v389h90v-389q0 -69 -20.5 -123t-58 -90.5t-91 -55.5t-118.5 -19t-118.5 19t-91 55.5t-58 90.5t-20.5 123v389zM543 891l-142 -166h-94l142 166h94z" />
    <glyph glyph-name="Ucircumflex" unicode="&#xdb;" horiz-adv-x="736" 
d="M80 664h90v-389q0 -102 53 -153t145 -51t145 51t53 153v389h90v-389q0 -69 -20.5 -123t-58 -90.5t-91 -55.5t-118.5 -19t-118.5 19t-91 55.5t-58 90.5t-20.5 123v389zM322 891h93l150 -166h-94l-102 111l-102 -111h-95z" />
    <glyph glyph-name="Udieresis" unicode="&#xdc;" horiz-adv-x="736" 
d="M80 664h90v-389q0 -102 53 -153t145 -51t145 51t53 153v389h90v-389q0 -69 -20.5 -123t-58 -90.5t-91 -55.5t-118.5 -19t-118.5 19t-91 55.5t-58 90.5t-20.5 123v389zM412 844h96v-100h-96v100zM229 844h96v-100h-96v100z" />
    <glyph glyph-name="Yacute" unicode="&#xdd;" horiz-adv-x="590" 
d="M494 664h96l-250 -417v-247h-90v247l-250 417h99l197 -333zM479 891l-142 -166h-94l142 166h94z" />
    <glyph glyph-name="Thorn" unicode="&#xde;" horiz-adv-x="660" 
d="M175 533h223q57 0 99 -15.5t69.5 -42t40.5 -62t13 -75.5t-13 -75.5t-40.5 -62t-69.5 -42t-99 -15.5h-223v-143h-90v664h90v-131zM530 338q0 55 -35.5 83t-96.5 28h-223v-222h223q61 0 96.5 28t35.5 83z" />
    <glyph glyph-name="germandbls" unicode="&#xdf;" horiz-adv-x="585" 
d="M301 602q-59 0 -97 -38.5t-38 -116.5v-447h-86v447q0 115 59.5 175t161.5 60q50 0 89 -15t66 -40.5t41.5 -60t14.5 -72.5q0 -48 -20 -88.5t-58 -63.5q19 -11 35 -27.5t27 -37t17.5 -43t6.5 -44.5q0 -40 -13 -74.5t-37.5 -60t-60 -40.5t-81.5 -15h-47v76h26q62 0 94.5 32
t32.5 81t-33 81.5t-94 32.5h-26v76h28q60 0 89 30.5t29 80.5q0 46 -33 79t-93 33z" />
    <glyph glyph-name="agrave" unicode="&#xe0;" horiz-adv-x="554" 
d="M264 473q49 0 89.5 -12t69.5 -35t45 -56.5t16 -76.5v-293h-86v50q-27 -29 -66.5 -46t-93.5 -17q-41 0 -75 9.5t-59 28.5t-39 47.5t-14 67.5q0 42 16.5 70.5t44.5 46t64.5 25t76.5 7.5h145q0 57 -38.5 80.5t-95.5 23.5q-42 0 -78.5 -17t-50.5 -50h-95q10 36 31.5 63t51 46
t65.5 28.5t76 9.5zM398 214h-146q-54 0 -84.5 -18t-30.5 -56t30 -55.5t80 -17.5q70 0 110.5 32.5t40.5 84.5v30zM214 719l142 -185h-94l-142 185h94z" />
    <glyph glyph-name="aacute" unicode="&#xe1;" horiz-adv-x="554" 
d="M264 473q49 0 89.5 -12t69.5 -35t45 -56.5t16 -76.5v-293h-86v50q-27 -29 -66.5 -46t-93.5 -17q-41 0 -75 9.5t-59 28.5t-39 47.5t-14 67.5q0 42 16.5 70.5t44.5 46t64.5 25t76.5 7.5h145q0 57 -38.5 80.5t-95.5 23.5q-42 0 -78.5 -17t-50.5 -50h-95q10 36 31.5 63t51 46
t65.5 28.5t76 9.5zM398 214h-146q-54 0 -84.5 -18t-30.5 -56t30 -55.5t80 -17.5q70 0 110.5 32.5t40.5 84.5v30zM431 719l-142 -185h-94l142 185h94z" />
    <glyph glyph-name="acircumflex" unicode="&#xe2;" horiz-adv-x="554" 
d="M264 473q49 0 89.5 -12t69.5 -35t45 -56.5t16 -76.5v-293h-86v50q-27 -29 -66.5 -46t-93.5 -17q-41 0 -75 9.5t-59 28.5t-39 47.5t-14 67.5q0 42 16.5 70.5t44.5 46t64.5 25t76.5 7.5h145q0 57 -38.5 80.5t-95.5 23.5q-42 0 -78.5 -17t-50.5 -50h-95q10 36 31.5 63t51 46
t65.5 28.5t76 9.5zM398 214h-146q-54 0 -84.5 -18t-30.5 -56t30 -55.5t80 -17.5q70 0 110.5 32.5t40.5 84.5v30zM225 719h95l149 -185h-92l-104 124l-104 -124h-93z" />
    <glyph glyph-name="atilde" unicode="&#xe3;" horiz-adv-x="554" 
d="M264 473q49 0 89.5 -12t69.5 -35t45 -56.5t16 -76.5v-293h-86v50q-27 -29 -66.5 -46t-93.5 -17q-41 0 -75 9.5t-59 28.5t-39 47.5t-14 67.5q0 42 16.5 70.5t44.5 46t64.5 25t76.5 7.5h145q0 57 -38.5 80.5t-95.5 23.5q-42 0 -78.5 -17t-50.5 -50h-95q10 36 31.5 63t51 46
t65.5 28.5t76 9.5zM398 214h-146q-54 0 -84.5 -18t-30.5 -56t30 -55.5t80 -17.5q70 0 110.5 32.5t40.5 84.5v30zM349 610q22 0 32.5 21.5t10.5 68.5h72q0 -77 -30.5 -120.5t-85.5 -43.5q-26 0 -47 14t-39.5 31t-35 31t-32.5 14q-43 0 -43 -90h-72q0 76 30.5 120t85.5 44
q26 0 47.5 -14t40.5 -31t35 -31t31 -14z" />
    <glyph glyph-name="adieresis" unicode="&#xe4;" horiz-adv-x="554" 
d="M264 473q49 0 89.5 -12t69.5 -35t45 -56.5t16 -76.5v-293h-86v50q-27 -29 -66.5 -46t-93.5 -17q-41 0 -75 9.5t-59 28.5t-39 47.5t-14 67.5q0 42 16.5 70.5t44.5 46t64.5 25t76.5 7.5h145q0 57 -38.5 80.5t-95.5 23.5q-42 0 -78.5 -17t-50.5 -50h-95q10 36 31.5 63t51 46
t65.5 28.5t76 9.5zM398 214h-146q-54 0 -84.5 -18t-30.5 -56t30 -55.5t80 -17.5q70 0 110.5 32.5t40.5 84.5v30zM316 664h96v-99h-96v99zM133 664h96v-99h-96v99z" />
    <glyph glyph-name="aring" unicode="&#xe5;" horiz-adv-x="554" 
d="M264 473q49 0 89.5 -12t69.5 -35t45 -56.5t16 -76.5v-293h-86v50q-27 -29 -66.5 -46t-93.5 -17q-41 0 -75 9.5t-59 28.5t-39 47.5t-14 67.5q0 42 16.5 70.5t44.5 46t64.5 25t76.5 7.5h145q0 57 -38.5 80.5t-95.5 23.5q-42 0 -78.5 -17t-50.5 -50h-95q10 36 31.5 63t51 46
t65.5 28.5t76 9.5zM398 214h-146q-54 0 -84.5 -18t-30.5 -56t30 -55.5t80 -17.5q70 0 110.5 32.5t40.5 84.5v30zM136 655q0 28 10.5 52.5t29 43t43 29t52.5 10.5t52.5 -10.5t43 -29t29 -43t10.5 -52.5t-10.5 -52.5t-29 -43t-43 -29t-52.5 -10.5t-52.5 10.5t-43 29t-29 43
t-10.5 52.5zM206 655q0 -28 18.5 -46.5t46.5 -18.5t46.5 18.5t18.5 46.5t-18.5 46.5t-46.5 18.5t-46.5 -18.5t-18.5 -46.5z" />
    <glyph glyph-name="ae" unicode="&#xe6;" horiz-adv-x="907" 
d="M857 236v-18t-2 -20h-371q4 -28 17 -52t33 -41.5t46 -27.5t56 -10q41 0 72.5 15.5t49.5 46.5h93q-24 -67 -81.5 -104.5t-133.5 -37.5q-63 0 -112.5 24.5t-81.5 69.5q-26 -38 -79 -66t-125 -28q-41 0 -75 9.5t-59 28.5t-39 47.5t-14 67.5q0 42 16.5 70.5t44.5 46t64.5 25
t76.5 7.5h146q0 28 -10.5 48t-28.5 32.5t-43 18t-53 5.5q-42 0 -78.5 -17t-50.5 -50h-95q10 36 31.5 63t51 46t65.5 28.5t76 9.5q64 0 112.5 -20t76.5 -58q32 36 77 57t101 21q49 0 90.5 -18.5t71.5 -50.5t47 -75.5t17 -92.5zM399 214h-147q-54 0 -84.5 -18t-30.5 -56
t30 -55.5t80 -17.5q70 0 111 32.5t41 84.5v30zM767 273q-8 54 -43.5 87t-92.5 33q-60 0 -99 -33t-47 -87h282z" />
    <glyph glyph-name="ccedilla" unicode="&#xe7;" horiz-adv-x="552" 
d="M413 326q-18 31 -50 49t-73 18q-34 0 -62 -12.5t-48.5 -34.5t-32 -52t-11.5 -64t11.5 -64t32 -52t48.5 -34.5t62 -12.5q41 0 73 18t50 49h94q-20 -55 -63 -92t-101 -49l-135 -177h-94l134 174q-43 7 -79.5 27.5t-62.5 52t-41 72.5t-15 88q0 52 18.5 96.5t50.5 77t76 51
t95 18.5q77 0 134.5 -40t82.5 -107h-94z" />
    <glyph glyph-name="egrave" unicode="&#xe8;" horiz-adv-x="562" 
d="M291 67q41 0 72.5 15.5t49.5 46.5h93q-24 -67 -81.5 -104.5t-133.5 -37.5q-52 0 -96 18t-76.5 50.5t-50.5 77.5t-18 98q0 52 17.5 96t48.5 76.5t74.5 51t95.5 18.5q49 0 90.5 -18.5t71.5 -50.5t47 -75.5t17 -92.5v-18t-2 -20h-371q4 -28 17 -52t33 -41.5t46 -27.5t56 -10
zM286 393q-60 0 -99 -33t-47 -87h282q-8 54 -43.5 87t-92.5 33zM207 719l142 -185h-94l-142 185h94z" />
    <glyph glyph-name="eacute" unicode="&#xe9;" horiz-adv-x="562" 
d="M291 67q41 0 72.5 15.5t49.5 46.5h93q-24 -67 -81.5 -104.5t-133.5 -37.5q-52 0 -96 18t-76.5 50.5t-50.5 77.5t-18 98q0 52 17.5 96t48.5 76.5t74.5 51t95.5 18.5q49 0 90.5 -18.5t71.5 -50.5t47 -75.5t17 -92.5v-18t-2 -20h-371q4 -28 17 -52t33 -41.5t46 -27.5t56 -10
zM286 393q-60 0 -99 -33t-47 -87h282q-8 54 -43.5 87t-92.5 33zM452 719l-142 -185h-94l142 185h94z" />
    <glyph glyph-name="ecircumflex" unicode="&#xea;" horiz-adv-x="562" 
d="M291 67q41 0 72.5 15.5t49.5 46.5h93q-24 -67 -81.5 -104.5t-133.5 -37.5q-52 0 -96 18t-76.5 50.5t-50.5 77.5t-18 98q0 52 17.5 96t48.5 76.5t74.5 51t95.5 18.5q49 0 90.5 -18.5t71.5 -50.5t47 -75.5t17 -92.5v-18t-2 -20h-371q4 -28 17 -52t33 -41.5t46 -27.5t56 -10
zM286 393q-60 0 -99 -33t-47 -87h282q-8 54 -43.5 87t-92.5 33zM239 719h95l149 -185h-92l-104 124l-104 -124h-93z" />
    <glyph glyph-name="edieresis" unicode="&#xeb;" horiz-adv-x="562" 
d="M291 67q41 0 72.5 15.5t49.5 46.5h93q-24 -67 -81.5 -104.5t-133.5 -37.5q-52 0 -96 18t-76.5 50.5t-50.5 77.5t-18 98q0 52 17.5 96t48.5 76.5t74.5 51t95.5 18.5q49 0 90.5 -18.5t71.5 -50.5t47 -75.5t17 -92.5v-18t-2 -20h-371q4 -28 17 -52t33 -41.5t46 -27.5t56 -10
zM286 393q-60 0 -99 -33t-47 -87h282q-8 54 -43.5 87t-92.5 33zM325 664h96v-99h-96v99zM142 664h96v-99h-96v99z" />
    <glyph glyph-name="igrave" unicode="&#xec;" horiz-adv-x="250" 
d="M168 460v-460h-86v460h86zM31 719l142 -185h-94l-142 185h94z" />
    <glyph glyph-name="iacute" unicode="&#xed;" horiz-adv-x="250" 
d="M168 460v-460h-86v460h86zM310 719l-142 -185h-94l142 185h94z" />
    <glyph glyph-name="icircumflex" unicode="&#xee;" horiz-adv-x="250" 
d="M168 460v-460h-86v460h86zM79 719h95l149 -185h-92l-104 124l-104 -124h-93z" />
    <glyph glyph-name="idieresis" unicode="&#xef;" horiz-adv-x="250" 
d="M170 460v-460h-86v460h86zM170 664h96v-99h-96v99zM-13 664h96v-99h-96v99z" />
    <glyph glyph-name="eth" unicode="&#xf0;" horiz-adv-x="573" 
d="M233 669l43 -53l137 65v-72l-94 -45l121 -149q42 -51 62.5 -99t20.5 -99q0 -48 -18 -89.5t-49.5 -73t-74.5 -49.5t-94 -18t-94.5 18t-75 49t-49.5 73t-18 90t17.5 90t48.5 73.5t73.5 49.5t91.5 18q13 0 20.5 -1t16.5 -3l-70 86l-142 -68v74l99 47l-69 86h97zM287 67
q33 0 60.5 12t47.5 32t31 47.5t11 58.5t-11 59t-31 48.5t-47.5 32.5t-60.5 12t-60.5 -12t-48 -32.5t-31.5 -48.5t-11 -59t11 -58.5t31.5 -47.5t48 -32t60.5 -12z" />
    <glyph glyph-name="ntilde" unicode="&#xf1;" horiz-adv-x="591" 
d="M321 473q47 0 84.5 -15t63 -42t39 -64t13.5 -81v-271h-86v264q0 57 -30 93t-93 36q-28 0 -54.5 -10.5t-46.5 -30t-32.5 -48.5t-12.5 -65v-239h-86v460h86v-50q23 28 62 45.5t93 17.5zM373 610q22 0 32.5 21.5t10.5 68.5h72q0 -77 -30.5 -120.5t-85.5 -43.5q-26 0 -47 14
t-39.5 31t-35 31t-32.5 14q-43 0 -43 -90h-72q0 76 30.5 120t85.5 44q26 0 47.5 -14t40.5 -31t35 -31t31 -14z" />
    <glyph glyph-name="ograve" unicode="&#xf2;" horiz-adv-x="582" 
d="M291 473q52 0 96 -18.5t76 -51t50.5 -77t18.5 -96.5t-18.5 -96.5t-50.5 -77t-76 -51t-96 -18.5t-96 18.5t-76.5 51t-50.5 77t-18 96.5t18 96.5t50.5 77t76.5 51t96 18.5zM291 67q34 0 62.5 13t49 35t32 51.5t11.5 63.5t-11.5 64t-32 52t-49 34.5t-62.5 12.5t-62.5 -12.5
t-49 -34.5t-32 -52t-11.5 -64t11.5 -63.5t32 -51.5t49 -35t62.5 -13zM207 719l142 -185h-94l-142 185h94z" />
    <glyph glyph-name="oacute" unicode="&#xf3;" horiz-adv-x="582" 
d="M291 473q52 0 96 -18.5t76 -51t50.5 -77t18.5 -96.5t-18.5 -96.5t-50.5 -77t-76 -51t-96 -18.5t-96 18.5t-76.5 51t-50.5 77t-18 96.5t18 96.5t50.5 77t76.5 51t96 18.5zM291 67q34 0 62.5 13t49 35t32 51.5t11.5 63.5t-11.5 64t-32 52t-49 34.5t-62.5 12.5t-62.5 -12.5
t-49 -34.5t-32 -52t-11.5 -64t11.5 -63.5t32 -51.5t49 -35t62.5 -13zM469 719l-142 -185h-94l142 185h94z" />
    <glyph glyph-name="ocircumflex" unicode="&#xf4;" horiz-adv-x="582" 
d="M291 473q52 0 96 -18.5t76 -51t50.5 -77t18.5 -96.5t-18.5 -96.5t-50.5 -77t-76 -51t-96 -18.5t-96 18.5t-76.5 51t-50.5 77t-18 96.5t18 96.5t50.5 77t76.5 51t96 18.5zM291 67q34 0 62.5 13t49 35t32 51.5t11.5 63.5t-11.5 64t-32 52t-49 34.5t-62.5 12.5t-62.5 -12.5
t-49 -34.5t-32 -52t-11.5 -64t11.5 -63.5t32 -51.5t49 -35t62.5 -13zM244 719h95l149 -185h-92l-104 124l-104 -124h-93z" />
    <glyph glyph-name="otilde" unicode="&#xf5;" horiz-adv-x="582" 
d="M291 473q52 0 96 -18.5t76 -51t50.5 -77t18.5 -96.5t-18.5 -96.5t-50.5 -77t-76 -51t-96 -18.5t-96 18.5t-76.5 51t-50.5 77t-18 96.5t18 96.5t50.5 77t76.5 51t96 18.5zM291 67q34 0 62.5 13t49 35t32 51.5t11.5 63.5t-11.5 64t-32 52t-49 34.5t-62.5 12.5t-62.5 -12.5
t-49 -34.5t-32 -52t-11.5 -64t11.5 -63.5t32 -51.5t49 -35t62.5 -13zM369 610q22 0 32.5 21.5t10.5 68.5h72q0 -77 -30.5 -120.5t-85.5 -43.5q-26 0 -47 14t-39.5 31t-35 31t-32.5 14q-43 0 -43 -90h-72q0 76 30.5 120t85.5 44q26 0 47.5 -14t40.5 -31t35 -31t31 -14z" />
    <glyph glyph-name="odieresis" unicode="&#xf6;" horiz-adv-x="582" 
d="M291 473q52 0 96 -18.5t76 -51t50.5 -77t18.5 -96.5t-18.5 -96.5t-50.5 -77t-76 -51t-96 -18.5t-96 18.5t-76.5 51t-50.5 77t-18 96.5t18 96.5t50.5 77t76.5 51t96 18.5zM291 67q34 0 62.5 13t49 35t32 51.5t11.5 63.5t-11.5 64t-32 52t-49 34.5t-62.5 12.5t-62.5 -12.5
t-49 -34.5t-32 -52t-11.5 -64t11.5 -63.5t32 -51.5t49 -35t62.5 -13zM335 664h96v-99h-96v99zM152 664h96v-99h-96v99z" />
    <glyph glyph-name="divide" unicode="&#xf7;" horiz-adv-x="545" 
d="M490 296v-81h-435v81h435zM217 463h111v-111h-111v111zM217 159h111v-111h-111v111z" />
    <glyph glyph-name="oslash" unicode="&#xf8;" horiz-adv-x="567" 
d="M467 391q27 -32 42.5 -72.5t15.5 -88.5q0 -52 -18.5 -96.5t-50.5 -77t-76 -51t-96 -18.5q-35 0 -65.5 8.5t-57.5 23.5l-26 -32h-102l67 82q-27 32 -42 72.5t-15 88.5q0 52 18 96.5t50.5 77t76.5 51t96 18.5q34 0 65 -8.5t57 -23.5l26 32h102zM284 67q34 0 62.5 13t49 35
t32 51.5t11.5 63.5q0 53 -27 94l-198 -241q16 -8 33 -12t37 -4zM129 230q0 -53 26 -94l198 241q-32 16 -69 16q-34 0 -62.5 -12.5t-49 -34.5t-32 -52t-11.5 -64z" />
    <glyph glyph-name="ugrave" unicode="&#xf9;" horiz-adv-x="585" 
d="M267 -13q-47 0 -83.5 15t-61.5 42t-38.5 64t-13.5 81v271h86v-264q0 -57 29.5 -93t90.5 -36q27 0 53 10.5t46 30t32 48.5t12 65v239h86v-460h-86v50q-23 -28 -61.5 -45.5t-90.5 -17.5zM202 719l142 -185h-94l-142 185h94z" />
    <glyph glyph-name="uacute" unicode="&#xfa;" horiz-adv-x="585" 
d="M267 -13q-47 0 -83.5 15t-61.5 42t-38.5 64t-13.5 81v271h86v-264q0 -57 29.5 -93t90.5 -36q27 0 53 10.5t46 30t32 48.5t12 65v239h86v-460h-86v50q-23 -28 -61.5 -45.5t-90.5 -17.5zM473 719l-142 -185h-94l142 185h94z" />
    <glyph glyph-name="ucircumflex" unicode="&#xfb;" horiz-adv-x="585" 
d="M267 -13q-47 0 -83.5 15t-61.5 42t-38.5 64t-13.5 81v271h86v-264q0 -57 29.5 -93t90.5 -36q27 0 53 10.5t46 30t32 48.5t12 65v239h86v-460h-86v50q-23 -28 -61.5 -45.5t-90.5 -17.5zM245 719h95l149 -185h-92l-104 124l-104 -124h-93z" />
    <glyph glyph-name="udieresis" unicode="&#xfc;" horiz-adv-x="585" 
d="M267 -13q-47 0 -83.5 15t-61.5 42t-38.5 64t-13.5 81v271h86v-264q0 -57 29.5 -93t90.5 -36q27 0 53 10.5t46 30t32 48.5t12 65v239h86v-460h-86v50q-23 -28 -61.5 -45.5t-90.5 -17.5zM336 664h96v-99h-96v99zM153 664h96v-99h-96v99z" />
    <glyph glyph-name="yacute" unicode="&#xfd;" horiz-adv-x="523" 
d="M13 460h97l154 -347l155 347h91l-217 -485q-23 -52 -39.5 -86.5t-35 -55t-43.5 -29t-66 -8.5h-44v76h28q20 0 34.5 4t26 14.5t21.5 27.5t22 44l19 44zM442 719l-142 -185h-94l142 185h94z" />
    <glyph glyph-name="thorn" unicode="&#xfe;" horiz-adv-x="604" 
d="M554 230q0 -48 -15 -91.5t-44.5 -77.5t-73 -54t-100.5 -20q-49 0 -89 17t-66 46v-254h-86v868h86v-254q26 29 66 46t89 17q57 0 100.5 -20t73 -54t44.5 -77.5t15 -91.5zM468 230q0 33 -11 62.5t-30.5 52t-47.5 35.5t-61 13q-30 0 -58 -10t-49.5 -30.5t-34.5 -51
t-13 -71.5t13 -71.5t34.5 -51t49.5 -30.5t58 -10q33 0 61 13t47.5 35.5t30.5 52t11 62.5z" />
    <glyph glyph-name="ydieresis" unicode="&#xff;" horiz-adv-x="523" 
d="M13 460h97l154 -347l155 347h91l-217 -485q-23 -52 -39.5 -86.5t-35 -55t-43.5 -29t-66 -8.5h-44v76h28q20 0 34.5 4t26 14.5t21.5 27.5t22 44l19 44zM300 664h96v-99h-96v99zM117 664h96v-99h-96v99z" />
    <glyph glyph-name="Amacron" unicode="&#x100;" horiz-adv-x="681" 
d="M93 0h-93l292 664h98l291 -664h-96l-67 154h-358zM339 566l-143 -329h286zM516 818v-74h-351v74h351z" />
    <glyph glyph-name="amacron" unicode="&#x101;" horiz-adv-x="554" 
d="M264 473q49 0 89.5 -12t69.5 -35t45 -56.5t16 -76.5v-293h-86v50q-27 -29 -66.5 -46t-93.5 -17q-41 0 -75 9.5t-59 28.5t-39 47.5t-14 67.5q0 42 16.5 70.5t44.5 46t64.5 25t76.5 7.5h145q0 57 -38.5 80.5t-95.5 23.5q-42 0 -78.5 -17t-50.5 -50h-95q10 36 31.5 63t51 46
t65.5 28.5t76 9.5zM398 214h-146q-54 0 -84.5 -18t-30.5 -56t30 -55.5t80 -17.5q70 0 110.5 32.5t40.5 84.5v30zM447 639v-74h-351v74h351z" />
    <glyph glyph-name="Abreve" unicode="&#x102;" horiz-adv-x="681" 
d="M93 0h-93l292 664h98l291 -664h-96l-67 154h-358zM339 566l-143 -329h286zM341 726q-37 0 -69.5 12.5t-57.5 34.5t-41 52t-20 66h77q8 -38 38.5 -64.5t72.5 -26.5q41 0 71.5 26.5t38.5 64.5h77q-4 -36 -20 -66t-41 -52t-57 -34.5t-69 -12.5z" />
    <glyph glyph-name="abreve" unicode="&#x103;" horiz-adv-x="554" 
d="M264 473q49 0 89.5 -12t69.5 -35t45 -56.5t16 -76.5v-293h-86v50q-27 -29 -66.5 -46t-93.5 -17q-41 0 -75 9.5t-59 28.5t-39 47.5t-14 67.5q0 42 16.5 70.5t44.5 46t64.5 25t76.5 7.5h145q0 57 -38.5 80.5t-95.5 23.5q-42 0 -78.5 -17t-50.5 -50h-95q10 36 31.5 63t51 46
t65.5 28.5t76 9.5zM398 214h-146q-54 0 -84.5 -18t-30.5 -56t30 -55.5t80 -17.5q70 0 110.5 32.5t40.5 84.5v30zM271 608q22 0 41 9.5t33 25t22.5 35.5t10.5 41h75q-3 -37 -17.5 -70.5t-38.5 -59t-56 -40.5t-70 -15t-70 15t-56 40.5t-38.5 59t-17.5 70.5h75q2 -21 10.5 -41
t22.5 -35.5t32.5 -25t41.5 -9.5z" />
    <glyph glyph-name="Aogonek" unicode="&#x104;" horiz-adv-x="681" 
d="M196 237h286l-143 329zM518 154h-358l-67 -154h-93l292 664h98l291 -664q-14 -9 -30 -21t-30 -25t-23.5 -26.5t-9.5 -25.5q0 -33 49 -33h44v-73h-48q-125 0 -125 88q0 32 22 61t55 55z" />
    <glyph glyph-name="aogonek" unicode="&#x105;" horiz-adv-x="554" 
d="M264 473q49 0 89.5 -12t69.5 -35t45 -56.5t16 -76.5v-293q-14 -9 -30 -21t-30 -25t-23.5 -26.5t-9.5 -25.5q0 -33 49 -33h44v-73h-48q-125 0 -125 88q0 32 24.5 61t62.5 55v50q-27 -29 -66.5 -46t-93.5 -17q-41 0 -75 9.5t-59 28.5t-39 47.5t-14 67.5q0 42 16.5 70.5
t44.5 46t64.5 25t76.5 7.5h145q0 57 -38.5 80.5t-95.5 23.5q-42 0 -78.5 -17t-50.5 -50h-95q10 36 31.5 63t51 46t65.5 28.5t76 9.5zM398 214h-146q-54 0 -84.5 -18t-30.5 -56t30 -55.5t80 -17.5q70 0 110.5 32.5t40.5 84.5v30z" />
    <glyph glyph-name="Cacute" unicode="&#x106;" horiz-adv-x="715" 
d="M386 593q-54 0 -99.5 -19.5t-79.5 -54.5t-53 -83t-19 -104t19 -104t53 -83t79.5 -54.5t99.5 -19.5q63 0 109.5 25.5t77.5 68.5h102q-40 -80 -113.5 -129t-175.5 -49q-72 0 -134.5 26.5t-108.5 72.5t-72 109t-26 137q0 73 26 136.5t72 109.5t108.5 72.5t134.5 26.5
q102 0 175.5 -49t113.5 -129h-102q-31 43 -77.5 68.5t-109.5 25.5zM562 891l-142 -166h-94l142 166h94z" />
    <glyph glyph-name="cacute" unicode="&#x107;" horiz-adv-x="552" 
d="M413 326q-18 31 -50 49t-73 18q-34 0 -62 -12.5t-48.5 -34.5t-32 -52t-11.5 -64t11.5 -64t32 -52t48.5 -34.5t62 -12.5q41 0 73 18t50 49h94q-25 -67 -82.5 -107t-134.5 -40q-51 0 -95 18.5t-76 51t-50.5 77t-18.5 96.5t18.5 96.5t50.5 77t76 51t95 18.5q77 0 134.5 -40
t82.5 -107h-94zM458 719l-142 -185h-94l142 185h94z" />
    <glyph glyph-name="Ccircumflex" unicode="&#x108;" horiz-adv-x="715" 
d="M386 593q-54 0 -99.5 -19.5t-79.5 -54.5t-53 -83t-19 -104t19 -104t53 -83t79.5 -54.5t99.5 -19.5q63 0 109.5 25.5t77.5 68.5h102q-40 -80 -113.5 -129t-175.5 -49q-72 0 -134.5 26.5t-108.5 72.5t-72 109t-26 137q0 73 26 136.5t72 109.5t108.5 72.5t134.5 26.5
q102 0 175.5 -49t113.5 -129h-102q-31 43 -77.5 68.5t-109.5 25.5zM336 891h93l150 -166h-94l-102 111l-102 -111h-95z" />
    <glyph glyph-name="ccircumflex" unicode="&#x109;" horiz-adv-x="552" 
d="M413 326q-18 31 -50 49t-73 18q-34 0 -62 -12.5t-48.5 -34.5t-32 -52t-11.5 -64t11.5 -64t32 -52t48.5 -34.5t62 -12.5q41 0 73 18t50 49h94q-25 -67 -82.5 -107t-134.5 -40q-51 0 -95 18.5t-76 51t-50.5 77t-18.5 96.5t18.5 96.5t50.5 77t76 51t95 18.5q77 0 134.5 -40
t82.5 -107h-94zM240 719h95l149 -185h-92l-104 124l-104 -124h-93z" />
    <glyph glyph-name="Cdotaccent" unicode="&#x10a;" horiz-adv-x="715" 
d="M386 593q-54 0 -99.5 -19.5t-79.5 -54.5t-53 -83t-19 -104t19 -104t53 -83t79.5 -54.5t99.5 -19.5q63 0 109.5 25.5t77.5 68.5h102q-40 -80 -113.5 -129t-175.5 -49q-72 0 -134.5 26.5t-108.5 72.5t-72 109t-26 137q0 73 26 136.5t72 109.5t108.5 72.5t134.5 26.5
q102 0 175.5 -49t113.5 -129h-102q-31 43 -77.5 68.5t-109.5 25.5zM332 854h96v-100h-96v100z" />
    <glyph glyph-name="cdotaccent" unicode="&#x10b;" horiz-adv-x="552" 
d="M413 326q-18 31 -50 49t-73 18q-34 0 -62 -12.5t-48.5 -34.5t-32 -52t-11.5 -64t11.5 -64t32 -52t48.5 -34.5t62 -12.5q41 0 73 18t50 49h94q-25 -67 -82.5 -107t-134.5 -40q-51 0 -95 18.5t-76 51t-50.5 77t-18.5 96.5t18.5 96.5t50.5 77t76 51t95 18.5q77 0 134.5 -40
t82.5 -107h-94zM236 669h100v-104h-100v104z" />
    <glyph glyph-name="Ccaron" unicode="&#x10c;" horiz-adv-x="715" 
d="M386 593q-54 0 -99.5 -19.5t-79.5 -54.5t-53 -83t-19 -104t19 -104t53 -83t79.5 -54.5t99.5 -19.5q63 0 109.5 25.5t77.5 68.5h102q-40 -80 -113.5 -129t-175.5 -49q-72 0 -134.5 26.5t-108.5 72.5t-72 109t-26 137q0 73 26 136.5t72 109.5t108.5 72.5t134.5 26.5
q102 0 175.5 -49t113.5 -129h-102q-31 43 -77.5 68.5t-109.5 25.5zM435 725h-101l-146 166h94l102 -114l102 114h95z" />
    <glyph glyph-name="ccaron" unicode="&#x10d;" horiz-adv-x="552" 
d="M413 326q-18 31 -50 49t-73 18q-34 0 -62 -12.5t-48.5 -34.5t-32 -52t-11.5 -64t11.5 -64t32 -52t48.5 -34.5t62 -12.5q41 0 73 18t50 49h94q-25 -67 -82.5 -107t-134.5 -40q-51 0 -95 18.5t-76 51t-50.5 77t-18.5 96.5t18.5 96.5t50.5 77t76 51t95 18.5q77 0 134.5 -40
t82.5 -107h-94zM83 719h93l104 -124l104 124h92l-149 -185h-95z" />
    <glyph glyph-name="Dcaron" unicode="&#x10e;" horiz-adv-x="717" 
d="M308 664q87 0 154.5 -26.5t114 -71.5t71 -105.5t24.5 -128.5t-24.5 -128.5t-71 -105.5t-114 -71.5t-154.5 -26.5h-223v664h223zM582 332q0 55 -18.5 100.5t-53 78.5t-84 51t-112.5 18h-139v-496h139q63 0 112.5 18t84 51t53 78.5t18.5 100.5zM383 725h-101l-146 166h94
l102 -114l102 114h95z" />
    <glyph glyph-name="dcaron" unicode="&#x10f;" horiz-adv-x="735" 
d="M524 669v-669h-86v50q-26 -29 -66 -46t-89 -17q-57 0 -100.5 20t-73 54t-44.5 77.5t-15 91.5t15 91.5t44.5 77.5t73 54t100.5 20q49 0 89 -17t66 -46v259h86zM441 230q0 41 -13 71.5t-34.5 51t-49.5 30.5t-58 10q-33 0 -61 -13t-47.5 -35.5t-30.5 -52t-11 -62.5t11 -62.5
t30.5 -52t47.5 -35.5t61 -13q30 0 58 10t49.5 30.5t34.5 51t13 71.5zM607 436l70 117h-53v111h111v-121l-65 -107h-63z" />
    <glyph glyph-name="Dcroat" unicode="&#x110;" horiz-adv-x="743" 
d="M334 664q87 0 154.5 -26.5t114 -71.5t71 -105.5t24.5 -128.5t-24.5 -128.5t-71 -105.5t-114 -71.5t-154.5 -26.5h-223v290h-91v84h91v290h223zM608 332q0 55 -18.5 100.5t-53 78.5t-84 51t-112.5 18h-139v-206h220v-84h-220v-206h139q63 0 112.5 18t84 51t53 78.5
t18.5 100.5z" />
    <glyph glyph-name="dcroat" unicode="&#x111;" horiz-adv-x="612" 
d="M523 669v-67h79v-76h-79v-526h-86v50q-26 -29 -66 -46t-89 -17q-57 0 -100.5 20t-73 54t-44.5 77.5t-15 91.5t15 91.5t44.5 77.5t73 54t100.5 20q49 0 89 -17t66 -46v116h-153v76h153v67h86zM440 230q0 41 -13 71.5t-34.5 51t-49.5 30.5t-58 10q-33 0 -61 -13
t-47.5 -35.5t-30.5 -52t-11 -62.5t11 -62.5t30.5 -52t47.5 -35.5t61 -13q30 0 58 10t49.5 30.5t34.5 51t13 71.5z" />
    <glyph glyph-name="Emacron" unicode="&#x112;" horiz-adv-x="600" 
d="M175 580v-206h353v-84h-353v-206h360v-84h-450v664h450v-84h-360zM486 818v-74h-351v74h351z" />
    <glyph glyph-name="emacron" unicode="&#x113;" horiz-adv-x="562" 
d="M291 67q41 0 72.5 15.5t49.5 46.5h93q-24 -67 -81.5 -104.5t-133.5 -37.5q-52 0 -96 18t-76.5 50.5t-50.5 77.5t-18 98q0 52 17.5 96t48.5 76.5t74.5 51t95.5 18.5q49 0 90.5 -18.5t71.5 -50.5t47 -75.5t17 -92.5v-18t-2 -20h-371q4 -28 17 -52t33 -41.5t46 -27.5t56 -10
zM286 393q-60 0 -99 -33t-47 -87h282q-8 54 -43.5 87t-92.5 33zM461 639v-74h-351v74h351z" />
    <glyph glyph-name="Ebreve" unicode="&#x114;" horiz-adv-x="600" 
d="M175 580v-206h353v-84h-353v-206h360v-84h-450v664h450v-84h-360zM314 726q-37 0 -69.5 12.5t-57.5 34.5t-41 52t-20 66h77q8 -38 38.5 -64.5t72.5 -26.5q41 0 71.5 26.5t38.5 64.5h77q-4 -36 -20 -66t-41 -52t-57 -34.5t-69 -12.5z" />
    <glyph glyph-name="ebreve" unicode="&#x115;" horiz-adv-x="562" 
d="M291 67q41 0 72.5 15.5t49.5 46.5h93q-24 -67 -81.5 -104.5t-133.5 -37.5q-52 0 -96 18t-76.5 50.5t-50.5 77.5t-18 98q0 52 17.5 96t48.5 76.5t74.5 51t95.5 18.5q49 0 90.5 -18.5t71.5 -50.5t47 -75.5t17 -92.5v-18t-2 -20h-371q4 -28 17 -52t33 -41.5t46 -27.5t56 -10
zM286 393q-60 0 -99 -33t-47 -87h282q-8 54 -43.5 87t-92.5 33zM286 608q22 0 41 9.5t33 25t22.5 35.5t10.5 41h75q-3 -37 -17.5 -70.5t-38.5 -59t-56 -40.5t-70 -15t-70 15t-56 40.5t-38.5 59t-17.5 70.5h75q2 -21 10.5 -41t22.5 -35.5t32.5 -25t41.5 -9.5z" />
    <glyph glyph-name="Edotaccent" unicode="&#x116;" horiz-adv-x="600" 
d="M175 580v-206h353v-84h-353v-206h360v-84h-450v664h450v-84h-360zM262 854h96v-100h-96v100z" />
    <glyph glyph-name="edotaccent" unicode="&#x117;" horiz-adv-x="562" 
d="M291 67q41 0 72.5 15.5t49.5 46.5h93q-24 -67 -81.5 -104.5t-133.5 -37.5q-52 0 -96 18t-76.5 50.5t-50.5 77.5t-18 98q0 52 17.5 96t48.5 76.5t74.5 51t95.5 18.5q49 0 90.5 -18.5t71.5 -50.5t47 -75.5t17 -92.5v-18t-2 -20h-371q4 -28 17 -52t33 -41.5t46 -27.5t56 -10
zM286 393q-60 0 -99 -33t-47 -87h282q-8 54 -43.5 87t-92.5 33zM236 669h100v-104h-100v104z" />
    <glyph glyph-name="Eogonek" unicode="&#x118;" horiz-adv-x="600" 
d="M85 0v664h450v-84h-360v-206h353v-84h-353v-206h360v-84q-14 -9 -30 -21t-30 -25t-23.5 -26.5t-9.5 -25.5q0 -33 49 -33h44v-73h-48q-125 0 -125 88q0 32 24 61t59 55h-360z" />
    <glyph glyph-name="eogonek" unicode="&#x119;" horiz-adv-x="562" 
d="M291 67q41 0 72.5 15.5t49.5 46.5h93q-17 -48 -49 -77t-68 -52q-14 -9 -30.5 -21t-30.5 -25t-23 -26.5t-9 -25.5q0 -33 49 -33h44v-73h-48q-125 0 -125 88q0 28 19.5 54t49.5 49q-51 1 -94 19.5t-74.5 51t-49 76.5t-17.5 97q0 52 17.5 96t48.5 76.5t74.5 51t95.5 18.5
q49 0 90.5 -18.5t71.5 -50.5t47 -75.5t17 -92.5v-18t-2 -20h-371q4 -28 17 -52t33 -41.5t46 -27.5t56 -10zM286 393q-60 0 -99 -33t-47 -87h282q-8 54 -43.5 87t-92.5 33z" />
    <glyph glyph-name="Ecaron" unicode="&#x11a;" horiz-adv-x="600" 
d="M175 580v-206h353v-84h-353v-206h360v-84h-450v664h450v-84h-360zM361 725h-101l-146 166h94l102 -114l102 114h95z" />
    <glyph glyph-name="ecaron" unicode="&#x11b;" horiz-adv-x="562" 
d="M291 67q41 0 72.5 15.5t49.5 46.5h93q-24 -67 -81.5 -104.5t-133.5 -37.5q-52 0 -96 18t-76.5 50.5t-50.5 77.5t-18 98q0 52 17.5 96t48.5 76.5t74.5 51t95.5 18.5q49 0 90.5 -18.5t71.5 -50.5t47 -75.5t17 -92.5v-18t-2 -20h-371q4 -28 17 -52t33 -41.5t46 -27.5t56 -10
zM286 393q-60 0 -99 -33t-47 -87h282q-8 54 -43.5 87t-92.5 33zM85 719h93l104 -124l104 124h92l-149 -185h-95z" />
    <glyph glyph-name="Gcircumflex" unicode="&#x11c;" horiz-adv-x="753" 
d="M386 593q-54 0 -99.5 -19.5t-79.5 -54.5t-53 -83t-19 -104t19 -104t52.5 -83t80 -54.5t100.5 -19.5q45 0 82.5 14t66 39t48 60t28.5 77h-239v84h335q0 -81 -25 -147t-68.5 -113t-101.5 -72.5t-123 -25.5q-73 0 -136 26.5t-109.5 72.5t-73 109t-26.5 137q0 73 26 136.5
t72 109.5t108.5 72.5t134.5 26.5q50 0 94.5 -13t82 -36.5t67.5 -56.5t50 -72h-103q-30 42 -79.5 68t-111.5 26zM330 891h93l150 -166h-94l-102 111l-102 -111h-95z" />
    <glyph glyph-name="gcircumflex" unicode="&#x11d;" horiz-adv-x="604" 
d="M524 460v-438q0 -54 -16 -98.5t-46 -75.5t-74 -48t-100 -17q-37 0 -72 10t-65 28.5t-53 46t-37 63.5h94q18 -32 51.5 -50t81.5 -18q72 0 111 45t39 116v26q-26 -29 -66 -46t-89 -17q-57 0 -100.5 20t-73 54t-44.5 77.5t-15 91.5t15 91.5t44.5 77.5t73 54t100.5 20
q49 0 89 -17t66 -46v50h86zM441 230q0 41 -13 71.5t-34.5 51t-49.5 30.5t-58 10q-33 0 -61 -13t-47.5 -35.5t-30.5 -52t-11 -62.5t11 -62.5t30.5 -52t47.5 -35.5t61 -13q30 0 58 10t49.5 30.5t34.5 51t13 71.5zM245 719h95l149 -185h-92l-104 124l-104 -124h-93z" />
    <glyph glyph-name="Gbreve" unicode="&#x11e;" horiz-adv-x="753" 
d="M386 593q-54 0 -99.5 -19.5t-79.5 -54.5t-53 -83t-19 -104t19 -104t52.5 -83t80 -54.5t100.5 -19.5q45 0 82.5 14t66 39t48 60t28.5 77h-239v84h335q0 -81 -25 -147t-68.5 -113t-101.5 -72.5t-123 -25.5q-73 0 -136 26.5t-109.5 72.5t-73 109t-26.5 137q0 73 26 136.5
t72 109.5t108.5 72.5t134.5 26.5q50 0 94.5 -13t82 -36.5t67.5 -56.5t50 -72h-103q-30 42 -79.5 68t-111.5 26zM385 726q-37 0 -69.5 12.5t-57.5 34.5t-41 52t-20 66h77q8 -38 38.5 -64.5t72.5 -26.5q41 0 71.5 26.5t38.5 64.5h77q-4 -36 -20 -66t-41 -52t-57 -34.5
t-69 -12.5z" />
    <glyph glyph-name="gbreve" unicode="&#x11f;" horiz-adv-x="604" 
d="M524 460v-438q0 -54 -16 -98.5t-46 -75.5t-74 -48t-100 -17q-37 0 -72 10t-65 28.5t-53 46t-37 63.5h94q18 -32 51.5 -50t81.5 -18q72 0 111 45t39 116v26q-26 -29 -66 -46t-89 -17q-57 0 -100.5 20t-73 54t-44.5 77.5t-15 91.5t15 91.5t44.5 77.5t73 54t100.5 20
q49 0 89 -17t66 -46v50h86zM441 230q0 41 -13 71.5t-34.5 51t-49.5 30.5t-58 10q-33 0 -61 -13t-47.5 -35.5t-30.5 -52t-11 -62.5t11 -62.5t30.5 -52t47.5 -35.5t61 -13q30 0 58 10t49.5 30.5t34.5 51t13 71.5zM289 608q22 0 41 9.5t33 25t22.5 35.5t10.5 41h75
q-3 -37 -17.5 -70.5t-38.5 -59t-56 -40.5t-70 -15t-70 15t-56 40.5t-38.5 59t-17.5 70.5h75q2 -21 10.5 -41t22.5 -35.5t32.5 -25t41.5 -9.5z" />
    <glyph glyph-name="Gdotaccent" unicode="&#x120;" horiz-adv-x="753" 
d="M386 593q-54 0 -99.5 -19.5t-79.5 -54.5t-53 -83t-19 -104t19 -104t52.5 -83t80 -54.5t100.5 -19.5q45 0 82.5 14t66 39t48 60t28.5 77h-239v84h335q0 -81 -25 -147t-68.5 -113t-101.5 -72.5t-123 -25.5q-73 0 -136 26.5t-109.5 72.5t-73 109t-26.5 137q0 73 26 136.5
t72 109.5t108.5 72.5t134.5 26.5q50 0 94.5 -13t82 -36.5t67.5 -56.5t50 -72h-103q-30 42 -79.5 68t-111.5 26zM332 854h96v-100h-96v100z" />
    <glyph glyph-name="gdotaccent" unicode="&#x121;" horiz-adv-x="604" 
d="M524 460v-438q0 -54 -16 -98.5t-46 -75.5t-74 -48t-100 -17q-37 0 -72 10t-65 28.5t-53 46t-37 63.5h94q18 -32 51.5 -50t81.5 -18q72 0 111 45t39 116v26q-26 -29 -66 -46t-89 -17q-57 0 -100.5 20t-73 54t-44.5 77.5t-15 91.5t15 91.5t44.5 77.5t73 54t100.5 20
q49 0 89 -17t66 -46v50h86zM441 230q0 41 -13 71.5t-34.5 51t-49.5 30.5t-58 10q-33 0 -61 -13t-47.5 -35.5t-30.5 -52t-11 -62.5t11 -62.5t30.5 -52t47.5 -35.5t61 -13q30 0 58 10t49.5 30.5t34.5 51t13 71.5zM244 669h100v-104h-100v104z" />
    <glyph glyph-name="uni0122" unicode="&#x122;" horiz-adv-x="753" 
d="M386 593q-54 0 -99.5 -19.5t-79.5 -54.5t-53 -83t-19 -104t19 -104t52.5 -83t80 -54.5t100.5 -19.5q45 0 82.5 14t66 39t48 60t28.5 77h-239v84h335q0 -81 -25 -147t-68.5 -113t-101.5 -72.5t-123 -25.5q-73 0 -136 26.5t-109.5 72.5t-73 109t-26.5 137q0 73 26 136.5
t72 109.5t108.5 72.5t134.5 26.5q50 0 94.5 -13t82 -36.5t67.5 -56.5t50 -72h-103q-30 42 -79.5 68t-111.5 26zM333 -251l57 95h-56v101h111v-111l-52 -85h-60z" />
    <glyph glyph-name="uni0123" unicode="&#x123;" horiz-adv-x="604" 
d="M524 460v-438q0 -54 -16 -98.5t-46 -75.5t-74 -48t-100 -17q-37 0 -72 10t-65 28.5t-53 46t-37 63.5h94q18 -32 51.5 -50t81.5 -18q72 0 111 45t39 116v26q-26 -29 -66 -46t-89 -17q-57 0 -100.5 20t-73 54t-44.5 77.5t-15 91.5t15 91.5t44.5 77.5t73 54t100.5 20
q49 0 89 -17t66 -46v50h86zM441 230q0 41 -13 71.5t-34.5 51t-49.5 30.5t-58 10q-33 0 -61 -13t-47.5 -35.5t-30.5 -52t-11 -62.5t11 -62.5t30.5 -52t47.5 -35.5t61 -13q30 0 58 10t49.5 30.5t34.5 51t13 71.5zM357.01 721.972l-56.9932 -94.9883h55.9932v-100.987h-110.986
v110.986l51.9932 84.9893h59.9932z" />
    <glyph glyph-name="Hcircumflex" unicode="&#x124;" horiz-adv-x="738" 
d="M563 0v290h-388v-290h-90v664h90v-290h388v290h90v-664h-90zM323 891h93l150 -166h-94l-102 111l-102 -111h-95z" />
    <glyph glyph-name="hcircumflex" unicode="&#x125;" horiz-adv-x="591" 
d="M321 473q47 0 84.5 -15t63 -42t39 -64t13.5 -81v-271h-86v264q0 57 -30 93t-93 36q-28 0 -54.5 -10.5t-46.5 -30t-32.5 -48.5t-12.5 -65v-239h-86v669h86v-259q23 28 62 45.5t93 17.5zM249 891h93l150 -166h-94l-102 111l-102 -111h-95z" />
    <glyph glyph-name="Hbar" unicode="&#x126;" horiz-adv-x="758" 
d="M573 0v290h-388v-290h-90v486h-85v84h85v94h90v-94h388v94h90v-94h85v-84h-85v-486h-90zM573 374v112h-388v-112h388z" />
    <glyph glyph-name="hbar" unicode="&#x127;" horiz-adv-x="600" 
d="M330 473q47 0 84.5 -15t63 -42t39 -64t13.5 -81v-271h-86v264q0 57 -30 93t-93 36q-28 0 -54.5 -10.5t-46.5 -30t-32.5 -48.5t-12.5 -65v-239h-86v526h-79v76h79v67h86v-67h153v-76h-153v-116q23 28 62 45.5t93 17.5z" />
    <glyph glyph-name="Itilde" unicode="&#x128;" horiz-adv-x="260" 
d="M175 0h-90v664h90v-664zM209 800q22 0 32.5 21.5t10.5 68.5h72q0 -77 -30.5 -120.5t-85.5 -43.5q-26 0 -47 14t-39.5 31t-35 31t-32.5 14q-43 0 -43 -90h-72q0 76 30.5 120t85.5 44q26 0 47.5 -14t40.5 -31t35 -31t31 -14z" />
    <glyph glyph-name="itilde" unicode="&#x129;" horiz-adv-x="250" 
d="M168 460v-460h-86v460h86zM204 610q22 0 32.5 21.5t10.5 68.5h72q0 -77 -30.5 -120.5t-85.5 -43.5q-26 0 -47 14t-39.5 31t-35 31t-32.5 14q-43 0 -43 -90h-72q0 76 30.5 120t85.5 44q26 0 47.5 -14t40.5 -31t35 -31t31 -14z" />
    <glyph glyph-name="Imacron" unicode="&#x12a;" horiz-adv-x="260" 
d="M175 0h-90v664h90v-664zM307 818v-74h-351v74h351z" />
    <glyph glyph-name="imacron" unicode="&#x12b;" horiz-adv-x="250" 
d="M251 638v-73h-251v73h251zM170 460v-460h-86v460h86z" />
    <glyph glyph-name="Ibreve" unicode="&#x12c;" horiz-adv-x="260" 
d="M175 0h-90v664h90v-664zM132 726q-37 0 -69.5 12.5t-57.5 34.5t-41 52t-20 66h77q8 -38 38.5 -64.5t72.5 -26.5q41 0 71.5 26.5t38.5 64.5h77q-4 -36 -20 -66t-41 -52t-57 -34.5t-69 -12.5z" />
    <glyph glyph-name="ibreve" unicode="&#x12d;" horiz-adv-x="250" 
d="M168 460v-460h-86v460h86zM126 608q22 0 41 9.5t33 25t22.5 35.5t10.5 41h75q-3 -37 -17.5 -70.5t-38.5 -59t-56 -40.5t-70 -15t-70 15t-56 40.5t-38.5 59t-17.5 70.5h75q2 -21 10.5 -41t22.5 -35.5t32.5 -25t41.5 -9.5z" />
    <glyph glyph-name="Iogonek" unicode="&#x12e;" horiz-adv-x="260" 
d="M85 664h90v-664q-14 -9 -30 -21t-30 -25t-23.5 -26.5t-9.5 -25.5q0 -33 49 -33h44v-73h-48q-125 0 -125 88q0 32 24 61t59 55v664z" />
    <glyph glyph-name="iogonek" unicode="&#x12f;" horiz-adv-x="250" 
d="M82 460h86v-460q-14 -9 -30 -21t-30 -25t-23.5 -26.5t-9.5 -25.5q0 -33 49 -33h44v-73h-48q-125 0 -125 88q0 32 25 61t62 55v460zM75 669h100v-104h-100v104z" />
    <glyph glyph-name="Idotaccent" unicode="&#x130;" horiz-adv-x="260" 
d="M175 0h-90v664h90v-664zM82 854h96v-100h-96v100z" />
    <glyph glyph-name="dotlessi" unicode="&#x131;" horiz-adv-x="250" 
d="M168 460v-460h-86v460h86z" />
    <glyph glyph-name="IJ" unicode="&#x132;" horiz-adv-x="649" 
d="M175 0h-90v664h90v-664zM569 664v-484q0 -87 -53.5 -133.5t-140.5 -46.5h-128v84h128q50 0 77 23t27 73v484h90z" />
    <glyph glyph-name="ij" unicode="&#x133;" horiz-adv-x="498" 
d="M168 460v-460h-86v460h86zM75 669h100v-104h-100v104zM321 669h100v-104h-100v104zM414 460v-516q0 -75 -43.5 -111.5t-118.5 -36.5h-71v76h63q45 0 64.5 22.5t19.5 67.5v498h86z" />
    <glyph glyph-name="Jcircumflex" unicode="&#x134;" horiz-adv-x="407" 
d="M327 664v-484q0 -87 -53.5 -133.5t-140.5 -46.5h-128v84h128q50 0 77 23t27 73v484h90zM236 891h93l150 -166h-94l-102 111l-102 -111h-95z" />
    <glyph glyph-name="jcircumflex" unicode="&#x135;" horiz-adv-x="268" 
d="M186 460v-485q0 -91 -40.5 -135t-131.5 -44h-64v75h64q49 0 67.5 27.5t18.5 76.5v485h86zM95 719h95l149 -185h-92l-104 124l-104 -124h-93z" />
    <glyph glyph-name="uni0136" unicode="&#x136;" horiz-adv-x="612" 
d="M607 0h-120l-312 287v-287h-90v664h90v-287l312 287h120l-355 -332zM269 -232l57 95h-56v101h111v-111l-52 -85h-60z" />
    <glyph glyph-name="uni0137" unicode="&#x137;" horiz-adv-x="507" 
d="M166 669v-410l221 201h115l-255 -230l255 -230h-115l-221 189v-189h-86v669h86zM213 -232l57 95h-56v101h111v-111l-52 -85h-60z" />
    <glyph glyph-name="kgreenlandic" unicode="&#x138;" horiz-adv-x="512" 
d="M166 460v-201l221 201h115l-255 -230l255 -230h-115l-221 189v-189h-86v460h86z" />
    <glyph glyph-name="Lacute" unicode="&#x139;" horiz-adv-x="565" 
d="M175 84h360v-84h-450v664h90v-580zM319 891l-142 -166h-94l142 166h94z" />
    <glyph glyph-name="lacute" unicode="&#x13a;" horiz-adv-x="246" 
d="M166 669v-669h-86v669h86zM311 891l-142 -166h-94l142 166h94z" />
    <glyph glyph-name="uni013B" unicode="&#x13b;" horiz-adv-x="565" 
d="M175 84h360v-84h-450v664h90v-580zM254 -232l57 95h-56v101h111v-111l-52 -85h-60z" />
    <glyph glyph-name="uni013C" unicode="&#x13c;" horiz-adv-x="246" 
d="M166 669v-669h-86v669h86zM68 -232l57 95h-56v101h111v-111l-52 -85h-60z" />
    <glyph glyph-name="Lcaron" unicode="&#x13d;" horiz-adv-x="565" 
d="M175 84h360v-84h-450v664h90v-580zM407 436l70 117h-53v111h111v-121l-65 -107h-63z" />
    <glyph glyph-name="lcaron" unicode="&#x13e;" horiz-adv-x="377" 
d="M166 669v-669h-86v669h86zM249 436l70 117h-53v111h111v-121l-65 -107h-63z" />
    <glyph glyph-name="Ldot" unicode="&#x13f;" horiz-adv-x="565" 
d="M175 84h360v-84h-450v664h90v-580zM372 405h111v-111h-111v111z" />
    <glyph glyph-name="ldot" unicode="&#x140;" horiz-adv-x="381" 
d="M166 669v-669h-86v669h86zM240 413h111v-111h-111v111z" />
    <glyph glyph-name="Lslash" unicode="&#x141;" horiz-adv-x="615" 
d="M225 415l195 105v-91l-195 -106v-239h360v-84h-450v274l-125 -67v92l125 67v298h90v-249z" />
    <glyph glyph-name="lslash" unicode="&#x142;" horiz-adv-x="344" 
d="M215 669v-251l119 66v-94l-119 -67v-323h-86v275l-119 -66v95l119 66v299h86z" />
    <glyph glyph-name="Nacute" unicode="&#x143;" horiz-adv-x="766" 
d="M681 664v-664h-101l-405 536v-536h-90v664h101l405 -536v536h90zM565 891l-142 -166h-94l142 166h94z" />
    <glyph glyph-name="nacute" unicode="&#x144;" horiz-adv-x="591" 
d="M321 473q47 0 84.5 -15t63 -42t39 -64t13.5 -81v-271h-86v264q0 57 -30 93t-93 36q-28 0 -54.5 -10.5t-46.5 -30t-32.5 -48.5t-12.5 -65v-239h-86v460h86v-50q23 28 62 45.5t93 17.5zM478 719l-142 -185h-94l142 185h94z" />
    <glyph glyph-name="uni0145" unicode="&#x145;" horiz-adv-x="766" 
d="M681 664v-664h-101l-405 536v-536h-90v664h101l405 -536v536h90zM327 -232l57 95h-56v101h111v-111l-52 -85h-60z" />
    <glyph glyph-name="uni0146" unicode="&#x146;" horiz-adv-x="591" 
d="M321 473q47 0 84.5 -15t63 -42t39 -64t13.5 -81v-271h-86v264q0 57 -30 93t-93 36q-28 0 -54.5 -10.5t-46.5 -30t-32.5 -48.5t-12.5 -65v-239h-86v460h86v-50q23 28 62 45.5t93 17.5zM239 -232l57 95h-56v101h111v-111l-52 -85h-60z" />
    <glyph glyph-name="Ncaron" unicode="&#x147;" horiz-adv-x="766" 
d="M681 664v-664h-101l-405 536v-536h-90v664h101l405 -536v536h90zM434 725h-101l-146 166h94l102 -114l102 114h95z" />
    <glyph glyph-name="ncaron" unicode="&#x148;" horiz-adv-x="591" 
d="M321 473q47 0 84.5 -15t63 -42t39 -64t13.5 -81v-271h-86v264q0 57 -30 93t-93 36q-28 0 -54.5 -10.5t-46.5 -30t-32.5 -48.5t-12.5 -65v-239h-86v460h86v-50q23 28 62 45.5t93 17.5zM99 719h93l104 -124l104 124h92l-149 -185h-95z" />
    <glyph glyph-name="napostrophe" unicode="&#x149;" horiz-adv-x="591" 
d="M321 473q47 0 84.5 -15t63 -42t39 -64t13.5 -81v-271h-86v264q0 57 -30 93t-93 36q-28 0 -54.5 -10.5t-46.5 -30t-32.5 -48.5t-12.5 -65v-239h-86v460h86v-50q23 28 62 45.5t93 17.5zM80 547l70 117h-53v111h111v-121l-65 -107h-63z" />
    <glyph glyph-name="Eng" unicode="&#x14a;" horiz-adv-x="766" 
d="M681 664v-688q0 -87 -53.5 -133.5t-140.5 -46.5h-128v84h128q50 0 77 23t27 73v24l-416 536v-536h-90v664h101l405 -526v526h90z" />
    <glyph glyph-name="eng" unicode="&#x14b;" horiz-adv-x="591" 
d="M521 -56q0 -75 -43.5 -111.5t-118.5 -36.5h-71v76h63q45 0 64.5 22.5t19.5 67.5v302q0 57 -30 93t-93 36q-28 0 -54.5 -10.5t-46.5 -30t-32.5 -48.5t-12.5 -65v-239h-86v460h86v-50q23 28 62 45.5t93 17.5q47 0 84.5 -15t63 -42t39 -64t13.5 -81v-327v0z" />
    <glyph glyph-name="Omacron" unicode="&#x14c;" horiz-adv-x="772" 
d="M386 677q72 0 134.5 -26.5t108.5 -72.5t72 -109.5t26 -136.5q0 -74 -26 -137t-72 -109t-108.5 -72.5t-134.5 -26.5t-134.5 26.5t-108.5 72.5t-72 109t-26 137q0 73 26 136.5t72 109.5t108.5 72.5t134.5 26.5zM386 593q-54 0 -99.5 -19.5t-79.5 -54.5t-53 -83t-19 -104
t19 -104t53 -83t79.5 -54.5t99.5 -19.5t99.5 19.5t79.5 54.5t53 83t19 104t-19 104t-53 83t-79.5 54.5t-99.5 19.5zM562 818v-74h-351v74h351z" />
    <glyph glyph-name="omacron" unicode="&#x14d;" horiz-adv-x="582" 
d="M291 473q52 0 96 -18.5t76 -51t50.5 -77t18.5 -96.5t-18.5 -96.5t-50.5 -77t-76 -51t-96 -18.5t-96 18.5t-76.5 51t-50.5 77t-18 96.5t18 96.5t50.5 77t76.5 51t96 18.5zM291 67q34 0 62.5 13t49 35t32 51.5t11.5 63.5t-11.5 64t-32 52t-49 34.5t-62.5 12.5t-62.5 -12.5
t-49 -34.5t-32 -52t-11.5 -64t11.5 -63.5t32 -51.5t49 -35t62.5 -13zM467 639v-74h-351v74h351z" />
    <glyph glyph-name="Obreve" unicode="&#x14e;" horiz-adv-x="772" 
d="M386 677q72 0 134.5 -26.5t108.5 -72.5t72 -109.5t26 -136.5q0 -74 -26 -137t-72 -109t-108.5 -72.5t-134.5 -26.5t-134.5 26.5t-108.5 72.5t-72 109t-26 137q0 73 26 136.5t72 109.5t108.5 72.5t134.5 26.5zM386 593q-54 0 -99.5 -19.5t-79.5 -54.5t-53 -83t-19 -104
t19 -104t53 -83t79.5 -54.5t99.5 -19.5t99.5 19.5t79.5 54.5t53 83t19 104t-19 104t-53 83t-79.5 54.5t-99.5 19.5zM387 726q-37 0 -69.5 12.5t-57.5 34.5t-41 52t-20 66h77q8 -38 38.5 -64.5t72.5 -26.5q41 0 71.5 26.5t38.5 64.5h77q-4 -36 -20 -66t-41 -52t-57 -34.5
t-69 -12.5z" />
    <glyph glyph-name="obreve" unicode="&#x14f;" horiz-adv-x="582" 
d="M291 473q52 0 96 -18.5t76 -51t50.5 -77t18.5 -96.5t-18.5 -96.5t-50.5 -77t-76 -51t-96 -18.5t-96 18.5t-76.5 51t-50.5 77t-18 96.5t18 96.5t50.5 77t76.5 51t96 18.5zM291 67q34 0 62.5 13t49 35t32 51.5t11.5 63.5t-11.5 64t-32 52t-49 34.5t-62.5 12.5t-62.5 -12.5
t-49 -34.5t-32 -52t-11.5 -64t11.5 -63.5t32 -51.5t49 -35t62.5 -13zM291 608q22 0 41 9.5t33 25t22.5 35.5t10.5 41h75q-3 -37 -17.5 -70.5t-38.5 -59t-56 -40.5t-70 -15t-70 15t-56 40.5t-38.5 59t-17.5 70.5h75q2 -21 10.5 -41t22.5 -35.5t32.5 -25t41.5 -9.5z" />
    <glyph glyph-name="Ohungarumlaut" unicode="&#x150;" horiz-adv-x="772" 
d="M386 677q72 0 134.5 -26.5t108.5 -72.5t72 -109.5t26 -136.5q0 -74 -26 -137t-72 -109t-108.5 -72.5t-134.5 -26.5t-134.5 26.5t-108.5 72.5t-72 109t-26 137q0 73 26 136.5t72 109.5t108.5 72.5t134.5 26.5zM386 593q-54 0 -99.5 -19.5t-79.5 -54.5t-53 -83t-19 -104
t19 -104t53 -83t79.5 -54.5t99.5 -19.5t99.5 19.5t79.5 54.5t53 83t19 104t-19 104t-53 83t-79.5 54.5t-99.5 19.5zM643 891l-142 -166h-94l142 166h94zM489 891l-142 -166h-94l142 166h94z" />
    <glyph glyph-name="ohungarumlaut" unicode="&#x151;" horiz-adv-x="582" 
d="M291 473q52 0 96 -18.5t76 -51t50.5 -77t18.5 -96.5t-18.5 -96.5t-50.5 -77t-76 -51t-96 -18.5t-96 18.5t-76.5 51t-50.5 77t-18 96.5t18 96.5t50.5 77t76.5 51t96 18.5zM291 67q34 0 62.5 13t49 35t32 51.5t11.5 63.5t-11.5 64t-32 52t-49 34.5t-62.5 12.5t-62.5 -12.5
t-49 -34.5t-32 -52t-11.5 -64t11.5 -63.5t32 -51.5t49 -35t62.5 -13zM547 719l-142 -185h-94l142 185h94zM393 719l-142 -185h-94l142 185h94z" />
    <glyph glyph-name="OE" unicode="&#x152;" horiz-adv-x="1152" 
d="M727 580v-206h353v-84h-353v-206h360v-84h-450v94q-47 -51 -111 -79t-140 -28q-72 0 -134.5 26.5t-108.5 72.5t-72 109t-26 137q0 73 26 136.5t72 109.5t108.5 72.5t134.5 26.5q76 0 140 -28.5t111 -79.5v95h450v-84h-360zM386 593q-54 0 -99.5 -19.5t-79.5 -54.5
t-53 -83t-19 -104t19 -104t53 -83t79.5 -54.5t99.5 -19.5t99.5 19.5t79.5 54.5t53 83t19 104t-19 104t-53 83t-79.5 54.5t-99.5 19.5z" />
    <glyph glyph-name="oe" unicode="&#x153;" horiz-adv-x="958" 
d="M687 67q41 0 72.5 15.5t49.5 46.5h93q-24 -67 -81.5 -104.5t-133.5 -37.5q-64 0 -115.5 26.5t-83.5 73.5q-32 -47 -83 -73.5t-114 -26.5q-52 0 -96 18.5t-76.5 51t-50.5 77t-18 96.5t18 96.5t50.5 77t76.5 51t96 18.5q63 0 114 -26.5t83 -72.5q31 45 81 72t113 27
q49 0 90.5 -18.5t71.5 -50.5t47 -75.5t17 -92.5v-18t-2 -20h-371q4 -28 17 -52t33 -41.5t46 -27.5t56 -10zM291 67q34 0 62.5 13t49 35t32 51.5t11.5 63.5t-11.5 64t-32 52t-49 34.5t-62.5 12.5t-62.5 -12.5t-49 -34.5t-32 -52t-11.5 -64t11.5 -63.5t32 -51.5t49 -35
t62.5 -13zM682 393q-60 0 -99 -33t-47 -87h282q-8 54 -43.5 87t-92.5 33z" />
    <glyph glyph-name="Racute" unicode="&#x154;" horiz-adv-x="663" 
d="M620 469q0 -89 -53 -139t-138 -56l209 -274h-112l-209 274h-142v-274h-90v664h323q47 0 86 -13t67 -37.5t43.5 -61t15.5 -83.5zM530 469q0 54 -34 82.5t-88 28.5h-233v-222h233q54 0 88 28.5t34 82.5zM493 891l-142 -166h-94l142 166h94z" />
    <glyph glyph-name="racute" unicode="&#x155;" horiz-adv-x="395" 
d="M166 460v-65q19 27 59 48t103 21h27v-82h-27q-76 0 -119 -44.5t-43 -116.5v-221h-86v460h86zM396 719l-142 -185h-94l142 185h94z" />
    <glyph glyph-name="uni0156" unicode="&#x156;" horiz-adv-x="663" 
d="M620 469q0 -89 -53 -139t-138 -56l209 -274h-112l-209 274h-142v-274h-90v664h323q47 0 86 -13t67 -37.5t43.5 -61t15.5 -83.5zM530 469q0 54 -34 82.5t-88 28.5h-233v-222h233q54 0 88 28.5t34 82.5zM275 -232l57 95h-56v101h111v-111l-52 -85h-60z" />
    <glyph glyph-name="uni0157" unicode="&#x157;" horiz-adv-x="395" 
d="M166 460v-65q19 27 59 48t103 21h27v-82h-27q-76 0 -119 -44.5t-43 -116.5v-221h-86v460h86zM69 -232l57 95h-56v101h111v-111l-52 -85h-60z" />
    <glyph glyph-name="Rcaron" unicode="&#x158;" horiz-adv-x="663" 
d="M620 469q0 -89 -53 -139t-138 -56l209 -274h-112l-209 274h-142v-274h-90v664h323q47 0 86 -13t67 -37.5t43.5 -61t15.5 -83.5zM530 469q0 54 -34 82.5t-88 28.5h-233v-222h233q54 0 88 28.5t34 82.5zM379 725h-101l-146 166h94l102 -114l102 114h95z" />
    <glyph glyph-name="rcaron" unicode="&#x159;" horiz-adv-x="395" 
d="M166 460v-65q19 27 59 48t103 21h27v-82h-27q-76 0 -119 -44.5t-43 -116.5v-221h-86v460h86zM12 719h93l104 -124l104 124h92l-149 -185h-95z" />
    <glyph glyph-name="Sacute" unicode="&#x15a;" horiz-adv-x="614" 
d="M123 165q23 -43 73.5 -68.5t116.5 -25.5q38 0 69.5 8.5t54.5 23t36 35t13 44.5q0 48 -34.5 72.5t-106.5 32.5l-116 12q-49 5 -84.5 20.5t-58 39t-33 54t-10.5 65.5q0 44 18 80.5t51 63t80.5 41t106.5 14.5q61 0 108.5 -16.5t82 -42t56.5 -57.5t33 -62h-98q-20 42 -70 68
t-115 26q-78 0 -120.5 -33t-42.5 -78q0 -46 32 -70.5t91 -30.5l125 -13q92 -10 143.5 -58.5t51.5 -122.5q0 -37 -16.5 -73t-49.5 -64t-82.5 -45.5t-114.5 -17.5q-66 0 -115 15.5t-83.5 41t-56.5 57.5t-33 64h98zM473 891l-142 -166h-94l142 166h94z" />
    <glyph glyph-name="sacute" unicode="&#x15b;" horiz-adv-x="520" 
d="M391 330q-16 33 -51.5 48t-87.5 15q-50 0 -80.5 -17t-30.5 -46t24.5 -41.5t70.5 -16.5l93 -7q72 -6 111.5 -38.5t39.5 -95.5q0 -30 -14 -56t-40 -45.5t-64 -31t-86 -11.5q-51 0 -91 11.5t-70 32t-49 47t-26 56.5h94q14 -33 53 -50t100 -17q45 0 76 16.5t31 45.5t-24.5 42
t-71.5 17l-96 8q-147 13 -147 131q0 30 14 57t39.5 46.5t62 31t82.5 11.5q51 0 91 -12t68.5 -31.5t46.5 -45.5t26 -54h-94zM438 719l-142 -185h-94l142 185h94z" />
    <glyph glyph-name="Scircumflex" unicode="&#x15c;" horiz-adv-x="614" 
d="M123 165q23 -43 73.5 -68.5t116.5 -25.5q38 0 69.5 8.5t54.5 23t36 35t13 44.5q0 48 -34.5 72.5t-106.5 32.5l-116 12q-49 5 -84.5 20.5t-58 39t-33 54t-10.5 65.5q0 44 18 80.5t51 63t80.5 41t106.5 14.5q61 0 108.5 -16.5t82 -42t56.5 -57.5t33 -62h-98q-20 42 -70 68
t-115 26q-78 0 -120.5 -33t-42.5 -78q0 -46 32 -70.5t91 -30.5l125 -13q92 -10 143.5 -58.5t51.5 -122.5q0 -37 -16.5 -73t-49.5 -64t-82.5 -45.5t-114.5 -17.5q-66 0 -115 15.5t-83.5 41t-56.5 57.5t-33 64h98zM261 891h93l150 -166h-94l-102 111l-102 -111h-95z" />
    <glyph glyph-name="scircumflex" unicode="&#x15d;" horiz-adv-x="520" 
d="M391 330q-16 33 -51.5 48t-87.5 15q-50 0 -80.5 -17t-30.5 -46t24.5 -41.5t70.5 -16.5l93 -7q72 -6 111.5 -38.5t39.5 -95.5q0 -30 -14 -56t-40 -45.5t-64 -31t-86 -11.5q-51 0 -91 11.5t-70 32t-49 47t-26 56.5h94q14 -33 53 -50t100 -17q45 0 76 16.5t31 45.5t-24.5 42
t-71.5 17l-96 8q-147 13 -147 131q0 30 14 57t39.5 46.5t62 31t82.5 11.5q51 0 91 -12t68.5 -31.5t46.5 -45.5t26 -54h-94zM218 719h95l149 -185h-92l-104 124l-104 -124h-93z" />
    <glyph glyph-name="Scedilla" unicode="&#x15e;" horiz-adv-x="614" 
d="M123 165q23 -43 73.5 -68.5t116.5 -25.5q38 0 69.5 8.5t54.5 23t36 35t13 44.5q0 48 -34.5 72.5t-106.5 32.5l-116 12q-49 5 -84.5 20.5t-58 39t-33 54t-10.5 65.5q0 44 18 80.5t51 63t80.5 41t106.5 14.5q61 0 108.5 -16.5t82 -42t56.5 -57.5t33 -62h-98q-20 42 -70 68
t-115 26q-78 0 -120.5 -33t-42.5 -78q0 -46 32 -70.5t91 -30.5l125 -13q92 -10 143.5 -58.5t51.5 -122.5q0 -34 -13.5 -66.5t-40.5 -59.5t-67.5 -46t-93.5 -25l-133 -174h-94l133 173q-54 5 -95 22.5t-70 41.5t-48 53.5t-29 58.5h98z" />
    <glyph glyph-name="scedilla" unicode="&#x15f;" horiz-adv-x="520" 
d="M391 330q-16 33 -51.5 48t-87.5 15q-50 0 -80.5 -17t-30.5 -46t24.5 -41.5t70.5 -16.5l93 -7q72 -6 111.5 -38.5t39.5 -95.5q0 -27 -11 -51t-32.5 -42.5t-52.5 -31.5t-70 -17l-132 -173h-94l135 175q-78 11 -124 51t-59 92h97q27 -67 150 -67q45 0 76 16.5t31 45.5
t-24.5 42t-71.5 17l-96 8q-147 13 -147 131q0 30 14 56.5t39.5 46t62 31t82.5 11.5q51 0 91 -11.5t68.5 -31t46.5 -45.5t26 -54h-94z" />
    <glyph glyph-name="Scaron" unicode="&#x160;" horiz-adv-x="614" 
d="M123 165q23 -43 73.5 -68.5t116.5 -25.5q38 0 69.5 8.5t54.5 23t36 35t13 44.5q0 48 -34.5 72.5t-106.5 32.5l-116 12q-49 5 -84.5 20.5t-58 39t-33 54t-10.5 65.5q0 44 18 80.5t51 63t80.5 41t106.5 14.5q61 0 108.5 -16.5t82 -42t56.5 -57.5t33 -62h-98q-20 42 -70 68
t-115 26q-78 0 -120.5 -33t-42.5 -78q0 -46 32 -70.5t91 -30.5l125 -13q92 -10 143.5 -58.5t51.5 -122.5q0 -37 -16.5 -73t-49.5 -64t-82.5 -45.5t-114.5 -17.5q-66 0 -115 15.5t-83.5 41t-56.5 57.5t-33 64h98zM358 725h-101l-146 166h94l102 -114l102 114h95z" />
    <glyph glyph-name="scaron" unicode="&#x161;" horiz-adv-x="520" 
d="M391 330q-16 33 -51.5 48t-87.5 15q-50 0 -80.5 -17t-30.5 -46t24.5 -41.5t70.5 -16.5l93 -7q72 -6 111.5 -38.5t39.5 -95.5q0 -30 -14 -56t-40 -45.5t-64 -31t-86 -11.5q-51 0 -91 11.5t-70 32t-49 47t-26 56.5h94q14 -33 53 -50t100 -17q45 0 76 16.5t31 45.5t-24.5 42
t-71.5 17l-96 8q-147 13 -147 131q0 30 14 57t39.5 46.5t62 31t82.5 11.5q51 0 91 -12t68.5 -31.5t46.5 -45.5t26 -54h-94zM64 719h93l104 -124l104 124h92l-149 -185h-95z" />
    <glyph glyph-name="uni0162" unicode="&#x162;" horiz-adv-x="600" 
d="M575 664v-84h-230v-580l-141 -184h-94l145 188v576h-230v84h550z" />
    <glyph glyph-name="uni0163" unicode="&#x163;" horiz-adv-x="393" 
d="M201 586v-126h147v-76h-147v-226q0 -82 86 -82h61v-76h-41l-141 -184h-94l149 191q-54 13 -80 47.5t-26 87.5v242h-85v76h85v126h86z" />
    <glyph glyph-name="Tcaron" unicode="&#x164;" horiz-adv-x="600" 
d="M575 664v-84h-230v-580h-90v580h-230v84h550zM351 725h-101l-146 166h94l102 -114l102 114h95z" />
    <glyph glyph-name="tcaron" unicode="&#x165;" horiz-adv-x="531" 
d="M201 586v-126h147v-76h-147v-218q0 -45 19.5 -67.5t64.5 -22.5h63v-76h-71q-75 0 -118.5 36.5t-43.5 111.5v236h-85v76h85v126h86zM403 436l70 117h-53v111h111v-121l-65 -107h-63z" />
    <glyph glyph-name="Tbar" unicode="&#x166;" horiz-adv-x="600" 
d="M575 664v-84h-230v-206h170v-84h-170v-290h-90v290h-170v84h170v206h-230v84h550z" />
    <glyph glyph-name="tbar" unicode="&#x167;" horiz-adv-x="408" 
d="M201 586v-126h147v-76h-147v-76h147v-76h-147v-66q0 -45 19.5 -67.5t64.5 -22.5h63v-76h-71q-75 0 -118.5 36.5t-43.5 111.5v84h-85v76h85v76h-85v76h85v126h86z" />
    <glyph glyph-name="Utilde" unicode="&#x168;" horiz-adv-x="736" 
d="M80 664h90v-389q0 -102 53 -153t145 -51t145 51t53 153v389h90v-389q0 -69 -20.5 -123t-58 -90.5t-91 -55.5t-118.5 -19t-118.5 19t-91 55.5t-58 90.5t-20.5 123v389zM446 800q22 0 32.5 21.5t10.5 68.5h72q0 -77 -30.5 -120.5t-85.5 -43.5q-26 0 -47 14t-39.5 31t-35 31
t-32.5 14q-43 0 -43 -90h-72q0 76 30.5 120t85.5 44q26 0 47.5 -14t40.5 -31t35 -31t31 -14z" />
    <glyph glyph-name="utilde" unicode="&#x169;" horiz-adv-x="585" 
d="M267 -13q-47 0 -83.5 15t-61.5 42t-38.5 64t-13.5 81v271h86v-264q0 -57 29.5 -93t90.5 -36q27 0 53 10.5t46 30t32 48.5t12 65v239h86v-460h-86v50q-23 -28 -61.5 -45.5t-90.5 -17.5zM370 610q22 0 32.5 21.5t10.5 68.5h72q0 -77 -30.5 -120.5t-85.5 -43.5q-26 0 -47 14
t-39.5 31t-35 31t-32.5 14q-43 0 -43 -90h-72q0 76 30.5 120t85.5 44q26 0 47.5 -14t40.5 -31t35 -31t31 -14z" />
    <glyph glyph-name="Umacron" unicode="&#x16a;" horiz-adv-x="736" 
d="M80 664h90v-389q0 -102 53 -153t145 -51t145 51t53 153v389h90v-389q0 -69 -20.5 -123t-58 -90.5t-91 -55.5t-118.5 -19t-118.5 19t-91 55.5t-58 90.5t-20.5 123v389zM544 818v-74h-351v74h351z" />
    <glyph glyph-name="umacron" unicode="&#x16b;" horiz-adv-x="585" 
d="M267 -13q-47 0 -83.5 15t-61.5 42t-38.5 64t-13.5 81v271h86v-264q0 -57 29.5 -93t90.5 -36q27 0 53 10.5t46 30t32 48.5t12 65v239h86v-460h-86v50q-23 -28 -61.5 -45.5t-90.5 -17.5zM468 639v-74h-351v74h351z" />
    <glyph glyph-name="Ubreve" unicode="&#x16c;" horiz-adv-x="736" 
d="M80 664h90v-389q0 -102 53 -153t145 -51t145 51t53 153v389h90v-389q0 -69 -20.5 -123t-58 -90.5t-91 -55.5t-118.5 -19t-118.5 19t-91 55.5t-58 90.5t-20.5 123v389zM369 726q-37 0 -69.5 12.5t-57.5 34.5t-41 52t-20 66h77q8 -38 38.5 -64.5t72.5 -26.5q41 0 71.5 26.5
t38.5 64.5h77q-4 -36 -20 -66t-41 -52t-57 -34.5t-69 -12.5z" />
    <glyph glyph-name="ubreve" unicode="&#x16d;" horiz-adv-x="585" 
d="M267 -13q-47 0 -83.5 15t-61.5 42t-38.5 64t-13.5 81v271h86v-264q0 -57 29.5 -93t90.5 -36q27 0 53 10.5t46 30t32 48.5t12 65v239h86v-460h-86v50q-23 -28 -61.5 -45.5t-90.5 -17.5zM292 608q22 0 41 9.5t33 25t22.5 35.5t10.5 41h75q-3 -37 -17.5 -70.5t-38.5 -59
t-56 -40.5t-70 -15t-70 15t-56 40.5t-38.5 59t-17.5 70.5h75q2 -21 10.5 -41t22.5 -35.5t32.5 -25t41.5 -9.5z" />
    <glyph glyph-name="Uring" unicode="&#x16e;" horiz-adv-x="736" 
d="M80 664h90v-389q0 -102 53 -153t145 -51t145 51t53 153v389h90v-389q0 -69 -20.5 -123t-58 -90.5t-91 -55.5t-118.5 -19t-118.5 19t-91 55.5t-58 90.5t-20.5 123v389zM233 845q0 28 10.5 52.5t29 43t43 29t52.5 10.5t52.5 -10.5t43 -29t29 -43t10.5 -52.5t-10.5 -52.5
t-29 -43t-43 -29t-52.5 -10.5t-52.5 10.5t-43 29t-29 43t-10.5 52.5zM303 845q0 -28 18.5 -46.5t46.5 -18.5t46.5 18.5t18.5 46.5t-18.5 46.5t-46.5 18.5t-46.5 -18.5t-18.5 -46.5z" />
    <glyph glyph-name="uring" unicode="&#x16f;" horiz-adv-x="585" 
d="M267 -13q-47 0 -83.5 15t-61.5 42t-38.5 64t-13.5 81v271h86v-264q0 -57 29.5 -93t90.5 -36q27 0 53 10.5t46 30t32 48.5t12 65v239h86v-460h-86v50q-23 -28 -61.5 -45.5t-90.5 -17.5zM157 655q0 28 10.5 52.5t29 43t43 29t52.5 10.5t52.5 -10.5t43 -29t29 -43
t10.5 -52.5t-10.5 -52.5t-29 -43t-43 -29t-52.5 -10.5t-52.5 10.5t-43 29t-29 43t-10.5 52.5zM227 655q0 -28 18.5 -46.5t46.5 -18.5t46.5 18.5t18.5 46.5t-18.5 46.5t-46.5 18.5t-46.5 -18.5t-18.5 -46.5z" />
    <glyph glyph-name="Uhungarumlaut" unicode="&#x170;" horiz-adv-x="736" 
d="M80 664h90v-389q0 -102 53 -153t145 -51t145 51t53 153v389h90v-389q0 -69 -20.5 -123t-58 -90.5t-91 -55.5t-118.5 -19t-118.5 19t-91 55.5t-58 90.5t-20.5 123v389zM603 891l-142 -166h-94l142 166h94zM449 891l-142 -166h-94l142 166h94z" />
    <glyph glyph-name="uhungarumlaut" unicode="&#x171;" horiz-adv-x="585" 
d="M267 -13q-47 0 -83.5 15t-61.5 42t-38.5 64t-13.5 81v271h86v-264q0 -57 29.5 -93t90.5 -36q27 0 53 10.5t46 30t32 48.5t12 65v239h86v-460h-86v50q-23 -28 -61.5 -45.5t-90.5 -17.5zM519 719l-142 -185h-94l142 185h94zM365 719l-142 -185h-94l142 185h94z" />
    <glyph glyph-name="Uogonek" unicode="&#x172;" horiz-adv-x="736" 
d="M80 664h90v-389q0 -102 53 -153t145 -51t145 51t53 153v389h90v-389q0 -55 -11 -96t-32 -72.5t-50.5 -57t-66.5 -49.5q-14 -9 -30 -21t-30 -25t-23.5 -26.5t-9.5 -25.5q0 -33 49 -33h44v-73h-48q-125 0 -125 88q0 28 20 54t50 50q-6 -1 -12.5 -1h-12.5q-65 0 -118.5 19
t-91 55.5t-58 90.5t-20.5 123v389z" />
    <glyph glyph-name="uogonek" unicode="&#x173;" horiz-adv-x="585" 
d="M267 -13q-47 0 -83.5 15t-61.5 42t-38.5 64t-13.5 81v271h86v-264q0 -57 29.5 -93t90.5 -36q27 0 53 10.5t46 30t32 48.5t12 65v239h86v-460q-14 -9 -30 -21t-30 -25t-23.5 -26.5t-9.5 -25.5q0 -33 49 -33h44v-73h-48q-125 0 -125 88q0 32 24.5 61t62.5 55v50
q-23 -28 -61.5 -45.5t-90.5 -17.5z" />
    <glyph glyph-name="Wcircumflex" unicode="&#x174;" horiz-adv-x="1058" 
d="M107 664l186 -548l183 548h105l187 -547l184 547h96l-226 -664h-105l-189 558l-185 -558h-105l-228 664h97zM483 891h93l150 -166h-94l-102 111l-102 -111h-95z" />
    <glyph glyph-name="wcircumflex" unicode="&#x175;" horiz-adv-x="835" 
d="M112 460l131 -350l131 350h92l130 -350l132 350h87l-172 -460h-94l-132 350l-132 -350h-93l-172 460h92zM370 719h95l149 -185h-92l-104 124l-104 -124h-93z" />
    <glyph glyph-name="Ycircumflex" unicode="&#x176;" horiz-adv-x="590" 
d="M494 664h96l-250 -417v-247h-90v247l-250 417h99l197 -333zM249 891h93l150 -166h-94l-102 111l-102 -111h-95z" />
    <glyph glyph-name="ycircumflex" unicode="&#x177;" horiz-adv-x="523" 
d="M13 460h97l154 -347l155 347h91l-217 -485q-23 -52 -39.5 -86.5t-35 -55t-43.5 -29t-66 -8.5h-44v76h28q20 0 34.5 4t26 14.5t21.5 27.5t22 44l19 44zM209 719h95l149 -185h-92l-104 124l-104 -124h-93z" />
    <glyph glyph-name="Ydieresis" unicode="&#x178;" horiz-adv-x="590" 
d="M494 664h96l-250 -417v-247h-90v247l-250 417h99l197 -333zM339 844h96v-100h-96v100zM156 844h96v-100h-96v100z" />
    <glyph glyph-name="Zacute" unicode="&#x179;" horiz-adv-x="638" 
d="M583 577l-421 -493h421v-84h-527v86l420 494h-421v84h528v-87zM482 891l-142 -166h-94l142 166h94z" />
    <glyph glyph-name="zacute" unicode="&#x17a;" horiz-adv-x="496" 
d="M45 0v76l292 308h-292v76h401v-76l-293 -308h298v-76h-406zM420 719l-142 -185h-94l142 185h94z" />
    <glyph glyph-name="Zdotaccent" unicode="&#x17b;" horiz-adv-x="638" 
d="M583 577l-421 -493h421v-84h-527v86l420 494h-421v84h528v-87zM271 854h96v-100h-96v100z" />
    <glyph glyph-name="zdotaccent" unicode="&#x17c;" horiz-adv-x="496" 
d="M45 0v76l292 308h-292v76h401v-76l-293 -308h298v-76h-406zM204 669h100v-104h-100v104z" />
    <glyph glyph-name="Zcaron" unicode="&#x17d;" horiz-adv-x="638" 
d="M583 577l-421 -493h421v-84h-527v86l420 494h-421v84h528v-87zM365 725h-101l-146 166h94l102 -114l102 114h95z" />
    <glyph glyph-name="zcaron" unicode="&#x17e;" horiz-adv-x="496" 
d="M45 0v76l292 308h-292v76h401v-76l-293 -308h298v-76h-406zM53 719h93l104 -124l104 124h92l-149 -185h-95z" />
    <glyph glyph-name="longs" unicode="&#x17f;" horiz-adv-x="318" 
d="M80 0v524q0 63 43.5 104t129.5 41h60v-76h-60q-43 0 -65 -22t-22 -57v-514h-86z" />
    <glyph glyph-name="uni018F" unicode="&#x18f;" horiz-adv-x="752" 
d="M70 499q18 41 47.5 74t67.5 56t83.5 35.5t96.5 12.5q76 0 139 -27t108 -73.5t70 -109.5t25 -135q0 -73 -25.5 -136t-70.5 -109.5t-106.5 -73t-133.5 -26.5q-73 0 -133 26.5t-103 73t-66.5 109.5t-23.5 135v17.5t1 21.5h569q-6 48 -27 89t-54.5 71t-76.5 46.5t-92 16.5
q-64 0 -115 -24.5t-81 -69.5h-99zM371 71q46 0 87.5 16t73.5 44.5t53.5 68t28.5 86.5h-476q6 -47 26 -86.5t50.5 -68t70 -44.5t86.5 -16z" />
    <glyph glyph-name="florin" unicode="&#x192;" horiz-adv-x="474" 
d="M197 362l23 162q10 69 56 107t136 38h62l-11 -76h-62q-43 0 -67 -21.5t-29 -57.5l-22 -152h148l-11 -76h-147l-49 -345q-10 -67 -57 -106t-137 -39h-60l11 76h60q43 0 68 22t30 57l47 335h-148l11 76h148z" />
    <glyph glyph-name="uni01B5" unicode="&#x1b5;" horiz-adv-x="638" 
d="M583 577l-174 -203h146v-84h-217l-176 -206h421v-84h-527v86l173 204h-141v84h213l175 206h-421v84h528v-87z" />
    <glyph glyph-name="uni01B6" unicode="&#x1b6;" horiz-adv-x="496" 
d="M45 0v76l109 115h-82v76h154l111 117h-292v76h401v-76l-112 -117h92v-76h-164l-109 -115h298v-76h-406z" />
    <glyph glyph-name="Icaron" unicode="&#x1cf;" horiz-adv-x="260" 
d="M175 0h-90v664h90v-664zM182 725h-101l-146 166h94l102 -114l102 114h95z" />
    <glyph glyph-name="icaron" unicode="&#x1d0;" horiz-adv-x="250" 
d="M168 460v-460h-86v460h86zM-70 719h93l104 -124l104 124h92l-149 -185h-95z" />
    <glyph glyph-name="Aringacute" unicode="&#x1fa;" horiz-adv-x="681" 
d="M205 701q0 28 10.5 52.5t29 43t43 29t52.5 10.5t52.5 -10.5t43 -29t29 -43t10.5 -52.5q0 -33 -15 -61t-39 -47l260 -593h-96l-67 154h-358l-67 -154h-93l260 592q-25 18 -40 46.5t-15 62.5zM339 566l-143 -329h286zM275 701q0 -28 18.5 -46.5t46.5 -18.5t46.5 18.5
t18.5 46.5t-18.5 46.5t-46.5 18.5t-46.5 -18.5t-18.5 -46.5zM496 1024l-108 -141h-94l108 141h94z" />
    <glyph glyph-name="aringacute" unicode="&#x1fb;" horiz-adv-x="554" 
d="M431 982l-108 -141h-94l108 141h94zM136 655q0 28 10.5 52.5t29 43t43 29t52.5 10.5t52.5 -10.5t43 -29t29 -43t10.5 -52.5t-10.5 -52.5t-29 -43t-43 -29t-52.5 -10.5t-52.5 10.5t-43 29t-29 43t-10.5 52.5zM206 655q0 -28 18.5 -46.5t46.5 -18.5t46.5 18.5t18.5 46.5
t-18.5 46.5t-46.5 18.5t-46.5 -18.5t-18.5 -46.5zM264 473q49 0 89.5 -12t69.5 -35t45 -56.5t16 -76.5v-293h-86v50q-27 -29 -66.5 -46t-93.5 -17q-41 0 -75 9.5t-59 28.5t-39 47.5t-14 67.5q0 42 16.5 70.5t44.5 46t64.5 25t76.5 7.5h145q0 57 -38.5 80.5t-95.5 23.5
q-42 0 -78.5 -17t-50.5 -50h-95q10 36 31.5 63t51 46t65.5 28.5t76 9.5zM398 214h-146q-54 0 -84.5 -18t-30.5 -56t30 -55.5t80 -17.5q70 0 110.5 32.5t40.5 84.5v30z" />
    <glyph glyph-name="AEacute" unicode="&#x1fc;" horiz-adv-x="997" 
d="M572 580v-206h353v-84h-353v-206h360v-84h-450v154h-277l-109 -154h-106l473 664h469v-84h-360zM482 237v309l-219 -309h219zM789 891l-142 -166h-94l142 166h94z" />
    <glyph glyph-name="aeacute" unicode="&#x1fd;" horiz-adv-x="907" 
d="M857 236v-18t-2 -20h-371q4 -28 17 -52t33 -41.5t46 -27.5t56 -10q41 0 72.5 15.5t49.5 46.5h93q-24 -67 -81.5 -104.5t-133.5 -37.5q-63 0 -112.5 24.5t-81.5 69.5q-26 -38 -79 -66t-125 -28q-41 0 -75 9.5t-59 28.5t-39 47.5t-14 67.5q0 42 16.5 70.5t44.5 46t64.5 25
t76.5 7.5h146q0 28 -10.5 48t-28.5 32.5t-43 18t-53 5.5q-42 0 -78.5 -17t-50.5 -50h-95q10 36 31.5 63t51 46t65.5 28.5t76 9.5q64 0 112.5 -20t76.5 -58q32 36 77 57t101 21q49 0 90.5 -18.5t71.5 -50.5t47 -75.5t17 -92.5zM399 214h-147q-54 0 -84.5 -18t-30.5 -56
t30 -55.5t80 -17.5q70 0 111 32.5t41 84.5v30zM767 273q-8 54 -43.5 87t-92.5 33q-60 0 -99 -33t-47 -87h282zM629 719l-142 -185h-94l142 185h94z" />
    <glyph glyph-name="Oslashacute" unicode="&#x1fe;" horiz-adv-x="794" 
d="M397 677q57 0 106.5 -16.5t91.5 -45.5l54 62h105l-101 -114q40 -46 62.5 -104.5t22.5 -126.5q0 -74 -26 -137t-72 -109t-108.5 -72.5t-134.5 -26.5q-57 0 -106.5 16t-91.5 45l-54 -61h-105l100 113q-40 46 -62 104.5t-22 127.5q0 73 26 136.5t72 109.5t108.5 72.5
t134.5 26.5zM397 593q-54 0 -99.5 -19.5t-79.5 -54.5t-53 -83t-19 -104q0 -48 14 -90t39 -75l339 384q-62 42 -141 42zM648 332q0 48 -14 89.5t-39 74.5l-339 -383q29 -20 65 -31t76 -11q54 0 99.5 19.5t79.5 54.5t53 83t19 104zM568 891l-142 -166h-94l142 166h94z" />
    <glyph glyph-name="oslashacute" unicode="&#x1ff;" horiz-adv-x="567" 
d="M462 719l-142 -185h-94l142 185h94zM467 391q27 -32 42.5 -72.5t15.5 -88.5q0 -52 -18.5 -96.5t-50.5 -77t-76 -51t-96 -18.5q-35 0 -65.5 8.5t-57.5 23.5l-26 -32h-102l67 82q-27 32 -42 72.5t-15 88.5q0 52 18 96.5t50.5 77t76.5 51t96 18.5q34 0 65 -8.5t57 -23.5
l26 32h102zM284 67q34 0 62.5 13t49 35t32 51.5t11.5 63.5q0 53 -27 94l-198 -241q16 -8 33 -12t37 -4zM129 230q0 -53 26 -94l198 241q-32 16 -69 16q-34 0 -62.5 -12.5t-49 -34.5t-32 -52t-11.5 -64z" />
    <glyph glyph-name="uni0218" unicode="&#x218;" horiz-adv-x="614" 
d="M123 165q23 -43 73.5 -68.5t116.5 -25.5q38 0 69.5 8.5t54.5 23t36 35t13 44.5q0 48 -34.5 72.5t-106.5 32.5l-116 12q-49 5 -84.5 20.5t-58 39t-33 54t-10.5 65.5q0 44 18 80.5t51 63t80.5 41t106.5 14.5q61 0 108.5 -16.5t82 -42t56.5 -57.5t33 -62h-98q-20 42 -70 68
t-115 26q-78 0 -120.5 -33t-42.5 -78q0 -46 32 -70.5t91 -30.5l125 -13q92 -10 143.5 -58.5t51.5 -122.5q0 -37 -16.5 -73t-49.5 -64t-82.5 -45.5t-114.5 -17.5q-66 0 -115 15.5t-83.5 41t-56.5 57.5t-33 64h98zM252 -251l57 95h-56v101h111v-111l-52 -85h-60z" />
    <glyph glyph-name="uni0219" unicode="&#x219;" horiz-adv-x="520" 
d="M391 330q-16 33 -51.5 48t-87.5 15q-50 0 -80.5 -17t-30.5 -46t24.5 -41.5t70.5 -16.5l93 -7q72 -6 111.5 -38.5t39.5 -95.5q0 -30 -14 -56t-40 -45.5t-64 -31t-86 -11.5q-51 0 -91 11.5t-70 32t-49 47t-26 56.5h94q14 -33 53 -50t100 -17q45 0 76 16.5t31 45.5t-24.5 42
t-71.5 17l-96 8q-147 13 -147 131q0 30 14 57t39.5 46.5t62 31t82.5 11.5q51 0 91 -12t68.5 -31.5t46.5 -45.5t26 -54h-94zM204 -251l57 95h-56v101h111v-111l-52 -85h-60z" />
    <glyph glyph-name="uni021A" unicode="&#x21a;" horiz-adv-x="600" 
d="M575 664v-84h-230v-580h-90v580h-230v84h550zM243 -232l57 95h-56v101h111v-111l-52 -85h-60z" />
    <glyph glyph-name="uni021B" unicode="&#x21b;" horiz-adv-x="393" 
d="M201 586v-126h147v-76h-147v-218q0 -45 19.5 -67.5t64.5 -22.5h63v-76h-71q-75 0 -118.5 36.5t-43.5 111.5v236h-85v76h85v126h86zM187 -232l57 95h-56v101h111v-111l-52 -85h-60z" />
    <glyph glyph-name="uni0259" unicode="&#x259;" horiz-adv-x="562" 
d="M276 393q-42 0 -75 -15.5t-51 -46.5h-93q24 67 82.5 104.5t136.5 37.5q51 0 94.5 -18t75 -50.5t49 -77.5t17.5 -98q0 -52 -17.5 -96t-48.5 -76.5t-74.5 -51t-95.5 -18.5q-50 0 -91.5 18.5t-71.5 50.5t-46.5 75t-16.5 93v18t2 20h371q-4 28 -16.5 52t-32 41.5t-44.5 27.5
t-54 10zM276 67q60 0 99 33t47 87h-282q8 -54 43.5 -87t92.5 -33z" />
    <glyph glyph-name="circumflex" unicode="&#x2c6;" horiz-adv-x="513" 
d="M209 719h95l149 -185h-92l-104 124l-104 -124h-93z" />
    <glyph glyph-name="caron" unicode="&#x2c7;" horiz-adv-x="513" 
d="M60 719h93l104 -124l104 124h92l-149 -185h-95z" />
    <glyph glyph-name="uni02C9" unicode="&#x2c9;" horiz-adv-x="471" 
d="M411 639v-74h-351v74h351z" />
    <glyph glyph-name="breve" unicode="&#x2d8;" horiz-adv-x="480" 
d="M240 608q22 0 41 9.5t33 25t22.5 35.5t10.5 41h75q-3 -37 -17.5 -70.5t-38.5 -59t-56 -40.5t-70 -15t-70 15t-56 40.5t-38.5 59t-17.5 70.5h75q2 -21 10.5 -41t22.5 -35.5t32.5 -25t41.5 -9.5z" />
    <glyph glyph-name="dotaccent" unicode="&#x2d9;" horiz-adv-x="216" 
d="M58 669h100v-104h-100v104z" />
    <glyph glyph-name="ring" unicode="&#x2da;" horiz-adv-x="390" 
d="M60 655q0 28 10.5 52.5t29 43t43 29t52.5 10.5t52.5 -10.5t43 -29t29 -43t10.5 -52.5t-10.5 -52.5t-29 -43t-43 -29t-52.5 -10.5t-52.5 10.5t-43 29t-29 43t-10.5 52.5zM130 655q0 -28 18.5 -46.5t46.5 -18.5t46.5 18.5t18.5 46.5t-18.5 46.5t-46.5 18.5t-46.5 -18.5
t-18.5 -46.5z" />
    <glyph glyph-name="ogonek" unicode="&#x2db;" horiz-adv-x="299" 
d="M236 0q-14 -9 -30 -21t-30 -25t-23.5 -26.5t-9.5 -25.5q0 -33 49 -33h44v-73h-48q-125 0 -125 88q0 32 25 61t62 55h86z" />
    <glyph glyph-name="tilde" unicode="&#x2dc;" horiz-adv-x="505" 
d="M330 610q22 0 32.5 21.5t10.5 68.5h72q0 -77 -30.5 -120.5t-85.5 -43.5q-26 0 -47 14t-39.5 31t-35 31t-32.5 14q-43 0 -43 -90h-72q0 76 30.5 120t85.5 44q26 0 47.5 -14t40.5 -31t35 -31t31 -14z" />
    <glyph glyph-name="hungarumlaut" unicode="&#x2dd;" horiz-adv-x="510" 
d="M450 719l-142 -185h-94l142 185h94zM296 719l-142 -185h-94l142 185h94z" />
    <glyph glyph-name="accent" unicode="&#x301;" horiz-adv-x="2" 
d="M-102 719l-142 -185h-94l142 185h94z" />
    <glyph glyph-name="pi" unicode="&#x3c0;" horiz-adv-x="571" 
d="M111 0v384h-86v76h521v-76h-86v-384h-86v384h-177v-384h-86z" />
    <glyph glyph-name="uni0401" unicode="&#x401;" horiz-adv-x="600" 
d="M175 580v-206h353v-84h-353v-206h360v-84h-450v664h450v-84h-360zM354 844h96v-100h-96v100zM171 844h96v-100h-96v100z" />
    <glyph glyph-name="uni0402" unicode="&#x402;" horiz-adv-x="796" 
d="M479 409q60 0 110.5 -13t87.5 -38.5t58 -63.5t21 -89q0 -101 -69 -153t-188 -52h-65v84h55q39 0 71.5 6.5t56 21t36.5 37t13 55.5q0 61 -49.5 91t-137.5 30q-83 0 -174 -17v-308h-90v580h-200v84h520v-84h-230v-190q39 8 82.5 13.5t91.5 5.5z" />
    <glyph glyph-name="uni0403" unicode="&#x403;" horiz-adv-x="566" 
d="M541 664v-84h-366v-580h-90v664h456zM485 891l-142 -166h-94l142 166h94z" />
    <glyph glyph-name="uni0404" unicode="&#x404;" horiz-adv-x="715" 
d="M382.04 593q64.9922 0 112.486 -25.5t78.4902 -68.5h101.987q-39.9951 80 -114.985 129q-74.9912 49 -177.979 49q-71.9912 0 -133.483 -26q-61.4932 -26 -106.487 -72t-70.9912 -109t-25.9971 -138t25.9971 -138t70.9912 -109t106.487 -72q61.4922 -26 133.483 -26
q102.987 0 177.979 49q74.9902 49 114.985 129h-101.987q-30.9961 -43 -78.4902 -68.5t-112.486 -25.5q-47.9941 0 -89.9893 16q-41.9941 16 -74.4902 45t-52.9941 69.5q-20.4971 40.5 -26.4961 88.5h359.955v84h-359.955q4.99902 48 25.9961 88q20.998 40 53.4941 69.5
t74.4902 45.5q41.9951 16 89.9893 16z" />
    <glyph glyph-name="uni0405" unicode="&#x405;" horiz-adv-x="614" 
d="M123 165q23 -43 73.5 -68.5t116.5 -25.5q38 0 69.5 8.5t54.5 23t36 35t13 44.5q0 48 -34.5 72.5t-106.5 32.5l-116 12q-49 5 -84.5 20.5t-58 39t-33 54t-10.5 65.5q0 44 18 80.5t51 63t80.5 41t106.5 14.5q61 0 108.5 -16.5t82 -42t56.5 -57.5t33 -62h-98q-20 42 -70 68
t-115 26q-78 0 -120.5 -33t-42.5 -78q0 -46 32 -70.5t91 -30.5l125 -13q92 -10 143.5 -58.5t51.5 -122.5q0 -37 -16.5 -73t-49.5 -64t-82.5 -45.5t-114.5 -17.5q-66 0 -115 15.5t-83.5 41t-56.5 57.5t-33 64h98z" />
    <glyph glyph-name="uni0406" unicode="&#x406;" horiz-adv-x="260" 
d="M175 0h-90v664h90v-664z" />
    <glyph glyph-name="uni0407" unicode="&#x407;" horiz-adv-x="260" 
d="M175 0h-90v664h90v-664zM175 844h96v-100h-96v100zM-8 844h96v-100h-96v100z" />
    <glyph glyph-name="uni0408" unicode="&#x408;" horiz-adv-x="407" 
d="M327 664v-484q0 -87 -53.5 -133.5t-140.5 -46.5h-128v84h128q50 0 77 23t27 73v484h90z" />
    <glyph glyph-name="uni0409" unicode="&#x409;" horiz-adv-x="1105" 
d="M620 664v-266h218q59 0 102 -16t70.5 -43t41 -63.5t13.5 -76.5q0 -41 -13.5 -77t-41 -63t-70.5 -43t-102 -16h-308v580h-286v-222q0 -63 -4 -126.5t-22.5 -115t-55.5 -84t-103 -32.5h-44v86h28q42 0 64.5 24t33 62.5t12 87t1.5 98.5v306h466zM975 199q0 57 -37 86
t-100 29h-218v-230h218q63 0 100 29t37 86z" />
    <glyph glyph-name="uni040A" unicode="&#x40a;" horiz-adv-x="1138" 
d="M1098 199q0 -41 -13.5 -77t-41 -63t-70.5 -43t-102 -16h-308v290h-388v-290h-90v664h90v-290h388v290h90v-266h218q59 0 102 -16t70.5 -43t41 -63.5t13.5 -76.5zM1008 199q0 57 -37 86t-100 29h-218v-230h218q63 0 100 29t37 86z" />
    <glyph glyph-name="uni040B" unicode="&#x40b;" horiz-adv-x="811" 
d="M666 0v189q0 73 -41 105t-136 32q-38 0 -85.5 -4t-98.5 -15v-307h-90v580h-200v84h520v-84h-230v-190q14 3 37.5 6.5t49.5 6.5t51.5 5t43.5 2q144 0 206.5 -54t62.5 -168v-188h-90z" />
    <glyph glyph-name="uni040C" unicode="&#x40c;" horiz-adv-x="612" 
d="M607 0h-120l-312 287v-287h-90v664h90v-287l312 287h120l-355 -332zM471 891l-142 -166h-94l142 166h94z" />
    <glyph glyph-name="uni040E" unicode="&#x40e;" horiz-adv-x="603" 
d="M116 664l203 -393l194 393h93l-252 -510q-21 -44 -38.5 -73.5t-36.5 -47.5t-43 -25.5t-59 -7.5h-67v84h52q36 0 58 14t40 52l12 25l-250 489h94zM196 882q3 -21 13 -39t25.5 -32t35.5 -22t43 -8q22 0 42.5 8t36 22t25.5 32t13 39h76q-3 -37 -18.5 -69t-41.5 -55.5
t-60 -37t-73 -13.5t-73 13.5t-60 37t-41.5 55.5t-18.5 69h76z" />
    <glyph glyph-name="uni040F" unicode="&#x40f;" horiz-adv-x="717" 
d="M632 664v-664h-229v-147h-90v147h-228v664h90v-580h367v580h90z" />
    <glyph glyph-name="uni0410" unicode="&#x410;" horiz-adv-x="681" 
d="M93 0h-93l292 664h98l291 -664h-96l-67 154h-358zM339 566l-143 -329h286z" />
    <glyph glyph-name="uni0411" unicode="&#x411;" horiz-adv-x="660" 
d="M620 199q0 -41 -13.5 -77t-41 -63t-70.5 -43t-102 -16h-308v664h495v-84h-405v-182h218q59 0 102 -16t70.5 -43t41 -63.5t13.5 -76.5zM530 199q0 57 -37 86t-100 29h-218v-230h218q63 0 100 29t37 86z" />
    <glyph glyph-name="uni0412" unicode="&#x412;" horiz-adv-x="655" 
d="M397 664q37 0 73 -10t65 -32.5t47 -58t18 -86.5t-20.5 -86t-57.5 -59q37 -24 57.5 -59t20.5 -86t-18 -86.5t-47 -58t-65 -32.5t-73 -10h-312v664h312zM510 187q0 51 -31.5 77t-82.5 26h-221v-206h221q51 0 82.5 26t31.5 77zM510 477q0 51 -31.5 77t-82.5 26h-221v-206
h221q51 0 82.5 26t31.5 77z" />
    <glyph glyph-name="uni0413" unicode="&#x413;" horiz-adv-x="566" 
d="M541 664v-84h-366v-580h-90v664h456z" />
    <glyph glyph-name="uni0414" unicode="&#x414;" horiz-adv-x="752" 
d="M627 -147v147h-519v-147h-90v231h65q22 21 37 52t24 68t13 78t4 83v299h466v-580h90v-231h-90zM251 366q0 -34 -2.5 -71.5t-8.5 -74.5t-17.5 -72t-29.5 -64h344v496h-286v-214z" />
    <glyph glyph-name="uni0415" unicode="&#x415;" horiz-adv-x="600" 
d="M175 580v-206h353v-84h-353v-206h360v-84h-450v664h450v-84h-360z" />
    <glyph glyph-name="uni0416" unicode="&#x416;" horiz-adv-x="914" 
d="M336 332l-326 332h117l285 -288v288h90v-288l285 288h117l-326 -332l326 -332h-117l-285 288v-288h-90v288l-285 -288h-117z" />
    <glyph glyph-name="uni0417" unicode="&#x417;" horiz-adv-x="635" 
d="M485 187q0 50 -34 76.5t-91 26.5h-165v84h165q57 0 89.5 29t32.5 74q0 31 -14 53t-37.5 36t-54.5 20.5t-65 6.5q-66 0 -113 -26t-67 -68h-98q10 30 33 62t57.5 57.5t81.5 42t106 16.5q49 0 96 -11.5t83.5 -35.5t59 -62.5t22.5 -92.5q0 -39 -19 -77t-67 -66
q52 -29 70.5 -67t18.5 -78q0 -49 -22.5 -86t-59 -62.5t-84.5 -38.5t-99 -13q-63 0 -110.5 15.5t-81.5 41t-55.5 57.5t-32.5 64h98q23 -43 69.5 -68.5t112.5 -25.5q34 0 65.5 7t56 21t39 36t14.5 52z" />
    <glyph glyph-name="uni0418" unicode="&#x418;" horiz-adv-x="746" 
d="M175 664v-539l385 539h101v-664h-90v539l-385 -539h-101v664h90z" />
    <glyph glyph-name="uni0419" unicode="&#x419;" horiz-adv-x="746" 
d="M175 664v-539l385 539h101v-664h-90v539l-385 -539h-101v664h90zM256 882q3 -21 13 -39t25.5 -32t35.5 -22t43 -8q22 0 42.5 8t36 22t25.5 32t13 39h76q-3 -37 -18.5 -69t-41.5 -55.5t-60 -37t-73 -13.5t-73 13.5t-60 37t-41.5 55.5t-18.5 69h76z" />
    <glyph glyph-name="uni041A" unicode="&#x41a;" horiz-adv-x="612" 
d="M607 0h-120l-312 287v-287h-90v664h90v-287l312 287h120l-355 -332z" />
    <glyph glyph-name="uni041B" unicode="&#x41b;" horiz-adv-x="705" 
d="M620 664v-664h-90v580h-286v-222q0 -63 -4 -126.5t-22.5 -115t-55.5 -84t-103 -32.5h-44v86h28q42 0 64.5 24t33 62.5t12 87t1.5 98.5v306h466z" />
    <glyph glyph-name="uni041C" unicode="&#x41c;" horiz-adv-x="956" 
d="M871 664v-664h-90v516l-252 -516h-102l-252 516v-516h-90v664h114l280 -574l280 574h112z" />
    <glyph glyph-name="uni041D" unicode="&#x41d;" horiz-adv-x="738" 
d="M563 0v290h-388v-290h-90v664h90v-290h388v290h90v-664h-90z" />
    <glyph glyph-name="uni041E" unicode="&#x41e;" horiz-adv-x="772" 
d="M386 677q72 0 134.5 -26.5t108.5 -72.5t72 -109.5t26 -136.5q0 -74 -26 -137t-72 -109t-108.5 -72.5t-134.5 -26.5t-134.5 26.5t-108.5 72.5t-72 109t-26 137q0 73 26 136.5t72 109.5t108.5 72.5t134.5 26.5zM386 593q-54 0 -99.5 -19.5t-79.5 -54.5t-53 -83t-19 -104
t19 -104t53 -83t79.5 -54.5t99.5 -19.5t99.5 19.5t79.5 54.5t53 83t19 104t-19 104t-53 83t-79.5 54.5t-99.5 19.5z" />
    <glyph glyph-name="uni041F" unicode="&#x41f;" horiz-adv-x="727" 
d="M552 0v580h-377v-580h-90v664h557v-664h-90z" />
    <glyph glyph-name="uni0420" unicode="&#x420;" horiz-adv-x="660" 
d="M620 469q0 -47 -15.5 -83.5t-43.5 -61t-67 -37.5t-86 -13h-233v-274h-90v664h323q47 0 86 -13t67 -37.5t43.5 -61t15.5 -83.5zM530 469q0 54 -34 82.5t-88 28.5h-233v-222h233q54 0 88 28.5t34 82.5z" />
    <glyph glyph-name="uni0421" unicode="&#x421;" horiz-adv-x="715" 
d="M386 593q-54 0 -99.5 -19.5t-79.5 -54.5t-53 -83t-19 -104t19 -104t53 -83t79.5 -54.5t99.5 -19.5q63 0 109.5 25.5t77.5 68.5h102q-40 -80 -113.5 -129t-175.5 -49q-72 0 -134.5 26.5t-108.5 72.5t-72 109t-26 137q0 73 26 136.5t72 109.5t108.5 72.5t134.5 26.5
q102 0 175.5 -49t113.5 -129h-102q-31 43 -77.5 68.5t-109.5 25.5z" />
    <glyph glyph-name="uni0422" unicode="&#x422;" horiz-adv-x="600" 
d="M575 664v-84h-230v-580h-90v580h-230v84h550z" />
    <glyph glyph-name="uni0423" unicode="&#x423;" horiz-adv-x="603" 
d="M116 664l203 -393l194 393h93l-252 -510q-21 -44 -38.5 -73.5t-36.5 -47.5t-43 -25.5t-59 -7.5h-67v84h52q36 0 58 14t40 52l12 25l-250 489h94z" />
    <glyph glyph-name="uni0424" unicode="&#x424;" horiz-adv-x="886" 
d="M489 521v-363h65q37 0 72.5 11t63.5 33.5t44.5 56.5t16.5 81q0 46 -16.5 80.5t-44.5 56.5t-63.5 33t-72.5 11h-65zM399 158v363h-66q-38 0 -73.5 -11t-63 -33t-44 -56.5t-16.5 -80.5q0 -47 16.5 -81t44 -56.5t63 -33.5t73.5 -11h66zM399 74h-66q-59 0 -111.5 18t-91.5 52
t-62 83.5t-23 112.5t23 112.5t62 83t91.5 51.5t111.5 18h66v79h90v-79h65q59 0 111.5 -18t91.5 -51.5t61.5 -83t22.5 -112.5t-22.5 -112.5t-61.5 -83.5t-91.5 -52t-111.5 -18h-65v-91h-90v91z" />
    <glyph glyph-name="uni0425" unicode="&#x425;" horiz-adv-x="610" 
d="M305 261l-188 -261h-102l238 332l-238 332h103l187 -260l187 260h103l-239 -332l239 -332h-102z" />
    <glyph glyph-name="uni0426" unicode="&#x426;" horiz-adv-x="757" 
d="M632 664v-580h90v-231h-90v147h-547v664h90v-580h367v580h90z" />
    <glyph glyph-name="uni0427" unicode="&#x427;" horiz-adv-x="681" 
d="M145 664v-189q0 -73 41 -105t136 -32q38 0 85.5 4t98.5 15v307h90v-664h-90v274q-14 -3 -37.5 -6.5t-49.5 -6.5t-51.5 -5t-43.5 -2q-144 0 -206.5 54t-62.5 168v188h90z" />
    <glyph glyph-name="uni0428" unicode="&#x428;" horiz-adv-x="1010" 
d="M85 0v664h90v-580h285v580h90v-580h285v580h90v-664h-840z" />
    <glyph glyph-name="uni0429" unicode="&#x429;" horiz-adv-x="1050" 
d="M835 84v580h90v-580h90v-231h-90v147h-840v664h90v-580h285v580h90v-580h285z" />
    <glyph glyph-name="uni042A" unicode="&#x42a;" horiz-adv-x="761" 
d="M721 199q0 -41 -13.5 -77t-41 -63t-70.5 -43t-102 -16h-308v580h-171v84h261v-266h218q59 0 102 -16t70.5 -43t41 -63.5t13.5 -76.5zM631 199q0 57 -37 86t-100 29h-218v-230h218q63 0 100 29t37 86z" />
    <glyph glyph-name="uni042B" unicode="&#x42b;" horiz-adv-x="868" 
d="M783 0h-90v664h90v-664zM600 199q0 -41 -13.5 -77t-41 -63t-70.5 -43t-102 -16h-288v664h90v-266h198q59 0 102 -16t70.5 -43t41 -63.5t13.5 -76.5zM510 199q0 57 -37 86t-100 29h-198v-230h198q63 0 100 29t37 86z" />
    <glyph glyph-name="uni042C" unicode="&#x42c;" horiz-adv-x="660" 
d="M620 199q0 -41 -13.5 -77t-41 -63t-70.5 -43t-102 -16h-308v664h90v-266h218q59 0 102 -16t70.5 -43t41 -63.5t13.5 -76.5zM530 199q0 57 -37 86t-100 29h-218v-230h218q63 0 100 29t37 86z" />
    <glyph glyph-name="uni042D" unicode="&#x42d;" horiz-adv-x="710" 
d="M328 593q-65 0 -112.5 -25.5t-78.5 -68.5h-102q40 80 115 129t178 49q72 0 133.5 -26t106.5 -72t71 -109t26 -138t-26 -138t-71 -109t-106.5 -72t-133.5 -26q-103 0 -178 49t-115 129h102q31 -43 78.5 -68.5t112.5 -25.5q48 0 90 16t74.5 45t53 69.5t26.5 88.5h-360v84
h360q-5 48 -26 88t-53.5 69.5t-74.5 45.5t-90 16z" />
    <glyph glyph-name="uni042E" unicode="&#x42e;" horiz-adv-x="1029" 
d="M650 677q71 0 132 -26t106 -72.5t70.5 -109.5t25.5 -137t-25.5 -137t-70.5 -109.5t-106 -72.5t-132 -26q-66 0 -123.5 22.5t-101.5 63t-72 96t-35 121.5h-143v-290h-90v664h90v-290h143q7 66 35 121.5t72 96t101.5 63t123.5 22.5zM650 593q-53 0 -97.5 -19.5t-77 -54.5
t-51 -82.5t-18.5 -104.5t18.5 -104.5t51 -82.5t77 -54.5t97.5 -19.5q52 0 97 19.5t77.5 54.5t51 82.5t18.5 104.5t-18.5 104.5t-51 82.5t-77.5 54.5t-97 19.5z" />
    <glyph glyph-name="uni042F" unicode="&#x42f;" horiz-adv-x="666" 
d="M46.0762 469q0 -89 52.9932 -139t137.983 -56l-208.975 -274h111.986l208.975 274h141.982v-274h89.9893v664h-322.961q-46.9941 0 -85.9893 -13t-66.9922 -37.5q-27.9961 -24.5 -43.4941 -61t-15.498 -83.5zM136.064 469q0 54 33.9961 82.5t87.9893 28.5h232.972v-222
h-232.972q-53.9932 0 -87.9893 28.5t-33.9961 82.5z" />
    <glyph glyph-name="uni0430" unicode="&#x430;" horiz-adv-x="554" 
d="M264 473q49 0 89.5 -12t69.5 -35t45 -56.5t16 -76.5v-293h-86v50q-27 -29 -66.5 -46t-93.5 -17q-41 0 -75 9.5t-59 28.5t-39 47.5t-14 67.5q0 42 16.5 70.5t44.5 46t64.5 25t76.5 7.5h145q0 57 -38.5 80.5t-95.5 23.5q-42 0 -78.5 -17t-50.5 -50h-95q10 36 31.5 63t51 46
t65.5 28.5t76 9.5zM398 214h-146q-54 0 -84.5 -18t-30.5 -56t30 -55.5t80 -17.5q70 0 110.5 32.5t40.5 84.5v30z" />
    <glyph glyph-name="uni0431" unicode="&#x431;" horiz-adv-x="590" 
d="M306 457q49 0 92 -18.5t74.5 -50.5t49.5 -75t18 -92t-18.5 -91.5t-50.5 -74t-76 -50t-96 -18.5q-59 0 -104 21t-75 58t-45 88.5t-15 112.5q0 77 9.5 137t33 102.5t62.5 67.5t98 31l95 10q35 4 56 16t26 38h86q-4 -48 -35.5 -84.5t-101.5 -44.5l-119 -12
q-36 -4 -59.5 -18.5t-38 -34.5t-20.5 -44t-8 -46q22 28 61.5 50t100.5 22zM299 67q34 0 62.5 12t49 33t32 49t11.5 60q0 33 -11.5 61.5t-32 50t-49 33.5t-62.5 12q-33 0 -61.5 -12t-48.5 -33.5t-31.5 -50t-11.5 -61.5q0 -32 11.5 -60t31.5 -49t48.5 -33t61.5 -12z" />
    <glyph glyph-name="uni0432" unicode="&#x432;" horiz-adv-x="556" 
d="M442 230q39 -20 51.5 -48.5t12.5 -57.5q0 -51 -36 -87.5t-111 -36.5h-279v460h275q75 0 111 -36t36 -88q0 -29 -11 -56.5t-49 -49.5zM350 76q32 0 51 14.5t19 43.5t-19 43.5t-51 14.5h-184v-116h184zM346 268q32 0 51 14.5t19 43.5t-19 43.5t-51 14.5h-180v-116h180z" />
    <glyph glyph-name="uni0433" unicode="&#x433;" horiz-adv-x="467" 
d="M437 460v-76h-271v-384h-86v460h357z" />
    <glyph glyph-name="uni0434" unicode="&#x434;" horiz-adv-x="618" 
d="M492 -126v126h-386v-126h-86v202h54q16 15 27 36t17.5 46.5t9.5 53.5t3 57v191h372v-384h75v-202h-86zM217 270q0 -24 -1.5 -49.5t-6 -51t-12.5 -49.5t-20 -44h240v308h-200v-114z" />
    <glyph glyph-name="uni0435" unicode="&#x435;" horiz-adv-x="562" 
d="M291 67q41 0 72.5 15.5t49.5 46.5h93q-24 -67 -81.5 -104.5t-133.5 -37.5q-52 0 -96 18t-76.5 50.5t-50.5 77.5t-18 98q0 52 17.5 96t48.5 76.5t74.5 51t95.5 18.5q49 0 90.5 -18.5t71.5 -50.5t47 -75.5t17 -92.5v-18t-2 -20h-371q4 -28 17 -52t33 -41.5t46 -27.5t56 -10
zM286 393q-60 0 -99 -33t-47 -87h282q-8 54 -43.5 87t-92.5 33z" />
    <glyph glyph-name="uni0436" unicode="&#x436;" horiz-adv-x="716" 
d="M401 460v-195l196 195h109l-232 -232l232 -228h-115l-190 186v-186h-86v186l-190 -186h-115l232 228l-232 232h109l196 -195v195h86z" />
    <glyph glyph-name="uni0437" unicode="&#x437;" horiz-adv-x="536" 
d="M478 326q0 -37 -17 -59.5t-43 -36.5q11 -6 22.5 -14.5t20.5 -20.5t14.5 -27.5t5.5 -36.5q0 -30 -15.5 -56.5t-43 -46t-66.5 -30.5t-85 -11q-49 0 -87.5 11.5t-67 32t-46.5 47t-25 56.5h98q14 -33 46.5 -50t89.5 -17q24 0 45 4.5t36.5 13.5t25 22t9.5 29q0 27 -19.5 41.5
t-52.5 14.5h-111v76h109q32 0 51.5 14.5t19.5 41.5q0 32 -33.5 51t-82.5 19q-51 0 -83.5 -15t-48.5 -48h-95q8 28 25 54t45 45.5t66.5 31t89.5 11.5q33 0 69 -8t65.5 -25.5t49 -45.5t19.5 -68z" />
    <glyph glyph-name="uni0438" unicode="&#x438;" horiz-adv-x="601" 
d="M80 0v460h86v-335l269 335h86v-460h-86v335l-269 -335h-86z" />
    <glyph glyph-name="uni0439" unicode="&#x439;" horiz-adv-x="601" 
d="M80 0v460h86v-335l269 335h86v-460h-86v335l-269 -335h-86zM300 602q43 0 71.5 26.5t34.5 65.5h76q-3 -35 -18 -65t-39.5 -52.5t-56.5 -35.5t-68 -13q-37 0 -69 13t-56 35.5t-39 52.5t-18 65h75q6 -39 34.5 -65.5t72.5 -26.5z" />
    <glyph glyph-name="uni043A" unicode="&#x43a;" horiz-adv-x="512" 
d="M166 460v-201l221 201h115l-255 -230l255 -230h-115l-221 189v-189h-86v460h86z" />
    <glyph glyph-name="uni043B" unicode="&#x43b;" horiz-adv-x="573" 
d="M493 460v-460h-86v384h-196v-119q0 -44 -4 -90.5t-20 -85.5t-48.5 -64t-89.5 -25h-29v81h18q32 0 49.5 17.5t26 44.5t10 59.5t1.5 62.5v195h368z" />
    <glyph glyph-name="uni043C" unicode="&#x43c;" horiz-adv-x="717" 
d="M402 0h-87l-149 304v-304h-86v460h98l181 -370l182 370h96v-460h-86v304z" />
    <glyph glyph-name="uni043D" unicode="&#x43d;" horiz-adv-x="601" 
d="M521 460v-460h-86v194h-269v-194h-86v460h86v-190h269v190h86z" />
    <glyph glyph-name="uni043E" unicode="&#x43e;" horiz-adv-x="582" 
d="M291 473q52 0 96 -18.5t76 -51t50.5 -77t18.5 -96.5t-18.5 -96.5t-50.5 -77t-76 -51t-96 -18.5t-96 18.5t-76.5 51t-50.5 77t-18 96.5t18 96.5t50.5 77t76.5 51t96 18.5zM291 67q34 0 62.5 13t49 35t32 51.5t11.5 63.5t-11.5 64t-32 52t-49 34.5t-62.5 12.5t-62.5 -12.5
t-49 -34.5t-32 -52t-11.5 -64t11.5 -63.5t32 -51.5t49 -35t62.5 -13z" />
    <glyph glyph-name="uni043F" unicode="&#x43f;" horiz-adv-x="593" 
d="M513 460v-460h-86v384h-261v-384h-86v460h433z" />
    <glyph glyph-name="uni0440" unicode="&#x440;" horiz-adv-x="604" 
d="M80 -204v664h86v-50q26 29 66 46t89 17q57 0 100.5 -20t73 -54t44.5 -77.5t15 -91.5t-15 -91.5t-44.5 -77.5t-73 -54t-100.5 -20q-49 0 -89 17t-66 46v-254h-86zM163 230q0 -41 13 -71.5t34.5 -51t49.5 -30.5t58 -10q33 0 61 13t47.5 35.5t30.5 52t11 62.5t-11 62.5
t-30.5 52t-47.5 35.5t-61 13q-30 0 -58 -10t-49.5 -30.5t-34.5 -51t-13 -71.5z" />
    <glyph glyph-name="uni0441" unicode="&#x441;" horiz-adv-x="552" 
d="M413 326q-18 31 -50 49t-73 18q-34 0 -62 -12.5t-48.5 -34.5t-32 -52t-11.5 -64t11.5 -64t32 -52t48.5 -34.5t62 -12.5q41 0 73 18t50 49h94q-25 -67 -82.5 -107t-134.5 -40q-51 0 -95 18.5t-76 51t-50.5 77t-18.5 96.5t18.5 96.5t50.5 77t76 51t95 18.5q77 0 134.5 -40
t82.5 -107h-94z" />
    <glyph glyph-name="uni0442" unicode="&#x442;" horiz-adv-x="482" 
d="M20 460h442v-76h-178v-384h-86v384h-178v76z" />
    <glyph glyph-name="uni0443" unicode="&#x443;" horiz-adv-x="523" 
d="M13 460h97l154 -347l155 347h91l-217 -485q-23 -52 -39.5 -86.5t-35 -55t-43.5 -29t-66 -8.5h-44v76h28q20 0 34.5 4t26 14.5t21.5 27.5t22 44l19 44z" />
    <glyph glyph-name="uni0444" unicode="&#x444;" horiz-adv-x="766" 
d="M426 669v-209h46q53 0 98 -17t77.5 -48t50.5 -73t18 -91q0 -52 -16.5 -94.5t-48 -73t-77 -47t-102.5 -16.5h-46v-204h-86v204h-46q-57 0 -102.5 16.5t-77 47t-48 73t-16.5 94.5q0 49 18 91t50.5 73t77.5 48t98 17h46v209h86zM426 384v-308h44q40 0 70.5 12t50 32.5
t29.5 49t10 61.5t-11 61t-31.5 48.5t-50.5 32t-68 11.5h-43zM297 384q-38 0 -68 -11.5t-50.5 -32t-31.5 -48.5t-11 -61t10 -61.5t29.5 -49t49.5 -32.5t71 -12h44v308h-43z" />
    <glyph glyph-name="uni0445" unicode="&#x445;" horiz-adv-x="521" 
d="M312 233l189 -233h-105l-138 169l-139 -169h-99l188 230l-186 230h107l133 -165l134 165h103z" />
    <glyph glyph-name="uni0446" unicode="&#x446;" horiz-adv-x="628" 
d="M502 -126v126h-422v460h86v-384h261v384h86v-384h75v-202h-86z" />
    <glyph glyph-name="uni0447" unicode="&#x447;" horiz-adv-x="561" 
d="M55 460h86v-141q0 -45 26.5 -63.5t91.5 -18.5q29 0 63.5 3.5t72.5 9.5v210h86v-460h-86v170q-10 -2 -27.5 -4.5t-36.5 -4.5t-37.5 -3t-31.5 -1q-207 0 -207 154v149z" />
    <glyph glyph-name="uni0448" unicode="&#x448;" horiz-adv-x="820" 
d="M80 0v460h86v-384h201v384h86v-384h201v384h86v-460h-660z" />
    <glyph glyph-name="uni0449" unicode="&#x449;" horiz-adv-x="855" 
d="M729 -126v126h-649v460h86v-384h201v384h86v-384h201v384h86v-384h75v-202h-86z" />
    <glyph glyph-name="uni044A" unicode="&#x44a;" horiz-adv-x="609" 
d="M406 308q45 0 77.5 -12.5t53.5 -33.5t31.5 -49t10.5 -59t-10.5 -59t-31.5 -49t-53.5 -33.5t-77.5 -12.5h-246v384h-145v76h231v-152h160zM403 76q42 0 66 20t24 58t-24 58t-66 20h-157v-156h157z" />
    <glyph glyph-name="uni044B" unicode="&#x44b;" horiz-adv-x="723" 
d="M643 460v-460h-86v460h86zM306 308q45 0 77.5 -12.5t53.5 -33.5t31.5 -49t10.5 -59t-10.5 -59t-31.5 -49t-53.5 -33.5t-77.5 -12.5h-226v460h86v-152h140zM303 76q42 0 66 20t24 58t-24 58t-66 20h-137v-156h137z" />
    <glyph glyph-name="uni044C" unicode="&#x44c;" horiz-adv-x="529" 
d="M326 308q45 0 77.5 -12.5t53.5 -33.5t31.5 -49t10.5 -59t-10.5 -59t-31.5 -49t-53.5 -33.5t-77.5 -12.5h-246v460h86v-152h160zM323 76q42 0 66 20t24 58t-24 58t-66 20h-157v-156h157z" />
    <glyph glyph-name="uni044D" unicode="&#x44d;" horiz-adv-x="552" 
d="M184 268h228q-10 55 -49.5 90t-97.5 35q-42 0 -74.5 -18t-50.5 -49h-95q25 67 83.5 107t136.5 40q51 0 94 -18t75 -50.5t50 -77t18 -97.5t-18 -97.5t-50 -77t-75 -50.5t-94 -18q-78 0 -136.5 40t-83.5 107h95q18 -31 50.5 -49t74.5 -18q58 0 97.5 35t49.5 90h-228v76z
" />
    <glyph glyph-name="uni044E" unicode="&#x44e;" horiz-adv-x="780" 
d="M261 270q6 44 26 81.5t51 64.5t70.5 42t85.5 15q51 0 94 -18.5t74.5 -51t49.5 -77t18 -96.5t-18 -96.5t-49.5 -77t-74.5 -51t-94 -18.5q-46 0 -86 15.5t-71 43t-51 65.5t-26 83h-94v-194h-86v460h86v-190h95zM494 67q33 0 61 13t47.5 35t30.5 51.5t11 63.5t-11 64
t-30.5 52t-47.5 34.5t-61 12.5t-61 -12.5t-47.5 -34.5t-30.5 -52t-11 -64t11 -63.5t30.5 -51.5t47.5 -35t61 -13z" />
    <glyph glyph-name="uni044F" unicode="&#x44f;" horiz-adv-x="534" 
d="M261 152l-130 -152h-113l137 160q-57 16 -83.5 56t-26.5 90q0 31 10.5 59t31.5 49t53.5 33.5t77.5 12.5h236v-460h-86v152h-107zM221 384q-42 0 -66 -20t-24 -58t24 -58t66 -20h147v156h-147z" />
    <glyph glyph-name="uni0451" unicode="&#x451;" horiz-adv-x="562" 
d="M291 67q41 0 72.5 15.5t49.5 46.5h93q-24 -67 -81.5 -104.5t-133.5 -37.5q-52 0 -96 18t-76.5 50.5t-50.5 77.5t-18 98q0 52 17.5 96t48.5 76.5t74.5 51t95.5 18.5q49 0 90.5 -18.5t71.5 -50.5t47 -75.5t17 -92.5v-18t-2 -20h-371q4 -28 17 -52t33 -41.5t46 -27.5t56 -10
zM286 393q-60 0 -99 -33t-47 -87h282q-8 54 -43.5 87t-92.5 33zM326 664h96v-99h-96v99zM143 664h96v-99h-96v99z" />
    <glyph glyph-name="uni0452" unicode="&#x452;" horiz-adv-x="600" 
d="M530 -56q0 -75 -43.5 -111.5t-118.5 -36.5h-71v76h63q45 0 64.5 22.5t19.5 67.5v302q0 57 -30 93t-93 36q-28 0 -54.5 -10.5t-46.5 -30t-32.5 -48.5t-12.5 -65v-239h-86v526h-79v76h79v67h86v-67h153v-76h-153v-116q23 28 62 45.5t93 17.5q47 0 84.5 -15t63 -42t39 -64
t13.5 -81v-327v0z" />
    <glyph glyph-name="uni0453" unicode="&#x453;" horiz-adv-x="467" 
d="M437 460v-76h-271v-384h-86v460h357zM426 719l-142 -185h-94l142 185h94z" />
    <glyph glyph-name="uni0454" unicode="&#x454;" horiz-adv-x="552" 
d="M368.022 268h-227.972q9.99805 55 49.4932 90t97.4883 35q41.9951 0 74.4912 -18t50.4941 -49h94.9883q-24.9971 67 -83.4902 107t-136.483 40q-50.9932 0 -93.9883 -18t-74.9912 -50.5t-49.9941 -77q-17.9971 -44.5 -17.9971 -97.5t17.9971 -97.5
q17.998 -44.5 49.9941 -77t74.9912 -50.5t93.9883 -18q77.9902 0 136.483 40t83.4902 107h-94.9883q-17.998 -31 -50.4941 -49t-74.4912 -18q-57.9932 0 -97.4883 35t-49.4932 90h227.972v76z" />
    <glyph glyph-name="uni0455" unicode="&#x455;" horiz-adv-x="520" 
d="M391 330q-16 33 -51.5 48t-87.5 15q-50 0 -80.5 -17t-30.5 -46t24.5 -41.5t70.5 -16.5l93 -7q72 -6 111.5 -38.5t39.5 -95.5q0 -30 -14 -56t-40 -45.5t-64 -31t-86 -11.5q-51 0 -91 11.5t-70 32t-49 47t-26 56.5h94q14 -33 53 -50t100 -17q45 0 76 16.5t31 45.5t-24.5 42
t-71.5 17l-96 8q-147 13 -147 131q0 30 14 57t39.5 46.5t62 31t82.5 11.5q51 0 91 -12t68.5 -31.5t46.5 -45.5t26 -54h-94z" />
    <glyph glyph-name="uni0456" unicode="&#x456;" horiz-adv-x="250" 
d="M168 460v-460h-86v460h86zM75 669h100v-104h-100v104z" />
    <glyph glyph-name="uni0457" unicode="&#x457;" horiz-adv-x="250" 
d="M168 460v-460h-86v460h86zM170 664h96v-99h-96v99zM-13 664h96v-99h-96v99z" />
    <glyph glyph-name="uni0458" unicode="&#x458;" horiz-adv-x="268" 
d="M91 669h100v-104h-100v104zM184 460v-516q0 -75 -43.5 -111.5t-118.5 -36.5h-71v76h63q45 0 64.5 22.5t19.5 67.5v498h86z" />
    <glyph glyph-name="uni0459" unicode="&#x459;" horiz-adv-x="856" 
d="M653 308q45 0 77.5 -12.5t53.5 -33.5t31.5 -49t10.5 -59t-10.5 -59t-31.5 -49t-53.5 -33.5t-77.5 -12.5h-246v384h-196v-119q0 -44 -4 -90.5t-20 -85.5t-48.5 -64t-89.5 -25h-29v81h18q32 0 49.5 17.5t26 44.5t10 59.5t1.5 62.5v195h368v-152h160zM650 76q42 0 66 20
t24 58t-24 58t-66 20h-157v-156h157z" />
    <glyph glyph-name="uni045A" unicode="&#x45a;" horiz-adv-x="884" 
d="M521 460v-152h160q45 0 77.5 -12.5t53.5 -33.5t31.5 -49t10.5 -59t-10.5 -59t-31.5 -49t-53.5 -33.5t-77.5 -12.5h-246v194h-269v-194h-86v460h86v-190h269v190h86zM678 76q42 0 66 20t24 58t-24 58t-66 20h-157v-156h157z" />
    <glyph glyph-name="uni045B" unicode="&#x45b;" horiz-adv-x="600" 
d="M330 473q47 0 84.5 -15t63 -42t39 -64t13.5 -81v-271h-86v264q0 57 -30 93t-93 36q-28 0 -54.5 -10.5t-46.5 -30t-32.5 -48.5t-12.5 -65v-239h-86v526h-79v76h79v67h86v-67h153v-76h-153v-116q23 28 62 45.5t93 17.5z" />
    <glyph glyph-name="uni045C" unicode="&#x45c;" horiz-adv-x="512" 
d="M166 460v-201l221 201h115l-255 -230l255 -230h-115l-221 189v-189h-86v460h86zM447 719l-142 -185h-94l142 185h94z" />
    <glyph glyph-name="uni045E" unicode="&#x45e;" horiz-adv-x="523" 
d="M13 460h97l154 -347l155 347h91l-217 -485q-23 -52 -39.5 -86.5t-35 -55t-43.5 -29t-66 -8.5h-44v76h28q20 0 34.5 4t26 14.5t21.5 27.5t22 44l19 44zM260 602q43 0 71.5 26.5t34.5 65.5h76q-3 -35 -18 -65t-39.5 -52.5t-56.5 -35.5t-68 -13q-37 0 -69 13t-56 35.5
t-39 52.5t-18 65h75q6 -39 34.5 -65.5t72.5 -26.5z" />
    <glyph glyph-name="uni045F" unicode="&#x45f;" horiz-adv-x="593" 
d="M254 -126v126h-174v460h86v-384h261v384h86v-460h-173v-126h-86z" />
    <glyph glyph-name="uni0490" unicode="&#x490;" horiz-adv-x="566" 
d="M451 664v139h90v-223h-366v-580h-90v664h366z" />
    <glyph glyph-name="uni0491" unicode="&#x491;" horiz-adv-x="467" 
d="M437 576v-192h-271v-384h-86v460h271v116h86z" />
    <glyph glyph-name="uni0492" unicode="&#x492;" horiz-adv-x="602" 
d="M441 290h-230v-290h-90v290h-101v84h101v290h456v-84h-366v-206h230v-84z" />
    <glyph glyph-name="uni0493" unicode="&#x493;" horiz-adv-x="486" 
d="M99 252v208h357v-76h-271v-132h175v-76h-175v-176h-86v176h-79v76h79z" />
    <glyph glyph-name="uni049A" unicode="&#x49a;" horiz-adv-x="630" 
d="M517 84h90v-231h-90v147h-30l-312 287v-287h-90v664h90v-287l312 287h120l-355 -332z" />
    <glyph glyph-name="uni049B" unicode="&#x49b;" horiz-adv-x="532" 
d="M416 -126v126h-29l-221 189v-189h-86v460h86v-201l221 201h115l-255 -230l170 -154h85v-202h-86z" />
    <glyph glyph-name="uni04A2" unicode="&#x4a2;" horiz-adv-x="778" 
d="M653 664v-580h90v-231h-90v147h-90v290h-388v-290h-90v664h90v-290h388v290h90z" />
    <glyph glyph-name="uni04A3" unicode="&#x4a3;" horiz-adv-x="636" 
d="M510 -126v126h-75v194h-269v-194h-86v460h86v-190h269v190h86v-384h75v-202h-86z" />
    <glyph glyph-name="uni04AE" unicode="&#x4ae;" horiz-adv-x="590" 
d="M494 664h96l-250 -417v-247h-90v247l-250 417h99l197 -333z" />
    <glyph glyph-name="uni04AF" unicode="&#x4af;" horiz-adv-x="517" 
d="M302 2v-206h-86v204l-206 460h97l154 -347l155 347h91z" />
    <glyph glyph-name="uni04B0" unicode="&#x4b0;" horiz-adv-x="590" 
d="M494 664h96l-218 -363h144v-84h-176v-217h-90v217h-173v84h140l-217 363h99l197 -333z" />
    <glyph glyph-name="uni04B1" unicode="&#x4b1;" horiz-adv-x="517" 
d="M325 54h140v-76h-163v-182h-86v182h-163v76h139l-182 406h97l154 -347l155 347h91z" />
    <glyph glyph-name="uni04BA" unicode="&#x4ba;" horiz-adv-x="681" 
d="M536.018 0.0810547v188.977q0 72.9912 -40.9951 104.987t-135.983 31.9961q-37.9951 0 -85.4893 -3.99902q-47.4941 -4 -98.4883 -14.998v-306.963h-89.9893v663.919h89.9893v-273.967q13.999 3 37.4961 6.49902q23.4971 3.5 49.4932 6.5
q25.9971 2.99902 51.4941 4.99902t43.4941 2q143.982 0 206.476 -53.9941q62.4922 -53.9932 62.4922 -167.979v-187.978h-89.9893z" />
    <glyph glyph-name="uni04BB" unicode="&#x4bb;" horiz-adv-x="591" 
d="M321 473q47 0 84.5 -15t63 -42t39 -64t13.5 -81v-271h-86v264q0 57 -30 93t-93 36q-28 0 -54.5 -10.5t-46.5 -30t-32.5 -48.5t-12.5 -65v-239h-86v669h86v-259q23 28 62 45.5t93 17.5z" />
    <glyph glyph-name="uni04D8" unicode="&#x4d8;" horiz-adv-x="752" 
d="M70 499q18 41 47.5 74t67.5 56t83.5 35.5t96.5 12.5q76 0 139 -27t108 -73.5t70 -109.5t25 -135q0 -73 -25.5 -136t-70.5 -109.5t-106.5 -73t-133.5 -26.5q-73 0 -133 26.5t-103 73t-66.5 109.5t-23.5 135v17.5t1 21.5h569q-6 48 -27 89t-54.5 71t-76.5 46.5t-92 16.5
q-64 0 -115 -24.5t-81 -69.5h-99zM371 71q46 0 87.5 16t73.5 44.5t53.5 68t28.5 86.5h-476q6 -47 26 -86.5t50.5 -68t70 -44.5t86.5 -16z" />
    <glyph glyph-name="uni04D9" unicode="&#x4d9;" horiz-adv-x="562" 
d="M276 393q-42 0 -75 -15.5t-51 -46.5h-93q24 67 82.5 104.5t136.5 37.5q51 0 94.5 -18t75 -50.5t49 -77.5t17.5 -98q0 -52 -17.5 -96t-48.5 -76.5t-74.5 -51t-95.5 -18.5q-50 0 -91.5 18.5t-71.5 50.5t-46.5 75t-16.5 93v18t2 20h371q-4 28 -16.5 52t-32 41.5t-44.5 27.5
t-54 10zM276 67q60 0 99 33t47 87h-282q8 -54 43.5 -87t92.5 -33z" />
    <glyph glyph-name="uni04E8" unicode="&#x4e8;" horiz-adv-x="772" 
d="M386 677q72 0 134.5 -26t108.5 -72t72 -109t26 -138t-26 -138t-72 -109t-108.5 -72t-134.5 -26t-134.5 26t-108.5 72t-72 109t-26 138t26 138t72 109t108.5 72t134.5 26zM386 593q-49 0 -91.5 -16t-75.5 -45t-54 -69t-27 -89h496q-6 49 -27 89t-54 69t-76 45t-91 16z
M386 71q48 0 91 16t76 44.5t54 69t27 89.5h-496q6 -49 27 -89.5t54 -69t75.5 -44.5t91.5 -16z" />
    <glyph glyph-name="uni04E9" unicode="&#x4e9;" horiz-adv-x="582" 
d="M291 473q52 0 96 -18t76 -50.5t50.5 -77t18.5 -97.5t-18.5 -97.5t-50.5 -77t-76 -50.5t-96 -18t-96 18t-76.5 50.5t-50.5 77t-18 97.5t18 97.5t50.5 77t76.5 50.5t96 18zM291 67q60 0 101 35t50 92h-303q10 -57 51 -92t101 -35zM291 393q-59 0 -99.5 -33.5t-51.5 -89.5
h302q-11 56 -51.5 89.5t-99.5 33.5z" />
    <glyph glyph-name="uni1E02" unicode="&#x1e02;" horiz-adv-x="655" 
d="M397 664q37 0 73 -10t65 -32.5t47 -58t18 -86.5t-20.5 -86t-57.5 -59q37 -24 57.5 -59t20.5 -86t-18 -86.5t-47 -58t-65 -32.5t-73 -10h-312v664h312zM510 187q0 51 -31.5 77t-82.5 26h-221v-206h221q51 0 82.5 26t31.5 77zM510 477q0 51 -31.5 77t-82.5 26h-221v-206
h221q51 0 82.5 26t31.5 77zM278 854h96v-100h-96v100z" />
    <glyph glyph-name="uni1E03" unicode="&#x1e03;" horiz-adv-x="604" 
d="M166 669v-259q26 29 66 46t89 17q57 0 100.5 -20t73 -54t44.5 -77.5t15 -91.5t-15 -91.5t-44.5 -77.5t-73 -54t-100.5 -20q-49 0 -89 17t-66 46v-50h-86v669h86zM163 230q0 -41 13 -71.5t34.5 -51t49.5 -30.5t58 -10q33 0 61 13t47.5 35.5t30.5 52t11 62.5t-11 62.5
t-30.5 52t-47.5 35.5t-61 13q-30 0 -58 -10t-49.5 -30.5t-34.5 -51t-13 -71.5zM274 854h96v-100h-96v100z" />
    <glyph glyph-name="uni1E0A" unicode="&#x1e0a;" horiz-adv-x="717" 
d="M308 664q87 0 154.5 -26.5t114 -71.5t71 -105.5t24.5 -128.5t-24.5 -128.5t-71 -105.5t-114 -71.5t-154.5 -26.5h-223v664h223zM582 332q0 55 -18.5 100.5t-53 78.5t-84 51t-112.5 18h-139v-496h139q63 0 112.5 18t84 51t53 78.5t18.5 100.5zM301 854h96v-100h-96v100z
" />
    <glyph glyph-name="uni1E0B" unicode="&#x1e0b;" horiz-adv-x="604" 
d="M524 669v-669h-86v50q-26 -29 -66 -46t-89 -17q-57 0 -100.5 20t-73 54t-44.5 77.5t-15 91.5t15 91.5t44.5 77.5t73 54t100.5 20q49 0 89 -17t66 -46v259h86zM441 230q0 41 -13 71.5t-34.5 51t-49.5 30.5t-58 10q-33 0 -61 -13t-47.5 -35.5t-30.5 -52t-11 -62.5t11 -62.5
t30.5 -52t47.5 -35.5t61 -13q30 0 58 10t49.5 30.5t34.5 51t13 71.5zM245 854h96v-100h-96v100z" />
    <glyph glyph-name="uni1E1E" unicode="&#x1e1e;" horiz-adv-x="580" 
d="M175 580v-206h353v-84h-353v-290h-90v664h450v-84h-360zM269 854h96v-100h-96v100z" />
    <glyph glyph-name="uni1E1F" unicode="&#x1e1f;" horiz-adv-x="353" 
d="M100 0v384h-85v76h85v61q0 75 43.5 111.5t118.5 36.5h71v-76h-63q-45 0 -64.5 -22.5t-19.5 -67.5v-43h147v-76h-147v-384h-86zM148 854h96v-100h-96v100z" />
    <glyph glyph-name="uni1E40" unicode="&#x1e40;" horiz-adv-x="956" 
d="M871 664v-664h-90v516l-252 -516h-102l-252 516v-516h-90v664h114l280 -574l280 574h112zM431 854h96v-100h-96v100z" />
    <glyph glyph-name="uni1E41" unicode="&#x1e41;" horiz-adv-x="931" 
d="M775 268q0 56 -29.5 90.5t-90.5 34.5q-27 0 -52.5 -10t-45.5 -29.5t-32 -48t-12 -64.5v-241h-86v268q0 56 -29.5 90.5t-90.5 34.5q-27 0 -52.5 -10t-45 -29t-31.5 -47t-12 -63v-244h-86v460h86v-50q22 26 59 44.5t89 18.5q60 0 103 -23.5t68 -62.5q29 38 73 62t104 24
q47 0 84 -15t62.5 -41t39 -63t13.5 -80v-274h-86v268zM415 669h100v-104h-100v104z" />
    <glyph glyph-name="uni1E56" unicode="&#x1e56;" horiz-adv-x="660" 
d="M620 469q0 -47 -15.5 -83.5t-43.5 -61t-67 -37.5t-86 -13h-233v-274h-90v664h323q47 0 86 -13t67 -37.5t43.5 -61t15.5 -83.5zM530 469q0 54 -34 82.5t-88 28.5h-233v-222h233q54 0 88 28.5t34 82.5zM284 854h96v-100h-96v100z" />
    <glyph glyph-name="uni1E57" unicode="&#x1e57;" horiz-adv-x="604" 
d="M80 -204v664h86v-50q26 29 66 46t89 17q57 0 100.5 -20t73 -54t44.5 -77.5t15 -91.5t-15 -91.5t-44.5 -77.5t-73 -54t-100.5 -20q-49 0 -89 17t-66 46v-254h-86zM163 230q0 -41 13 -71.5t34.5 -51t49.5 -30.5t58 -10q33 0 61 13t47.5 35.5t30.5 52t11 62.5t-11 62.5
t-30.5 52t-47.5 35.5t-61 13q-30 0 -58 -10t-49.5 -30.5t-34.5 -51t-13 -71.5zM262 669h100v-104h-100v104z" />
    <glyph glyph-name="uni1E60" unicode="&#x1e60;" horiz-adv-x="614" 
d="M123 165q23 -43 73.5 -68.5t116.5 -25.5q38 0 69.5 8.5t54.5 23t36 35t13 44.5q0 48 -34.5 72.5t-106.5 32.5l-116 12q-49 5 -84.5 20.5t-58 39t-33 54t-10.5 65.5q0 44 18 80.5t51 63t80.5 41t106.5 14.5q61 0 108.5 -16.5t82 -42t56.5 -57.5t33 -62h-98q-20 42 -70 68
t-115 26q-78 0 -120.5 -33t-42.5 -78q0 -46 32 -70.5t91 -30.5l125 -13q92 -10 143.5 -58.5t51.5 -122.5q0 -37 -16.5 -73t-49.5 -64t-82.5 -45.5t-114.5 -17.5q-66 0 -115 15.5t-83.5 41t-56.5 57.5t-33 64h98zM259 854h96v-100h-96v100z" />
    <glyph glyph-name="uni1E61" unicode="&#x1e61;" horiz-adv-x="520" 
d="M391 330q-16 33 -51.5 48t-87.5 15q-50 0 -80.5 -17t-30.5 -46t24.5 -41.5t70.5 -16.5l93 -7q72 -6 111.5 -38.5t39.5 -95.5q0 -30 -14 -56t-40 -45.5t-64 -31t-86 -11.5q-51 0 -91 11.5t-70 32t-49 47t-26 56.5h94q14 -33 53 -50t100 -17q45 0 76 16.5t31 45.5t-24.5 42
t-71.5 17l-96 8q-147 13 -147 131q0 30 14 57t39.5 46.5t62 31t82.5 11.5q51 0 91 -12t68.5 -31.5t46.5 -45.5t26 -54h-94zM215 669h100v-104h-100v104z" />
    <glyph glyph-name="uni1E6A" unicode="&#x1e6a;" horiz-adv-x="600" 
d="M575 664v-84h-230v-580h-90v580h-230v84h550zM252 854h96v-100h-96v100z" />
    <glyph glyph-name="uni1E6B" unicode="&#x1e6b;" horiz-adv-x="393" 
d="M201 586v-126h147v-76h-147v-218q0 -45 19.5 -67.5t64.5 -22.5h63v-76h-71q-75 0 -118.5 36.5t-43.5 111.5v236h-85v76h85v126h86zM108 788h100v-104h-100v104z" />
    <glyph glyph-name="Wgrave" unicode="&#x1e80;" horiz-adv-x="1058" 
d="M107 664l186 -548l183 548h105l187 -547l184 547h96l-226 -664h-105l-189 558l-185 -558h-105l-228 664h97zM429 891l142 -166h-94l-142 166h94z" />
    <glyph glyph-name="wgrave" unicode="&#x1e81;" horiz-adv-x="835" 
d="M112 460l131 -350l131 350h92l130 -350l132 350h87l-172 -460h-94l-132 350l-132 -350h-93l-172 460h92zM320 719l142 -185h-94l-142 185h94z" />
    <glyph glyph-name="Wacute" unicode="&#x1e82;" horiz-adv-x="1058" 
d="M107 664l186 -548l183 548h105l187 -547l184 547h96l-226 -664h-105l-189 558l-185 -558h-105l-228 664h97zM721 891l-142 -166h-94l142 166h94z" />
    <glyph glyph-name="wacute" unicode="&#x1e83;" horiz-adv-x="835" 
d="M112 460l131 -350l131 350h92l130 -350l132 350h87l-172 -460h-94l-132 350l-132 -350h-93l-172 460h92zM605 719l-142 -185h-94l142 185h94z" />
    <glyph glyph-name="Wdieresis" unicode="&#x1e84;" horiz-adv-x="1058" 
d="M107 664l186 -548l183 548h105l187 -547l184 547h96l-226 -664h-105l-189 558l-185 -558h-105l-228 664h97zM573 844h96v-100h-96v100zM390 844h96v-100h-96v100z" />
    <glyph glyph-name="wdieresis" unicode="&#x1e85;" horiz-adv-x="835" 
d="M112 460l131 -350l131 350h92l130 -350l132 350h87l-172 -460h-94l-132 350l-132 -350h-93l-172 460h92zM461 664h96v-99h-96v99zM278 664h96v-99h-96v99z" />
    <glyph glyph-name="uni1E9E" unicode="&#x1e9e;" horiz-adv-x="677" 
d="M85 0v484q0 87 53.5 133.5t140.5 46.5h322v-84l-186 -199q55 -2 94 -18t64 -42t37 -59.5t12 -70.5q0 -39 -13 -73.5t-40 -61t-68.5 -41.5t-97.5 -15h-140v84h137q60 0 96 26.5t36 80.5q0 53 -36 79.5t-96 26.5h-90v84l183 199h-214q-50 0 -77 -23t-27 -73v-484h-90z" />
    <glyph glyph-name="Ygrave" unicode="&#x1ef2;" horiz-adv-x="590" 
d="M494 664h96l-250 -417v-247h-90v247l-250 417h99l197 -333zM206 891l142 -166h-94l-142 166h94z" />
    <glyph glyph-name="ygrave" unicode="&#x1ef3;" horiz-adv-x="523" 
d="M13 460h97l154 -347l155 347h91l-217 -485q-23 -52 -39.5 -86.5t-35 -55t-43.5 -29t-66 -8.5h-44v76h28q20 0 34.5 4t26 14.5t21.5 27.5t22 44l19 44zM172 719l142 -185h-94l-142 185h94z" />
    <glyph glyph-name="uni2011" unicode="&#x2011;" horiz-adv-x="400" 
d="M330 296v-81h-260v81h260z" />
    <glyph glyph-name="endash" unicode="&#x2013;" horiz-adv-x="592" 
d="M547 296v-81h-502v81h502z" />
    <glyph glyph-name="emdash" unicode="&#x2014;" horiz-adv-x="908" 
d="M863 296v-81h-818v81h818z" />
    <glyph glyph-name="quoteleft" unicode="&#x2018;" horiz-adv-x="231" 
d="M188.005 663.985l-69.9912 -116.985h52.9941v-110.986h-110.987v120.985l64.9922 106.986h62.9922z" />
    <glyph glyph-name="quoteright" unicode="&#x2019;" horiz-adv-x="231" 
d="M43 436l70 117h-53v111h111v-121l-65 -107h-63z" />
    <glyph glyph-name="quotesinglbase" unicode="&#x201a;" horiz-adv-x="231" 
d="M43 -117l70 117h-53v111h111v-121l-65 -107h-63z" />
    <glyph glyph-name="quotedblleft" unicode="&#x201c;" horiz-adv-x="419" 
d="M376.005 663.985l-69.9912 -116.985h52.9941v-110.986h-110.987v120.985l64.9922 106.986h62.9922zM188.005 663.985l-69.9912 -116.985h52.9941v-110.986h-110.987v120.985l64.9922 106.986h62.9922z" />
    <glyph glyph-name="quotedblright" unicode="&#x201d;" horiz-adv-x="419" 
d="M231 436l70 117h-53v111h111v-121l-65 -107h-63zM43 436l70 117h-53v111h111v-121l-65 -107h-63z" />
    <glyph glyph-name="quotedblbase" unicode="&#x201e;" horiz-adv-x="419" 
d="M231 -117l70 117h-53v111h111v-121l-65 -107h-63zM43 -117l70 117h-53v111h111v-121l-65 -107h-63z" />
    <glyph glyph-name="dagger" unicode="&#x2020;" horiz-adv-x="486" 
d="M200 460v204h86v-204h150v-82h-150v-534h-86v534h-150v82h150z" />
    <glyph glyph-name="daggerdbl" unicode="&#x2021;" horiz-adv-x="486" 
d="M50 48v82h150v248h-150v82h150v204h86v-204h150v-82h-150v-248h150v-82h-150v-204h-86v204h-150z" />
    <glyph glyph-name="bullet" unicode="&#x2022;" horiz-adv-x="560" 
d="M80 255q0 41 16 77.5t43 63.5t63.5 43t77.5 16t77.5 -16t63.5 -43t43 -63.5t16 -77.5t-16 -77.5t-43 -63.5t-63.5 -43t-77.5 -16t-77.5 16t-63.5 43t-43 63.5t-16 77.5z" />
    <glyph glyph-name="ellipsis" unicode="&#x2026;" horiz-adv-x="675" 
d="M60 111h111v-111h-111v111zM282 111h111v-111h-111v111zM504 111h111v-111h-111v111z" />
    <glyph glyph-name="perthousand" unicode="&#x2030;" horiz-adv-x="1244" 
d="M1024 325q36 0 67.5 -13t54 -35.5t35.5 -53t13 -64.5t-13 -64.5t-35.5 -53t-54 -35.5t-67.5 -13t-67.5 13t-54 35.5t-35.5 53t-13 64.5t13 64.5t35.5 53t54 35.5t67.5 13zM1024 68q39 0 64 27t25 64t-25 64.5t-64 27.5t-64 -27.5t-25 -64.5t25 -64t64 -27zM201 0l389 664
h87l-389 -664h-87zM220 671q36 0 67.5 -13t54 -35.5t35.5 -53t13 -64.5t-13 -64.5t-35.5 -53t-54 -35.5t-67.5 -13t-67.5 13t-54 35.5t-35.5 53t-13 64.5t13 64.5t35.5 53t54 35.5t67.5 13zM220 414q39 0 64 27t25 64t-25 64.5t-64 27.5t-64 -27.5t-25 -64.5t25 -64t64 -27z
M656 325q36 0 67.5 -13t54 -35.5t35.5 -53t13 -64.5t-13 -64.5t-35.5 -53t-54 -35.5t-67.5 -13t-67.5 13t-54 35.5t-35.5 53t-13 64.5t13 64.5t35.5 53t54 35.5t67.5 13zM656 68q39 0 64 27t25 64t-25 64.5t-64 27.5t-64 -27.5t-25 -64.5t25 -64t64 -27z" />
    <glyph glyph-name="guilsinglleft" unicode="&#x2039;" horiz-adv-x="324" 
d="M294 424l-170 -189l170 -189h-112l-132 146v86l132 146h112z" />
    <glyph glyph-name="guilsinglright" unicode="&#x203a;" horiz-adv-x="324" 
d="M142 424l132 -146v-86l-132 -146h-112l170 189l-170 189h112z" />
    <glyph glyph-name="fraction" unicode="&#x2044;" horiz-adv-x="135" 
d="M220 664h80l-386 -664h-79z" />
    <glyph glyph-name="Euro" unicode="&#x20ac;" horiz-adv-x="649" 
d="M422 368h-243q-1 -6 -1.5 -15.5t-0.5 -20.5t0.5 -19.5t1.5 -13.5h227l-23 -76h-191q19 -71 66.5 -111.5t116.5 -40.5q57 0 93 25.5t59 68.5h92q-31 -81 -92.5 -129.5t-151.5 -48.5q-50 0 -94.5 17t-80.5 47.5t-61.5 74t-37.5 97.5h-81v76h69q-1 6 -1.5 14t-0.5 19t0.5 20
t1.5 16h-69v76h81q13 53 38.5 96t61 73.5t80 47t94.5 16.5q90 0 151.5 -48.5t92.5 -129.5h-92q-23 43 -59 68.5t-93 25.5q-69 0 -116.5 -40t-65.5 -109h252z" />
    <glyph glyph-name="uni20B4" unicode="&#x20b4;" horiz-adv-x="653" 
d="M613 444v-76h-588v76h435q10 11 14 24t4 27q0 41 -35.5 69.5t-101.5 28.5q-59 0 -100.5 -26t-59.5 -68h-94q9 30 29 62t51 57.5t73.5 42t98.5 16.5q51 0 93.5 -13.5t72.5 -37.5t46.5 -57.5t16.5 -73.5q0 -15 -3 -29t-8 -22h56zM188 223q-8 -18 -8 -44q0 -49 40 -78.5
t106 -29.5q60 0 103 25.5t64 68.5h92q-10 -32 -29.5 -64t-50.5 -57.5t-75 -41t-104 -15.5q-59 0 -103 17t-73.5 44.5t-44.5 63t-15 72.5q0 10 1 20.5t4 18.5h-70v76h588v-76h-425z" />
    <glyph glyph-name="uni20B8" unicode="&#x20b8;" horiz-adv-x="540" 
d="M515 511v-84h-200v-427h-90v427h-200v84h490zM25 580v84h490v-84h-490z" />
    <glyph glyph-name="uni20BD" unicode="&#x20bd;" horiz-adv-x="636" 
d="M30 274v84h91v306h263q47 0 86 -13t67 -37.5t43.5 -61t15.5 -83.5t-15.5 -83.5t-43.5 -61t-67 -37.5t-86 -13h-173v-69h256v-84h-256v-121h-90v121h-91v84h91v69h-91zM506 469q0 54 -34 82.5t-88 28.5h-173v-222h173q54 0 88 28.5t34 82.5z" />
    <glyph glyph-name="uni2113" unicode="&#x2113;" horiz-adv-x="408" 
d="M156 166q0 -45 19.5 -67.5t64.5 -22.5h63v-76h-71q-75 0 -118.5 36.5t-43.5 111.5v372q0 77 40.5 117t107.5 40q31 0 57 -11.5t44.5 -31.5t28.5 -48.5t10 -61.5q0 -40 -17 -85t-45.5 -89t-64.5 -85t-75 -72v-27zM156 300q52 57 84 116.5t32 107.5q0 34 -15 53.5t-39 19.5
q-29 0 -45.5 -19.5t-16.5 -57.5v-220z" />
    <glyph glyph-name="uni2116" unicode="&#x2116;" horiz-adv-x="1155" 
d="M1101 275v-75h-332v75h332zM681 664v-664h-101l-405 536v-536h-90v664h101l405 -536v536h90zM935 671q36 0 67.5 -13t54 -35.5t35.5 -53t13 -64.5t-13 -64.5t-35.5 -53t-54 -35.5t-67.5 -13t-67.5 13t-54 35.5t-35.5 53t-13 64.5t13 64.5t35.5 53t54 35.5t67.5 13z
M935 414q39 0 64 27t25 64t-25 64.5t-64 27.5t-64 -27.5t-25 -64.5t25 -64t64 -27z" />
    <glyph glyph-name="trademark" unicode="&#x2122;" horiz-adv-x="898" 
d="M337 664v-66h-119v-298h-68v298h-120v66h307zM653 300h-71l-113 241v-241h-68v364h78l139 -295l139 295h77v-364h-68v241z" />
    <glyph glyph-name="Omega" unicode="&#x2126;" horiz-adv-x="778" 
d="M389 677q69 0 130 -25.5t106 -69.5t71.5 -105t26.5 -131q0 -53 -11 -96t-26.5 -76t-32 -56.5t-27.5 -37.5h97v-80h-237v65q42 27 75 67q14 17 28 39t24.5 48.5t17 58t6.5 68.5q0 51 -19 96.5t-52.5 79.5t-79 54t-97.5 20t-97.5 -20t-79 -54t-52.5 -79.5t-19 -96.5
q0 -75 23 -127t52 -87q33 -40 76 -67v-65h-237v80h97q-11 14 -27.5 37.5t-32 56.5t-26.5 76t-11 96q0 70 26.5 131t71.5 105t106 69.5t130 25.5z" />
    <glyph glyph-name="estimated" unicode="&#x212e;" horiz-adv-x="752" 
d="M682.009 165.061q-17.998 -40.9941 -47.4941 -73.9902q-29.4971 -32.9961 -67.4922 -55.9932t-83.4893 -35.4961q-45.4951 -12.498 -96.4883 -12.498q-75.9912 0 -138.983 26.9961q-62.9922 26.9971 -107.987 73.4912q-44.9941 46.4941 -69.9912 109.486
t-24.9971 134.984q0 72.9902 25.4971 135.982q25.4971 62.9932 70.4912 109.487q44.9951 46.4941 106.487 72.9912q61.4922 26.4961 133.483 26.4961q72.9912 0 132.984 -26.4961q59.9922 -26.4971 102.987 -72.9912t66.4922 -109.487q23.4971 -62.9922 23.4971 -134.983
v-17.4971q0 -9.49902 -1 -21.498h-568.931q5.99902 -47.9941 26.9971 -88.9893q20.9971 -40.9951 54.4932 -70.9912q33.4951 -29.9961 76.4902 -46.4941t91.9893 -16.498q63.9922 0 114.985 24.4971q50.9941 24.4971 80.9902 69.4912h98.9883zM381.045 593.009
q-45.9941 0 -87.4893 -15.998t-73.4912 -44.4951q-31.9961 -28.4961 -53.4932 -67.9912t-28.4961 -86.4893h475.941q-5.99902 46.9941 -25.9971 86.4893q-19.9971 39.4951 -50.4932 67.9912q-30.4961 28.4971 -69.9912 44.4951q-39.4961 15.998 -86.4902 15.998z" />
    <glyph glyph-name="arrowleft" unicode="&#x2190;" horiz-adv-x="989" 
d="M934 373v-81h-741l187 -187h-118l-227 227l227 227h118l-185 -186h739z" />
    <glyph glyph-name="arrowup" unicode="&#x2191;" horiz-adv-x="544" 
d="M312 -118h-81v739l-186 -185v118l227 227l227 -227v-118l-187 187v-741z" />
    <glyph glyph-name="arrowright" unicode="&#x2192;" horiz-adv-x="989" 
d="M55.1143 373v-81h740.909l-186.977 -187h117.985l226.972 227l-226.972 227h-117.985l184.977 -186h-738.909z" />
    <glyph glyph-name="arrowdown" unicode="&#x2193;" horiz-adv-x="544" 
d="M312 780.985h-81v-738.909l-186 184.977v-117.985l227 -226.972l227 226.972v117.985l-187 -186.977v740.909z" />
    <glyph glyph-name="uni2196" unicode="&#x2196;" horiz-adv-x="755" 
d="M710 57l-57 -57l-524 523v-264l-84 84v321h321l84 -84h-263z" />
    <glyph glyph-name="uni2197" unicode="&#x2197;" horiz-adv-x="755" 
d="M45.0869 57l56.9932 -57l523.936 523v-264l83.9902 84v321h-320.961l-83.9902 -84h262.968z" />
    <glyph glyph-name="uni2198" unicode="&#x2198;" horiz-adv-x="755" 
d="M710 607.007l-57 56.9932l-524 -522.937v263.968l-84 -83.9893v-320.961h321l84 83.9893h-263z" />
    <glyph glyph-name="uni2199" unicode="&#x2199;" horiz-adv-x="755" 
d="M45.0869 607.007l56.9932 56.9932l523.936 -522.937v263.968l83.9902 -83.9893v-320.961h-320.961l-83.9902 83.9893h262.968z" />
    <glyph glyph-name="partialdiff" unicode="&#x2202;" horiz-adv-x="573" 
d="M237 664l203 -249q42 -51 62.5 -99t20.5 -99q0 -48 -18 -89.5t-49.5 -73t-74.5 -49.5t-94 -18t-94.5 18t-75 49t-49.5 73t-18 90t17.5 90t48.5 73.5t73.5 49.5t91.5 18q13 0 20.5 -1t16.5 -3l-178 220h97zM287 67q33 0 60.5 12t47.5 32t31 47.5t11 58.5t-11 59t-31 48
t-47.5 32t-60.5 12t-60.5 -12t-48 -32t-31.5 -48t-11 -59t11 -58.5t31.5 -47.5t48 -32t60.5 -12z" />
    <glyph glyph-name="Delta" unicode="&#x2206;" horiz-adv-x="600" 
d="M580 70v-70h-560v70l237 594h86zM489 80l-189 474l-189 -474h378z" />
    <glyph glyph-name="product" unicode="&#x220f;" horiz-adv-x="610" 
d="M580 664v-84h-102v-580h-90v580h-166v-580h-90v580h-102v84h550z" />
    <glyph glyph-name="summation" unicode="&#x2211;" horiz-adv-x="594" 
d="M420 295l-250 -215h384v-80h-514v73l299 259l-299 259v73h514v-80h-384l250 -215v-74z" />
    <glyph glyph-name="minus" unicode="&#x2212;" horiz-adv-x="545" 
d="M490 296v-81h-435v81h435z" />
    <glyph glyph-name="uni2215" unicode="&#x2215;" horiz-adv-x="465" 
d="M385 664h80l-386 -664h-79z" />
    <glyph glyph-name="radical" unicode="&#x221a;" horiz-adv-x="654" 
d="M634 664l-258 -664h-82l-165 379h-109v81h167l146 -339l210 543h91z" />
    <glyph glyph-name="infinity" unicode="&#x221e;" horiz-adv-x="780" 
d="M556 172q47 0 74 30t27 72t-27 71t-74 29q-41 0 -72 -29.5t-50 -70.5q19 -42 50 -72t72 -30zM224 172q41 0 72 30t50 72q-19 41 -50 70.5t-72 29.5q-47 0 -74 -29t-27 -71t27 -72t74 -30zM560 452q37 0 70 -13t57.5 -36.5t38.5 -56.5t14 -72q0 -40 -14 -73t-38.5 -57
t-57.5 -37t-70 -13q-34 0 -61 10.5t-48 26t-36.5 33.5t-24.5 33q-9 -15 -24.5 -33t-36.5 -33.5t-48 -26t-61 -10.5q-38 0 -70.5 13t-57 37t-38.5 57t-14 73q0 39 14 72t38.5 56.5t57 36.5t70.5 13q34 0 61 -10t48 -25t36.5 -33t24.5 -33q9 15 24.5 33t36.5 33t48 25t61 10z
" />
    <glyph glyph-name="integral" unicode="&#x222b;" horiz-adv-x="390" 
d="M238 -59q0 -63 -43.5 -104t-129.5 -41h-45v76h45q43 0 65 22t22 57v573q0 63 43.5 104t129.5 41h45v-76h-45q-43 0 -65 -22t-22 -57v-573v0z" />
    <glyph glyph-name="approxequal" unicode="&#x2248;" horiz-adv-x="545" 
d="M363 167q25 0 36 19.5t11 64.5h80q0 -77 -33 -120.5t-93 -43.5q-30 0 -55 13t-47.5 29t-42 29t-37.5 13q-25 0 -36 -19.5t-11 -64.5h-80q0 76 32.5 120t93.5 44q30 0 56 -13t48.5 -29t41.5 -29t36 -13zM363 341q25 0 36 19.5t11 64.5h80q0 -77 -33 -120.5t-93 -43.5
q-30 0 -55 13t-47.5 29t-42 29t-37.5 13q-25 0 -36 -19.5t-11 -64.5h-80q0 76 32.5 120t93.5 44q30 0 56 -13t48.5 -29t41.5 -29t36 -13z" />
    <glyph glyph-name="notequal" unicode="&#x2260;" horiz-adv-x="545" 
d="M298 381l55 94h94l-55 -94h98v-82h-146l-49 -85h195v-82h-243l-55 -94h-94l55 94h-98v82h146l49 85h-195v82h243z" />
    <glyph glyph-name="lessequal" unicode="&#x2264;" horiz-adv-x="545" 
d="M490 81v-81h-435v81h435zM490 203v-87l-435 151v81l435 151v-87l-300 -105z" />
    <glyph glyph-name="greaterequal" unicode="&#x2265;" horiz-adv-x="545" 
d="M490 81v-81h-435v81h435zM355 307l-300 105v87l435 -151v-81l-435 -151v87z" />
    <glyph glyph-name="uni2460" unicode="&#x2460;" horiz-adv-x="830" 
d="M415 677q71 0 134 -27t110 -74t74 -110t27 -134t-27 -134t-74 -110t-110 -74t-134 -27t-134 27t-110 74t-74 110t-27 134t27 134t74 110t110 74t134 27zM415 47q59 0 111 22.5t90.5 61t61 90.5t22.5 111t-22.5 111t-61 90.5t-90.5 61t-111 22.5t-111 -22.5t-90.5 -61
t-61 -90.5t-22.5 -111t22.5 -111t61 -90.5t90.5 -61t111 -22.5zM388 434l-74 -64v78l71 63h70v-339h-67v262z" />
    <glyph glyph-name="uni2461" unicode="&#x2461;" horiz-adv-x="830" 
d="M415 677q71 0 134 -27t110 -74t74 -110t27 -134t-27 -134t-74 -110t-110 -74t-134 -27t-134 27t-110 74t-74 110t-27 134t27 134t74 110t110 74t134 27zM415 47q59 0 111 22.5t90.5 61t61 90.5t22.5 111t-22.5 111t-61 90.5t-90.5 61t-111 22.5t-111 -22.5t-90.5 -61
t-61 -90.5t-22.5 -111t22.5 -111t61 -90.5t90.5 -61t111 -22.5zM544 232v-60h-250v60l138 118q16 14 26.5 28t10.5 31q0 22 -16 35.5t-40 13.5q-23 0 -40.5 -11.5t-23.5 -37.5h-68q9 49 43 79t87 30q57 0 91 -29t34 -79q0 -26 -13 -51t-37 -45l-96 -82h154z" />
    <glyph glyph-name="uni2462" unicode="&#x2462;" horiz-adv-x="830" 
d="M415 677q71 0 134 -27t110 -74t74 -110t27 -134t-27 -134t-74 -110t-110 -74t-134 -27t-134 27t-110 74t-74 110t-27 134t27 134t74 110t110 74t134 27zM415 47q59 0 111 22.5t90.5 61t61 90.5t22.5 111t-22.5 111t-61 90.5t-90.5 61t-111 22.5t-111 -22.5t-90.5 -61
t-61 -90.5t-22.5 -111t22.5 -111t61 -90.5t90.5 -61t111 -22.5zM345 269q7 -23 25 -33.5t43 -10.5q28 0 44.5 12.5t16.5 32.5t-14.5 31.5t-43.5 11.5h-45v61h44q58 0 58 41q0 20 -16 31.5t-44 11.5q-24 0 -42 -10t-25 -32h-67q10 55 48 78.5t85 23.5q30 0 53.5 -8.5
t40 -22.5t25.5 -32.5t9 -39.5q0 -20 -9 -38.5t-31 -32.5q23 -14 32 -34t9 -40q0 -21 -9 -40t-25.5 -33.5t-40.5 -23t-54 -8.5q-48 0 -85.5 24.5t-47.5 79.5h66z" />
    <glyph glyph-name="uni2463" unicode="&#x2463;" horiz-adv-x="830" 
d="M415 677q71 0 134 -27t110 -74t74 -110t27 -134t-27 -134t-74 -110t-110 -74t-134 -27t-134 27t-110 74t-74 110t-27 134t27 134t74 110t110 74t134 27zM415 47q59 0 111 22.5t90.5 61t61 90.5t22.5 111t-22.5 111t-61 90.5t-90.5 61t-111 22.5t-111 -22.5t-90.5 -61
t-61 -90.5t-22.5 -111t22.5 -111t61 -90.5t90.5 -61t111 -22.5zM504 384v-81h57v-59h-57v-72h-66v72h-181v59l167 208h78l-167 -208h103v81h66z" />
    <glyph glyph-name="uni2464" unicode="&#x2464;" horiz-adv-x="830" 
d="M415 677q71 0 134 -27t110 -74t74 -110t27 -134t-27 -134t-74 -110t-110 -74t-134 -27t-134 27t-110 74t-74 110t-27 134t27 134t74 110t110 74t134 27zM415 47q59 0 111 22.5t90.5 61t61 90.5t22.5 111t-22.5 111t-61 90.5t-90.5 61t-111 22.5t-111 -22.5t-90.5 -61
t-61 -90.5t-22.5 -111t22.5 -111t61 -90.5t90.5 -61t111 -22.5zM347 269q8 -23 26 -33.5t41 -10.5q30 0 48.5 16.5t18.5 41.5q0 24 -18.5 40t-48.5 16q-38 0 -60 -22h-60l20 194h219v-60h-165l-7 -62q11 5 28.5 7.5t31.5 2.5q24 0 46.5 -7.5t40.5 -22t29 -36t11 -50.5
q0 -24 -9.5 -45t-26.5 -37.5t-42 -26t-55 -9.5q-55 0 -90.5 28.5t-44.5 75.5h67z" />
    <glyph glyph-name="uni2465" unicode="&#x2465;" horiz-adv-x="830" 
d="M415 677q71 0 134 -27t110 -74t74 -110t27 -134t-27 -134t-74 -110t-110 -74t-134 -27t-134 27t-110 74t-74 110t-27 134t27 134t74 110t110 74t134 27zM415 47q59 0 111 22.5t90.5 61t61 90.5t22.5 111t-22.5 111t-61 90.5t-90.5 61t-111 22.5t-111 -22.5t-90.5 -61
t-61 -90.5t-22.5 -111t22.5 -111t61 -90.5t90.5 -61t111 -22.5zM417 398q26 0 49 -8.5t40 -24t27 -37t10 -46.5q0 -24 -9.5 -45t-26.5 -37t-41 -25.5t-53 -9.5q-30 0 -56 9.5t-45 30t-29.5 53t-10.5 77.5q0 35 7.5 68t24.5 58.5t44 41t67 15.5q48 0 80 -24t45 -70h-68
q-7 16 -22 25t-33 9q-33 0 -52.5 -24t-24.5 -62q15 13 36.5 19.5t40.5 6.5zM411 225q28 0 47 16t19 41t-19 40.5t-47 15.5t-47 -15.5t-19 -40.5t19 -41t47 -16z" />
    <glyph glyph-name="uni2466" unicode="&#x2466;" horiz-adv-x="830" 
d="M415 677q71 0 134 -27t110 -74t74 -110t27 -134t-27 -134t-74 -110t-110 -74t-134 -27t-134 27t-110 74t-74 110t-27 134t27 134t74 110t110 74t134 27zM415 47q59 0 111 22.5t90.5 61t61 90.5t22.5 111t-22.5 111t-61 90.5t-90.5 61t-111 22.5t-111 -22.5t-90.5 -61
t-61 -90.5t-22.5 -111t22.5 -111t61 -90.5t90.5 -61t111 -22.5zM295 451v60h253v-60l-166 -279h-75l166 279h-178z" />
    <glyph glyph-name="uni2467" unicode="&#x2467;" horiz-adv-x="830" 
d="M415 677q71 0 134 -27t110 -74t74 -110t27 -134t-27 -134t-74 -110t-110 -74t-134 -27t-134 27t-110 74t-74 110t-27 134t27 134t74 110t110 74t134 27zM415 47q59 0 111 22.5t90.5 61t61 90.5t22.5 111t-22.5 111t-61 90.5t-90.5 61t-111 22.5t-111 -22.5t-90.5 -61
t-61 -90.5t-22.5 -111t22.5 -111t61 -90.5t90.5 -61t111 -22.5zM416 165q-63 0 -99 30t-36 74q0 21 11 41t34 34q-22 13 -31.5 32.5t-9.5 39.5q0 43 35 72.5t96 29.5q60 0 95 -29.5t35 -72.5q0 -20 -10 -39.5t-31 -32.5q23 -14 34 -34t11 -41q0 -44 -36 -74t-98 -30z
M416 225q30 0 48.5 12.5t18.5 32.5t-18 31.5t-49 11.5t-49.5 -11.5t-18.5 -31.5t18.5 -32.5t49.5 -12.5zM479 416q0 18 -17 30t-46 12t-46.5 -12t-17.5 -30q0 -20 17 -31.5t47 -11.5q29 0 46 11.5t17 31.5z" />
    <glyph glyph-name="uni2468" unicode="&#x2468;" horiz-adv-x="830" 
d="M415 677q71 0 134 -27t110 -74t74 -110t27 -134t-27 -134t-74 -110t-110 -74t-134 -27t-134 27t-110 74t-74 110t-27 134t27 134t74 110t110 74t134 27zM415 47q59 0 111 22.5t90.5 61t61 90.5t22.5 111t-22.5 111t-61 90.5t-90.5 61t-111 22.5t-111 -22.5t-90.5 -61
t-61 -90.5t-22.5 -111t22.5 -111t61 -90.5t90.5 -61t111 -22.5zM406 285q-26 0 -49 8.5t-40 24t-27 37t-10 46.5q0 24 9.5 45t26.5 37t41 25.5t53 9.5q30 0 56 -9.5t45 -30t29.5 -53t10.5 -77.5q0 -35 -7 -68t-23.5 -58.5t-43.5 -41t-66 -15.5q-47 0 -79 24t-45 70h68
q7 -16 22 -25t32 -9q32 0 50.5 24t23.5 62q-15 -13 -36.5 -19.5t-40.5 -6.5zM412 458q-28 0 -47 -16t-19 -41t19 -40.5t47 -15.5t47 15.5t19 40.5t-19 41t-47 16z" />
    <glyph glyph-name="lozenge" unicode="&#x25ca;" horiz-adv-x="565" 
d="M55 296v73l189 295h77l189 -295v-73l-189 -296h-77zM126 332l156 -244l157 244l-157 245z" />
    <glyph glyph-name="circle" unicode="&#x25cb;" horiz-adv-x="830" 
d="M415 677q71 0 134 -27t110 -74t74 -110t27 -134t-27 -134t-74 -110t-110 -74t-134 -27t-134 27t-110 74t-74 110t-27 134t27 134t74 110t110 74t134 27zM415 47q59 0 111 22.5t90.5 61t61 90.5t22.5 111t-22.5 111t-61 90.5t-90.5 61t-111 22.5t-111 -22.5t-90.5 -61
t-61 -90.5t-22.5 -111t22.5 -111t61 -90.5t90.5 -61t111 -22.5z" />
    <glyph glyph-name="H18533" unicode="&#x25cf;" horiz-adv-x="830" 
d="M415 677q71 0 134 -27t110 -74t74 -110t27 -134t-27 -134t-74 -110t-110 -74t-134 -27t-134 27t-110 74t-74 110t-27 134t27 134t74 110t110 74t134 27z" />
    <glyph glyph-name="uni2776" unicode="&#x2776;" horiz-adv-x="830" 
d="M415 677q71 0 134 -27t110 -74t74 -110t27 -134t-27 -134t-74 -110t-110 -74t-134 -27t-134 27t-110 74t-74 110t-27 134t27 134t74 110t110 74t134 27zM388 171h67v339h-70l-71 -63v-78l74 64v-262z" />
    <glyph glyph-name="uni2777" unicode="&#x2777;" horiz-adv-x="830" 
d="M415 677q71 0 134 -27t110 -74t74 -110t27 -134t-27 -134t-74 -110t-110 -74t-134 -27t-134 27t-110 74t-74 110t-27 134t27 134t74 110t110 74t134 27zM390 231l96 82q24 20 37 45t13 51q0 50 -34 79t-91 29q-53 0 -87 -30t-43 -79h68q6 26 23.5 37.5t40.5 11.5
q24 0 40 -13.5t16 -35.5q0 -17 -10.5 -31t-26.5 -28l-138 -118v-60h250v60h-154z" />
    <glyph glyph-name="uni2778" unicode="&#x2778;" horiz-adv-x="830" 
d="M415 677q71 0 134 -27t110 -74t74 -110t27 -134t-27 -134t-74 -110t-110 -74t-134 -27t-134 27t-110 74t-74 110t-27 134t27 134t74 110t110 74t134 27zM279 268q10 -55 47.5 -79.5t85.5 -24.5q30 0 54 8.5t40.5 23t25.5 33.5t9 40q0 20 -9 40t-32 34q22 14 31 32.5
t9 38.5q0 21 -9 39.5t-25.5 32.5t-40 22.5t-53.5 8.5q-47 0 -85 -23.5t-48 -78.5h67q7 22 25 32t42 10q28 0 44 -11.5t16 -31.5q0 -41 -58 -41h-44v-61h45q29 0 43.5 -11.5t14.5 -31.5t-16.5 -32.5t-44.5 -12.5q-25 0 -43 10.5t-25 33.5h-66z" />
    <glyph glyph-name="uni2779" unicode="&#x2779;" horiz-adv-x="830" 
d="M415 677q71 0 134 -27t110 -74t74 -110t27 -134t-27 -134t-74 -110t-110 -74t-134 -27t-134 27t-110 74t-74 110t-27 134t27 134t74 110t110 74t134 27zM438 383v-81h-103l167 208h-78l-167 -208v-59h181v-72h66v72h57v59h-57v81h-66z" />
    <glyph glyph-name="uni277A" unicode="&#x277a;" horiz-adv-x="830" 
d="M415 677q71 0 134 -27t110 -74t74 -110t27 -134t-27 -134t-74 -110t-110 -74t-134 -27t-134 27t-110 74t-74 110t-27 134t27 134t74 110t110 74t134 27zM280 268q9 -47 44.5 -75.5t90.5 -28.5q30 0 55 9.5t42 26t26.5 37.5t9.5 45q0 29 -11 50.5t-29 36t-40.5 22
t-46.5 7.5q-14 0 -31.5 -2.5t-28.5 -7.5l7 62h165v60h-219l-20 -194h60q22 22 60 22q30 0 48.5 -16t18.5 -40q0 -25 -18.5 -41.5t-48.5 -16.5q-23 0 -41 10.5t-26 33.5h-67z" />
    <glyph glyph-name="uni277B" unicode="&#x277b;" horiz-adv-x="830" 
d="M415 677q71 0 134 -27t110 -74t74 -110t27 -134t-27 -134t-74 -110t-110 -74t-134 -27t-134 27t-110 74t-74 110t-27 134t27 134t74 110t110 74t134 27zM417 397q-19 0 -40.5 -6.5t-36.5 -19.5q5 38 24.5 62t52.5 24q18 0 33 -9t22 -25h68q-13 46 -45 70t-80 24
q-40 0 -67 -15.5t-44 -41t-24.5 -58.5t-7.5 -68q0 -45 10.5 -77.5t29.5 -53t45 -30t56 -9.5q29 0 53 9.5t41 25.5t26.5 37t9.5 45q0 25 -10 46.5t-27 37t-40 24t-49 8.5zM411 224q-28 0 -47 16t-19 41t19 40.5t47 15.5t47 -15.5t19 -40.5t-19 -41t-47 -16z" />
    <glyph glyph-name="uni277C" unicode="&#x277c;" horiz-adv-x="830" 
d="M415 677q71 0 134 -27t110 -74t74 -110t27 -134t-27 -134t-74 -110t-110 -74t-134 -27t-134 27t-110 74t-74 110t-27 134t27 134t74 110t110 74t134 27zM473 450l-166 -279h75l166 279v60h-253v-60h178z" />
    <glyph glyph-name="uni277D" unicode="&#x277d;" horiz-adv-x="830" 
d="M415 677q71 0 134 -27t110 -74t74 -110t27 -134t-27 -134t-74 -110t-110 -74t-134 -27t-134 27t-110 74t-74 110t-27 134t27 134t74 110t110 74t134 27zM416 164q62 0 98 30t36 74q0 21 -11 41t-34 34q21 13 31 32.5t10 39.5q0 43 -35 72.5t-95 29.5q-61 0 -96 -29.5
t-35 -72.5q0 -20 9.5 -39.5t31.5 -32.5q-23 -14 -34 -34t-11 -41q0 -44 36 -74t99 -30zM416 224q-31 0 -49.5 12.5t-18.5 32.5t18.5 31.5t49.5 11.5t49 -11.5t18 -31.5t-18.5 -32.5t-48.5 -12.5zM479 415q0 -20 -17 -31.5t-46 -11.5q-30 0 -47 11.5t-17 31.5q0 18 17.5 30
t46.5 12t46 -12t17 -30z" />
    <glyph glyph-name="uni277E" unicode="&#x277e;" horiz-adv-x="830" 
d="M415 677q71 0 134 -27t110 -74t74 -110t27 -134t-27 -134t-74 -110t-110 -74t-134 -27t-134 27t-110 74t-74 110t-27 134t27 134t74 110t110 74t134 27zM414 284q19 0 40.5 6.5t36.5 19.5q-5 -38 -23.5 -62t-50.5 -24q-17 0 -32 9t-22 25h-68q13 -46 45 -70t79 -24
q39 0 66 15.5t43.5 41t23.5 58.5t7 68q0 45 -10.5 77.5t-29.5 53t-45 30t-56 9.5q-29 0 -53 -9.5t-41 -25.5t-26.5 -37t-9.5 -45q0 -25 10 -46.5t27 -37t40 -24t49 -8.5zM420 457q28 0 47 -16t19 -41t-19 -40.5t-47 -15.5t-47 15.5t-19 40.5t19 41t47 16z" />
    <glyph glyph-name="Udotaccent" unicode="&#xf47e;" horiz-adv-x="736" 
d="M80 664h90v-389q0 -102 53 -153t145 -51t145 51t53 153v389h90v-389q0 -69 -20.5 -123t-58 -90.5t-91 -55.5t-118.5 -19t-118.5 19t-91 55.5t-58 90.5t-20.5 123v389zM320 854h96v-100h-96v100z" />
    <glyph glyph-name="udotaccent" unicode="&#xf47f;" horiz-adv-x="585" 
d="M267 -13q-47 0 -83.5 15t-61.5 42t-38.5 64t-13.5 81v271h86v-264q0 -57 29.5 -93t90.5 -36q27 0 53 10.5t46 30t32 48.5t12 65v239h86v-460h-86v50q-23 -28 -61.5 -45.5t-90.5 -17.5zM242 669h100v-104h-100v104z" />
    <glyph glyph-name="Germandbls" unicode="&#xf485;" horiz-adv-x="1224" 
d="M733 165q23 -43 73.5 -68.5t116.5 -25.5q38 0 69.5 8.5t54.5 23t36 35t13 44.5q0 48 -34.5 72.5t-106.5 32.5l-116 12q-49 5 -84.5 20.5t-58 39t-33 54t-10.5 65.5q0 44 18 80.5t51 63t80.5 41t106.5 14.5q61 0 108.5 -16.5t82 -42t56.5 -57.5t33 -62h-98q-20 42 -70 68
t-115 26q-78 0 -120.5 -33t-42.5 -78q0 -46 32 -70.5t91 -30.5l125 -13q92 -10 143.5 -58.5t51.5 -122.5q0 -37 -16.5 -73t-49.5 -64t-82.5 -45.5t-114.5 -17.5q-66 0 -115 15.5t-83.5 41t-56.5 57.5t-33 64h98zM123 165q23 -43 73.5 -68.5t116.5 -25.5q38 0 69.5 8.5
t54.5 23t36 35t13 44.5q0 48 -34.5 72.5t-106.5 32.5l-116 12q-49 5 -84.5 20.5t-58 39t-33 54t-10.5 65.5q0 44 18 80.5t51 63t80.5 41t106.5 14.5q61 0 108.5 -16.5t82 -42t56.5 -57.5t33 -62h-98q-20 42 -70 68t-115 26q-78 0 -120.5 -33t-42.5 -78q0 -46 32 -70.5
t91 -30.5l125 -13q92 -10 143.5 -58.5t51.5 -122.5q0 -37 -16.5 -73t-49.5 -64t-82.5 -45.5t-114.5 -17.5q-66 0 -115 15.5t-83.5 41t-56.5 57.5t-33 64h98z" />
    <glyph glyph-name="commaaccent" unicode="&#xf6c3;" horiz-adv-x="248" 
d="M76 -232l57 95h-56v101h111v-111l-52 -85h-60z" />
    <glyph glyph-name="cyrbreve" unicode="&#xf6d4;" horiz-adv-x="480" 
d="M240 602q43 0 71.5 26.5t34.5 65.5h76q-3 -35 -18 -65t-39.5 -52.5t-56.5 -35.5t-68 -13q-37 0 -69 13t-56 35.5t-39 52.5t-18 65h75q6 -39 34.5 -65.5t72.5 -26.5z" />
    <glyph glyph-name="fi" unicode="&#xfb01;" horiz-adv-x="596" 
d="M100 0v384h-85v76h85v61q0 75 43.5 111.5t118.5 36.5h71v-76h-63q-45 0 -64.5 -22.5t-19.5 -67.5v-43h328v-460h-86v384h-242v-384h-86zM421 669h100v-104h-100v104z" />
    <glyph glyph-name="fl" unicode="&#xfb02;" horiz-adv-x="594" 
d="M100 0v384h-85v76h85v61q0 75 43.5 111.5t118.5 36.5h71v-76h-63q-45 0 -64.5 -22.5t-19.5 -67.5v-43h242v209h86v-669h-86v384h-242v-384h-86z" />
    <glyph glyph-name="zero.sup" horiz-adv-x="384" 
d="M334 543q0 -26 -6.5 -57t-22.5 -57.5t-43.5 -44t-69.5 -17.5t-69.5 17.5t-43.5 44t-22.5 57.5t-6.5 57q0 27 6.5 58t22.5 57.5t43.5 44t69.5 17.5t69.5 -17.5t43.5 -44t22.5 -57.5t6.5 -58zM266 543q0 19 -4 39.5t-12.5 37.5t-22.5 28.5t-35 11.5t-35 -11.5t-22.5 -28.5
t-12 -37.5t-3.5 -39.5q0 -18 3.5 -38.5t12 -38t22.5 -28.5t35 -11t35 11t22.5 28.5t12.5 38t4 38.5z" />
    <glyph glyph-name="one.sup" horiz-adv-x="261" 
d="M114 636l-74 -64v78l71 63h70v-339h-67v262z" />
    <glyph glyph-name="two.sup" horiz-adv-x="361" 
d="M311 434v-60h-250v60l138 118q16 14 26.5 28t10.5 31q0 22 -16 35.5t-40 13.5q-23 0 -40.5 -11.5t-23.5 -37.5h-68q9 49 43 79t87 30q57 0 91 -29t34 -79q0 -26 -13 -51t-37 -45l-96 -82h154z" />
    <glyph glyph-name="three.sup" horiz-adv-x="362" 
d="M116 471q7 -23 25 -33.5t43 -10.5q28 0 44.5 12.5t16.5 32.5t-14.5 31.5t-43.5 11.5h-45v61h44q58 0 58 41q0 20 -16 31.5t-44 11.5q-24 0 -42 -10t-25 -32h-67q10 55 48 78.5t85 23.5q30 0 53.5 -8.5t40 -22.5t25.5 -32.5t9 -39.5q0 -20 -9 -38.5t-31 -32.5
q23 -14 32 -34t9 -40q0 -21 -9 -40t-25.5 -33.5t-40.5 -23t-54 -8.5q-48 0 -85.5 24.5t-47.5 79.5h66z" />
    <glyph glyph-name="four.sup" horiz-adv-x="404" 
d="M297 586v-81h57v-59h-57v-72h-66v72h-181v59l167 208h78l-167 -208h103v81h66z" />
    <glyph glyph-name="five.sup" horiz-adv-x="368" 
d="M117 471q8 -23 26 -33.5t41 -10.5q30 0 48.5 16.5t18.5 41.5q0 24 -18.5 40t-48.5 16q-38 0 -60 -22h-60l20 194h219v-60h-165l-7 -62q11 5 28.5 7.5t31.5 2.5q24 0 46.5 -7.5t40.5 -22t29 -36t11 -50.5q0 -24 -9.5 -45t-26.5 -37.5t-42 -26t-55 -9.5q-55 0 -90.5 28.5
t-44.5 75.5h67z" />
    <glyph glyph-name="six.sup" horiz-adv-x="371" 
d="M195 600q26 0 49 -8.5t40 -24t27 -37t10 -46.5q0 -24 -9.5 -45t-26.5 -37t-41 -25.5t-53 -9.5q-30 0 -56 9.5t-45 30t-29.5 53t-10.5 77.5q0 35 7.5 68t24.5 58.5t44 41t67 15.5q48 0 80 -24t45 -70h-68q-7 16 -22 25t-33 9q-33 0 -52.5 -24t-24.5 -62q15 13 36.5 19.5
t40.5 6.5zM189 427q28 0 47 16t19 41t-19 40.5t-47 15.5t-47 -15.5t-19 -40.5t19 -41t47 -16z" />
    <glyph glyph-name="seven.sup" horiz-adv-x="353" 
d="M50 653v60h253v-60l-166 -279h-75l166 279h-178z" />
    <glyph glyph-name="eight.sup" horiz-adv-x="369" 
d="M185 367q-63 0 -99 30t-36 74q0 21 11 41t34 34q-22 13 -31.5 32.5t-9.5 39.5q0 43 35 72.5t96 29.5q60 0 95 -29.5t35 -72.5q0 -20 -10 -39.5t-31 -32.5q23 -14 34 -34t11 -41q0 -44 -36 -74t-98 -30zM185 427q30 0 48.5 12.5t18.5 32.5t-18 31.5t-49 11.5t-49.5 -11.5
t-18.5 -31.5t18.5 -32.5t49.5 -12.5zM248 618q0 18 -17 30t-46 12t-46.5 -12t-17.5 -30q0 -20 17 -31.5t47 -11.5q29 0 46 11.5t17 31.5z" />
    <glyph glyph-name="nine.sup" horiz-adv-x="371" 
d="M176 487q-26 0 -49 8.5t-40 24t-27 37t-10 46.5q0 24 9.5 45t26.5 37t41 25.5t53 9.5q30 0 56 -9.5t45 -30t29.5 -53t10.5 -77.5q0 -35 -7 -68t-23.5 -58.5t-43.5 -41t-66 -15.5q-47 0 -79 24t-45 70h68q7 -16 22 -25t32 -9q32 0 50.5 24t23.5 62q-15 -13 -36.5 -19.5
t-40.5 -6.5zM182 660q-28 0 -47 -16t-19 -41t19 -40.5t47 -15.5t47 15.5t19 40.5t-19 41t-47 16z" />
    <glyph glyph-name="zero.sub" horiz-adv-x="384" 
d="M334 134q0 -26 -6.5 -57t-22.5 -57.5t-43.5 -44t-69.5 -17.5t-69.5 17.5t-43.5 44t-22.5 57.5t-6.5 57q0 27 6.5 58t22.5 57.5t43.5 44t69.5 17.5t69.5 -17.5t43.5 -44t22.5 -57.5t6.5 -58zM266 134q0 19 -4 39.5t-12.5 37.5t-22.5 28.5t-35 11.5t-35 -11.5t-22.5 -28.5
t-12 -37.5t-3.5 -39.5q0 -18 3.5 -38.5t12 -38t22.5 -28.5t35 -11t35 11t22.5 28.5t12.5 38t4 38.5z" />
    <glyph glyph-name="one.sub" horiz-adv-x="261" 
d="M114 227l-74 -64v78l71 63h70v-339h-67v262z" />
    <glyph glyph-name="two.sub" horiz-adv-x="361" 
d="M311 25v-60h-250v60l138 118q16 14 26.5 28t10.5 31q0 22 -16 35.5t-40 13.5q-23 0 -40.5 -11.5t-23.5 -37.5h-68q9 49 43 79t87 30q57 0 91 -29t34 -79q0 -26 -13 -51t-37 -45l-96 -82h154z" />
    <glyph glyph-name="three.sub" horiz-adv-x="362" 
d="M116 62q7 -23 25 -33.5t43 -10.5q28 0 44.5 12.5t16.5 32.5t-14.5 31.5t-43.5 11.5h-45v61h44q58 0 58 41q0 20 -16 31.5t-44 11.5q-24 0 -42 -10t-25 -32h-67q10 55 48 78.5t85 23.5q30 0 53.5 -8.5t40 -22.5t25.5 -32.5t9 -39.5q0 -20 -9 -38.5t-31 -32.5
q23 -14 32 -34t9 -40q0 -21 -9 -40t-25.5 -33.5t-40.5 -23t-54 -8.5q-48 0 -85.5 24.5t-47.5 79.5h66z" />
    <glyph glyph-name="four.sub" horiz-adv-x="404" 
d="M297 177v-81h57v-59h-57v-72h-66v72h-181v59l167 208h78l-167 -208h103v81h66z" />
    <glyph glyph-name="five.sub" horiz-adv-x="368" 
d="M117 62q8 -23 26 -33.5t41 -10.5q30 0 48.5 16.5t18.5 41.5q0 24 -18.5 40t-48.5 16q-38 0 -60 -22h-60l20 194h219v-60h-165l-7 -62q11 5 28.5 7.5t31.5 2.5q24 0 46.5 -7.5t40.5 -22t29 -36t11 -50.5q0 -24 -9.5 -45t-26.5 -37.5t-42 -26t-55 -9.5q-55 0 -90.5 28.5
t-44.5 75.5h67z" />
    <glyph glyph-name="six.sub" horiz-adv-x="371" 
d="M195 191q26 0 49 -8.5t40 -24t27 -37t10 -46.5q0 -24 -9.5 -45t-26.5 -37t-41 -25.5t-53 -9.5q-30 0 -56 9.5t-45 30t-29.5 53t-10.5 77.5q0 35 7.5 68t24.5 58.5t44 41t67 15.5q48 0 80 -24t45 -70h-68q-7 16 -22 25t-33 9q-33 0 -52.5 -24t-24.5 -62q15 13 36.5 19.5
t40.5 6.5zM189 18q28 0 47 16t19 41t-19 40.5t-47 15.5t-47 -15.5t-19 -40.5t19 -41t47 -16z" />
    <glyph glyph-name="seven.sub" horiz-adv-x="353" 
d="M50 244v60h253v-60l-166 -279h-75l166 279h-178z" />
    <glyph glyph-name="eight.sub" horiz-adv-x="369" 
d="M185 -42q-63 0 -99 30t-36 74q0 21 11 41t34 34q-22 13 -31.5 32.5t-9.5 39.5q0 43 35 72.5t96 29.5q60 0 95 -29.5t35 -72.5q0 -20 -10 -39.5t-31 -32.5q23 -14 34 -34t11 -41q0 -44 -36 -74t-98 -30zM185 18q30 0 48.5 12.5t18.5 32.5t-18 31.5t-49 11.5t-49.5 -11.5
t-18.5 -31.5t18.5 -32.5t49.5 -12.5zM248 209q0 18 -17 30t-46 12t-46.5 -12t-17.5 -30q0 -20 17 -31.5t47 -11.5q29 0 46 11.5t17 31.5z" />
    <glyph glyph-name="nine.sub" horiz-adv-x="371" 
d="M176 78q-26 0 -49 8.5t-40 24t-27 37t-10 46.5q0 24 9.5 45t26.5 37t41 25.5t53 9.5q30 0 56 -9.5t45 -30t29.5 -53t10.5 -77.5q0 -35 -7 -68t-23.5 -58.5t-43.5 -41t-66 -15.5q-47 0 -79 24t-45 70h68q7 -16 22 -25t32 -9q32 0 50.5 24t23.5 62q-15 -13 -36.5 -19.5
t-40.5 -6.5zM182 251q-28 0 -47 -16t-19 -41t19 -40.5t47 -15.5t47 15.5t19 40.5t-19 41t-47 16z" />
    <glyph glyph-name="zero.numr" horiz-adv-x="384" 
d="M334 495q0 -26 -6.5 -57t-22.5 -57.5t-43.5 -44t-69.5 -17.5t-69.5 17.5t-43.5 44t-22.5 57.5t-6.5 57q0 27 6.5 58t22.5 57.5t43.5 44t69.5 17.5t69.5 -17.5t43.5 -44t22.5 -57.5t6.5 -58zM266 495q0 19 -4 39.5t-12.5 37.5t-22.5 28.5t-35 11.5t-35 -11.5t-22.5 -28.5
t-12 -37.5t-3.5 -39.5q0 -18 3.5 -38.5t12 -38t22.5 -28.5t35 -11t35 11t22.5 28.5t12.5 38t4 38.5z" />
    <glyph glyph-name="one.numr" horiz-adv-x="261" 
d="M114 588l-74 -64v78l71 63h70v-339h-67v262z" />
    <glyph glyph-name="two.numr" horiz-adv-x="361" 
d="M311 386v-60h-250v60l138 118q16 14 26.5 28t10.5 31q0 22 -16 35.5t-40 13.5q-23 0 -40.5 -11.5t-23.5 -37.5h-68q9 49 43 79t87 30q57 0 91 -29t34 -79q0 -26 -13 -51t-37 -45l-96 -82h154z" />
    <glyph glyph-name="three.numr" horiz-adv-x="362" 
d="M116 423q7 -23 25 -33.5t43 -10.5q28 0 44.5 12.5t16.5 32.5t-14.5 31.5t-43.5 11.5h-45v61h44q58 0 58 41q0 20 -16 31.5t-44 11.5q-24 0 -42 -10t-25 -32h-67q10 55 48 78.5t85 23.5q30 0 53.5 -8.5t40 -22.5t25.5 -32.5t9 -39.5q0 -20 -9 -38.5t-31 -32.5
q23 -14 32 -34t9 -40q0 -21 -9 -40t-25.5 -33.5t-40.5 -23t-54 -8.5q-48 0 -85.5 24.5t-47.5 79.5h66z" />
    <glyph glyph-name="four.numr" horiz-adv-x="404" 
d="M297 538v-81h57v-59h-57v-72h-66v72h-181v59l167 208h78l-167 -208h103v81h66z" />
    <glyph glyph-name="five.numr" horiz-adv-x="368" 
d="M117 423q8 -23 26 -33.5t41 -10.5q30 0 48.5 16.5t18.5 41.5q0 24 -18.5 40t-48.5 16q-38 0 -60 -22h-60l20 194h219v-60h-165l-7 -62q11 5 28.5 7.5t31.5 2.5q24 0 46.5 -7.5t40.5 -22t29 -36t11 -50.5q0 -24 -9.5 -45t-26.5 -37.5t-42 -26t-55 -9.5q-55 0 -90.5 28.5
t-44.5 75.5h67z" />
    <glyph glyph-name="six.numr" horiz-adv-x="371" 
d="M195 552q26 0 49 -8.5t40 -24t27 -37t10 -46.5q0 -24 -9.5 -45t-26.5 -37t-41 -25.5t-53 -9.5q-30 0 -56 9.5t-45 30t-29.5 53t-10.5 77.5q0 35 7.5 68t24.5 58.5t44 41t67 15.5q48 0 80 -24t45 -70h-68q-7 16 -22 25t-33 9q-33 0 -52.5 -24t-24.5 -62q15 13 36.5 19.5
t40.5 6.5zM189 379q28 0 47 16t19 41t-19 40.5t-47 15.5t-47 -15.5t-19 -40.5t19 -41t47 -16z" />
    <glyph glyph-name="seven.numr" horiz-adv-x="353" 
d="M50 605v60h253v-60l-166 -279h-75l166 279h-178z" />
    <glyph glyph-name="eight.numr" horiz-adv-x="369" 
d="M185 319q-63 0 -99 30t-36 74q0 21 11 41t34 34q-22 13 -31.5 32.5t-9.5 39.5q0 43 35 72.5t96 29.5q60 0 95 -29.5t35 -72.5q0 -20 -10 -39.5t-31 -32.5q23 -14 34 -34t11 -41q0 -44 -36 -74t-98 -30zM185 379q30 0 48.5 12.5t18.5 32.5t-18 31.5t-49 11.5t-49.5 -11.5
t-18.5 -31.5t18.5 -32.5t49.5 -12.5zM248 570q0 18 -17 30t-46 12t-46.5 -12t-17.5 -30q0 -20 17 -31.5t47 -11.5q29 0 46 11.5t17 31.5z" />
    <glyph glyph-name="nine.numr" horiz-adv-x="371" 
d="M176 439q-26 0 -49 8.5t-40 24t-27 37t-10 46.5q0 24 9.5 45t26.5 37t41 25.5t53 9.5q30 0 56 -9.5t45 -30t29.5 -53t10.5 -77.5q0 -35 -7 -68t-23.5 -58.5t-43.5 -41t-66 -15.5q-47 0 -79 24t-45 70h68q7 -16 22 -25t32 -9q32 0 50.5 24t23.5 62q-15 -13 -36.5 -19.5
t-40.5 -6.5zM182 612q-28 0 -47 -16t-19 -41t19 -40.5t47 -15.5t47 15.5t19 40.5t-19 41t-47 16z" />
    <glyph glyph-name="zero.dnom" horiz-adv-x="379" 
d="M344 170q0 -26 -6.5 -57t-22.5 -57.5t-43.5 -44t-69.5 -17.5t-69.5 17.5t-43.5 44t-22.5 57.5t-6.5 57q0 27 6.5 58t22.5 57.5t43.5 44t69.5 17.5t69.5 -17.5t43.5 -44t22.5 -57.5t6.5 -58zM276 170q0 19 -4 39.5t-12.5 37.5t-22.5 28.5t-35 11.5t-35 -11.5t-22.5 -28.5
t-12 -37.5t-3.5 -39.5q0 -18 3.5 -38.5t12 -38t22.5 -28.5t35 -11t35 11t22.5 28.5t12.5 38t4 38.5z" />
    <glyph glyph-name="one.dnom" horiz-adv-x="261" 
d="M114 263l-74 -64v78l71 63h70v-339h-67v262z" />
    <glyph glyph-name="two.dnom" horiz-adv-x="361" 
d="M311 61v-60h-250v60l138 118q16 14 26.5 28t10.5 31q0 22 -16 35.5t-40 13.5q-23 0 -40.5 -11.5t-23.5 -37.5h-68q9 49 43 79t87 30q57 0 91 -29t34 -79q0 -26 -13 -51t-37 -45l-96 -82h154z" />
    <glyph glyph-name="three.dnom" horiz-adv-x="362" 
d="M116 98q7 -23 25 -33.5t43 -10.5q28 0 44.5 12.5t16.5 32.5t-14.5 31.5t-43.5 11.5h-45v61h44q58 0 58 41q0 20 -16 31.5t-44 11.5q-24 0 -42 -10t-25 -32h-67q10 55 48 78.5t85 23.5q30 0 53.5 -8.5t40 -22.5t25.5 -32.5t9 -39.5q0 -20 -9 -38.5t-31 -32.5
q23 -14 32 -34t9 -40q0 -21 -9 -40t-25.5 -33.5t-40.5 -23t-54 -8.5q-48 0 -85.5 24.5t-47.5 79.5h66z" />
    <glyph glyph-name="four.dnom" horiz-adv-x="404" 
d="M297 213v-81h57v-59h-57v-72h-66v72h-181v59l167 208h78l-167 -208h103v81h66z" />
    <glyph glyph-name="five.dnom" horiz-adv-x="368" 
d="M117 98q8 -23 26 -33.5t41 -10.5q30 0 48.5 16.5t18.5 41.5q0 24 -18.5 40t-48.5 16q-38 0 -60 -22h-60l20 194h219v-60h-165l-7 -62q11 5 28.5 7.5t31.5 2.5q24 0 46.5 -7.5t40.5 -22t29 -36t11 -50.5q0 -24 -9.5 -45t-26.5 -37.5t-42 -26t-55 -9.5q-55 0 -90.5 28.5
t-44.5 75.5h67z" />
    <glyph glyph-name="six.dnom" horiz-adv-x="371" 
d="M195 227q26 0 49 -8.5t40 -24t27 -37t10 -46.5q0 -24 -9.5 -45t-26.5 -37t-41 -25.5t-53 -9.5q-30 0 -56 9.5t-45 30t-29.5 53t-10.5 77.5q0 35 7.5 68t24.5 58.5t44 41t67 15.5q48 0 80 -24t45 -70h-68q-7 16 -22 25t-33 9q-33 0 -52.5 -24t-24.5 -62q15 13 36.5 19.5
t40.5 6.5zM189 54q28 0 47 16t19 41t-19 40.5t-47 15.5t-47 -15.5t-19 -40.5t19 -41t47 -16z" />
    <glyph glyph-name="seven.dnom" horiz-adv-x="353" 
d="M50 280v60h253v-60l-166 -279h-75l166 279h-178z" />
    <glyph glyph-name="eight.dnom" horiz-adv-x="369" 
d="M185 -6q-63 0 -99 30t-36 74q0 21 11 41t34 34q-22 13 -31.5 32.5t-9.5 39.5q0 43 35 72.5t96 29.5q60 0 95 -29.5t35 -72.5q0 -20 -10 -39.5t-31 -32.5q23 -14 34 -34t11 -41q0 -44 -36 -74t-98 -30zM185 54q30 0 48.5 12.5t18.5 32.5t-18 31.5t-49 11.5t-49.5 -11.5
t-18.5 -31.5t18.5 -32.5t49.5 -12.5zM248 245q0 18 -17 30t-46 12t-46.5 -12t-17.5 -30q0 -20 17 -31.5t47 -11.5q29 0 46 11.5t17 31.5z" />
    <glyph glyph-name="nine.dnom" horiz-adv-x="371" 
d="M176 114q-26 0 -49 8.5t-40 24t-27 37t-10 46.5q0 24 9.5 45t26.5 37t41 25.5t53 9.5q30 0 56 -9.5t45 -30t29.5 -53t10.5 -77.5q0 -35 -7 -68t-23.5 -58.5t-43.5 -41t-66 -15.5q-47 0 -79 24t-45 70h68q7 -16 22 -25t32 -9q32 0 50.5 24t23.5 62q-15 -13 -36.5 -19.5
t-40.5 -6.5zM182 287q-28 0 -47 -16t-19 -41t19 -40.5t47 -15.5t47 15.5t19 40.5t-19 41t-47 16z" />
    <glyph glyph-name="zero.tnum" 
d="M311 677q50 0 88.5 -16t66.5 -43t47 -62.5t30.5 -73.5t16.5 -77t5 -73t-5 -73t-16.5 -77t-30.5 -73.5t-47 -62.5t-66.5 -43t-88.5 -16t-88.5 16t-66.5 43t-47 62.5t-30.5 73.5t-16.5 77t-5 73t5 73t16.5 77t30.5 73.5t47 62.5t66.5 43t88.5 16zM311 71q47 0 78.5 25
t50.5 63.5t27 84.5t8 88t-8 88t-27 84.5t-50.5 63.5t-78.5 25t-78.5 -25t-50.5 -63.5t-27 -84.5t-8 -88t8 -88t27 -84.5t50.5 -63.5t78.5 -25z" />
    <glyph glyph-name="one.tnum" 
d="M286 84v476l-142 -128v110l138 122h94v-580h155v-84h-410v84h165z" />
    <glyph glyph-name="two.tnum" 
d="M539 84v-84h-453v84l271 249q31 29 56 62.5t25 76.5q0 28 -10.5 50t-28.5 38t-42 24.5t-52 8.5q-51 0 -89.5 -26.5t-51.5 -81.5h-94q8 42 27 77.5t48.5 61t68.5 39.5t86 14q50 0 92 -14.5t72 -40.5t46.5 -63.5t16.5 -83.5q0 -55 -27.5 -101t-72.5 -87l-220 -203h332z" />
    <glyph glyph-name="three.tnum" 
d="M305 380q63 0 100 28t37 80q0 47 -38 76t-99 29q-50 0 -88.5 -22t-57.5 -72h-93q12 46 35.5 80t55 55.5t69.5 32t79 10.5q54 0 96 -15.5t71.5 -42t44.5 -60.5t15 -71q0 -39 -18 -77t-66 -71q51 -35 69 -75.5t18 -81.5q0 -39 -15.5 -74.5t-45.5 -62.5t-73.5 -43t-98.5 -16
q-42 0 -80 10.5t-70 32.5t-55 55.5t-35 79.5h93q21 -52 58.5 -73t88.5 -21q63 0 103 31t40 80q0 54 -38.5 84.5t-104.5 30.5h-75v83h78v0z" />
    <glyph glyph-name="four.tnum" 
d="M491 422v-197h114v-84h-114v-141h-90v141h-358v84l324 439h104l-324 -439h254v197h90z" />
    <glyph glyph-name="five.tnum" 
d="M161 156q18 -45 57 -65t88 -20q34 0 62 11t48 30t31 44.5t11 55.5t-11 55.5t-31 44.5t-48 29.5t-62 10.5q-36 0 -71 -13t-58 -36h-90l38 361h392v-84h-315l-18 -178q26 15 58 24.5t75 9.5q42 0 83.5 -15t74 -43.5t53 -70.5t20.5 -97q0 -44 -17.5 -84.5t-49 -71t-75.5 -49
t-98 -18.5q-47 0 -87 12.5t-70.5 34.5t-52 53t-30.5 69h93z" />
    <glyph glyph-name="six.tnum" 
d="M328 426q46 0 88 -16.5t73 -46t49.5 -69.5t18.5 -88q0 -44 -17.5 -83.5t-49 -69.5t-75 -48t-95.5 -18q-56 0 -102.5 18.5t-81 58.5t-53.5 102.5t-19 151.5q0 67 15 131.5t47 115t83.5 81.5t123.5 31q162 0 220 -155h-92q-19 38 -52 54.5t-75 16.5q-37 0 -69 -16
t-56.5 -46.5t-39.5 -75.5t-16 -103q26 32 72.5 53t102.5 21zM316 71q31 0 58.5 10t48 28t32.5 42.5t12 54.5t-12 55t-32.5 43t-48 28t-58.5 10t-58 -10t-47 -28t-31.5 -43t-11.5 -55t11.5 -55t31.5 -42.5t47 -27.5t58 -10z" />
    <glyph glyph-name="seven.tnum" 
d="M93 580v84h452v-84l-319 -580h-100l321 580h-354z" />
    <glyph glyph-name="eight.tnum" 
d="M310 -13q-58 0 -103 16t-76.5 43t-48 62.5t-16.5 74.5q0 40 20 81t73 76q-50 33 -68 71.5t-18 77.5q0 37 16 71t46.5 60t74.5 41.5t100 15.5t100 -15.5t74.5 -41.5t46.5 -60t16 -71q0 -39 -18 -77.5t-68 -71.5q53 -35 73 -76t20 -81q0 -39 -16.5 -74.5t-48 -62.5
t-76.5 -43t-103 -16zM457 489q0 46 -41 75t-106 29t-106 -29t-41 -75q0 -51 40 -79t107 -28t107 28t40 79zM310 71q33 0 61 8.5t49 23.5t32.5 35.5t11.5 44.5q0 54 -42.5 84.5t-111.5 30.5t-111.5 -30.5t-42.5 -84.5q0 -24 11.5 -44.5t32.5 -35.5t49 -23.5t61 -8.5z" />
    <glyph glyph-name="nine.tnum" 
d="M290.039 252.052q-45.9941 0 -87.9883 16.498q-41.9951 16.498 -72.9912 45.9941q-30.9971 29.4971 -49.4941 69.4922q-18.498 39.9951 -18.498 87.9893q0 43.9941 17.498 83.4893t48.9941 69.4922q31.4961 29.9961 74.9902 47.9941q43.4951 17.9971 95.4893 17.9971
q55.9922 0 102.487 -18.4971q46.4941 -18.498 80.9902 -58.4932q34.4951 -39.9951 53.4932 -102.487t18.998 -151.481q0 -66.9922 -14.999 -131.484q-14.998 -64.4922 -46.9941 -114.985q-31.9961 -50.4941 -83.4893 -81.4902q-51.4941 -30.9961 -123.485 -30.9961
q-161.98 0 -219.973 154.98h91.9883q18.998 -37.9951 51.9941 -54.4932q32.9951 -16.498 74.9902 -16.498q36.9961 0 68.9922 15.998t56.4932 46.4941q24.4961 30.4961 39.4951 75.4912q14.998 44.9941 15.998 102.987q-25.9971 -31.9961 -72.4912 -52.9932
q-46.4941 -20.998 -102.488 -20.998zM302.038 607.009q-30.9961 0 -58.4932 -9.99902q-27.4961 -9.99902 -47.9941 -27.9961q-20.4971 -17.998 -32.4961 -42.4951q-11.998 -24.4971 -11.998 -54.4932t11.998 -54.9932q11.999 -24.9971 32.4961 -42.9951
q20.498 -17.998 47.9941 -27.9961q27.4971 -9.99902 58.4932 -9.99902t57.9932 9.99902q26.9961 9.99805 46.9941 27.9961q19.9971 17.998 31.4961 42.9951q11.498 24.9971 11.498 54.9932t-11.498 54.9932q-11.499 24.9971 -31.4961 42.4951
q-19.998 17.4971 -46.9941 27.4961q-26.9971 9.99902 -57.9932 9.99902z" />
    <glyph glyph-name="dollar.tnum" 
d="M145 165q23 -42 68 -68t106 -26q35 0 64.5 8.5t50.5 23.5t32.5 35t11.5 43q0 48 -31.5 72t-97.5 32l-107 14q-90 12 -132.5 60t-42.5 119q0 78 51 131.5t145 64.5v121h86v-121q47 -6 84.5 -24t65 -42.5t45 -53t26.5 -55.5h-95q-20 41 -65.5 67.5t-104.5 26.5
q-37 0 -65 -9.5t-46.5 -25t-27.5 -35.5t-9 -41q0 -45 29.5 -69t82.5 -31l114 -15q85 -11 135 -58.5t50 -122.5q0 -35 -14 -68.5t-41.5 -61t-68.5 -46t-95 -22.5v-120h-86v123q-47 7 -83 24.5t-62 41.5t-42.5 52t-25.5 56h95z" />
    <glyph glyph-name="Euro.tnum" 
d="M398 368h-223q-1 -7 -1.5 -16t-0.5 -20q0 -12 0.5 -20t1.5 -13h207l-23 -76h-172q16 -71 58 -111.5t108 -40.5q54 0 86.5 25.5t54.5 68.5h91q-29 -81 -88 -129.5t-144 -48.5q-48 0 -90 17t-75.5 47.5t-57 74t-34.5 97.5h-76v76h65q-1 5 -1.5 13.5t-0.5 19.5t0.5 20.5
t1.5 15.5h-65v76h76q11 53 35 96t57.5 73.5t75 47t89.5 16.5q85 0 144 -48.5t88 -129.5h-91q-22 43 -54.5 68.5t-86.5 25.5q-65 0 -106.5 -39.5t-58.5 -109.5h233z" />
    <glyph glyph-name="sterling.tnum" 
d="M62 84q42 1 64.5 22t22.5 59v127h-88v76h88v109q0 37 13 73t39.5 64t65.5 45.5t90 17.5q41 0 74.5 -13.5t59 -36t42.5 -52t26 -60.5h-92q-14 34 -41 56t-72 22q-57 0 -86 -33t-29 -83v-109h185v-76h-185v-131q0 -22 -6.5 -45t-32.5 -32h359v-84h-497v84z" />
    <glyph glyph-name="yen.tnum" 
d="M509 664h96l-151 -252h102v-76h-148l-41 -69h189v-76h-201v-191h-90v191h-201v76h189l-42 69h-147v76h102l-151 252h99l197 -333z" />
    <glyph glyph-name="uni20BD.tnum" 
d="M36 274v84h81v306h253q47 0 86 -13t67 -37.5t43.5 -61t15.5 -83.5t-15.5 -83.5t-43.5 -61t-67 -37.5t-86 -13h-163v-69h246v-84h-246v-121h-90v121h-81v84h81v69h-81zM492 469q0 54 -34 82.5t-88 28.5h-163v-222h163q54 0 88 28.5t34 82.5z" />
    <glyph glyph-name="uni20B4.tnum" 
d="M591 444v-76h-569v76h419q10 11 14 24t4 27q0 40 -34 69t-97 29q-57 0 -96.5 -26t-56.5 -68h-94q9 30 28.5 62t49.5 57.5t71.5 42t95.5 16.5q50 0 91 -13.5t70.5 -37.5t45.5 -57.5t16 -73.5q0 -15 -3 -29t-8 -22h53zM182 223q-8 -18 -8 -44q0 -48 38 -78t101 -30
q58 0 99 25.5t61 68.5h92q-10 -32 -29 -64t-49 -57.5t-73 -41t-101 -15.5q-57 0 -100 17t-71.5 44.5t-43 63t-14.5 72.5q0 10 1 20.5t4 18.5h-67v76h569v-76h-409z" />
    <glyph glyph-name="uni20B8.tnum" 
d="M555 511v-84h-200v-427h-90v427h-200v84h490zM65 580v84h490v-84h-490z" />
    <glyph glyph-name="cent.tnum" 
d="M274 581h86v-111q63 -9 110 -47.5t69 -96.5h-95q-18 31 -49.5 49t-72.5 18q-34 0 -62 -12.5t-48.5 -34.5t-32 -52t-11.5 -64t11.5 -64t32 -52t48.5 -34.5t62 -12.5q41 0 72.5 18t49.5 49h95q-22 -59 -69 -97t-110 -47v-110h-86v112q-42 8 -77.5 29t-61 52t-39.5 71
t-14 86t14 86t39.5 71t61 52t77.5 29v113z" />
    <glyph glyph-name="circumflex.cap" horiz-adv-x="513" 
d="M210 891h93l150 -166h-94l-102 111l-102 -111h-95z" />
    <glyph glyph-name="dieresis.cap" horiz-adv-x="399" 
d="M243 844h96v-100h-96v100zM60 844h96v-100h-96v100z" />
    <glyph glyph-name="acute.cap" horiz-adv-x="356" 
d="M296 891l-142 -166h-94l142 166h94z" />
    <glyph glyph-name="grave.cap" horiz-adv-x="356" 
d="M154 891l142 -166h-94l-142 166h94z" />
    <glyph glyph-name="ring.cap" horiz-adv-x="390" 
d="M60 845q0 28 10.5 52.5t29 43t43 29t52.5 10.5t52.5 -10.5t43 -29t29 -43t10.5 -52.5t-10.5 -52.5t-29 -43t-43 -29t-52.5 -10.5t-52.5 10.5t-43 29t-29 43t-10.5 52.5zM130 845q0 -28 18.5 -46.5t46.5 -18.5t46.5 18.5t18.5 46.5t-18.5 46.5t-46.5 18.5t-46.5 -18.5
t-18.5 -46.5z" />
    <glyph glyph-name="caron.cap" horiz-adv-x="513" 
d="M307 725h-101l-146 166h94l102 -114l102 114h95z" />
    <glyph glyph-name="dotaccent.cap" horiz-adv-x="216" 
d="M60 854h96v-100h-96v100z" />
    <glyph glyph-name="breve.cap" horiz-adv-x="469" 
d="M235 726q-37 0 -69.5 12.5t-57.5 34.5t-41 52t-20 66h77q8 -38 38.5 -64.5t72.5 -26.5q41 0 71.5 26.5t38.5 64.5h77q-4 -36 -20 -66t-41 -52t-57 -34.5t-69 -12.5z" />
    <glyph glyph-name="hungarumlaut.cap" horiz-adv-x="510" 
d="M450 891l-142 -166h-94l142 166h94zM296 891l-142 -166h-94l142 166h94z" />
    <glyph glyph-name="tilde.cap" horiz-adv-x="505" 
d="M330 800q22 0 32.5 21.5t10.5 68.5h72q0 -77 -30.5 -120.5t-85.5 -43.5q-26 0 -47 14t-39.5 31t-35 31t-32.5 14q-43 0 -43 -90h-72q0 76 30.5 120t85.5 44q26 0 47.5 -14t40.5 -31t35 -31t31 -14z" />
    <glyph glyph-name="macron.cap" horiz-adv-x="471" 
d="M411 818v-74h-351v74h351z" />
    <glyph glyph-name="cyrbreve.cap" horiz-adv-x="498" 
d="M132 882q3 -21 13 -39t25.5 -32t35.5 -22t43 -8q22 0 42.5 8t36 22t25.5 32t13 39h76q-3 -37 -18.5 -69t-41.5 -55.5t-60 -37t-73 -13.5t-73 13.5t-60 37t-41.5 55.5t-18.5 69h76z" />
    <glyph glyph-name="a.ss03" horiz-adv-x="604" 
d="M524 460v-460h-86v50q-26 -29 -66 -46t-89 -17q-57 0 -100.5 20t-73 54t-44.5 77.5t-15 91.5t15 91.5t44.5 77.5t73 54t100.5 20q49 0 89 -17t66 -46v50h86zM441 230q0 41 -13 71.5t-34.5 51t-49.5 30.5t-58 10q-33 0 -61 -13t-47.5 -35.5t-30.5 -52t-11 -62.5t11 -62.5
t30.5 -52t47.5 -35.5t61 -13q30 0 58 10t49.5 30.5t34.5 51t13 71.5z" />
    <glyph glyph-name="aacute.ss03" horiz-adv-x="604" 
d="M524 460v-460h-86v50q-26 -29 -66 -46t-89 -17q-57 0 -100.5 20t-73 54t-44.5 77.5t-15 91.5t15 91.5t44.5 77.5t73 54t100.5 20q49 0 89 -17t66 -46v50h86zM441 230q0 41 -13 71.5t-34.5 51t-49.5 30.5t-58 10q-33 0 -61 -13t-47.5 -35.5t-30.5 -52t-11 -62.5t11 -62.5
t30.5 -52t47.5 -35.5t61 -13q30 0 58 10t49.5 30.5t34.5 51t13 71.5zM484 719l-142 -185h-94l142 185h94z" />
    <glyph glyph-name="agrave.ss03" horiz-adv-x="604" 
d="M524 460v-460h-86v50q-26 -29 -66 -46t-89 -17q-57 0 -100.5 20t-73 54t-44.5 77.5t-15 91.5t15 91.5t44.5 77.5t73 54t100.5 20q49 0 89 -17t66 -46v50h86zM441 230q0 41 -13 71.5t-34.5 51t-49.5 30.5t-58 10q-33 0 -61 -13t-47.5 -35.5t-30.5 -52t-11 -62.5t11 -62.5
t30.5 -52t47.5 -35.5t61 -13q30 0 58 10t49.5 30.5t34.5 51t13 71.5zM256 719l142 -185h-94l-142 185h94z" />
    <glyph glyph-name="acircumflex.ss03" horiz-adv-x="604" 
d="M524 460v-460h-86v50q-26 -29 -66 -46t-89 -17q-57 0 -100.5 20t-73 54t-44.5 77.5t-15 91.5t15 91.5t44.5 77.5t73 54t100.5 20q49 0 89 -17t66 -46v50h86zM441 230q0 41 -13 71.5t-34.5 51t-49.5 30.5t-58 10q-33 0 -61 -13t-47.5 -35.5t-30.5 -52t-11 -62.5t11 -62.5
t30.5 -52t47.5 -35.5t61 -13q30 0 58 10t49.5 30.5t34.5 51t13 71.5zM255 719h95l149 -185h-92l-104 124l-104 -124h-93z" />
    <glyph glyph-name="adieresis.ss03" horiz-adv-x="604" 
d="M524 460v-460h-86v50q-26 -29 -66 -46t-89 -17q-57 0 -100.5 20t-73 54t-44.5 77.5t-15 91.5t15 91.5t44.5 77.5t73 54t100.5 20q49 0 89 -17t66 -46v50h86zM441 230q0 41 -13 71.5t-34.5 51t-49.5 30.5t-58 10q-33 0 -61 -13t-47.5 -35.5t-30.5 -52t-11 -62.5t11 -62.5
t30.5 -52t47.5 -35.5t61 -13q30 0 58 10t49.5 30.5t34.5 51t13 71.5zM346 664h96v-99h-96v99zM163 664h96v-99h-96v99z" />
    <glyph glyph-name="atilde.ss03" horiz-adv-x="604" 
d="M524 460v-460h-86v50q-26 -29 -66 -46t-89 -17q-57 0 -100.5 20t-73 54t-44.5 77.5t-15 91.5t15 91.5t44.5 77.5t73 54t100.5 20q49 0 89 -17t66 -46v50h86zM441 230q0 41 -13 71.5t-34.5 51t-49.5 30.5t-58 10q-33 0 -61 -13t-47.5 -35.5t-30.5 -52t-11 -62.5t11 -62.5
t30.5 -52t47.5 -35.5t61 -13q30 0 58 10t49.5 30.5t34.5 51t13 71.5zM380 610q22 0 32.5 21.5t10.5 68.5h72q0 -77 -30.5 -120.5t-85.5 -43.5q-26 0 -47 14t-39.5 31t-35 31t-32.5 14q-43 0 -43 -90h-72q0 76 30.5 120t85.5 44q26 0 47.5 -14t40.5 -31t35 -31t31 -14z" />
    <glyph glyph-name="aring.ss03" horiz-adv-x="604" 
d="M524 460v-460h-86v50q-26 -29 -66 -46t-89 -17q-57 0 -100.5 20t-73 54t-44.5 77.5t-15 91.5t15 91.5t44.5 77.5t73 54t100.5 20q49 0 89 -17t66 -46v50h86zM441 230q0 41 -13 71.5t-34.5 51t-49.5 30.5t-58 10q-33 0 -61 -13t-47.5 -35.5t-30.5 -52t-11 -62.5t11 -62.5
t30.5 -52t47.5 -35.5t61 -13q30 0 58 10t49.5 30.5t34.5 51t13 71.5zM167 655q0 28 10.5 52.5t29 43t43 29t52.5 10.5t52.5 -10.5t43 -29t29 -43t10.5 -52.5t-10.5 -52.5t-29 -43t-43 -29t-52.5 -10.5t-52.5 10.5t-43 29t-29 43t-10.5 52.5zM237 655q0 -28 18.5 -46.5
t46.5 -18.5t46.5 18.5t18.5 46.5t-18.5 46.5t-46.5 18.5t-46.5 -18.5t-18.5 -46.5z" />
    <glyph glyph-name="amacron.ss03" horiz-adv-x="604" 
d="M524 460v-460h-86v50q-26 -29 -66 -46t-89 -17q-57 0 -100.5 20t-73 54t-44.5 77.5t-15 91.5t15 91.5t44.5 77.5t73 54t100.5 20q49 0 89 -17t66 -46v50h86zM441 230q0 41 -13 71.5t-34.5 51t-49.5 30.5t-58 10q-33 0 -61 -13t-47.5 -35.5t-30.5 -52t-11 -62.5t11 -62.5
t30.5 -52t47.5 -35.5t61 -13q30 0 58 10t49.5 30.5t34.5 51t13 71.5zM478 639v-74h-351v74h351z" />
    <glyph glyph-name="abreve.ss03" horiz-adv-x="604" 
d="M524 460v-460h-86v50q-26 -29 -66 -46t-89 -17q-57 0 -100.5 20t-73 54t-44.5 77.5t-15 91.5t15 91.5t44.5 77.5t73 54t100.5 20q49 0 89 -17t66 -46v50h86zM441 230q0 41 -13 71.5t-34.5 51t-49.5 30.5t-58 10q-33 0 -61 -13t-47.5 -35.5t-30.5 -52t-11 -62.5t11 -62.5
t30.5 -52t47.5 -35.5t61 -13q30 0 58 10t49.5 30.5t34.5 51t13 71.5zM302 608q22 0 41 9.5t33 25t22.5 35.5t10.5 41h75q-3 -37 -17.5 -70.5t-38.5 -59t-56 -40.5t-70 -15t-70 15t-56 40.5t-38.5 59t-17.5 70.5h75q2 -21 10.5 -41t22.5 -35.5t32.5 -25t41.5 -9.5z" />
    <glyph glyph-name="aogonek.ss03" horiz-adv-x="604" 
d="M524 460v-460q-14 -9 -30 -21t-30 -25t-23.5 -26.5t-9.5 -25.5q0 -33 49 -33h44v-73h-48q-125 0 -125 88q0 32 24.5 61t62.5 55v50q-26 -29 -66 -46t-89 -17q-57 0 -100.5 20t-73 54t-44.5 77.5t-15 91.5t15 91.5t44.5 77.5t73 54t100.5 20q49 0 89 -17t66 -46v50h86z
M441 230q0 41 -13 71.5t-34.5 51t-49.5 30.5t-58 10q-33 0 -61 -13t-47.5 -35.5t-30.5 -52t-11 -62.5t11 -62.5t30.5 -52t47.5 -35.5t61 -13q30 0 58 10t49.5 30.5t34.5 51t13 71.5z" />
    <glyph glyph-name="uni0430.ss03" horiz-adv-x="604" 
d="M524 460v-460h-86v50q-26 -29 -66 -46t-89 -17q-57 0 -100.5 20t-73 54t-44.5 77.5t-15 91.5t15 91.5t44.5 77.5t73 54t100.5 20q49 0 89 -17t66 -46v50h86zM441 230q0 41 -13 71.5t-34.5 51t-49.5 30.5t-58 10q-33 0 -61 -13t-47.5 -35.5t-30.5 -52t-11 -62.5t11 -62.5
t30.5 -52t47.5 -35.5t61 -13q30 0 58 10t49.5 30.5t34.5 51t13 71.5z" />
    <glyph glyph-name="slash.case" horiz-adv-x="360" 
d="M266 704h89l-262 -744h-88z" />
    <glyph glyph-name="at.case" horiz-adv-x="973" 
d="M586 333q0 64 -35 96.5t-84 32.5q-26 0 -47 -10.5t-36 -28t-23 -41t-8 -49.5q0 -27 8 -51t23 -42t36 -28.5t47 -10.5q24 0 46 8.5t38 25t25.5 41t9.5 57.5zM801 50q-24 -28 -54.5 -54t-69 -46t-84.5 -32t-100 -12q-88 0 -165 33.5t-134.5 91.5t-90.5 135.5t-33 165.5
t33 165.5t90.5 135.5t134.5 91.5t165 33.5q85 0 160 -28t130.5 -79t87.5 -122.5t32 -158.5q0 -49 -11.5 -93t-34 -77.5t-57.5 -53.5t-81 -20q-40 0 -71 15.5t-51 42.5q-7 -9 -18.5 -19t-28 -19t-38 -14.5t-49.5 -5.5q-35 0 -69.5 13.5t-61.5 39.5t-43.5 64.5t-16.5 88.5
q0 51 17 89.5t44 64.5t62 39.5t71 13.5q22 0 40.5 -5t33 -12t25.5 -15.5t18 -14.5v36h77v-250q0 -30 15.5 -53t50.5 -23q47 0 72 46.5t25 124.5q0 67 -25 124t-69.5 97.5t-105 63.5t-130.5 23q-71 0 -133 -27.5t-108.5 -74.5t-73 -111t-26.5 -136t26.5 -136t73 -111
t108.5 -74.5t133 -27.5q56 0 107.5 17.5t95.5 49.5h105z" />
    <glyph glyph-name="backslash.case" horiz-adv-x="360" 
d="M94.0322 704h-88.9893l261.969 -744h87.9893z" />
    <glyph glyph-name="hyphen.case" horiz-adv-x="400" 
d="M330 373v-81h-260v81h260z" />
    <glyph glyph-name="endash.case" horiz-adv-x="592" 
d="M547 373v-81h-502v81h502z" />
    <glyph glyph-name="emdash.case" horiz-adv-x="908" 
d="M863 373v-81h-818v81h818z" />
    <glyph glyph-name="bracketleft.case" horiz-adv-x="381" 
d="M191 -7h161v-74h-247v820h247v-74h-161v-672z" />
    <glyph glyph-name="bracketright.case" horiz-adv-x="381" 
d="M190.023 -7h-160.98v-74h246.97v820h-246.97v-74h160.98v-672z" />
    <glyph glyph-name="braceleft.case" horiz-adv-x="367" 
d="M227 448q0 -23 -6.5 -42t-17.5 -33.5t-25 -25t-28 -17.5q14 -7 28 -17.5t25 -25t17.5 -33.5t6.5 -42v-143q0 -38 19.5 -57t61.5 -19h40v-74h-50q-34 0 -62.5 8.5t-49.5 26.5t-33 45t-12 64v132q0 43 -28.5 68.5t-74.5 30.5v72q46 5 74.5 30.5t28.5 68.5v130q0 37 12 64
t33 45t49.5 26.5t62.5 8.5h50v-74h-40q-42 0 -61.5 -19t-19.5 -57v-141v0z" />
    <glyph glyph-name="braceright.case" horiz-adv-x="367" 
d="M140.027 448q0 -23 6.5 -42q6.49902 -19 17.4971 -33.5q10.999 -14.5 24.9971 -25t27.9971 -17.5q-13.999 -7 -27.9971 -17.5t-24.9971 -25q-10.998 -14.5 -17.4971 -33.5q-6.5 -19 -6.5 -42v-143q0 -38 -19.4971 -57q-19.498 -19 -61.4932 -19h-39.9941v-74h49.9932
q33.9961 0 62.4922 8.5q28.4971 8.5 49.4941 26.5q20.998 18 32.9961 45q11.999 27 11.999 64v132q0 43 28.4961 68.5t74.4912 30.5v72q-45.9951 5 -74.4912 30.5t-28.4961 68.5v130q0 37 -11.999 64q-11.998 27 -32.9961 45q-20.9971 18 -49.4941 26.5
q-28.4961 8.5 -62.4922 8.5h-49.9932v-74h39.9941q41.9951 0 61.4932 -19q19.4971 -19 19.4971 -57v-141v0z" />
    <glyph glyph-name="parenleft.case" horiz-adv-x="329" 
d="M310 739q-27 -36 -53 -78t-46 -92.5t-32.5 -109.5t-12.5 -130t12.5 -130t32.5 -109.5t46 -92.5t53 -78h-93q-30 36 -55 80.5t-43 96.5t-28.5 110.5t-10.5 122.5t10.5 122.5t28.5 110.5t43 96.5t55 80.5h93z" />
    <glyph glyph-name="parenright.case" horiz-adv-x="329" 
d="M19.0381 739q26.9961 -36 52.9932 -78t45.9941 -92.5q19.998 -50.5 32.4961 -109.5q12.499 -59 12.499 -130t-12.499 -130q-12.498 -59 -32.4961 -109.5q-19.9971 -50.5 -45.9941 -92.5t-52.9932 -78h92.9883q29.9961 36 54.9932 80.5t42.9951 96.5t28.4961 110.5
q10.499 58.5 10.499 122.5t-10.499 122.5q-10.498 58.5 -28.4961 110.5t-42.9951 96.5t-54.9932 80.5h-92.9883z" />
    <glyph glyph-name="guillemotright.case" horiz-adv-x="547" 
d="M365 521l132 -146v-86l-132 -146h-112l170 189l-170 189h112zM142 521l132 -146v-86l-132 -146h-112l170 189l-170 189h112z" />
    <glyph glyph-name="guillemotleft.case" horiz-adv-x="547" 
d="M517 521l-170 -189l170 -189h-112l-132 146v86l132 146h112zM294 521l-170 -189l170 -189h-112l-132 146v86l132 146h112z" />
    <glyph glyph-name="guilsinglright.case" horiz-adv-x="324" 
d="M142 521l132 -146v-86l-132 -146h-112l170 189l-170 189h112z" />
    <glyph glyph-name="guilsinglleft.case" horiz-adv-x="324" 
d="M294 521l-170 -189l170 -189h-112l-132 146v86l132 146h112z" />
    <glyph glyph-name="exclamdown.case" horiz-adv-x="324" 
d="M207 465.024h-90v-464.943h90v464.943zM110 560.013h104v103.987h-104v-103.987z" />
    <glyph glyph-name="questiondown.case" horiz-adv-x="524" 
d="M325.024 560.013h-103.987v103.987h103.987v-103.987zM259.032 -12.917q-50.9932 0 -87.9893 13.998q-36.9951 13.998 -61.9922 36.4951q-24.9971 22.498 -36.9961 52.4941q-11.998 29.9961 -11.998 60.9922q0 31.9961 6.99902 54.9932t19.998 40.9951
q12.998 17.998 30.9961 33.9961q17.9971 15.998 39.9951 33.9961l13.998 10.998q17.998 13.998 28.9961 24.9971q10.999 10.999 16.998 22.4971q6 11.499 7.99902 23.9971q2 12.499 2 30.4971v36.9951h89.9893v-36.9951q0 -29.9971 -4 -51.4941
q-3.99902 -21.4971 -14.498 -40.4951t-29.9961 -37.4951q-19.498 -18.498 -50.4941 -41.4951t-49.9941 -46.4941q-18.9971 -23.4971 -18.9971 -55.4932q0 -39.9951 30.9961 -61.9932q30.9961 -21.9971 77.9902 -21.9971q53.9932 0 84.4902 24.9971
q30.4961 24.9971 42.4941 64.9922h97.9883q-7.99902 -35.9961 -26.4971 -67.4922q-18.4971 -31.4961 -46.9941 -54.9932q-28.4961 -23.4971 -66.4922 -37.4951q-37.9951 -13.998 -84.9893 -13.998z" />
    <glyph glyph-name="bar.case" horiz-adv-x="226" 
d="M156 -78h-86v820h86v-820z" />
    <glyph glyph-name="brokenbar.case" horiz-adv-x="226" 
d="M156 -78h-86v341h86v-341zM156 401h-86v341h86v-341z" />
    <glyph glyph-name="bullet.case" horiz-adv-x="560" 
d="M80 332q0 41 16 77.5t43 63.5t63.5 43t77.5 16t77.5 -16t63.5 -43t43 -63.5t16 -77.5t-16 -77.5t-43 -63.5t-63.5 -43t-77.5 -16t-77.5 16t-63.5 43t-43 63.5t-16 77.5z" />
    <glyph glyph-name="periodcentered.case" horiz-adv-x="231" 
d="M60 388h111v-111h-111v111z" />
    <glyph glyph-name="emdash.ss02" horiz-adv-x="1300" 
d="M1255 296v-81h-1210v81h1210z" />
    <glyph glyph-name="emdash.ss02.case" horiz-adv-x="1300" 
d="M1255 373v-81h-1210v81h1210z" />
    <glyph glyph-name="Tcommaaccent" horiz-adv-x="600" 
d="M575 664v-84h-230v-580h-90v580h-230v84h550zM244 -232l57 95h-56v101h111v-111l-52 -85h-60z" />
    <glyph glyph-name="tcommaaccent" horiz-adv-x="393" 
d="M201 586v-126h147v-76h-147v-218q0 -45 19.5 -67.5t64.5 -22.5h63v-76h-71q-75 0 -118.5 36.5t-43.5 111.5v236h-85v76h85v126h86zM140 -232l57 95h-56v101h111v-111l-52 -85h-60z" />
    <glyph glyph-name="plus.tnum" 
d="M270 296v177h81v-177h177v-81h-177v-177h-81v177h-177v81h177z" />
    <glyph glyph-name="comma.tnum" 
d="M237 -117l70 117h-53v111h111v-121l-65 -107h-63z" />
    <glyph glyph-name="period.tnum" 
d="M255 111h111v-111h-111v111z" />
    <glyph glyph-name="equal.tnum" 
d="M528 214v-82h-435v82h435zM528 381v-82h-435v82h435z" />
    <glyph glyph-name="florin.tnum" 
d="M285 362l23 162q10 69 56 107t136 38h62l-11 -76h-62q-43 0 -67 -21.5t-29 -57.5l-22 -152h148l-11 -76h-147l-49 -345q-10 -67 -57 -106t-137 -39h-60l11 76h60q43 0 68 22t30 57l47 335h-148l11 76h148z" />
    <glyph glyph-name="multiply.tnum" 
d="M310 313l147 146l57 -57l-146 -147l146 -146l-57 -57l-147 146l-146 -146l-57 57l146 146l-146 147l57 57z" />
    <glyph glyph-name="divide.tnum" 
d="M528 296v-81h-435v81h435zM255 463h111v-111h-111v111zM255 159h111v-111h-111v111z" />
    <glyph glyph-name="minus.tnum" 
d="M528 296v-81h-435v81h435z" />
    <glyph glyph-name="aringacute.ss03" horiz-adv-x="604" 
d="M460 982l-108 -141h-94l108 141h94zM165 655q0 28 10.5 52.5t29 43t43 29t52.5 10.5t52.5 -10.5t43 -29t29 -43t10.5 -52.5t-10.5 -52.5t-29 -43t-43 -29t-52.5 -10.5t-52.5 10.5t-43 29t-29 43t-10.5 52.5zM235 655q0 -28 18.5 -46.5t46.5 -18.5t46.5 18.5t18.5 46.5
t-18.5 46.5t-46.5 18.5t-46.5 -18.5t-18.5 -46.5zM524 460v-460h-86v50q-26 -29 -66 -46t-89 -17q-57 0 -100.5 20t-73 54t-44.5 77.5t-15 91.5t15 91.5t44.5 77.5t73 54t100.5 20q49 0 89 -17t66 -46v50h86zM441 230q0 41 -13 71.5t-34.5 51t-49.5 30.5t-58 10
q-33 0 -61 -13t-47.5 -35.5t-30.5 -52t-11 -62.5t11 -62.5t30.5 -52t47.5 -35.5t61 -13q30 0 58 10t49.5 30.5t34.5 51t13 71.5z" />
    </font>
</defs>
</svg>
