<?xml version="1.0" standalone="no"?>
<!DOCTYPE svg PUBLIC "-//W3C//DTD SVG 1.1//EN" "http://www.w3.org/Graphics/SVG/1.1/DTD/svg11.dtd" >
<svg xmlns="http://www.w3.org/2000/svg" xmlns:xlink="http://www.w3.org/1999/xlink" version="1.1">
<metadata>
Created by FontForge 20200314 at Tue Oct 24 23:44:47 2017
 By Unknown
Copyright (c) 2017 by Gayane Bagdasaryan, Vyacheslav Kirilenko. All rights reserved.
</metadata>
<defs>
<font id="Aeroport-Bold" horiz-adv-x="620" >
  <font-face 
    font-family="Aeroport"
    font-weight="700"
    font-stretch="normal"
    units-per-em="1000"
    panose-1="2 0 0 0 0 0 0 0 0 0"
    ascent="800"
    descent="-200"
    x-height="475"
    cap-height="664"
    bbox="-364 -307 1279 1059"
    underline-thickness="50"
    underline-position="-100"
    unicode-range="U+000D-FB02"
  />
<missing-glyph 
d="M77 664h466v-664h-466v664zM431 107v450h-242v-450h242z" />
    <glyph glyph-name=".notdef" 
d="M77 664h466v-664h-466v664zM431 107v450h-242v-450h242z" />
    <glyph glyph-name=".null" horiz-adv-x="0" 
 />
    <glyph glyph-name=".null" horiz-adv-x="0" 
 />
    <glyph glyph-name="nonmarkingreturn" unicode="&#xd;" horiz-adv-x="210" 
 />
    <glyph glyph-name="space" unicode=" " horiz-adv-x="210" 
 />
    <glyph glyph-name="exclam" unicode="!" horiz-adv-x="349" 
d="M100 149h149v-149h-149v149zM239 204h-129v460h129v-460z" />
    <glyph glyph-name="quotedbl" unicode="&#x22;" horiz-adv-x="396" 
d="M160 664v-292h-115v292h115zM351 664v-292h-115v292h115z" />
    <glyph glyph-name="numbersign" unicode="#" horiz-adv-x="690" 
d="M377 664l-45 -169h112l45 169h111l-45 -169h115v-105h-143l-31 -114h116v-106h-144l-45 -170h-110l45 170h-113l-45 -170h-111l45 170h-114v106h142l31 114h-116v105h144l45 169h111zM273 276h113l30 114h-112z" />
    <glyph glyph-name="dollar" unicode="$" horiz-adv-x="604" 
d="M233 -6q-44 8 -78 26t-59.5 42.5t-43 55.5t-27.5 66h132q21 -42 60.5 -61t92.5 -19q57 0 91 22.5t34 59.5q0 32 -26 55.5t-92 31.5l-63 8q-60 7 -100 25.5t-65 44.5t-35.5 57.5t-10.5 65.5q0 76 50.5 129.5t139.5 68.5v123h123v-124q45 -8 81.5 -26.5t63.5 -44
t44.5 -56.5t26.5 -64h-131q-14 38 -55 59t-95 21q-56 0 -86.5 -24t-30.5 -58q0 -33 26.5 -53.5t93.5 -29.5l60 -8q55 -7 95 -24.5t66 -43t38.5 -57.5t12.5 -68t-13.5 -70t-40 -61.5t-65.5 -47t-91 -25.5v-122h-123v126v0z" />
    <glyph glyph-name="percent" unicode="%" horiz-adv-x="897" 
d="M198 0l388 664h113l-388 -664h-113zM395 501q0 -35 -13.5 -66t-36.5 -54t-55.5 -36.5t-69.5 -13.5q-38 0 -70 13.5t-55 36.5t-36.5 54t-13.5 66t13.5 66t36.5 54t55 36.5t70 13.5q37 0 69.5 -13.5t55.5 -36.5t36.5 -54t13.5 -66zM285 501q0 28 -18 48t-47 20t-47 -20
t-18 -48t18 -48t47 -20t47 20t18 48zM852 163q0 -35 -13.5 -66t-36.5 -54t-55.5 -36.5t-69.5 -13.5q-38 0 -70 13.5t-55 36.5t-36.5 54t-13.5 66t13.5 66t36.5 54t55 36.5t70 13.5q37 0 69.5 -13.5t55.5 -36.5t36.5 -54t13.5 -66zM742 163q0 28 -18 48t-47 20t-47 -20
t-18 -48t18 -48t47 -20t47 20t18 48z" />
    <glyph glyph-name="ampersand" unicode="&#x26;" horiz-adv-x="699" 
d="M699 0h-171l-88 77q-42 -41 -89.5 -65.5t-107.5 -24.5q-52 0 -91 15.5t-65 40.5t-39 57t-13 66q0 28 7 51t19.5 42t30.5 35.5t41 33.5l20 15l-9 9q-14 13 -28 29t-25 34t-18.5 39t-7.5 45q0 43 16.5 76.5t44 56t62 34t70.5 11.5q43 0 79.5 -12.5t63 -35.5t41.5 -55.5
t15 -72.5q0 -26 -8.5 -48.5t-22 -42.5t-32 -37t-37.5 -31l-19 -14l97 -87l185 196v-160l-104 -112zM260 566q-13 0 -26 -4t-23.5 -12t-17.5 -20t-7 -28q0 -21 16 -41t31 -34l23 -21l32 24q48 35 48 73q0 26 -22.5 44.5t-53.5 18.5zM242 103q35 0 63.5 16t51.5 38l-122 109
l-21 -16q-23 -17 -40.5 -36.5t-17.5 -45.5t23 -45.5t63 -19.5z" />
    <glyph glyph-name="quotesingle" unicode="'" horiz-adv-x="205" 
d="M160 664v-292h-115v292h115z" />
    <glyph glyph-name="parenleft" unicode="(" horiz-adv-x="357" 
d="M342 664q-27 -36 -53 -78.5t-46 -93.5t-32.5 -110.5t-12.5 -130.5t12.5 -130.5t32.5 -110.5t46 -93.5t53 -78.5h-135q-30 36 -55 81t-43 97.5t-28.5 111.5t-10.5 123t10.5 123t28.5 111.5t43 97.5t55 81h135z" />
    <glyph glyph-name="parenright" unicode=")" horiz-adv-x="357" 
d="M15.042 664q26.9961 -36 52.9932 -78.5t45.9941 -93.5q19.998 -51 32.4961 -110.5q12.499 -59.5 12.499 -130.5t-12.499 -130.5q-12.498 -59.5 -32.4961 -110.5q-19.9971 -51 -45.9941 -93.5t-52.9932 -78.5h134.983q29.9961 36 54.9932 81t42.9951 97.5
q17.9971 52.5 28.4961 111.5t10.499 123t-10.499 123t-28.4961 111.5q-17.998 52.5 -42.9951 97.5t-54.9932 81h-134.983z" />
    <glyph glyph-name="asterisk" unicode="*" horiz-adv-x="464" 
d="M429 408l-49 -85l-99 58v-115h-98v115l-100 -58l-48 85l99 57l-99 58l48 85l100 -59v115h98v-115l99 59l49 -85l-100 -58z" />
    <glyph glyph-name="plus" unicode="+" horiz-adv-x="564" 
d="M514 331v-110h-177v-177h-110v177h-177v110h177v177h110v-177h177z" />
    <glyph glyph-name="comma" unicode="," horiz-adv-x="258" 
d="M40 -137l83 137h-69v149h149v-164l-76 -122h-87z" />
    <glyph glyph-name="hyphen" unicode="-" horiz-adv-x="393" 
d="M65 315h263v-120h-263v120z" />
    <glyph glyph-name="period" unicode="." horiz-adv-x="259" 
d="M55 149h149v-149h-149v149z" />
    <glyph glyph-name="slash" unicode="/" horiz-adv-x="391" 
d="M266 664h120l-262 -744h-119z" />
    <glyph glyph-name="zero" unicode="0" horiz-adv-x="650" 
d="M595 332q0 -34 -5 -73t-17.5 -77.5t-32.5 -73.5t-50 -62t-71 -43t-94 -16t-94 16t-71 43t-50 62t-32.5 73.5t-17.5 77t-5 73.5q0 52 12 112t43 112t83 86.5t132 34.5t132.5 -34.5t83 -86.5t42.5 -112t12 -112zM464 332q0 37 -7 77t-23 73.5t-43 55.5t-66 22t-65.5 -22
t-43 -55.5t-23.5 -73.5t-7 -77t7 -77t23.5 -73.5t43 -55.5t65.5 -22t66 22t43 55.5t23 73.5t7 77z" />
    <glyph glyph-name="one" unicode="1" horiz-adv-x="408" 
d="M182 513l-137 -126v154l131 123h137v-664h-131v513z" />
    <glyph glyph-name="two" unicode="2" horiz-adv-x="587" 
d="M537 117v-117h-476v117l265 230q30 26 49 55.5t19 61.5q0 44 -28 70t-74 26q-43 0 -75.5 -22.5t-43.5 -72.5h-133q9 48 30 87t53 66.5t73 43t91 15.5q54 0 97.5 -15t75 -42.5t48.5 -66.5t17 -87q0 -51 -25 -99t-72 -89l-184 -161h293z" />
    <glyph glyph-name="three" unicode="3" horiz-adv-x="593" 
d="M288 -13q-45 0 -85.5 11.5t-73.5 35.5t-57.5 61.5t-36.5 88.5h130q16 -43 47.5 -61.5t76.5 -18.5q52 0 82.5 24.5t30.5 62.5t-28 61t-82 23h-83v118h82q54 0 81.5 22t27.5 60t-29 61.5t-81 23.5q-44 0 -75.5 -20t-47.5 -60h-131q11 51 35.5 88t58.5 61t74.5 36t84.5 12
q56 0 101 -16.5t76.5 -44.5t48 -64.5t16.5 -76.5q0 -39 -17.5 -76t-58.5 -64q43 -29 60.5 -66.5t17.5 -77.5q0 -41 -17 -78t-49 -65t-77 -44.5t-102 -16.5z" />
    <glyph glyph-name="four" unicode="4" horiz-adv-x="613" 
d="M492 416v-159h106v-117h-106v-140h-131v140h-341v117l318 407h152l-319 -407h190v159h131z" />
    <glyph glyph-name="five" unicode="5" horiz-adv-x="595" 
d="M293 -13q-101 0 -167.5 51.5t-85.5 138.5h132q16 -38 47.5 -55.5t71.5 -17.5q57 0 90 32.5t33 80.5t-33 79.5t-90 31.5q-32 0 -62.5 -11.5t-51.5 -33.5h-117l37 381h421v-117h-310l-11 -120q20 8 50.5 13t56.5 5q45 0 88.5 -14.5t77 -43t54.5 -71t21 -99.5
q0 -46 -17.5 -88t-50.5 -73.5t-79.5 -50t-104.5 -18.5z" />
    <glyph glyph-name="six" unicode="6" horiz-adv-x="615" 
d="M329 438q49 0 93 -16.5t77 -46.5t52 -71.5t19 -90.5q0 -46 -18 -87t-50.5 -72t-78.5 -49t-101 -18q-58 0 -107 18.5t-84.5 58t-55.5 102.5t-20 152q0 68 14.5 132.5t46.5 115t84 81t126 30.5q82 0 145 -44.5t90 -130.5h-135q-14 27 -39 42.5t-57 15.5t-57 -13t-43 -35.5
t-29.5 -54.5t-14.5 -69q29 27 68 38.5t75 11.5zM316 104q53 0 88 30t35 79t-35 79t-88 30t-87 -30t-34 -79t34 -79t87 -30z" />
    <glyph glyph-name="seven" unicode="7" horiz-adv-x="550" 
d="M40 547v117h480v-117l-316 -547h-145l316 547h-335z" />
    <glyph glyph-name="eight" unicode="8" horiz-adv-x="621" 
d="M311 -13q-59 0 -106.5 16t-80.5 43t-51 64t-18 79t21 81.5t65 65.5q-42 26 -60 64.5t-18 78.5q0 41 17 77t49 63t78 42.5t104 15.5q57 0 103 -15.5t78 -42.5t49 -63t17 -77q0 -40 -18 -78.5t-60 -64.5q44 -26 65 -65.5t21 -81.5t-18 -79t-51 -64t-80.5 -43t-105.5 -16z
M311 104q57 0 90.5 24.5t33.5 62.5t-33.5 62t-90.5 24t-91 -24t-34 -62t34 -62.5t91 -24.5zM427 478q0 36 -31 59.5t-85 23.5t-85.5 -23.5t-31.5 -59.5q0 -38 31 -61t86 -23t85.5 23t30.5 61z" />
    <glyph glyph-name="nine" unicode="9" horiz-adv-x="615" 
d="M286 226q-49 0 -93 16.5t-77 46.5t-52 71t-19 91q0 46 18 87t50.5 72t78 49t101.5 18q58 0 107 -18.5t84.5 -58t55.5 -102.5t20 -152q0 -68 -14 -132.5t-45 -115t-81.5 -81t-123.5 -30.5q-82 0 -145.5 44.5t-90.5 130.5h135q14 -27 39.5 -42.5t57.5 -15.5q61 0 95.5 48.5
t41.5 123.5q-29 -27 -68 -38.5t-75 -11.5zM299 560q-53 0 -88 -30t-35 -79t35 -79t88 -30t87 30t34 79t-34 79t-87 30z" />
    <glyph glyph-name="colon" unicode=":" horiz-adv-x="259" 
d="M55 459h149v-149h-149v149zM55 149h149v-149h-149v149z" />
    <glyph glyph-name="semicolon" unicode=";" horiz-adv-x="258" 
d="M40 -137l83 137h-69v149h149v-164l-76 -122h-87zM55 459h149v-149h-149v149z" />
    <glyph glyph-name="less" unicode="&#x3c;" horiz-adv-x="554" 
d="M504 418l-310 -142l310 -141v-123l-464 215v99l464 215v-123z" />
    <glyph glyph-name="equal" unicode="=" horiz-adv-x="564" 
d="M50 234h464v-110h-464v110zM514 428v-110h-464v110h464z" />
    <glyph glyph-name="greater" unicode="&#x3e;" horiz-adv-x="554" 
d="M50.0615 418l309.962 -142l-309.962 -141v-123l463.943 215v99l-463.943 215v-123z" />
    <glyph glyph-name="question" unicode="?" horiz-adv-x="543" 
d="M275 677q52 0 92 -14.5t67 -38.5t40.5 -55t13.5 -64t-7.5 -57t-22 -43.5t-35.5 -38t-49 -40.5q-27 -21 -37.5 -38.5t-10.5 -47.5v-36h-124v36q0 30 5.5 53t17.5 43t31 38.5t46 40.5q28 22 44 41t16 45q0 29 -24.5 44.5t-62.5 15.5q-45 0 -72.5 -21.5t-36.5 -57.5h-131
q7 41 27.5 76.5t51.5 62t72 41.5t89 15zM189 149h149v-149h-149v149z" />
    <glyph glyph-name="at" unicode="@" horiz-adv-x="973" 
d="M814 17q-16 -33 -46.5 -64.5t-72 -55.5t-93 -38.5t-110.5 -14.5q-90 0 -168 32t-135.5 88.5t-90.5 132.5t-33 164q0 85 32.5 161t89 132.5t133.5 89.5t167 33q84 0 160 -29.5t134 -82t92.5 -124.5t34.5 -158q0 -45 -10.5 -86t-33 -72t-57 -49.5t-81.5 -18.5
q-33 0 -64.5 14.5t-51.5 35.5q-20 -20 -53 -35t-81 -15q-35 0 -69.5 12.5t-63 38t-46 63.5t-17.5 90q0 48 16.5 86t43.5 63.5t60.5 39t67.5 13.5q26 0 53 -7.5t52 -26.5v25h106v-234q0 -11 2 -22.5t7.5 -20.5t15 -15t24.5 -6q21 0 34.5 12.5t21 31t10 41t2.5 42.5
q0 63 -25 116t-67.5 91t-98 59t-116.5 21q-65 0 -121.5 -24t-99 -66t-67 -98.5t-24.5 -120.5t24 -120.5t66 -98.5t99 -66.5t123 -24.5q61 0 112 15.5t84 50.5h129zM483 154q19 0 36.5 6.5t31 20t21.5 34t8 47.5t-8 47t-21.5 33.5t-31 20t-36.5 6.5q-41 0 -66 -31t-25 -76
q0 -22 6.5 -41.5t18.5 -34.5t29 -23.5t37 -8.5z" />
    <glyph glyph-name="A" unicode="A" horiz-adv-x="706" 
d="M706 0h-139l-65 147h-303l-65 -147h-134l289 664h128zM251 264h199l-99 226z" />
    <glyph glyph-name="B" unicode="B" horiz-adv-x="653" 
d="M382 664q57 0 98.5 -15t68.5 -40.5t40.5 -60.5t13.5 -74q0 -45 -19.5 -82.5t-57.5 -59.5q38 -22 57.5 -59.5t19.5 -82.5q0 -39 -13.5 -74t-40.5 -60.5t-68.5 -40.5t-98.5 -15h-305v664h305zM208 390h161q47 0 75 20t28 58q0 40 -27.5 59.5t-75.5 19.5h-161v-157zM208 117
h161q47 0 75 19.5t28 57.5q0 40 -27.5 59.5t-75.5 19.5h-161v-156z" />
    <glyph glyph-name="C" unicode="C" horiz-adv-x="722" 
d="M384 677q109 0 185.5 -54t116.5 -143h-140q-27 35 -69 57.5t-93 22.5q-46 0 -84.5 -17.5t-67 -48t-44.5 -72t-16 -90.5t16 -90.5t44.5 -72t67 -48t84.5 -17.5q51 0 93 22t69 58h140q-40 -90 -116.5 -143.5t-185.5 -53.5q-73 0 -136 26t-109 72t-72 109.5t-26 137.5
t26 137.5t72 109.5t109 72t136 26z" />
    <glyph glyph-name="D" unicode="D" horiz-adv-x="710" 
d="M307 664q87 0 154 -26.5t113.5 -71.5t70.5 -105.5t24 -128.5t-24 -128.5t-70.5 -105.5t-113.5 -71.5t-154 -26.5h-230v664h230zM303 117q54 0 97.5 16t74 44.5t47 68t16.5 86.5t-16.5 86.5t-47 68t-74 44.5t-97.5 16h-95v-430h95z" />
    <glyph glyph-name="E" unicode="E" horiz-adv-x="602" 
d="M208 547v-156h328v-117h-328v-157h335v-117h-466v664h466v-117h-335z" />
    <glyph glyph-name="F" unicode="F" horiz-adv-x="584" 
d="M208 547v-156h328v-117h-328v-274h-131v664h466v-117h-335z" />
    <glyph glyph-name="G" unicode="G" horiz-adv-x="746" 
d="M384 -13q-73 0 -136 26t-109 72t-72 109.5t-26 137.5t26 137.5t72 109.5t109 72t136 26q109 0 186 -53.5t116 -143.5h-140q-27 36 -68.5 58t-93.5 22q-46 0 -84.5 -17.5t-67 -48t-44.5 -72t-16 -90.5t16 -90.5t44.5 -72t67 -48t84.5 -17.5q72 0 117.5 38t62.5 101h-216
v117h357q0 -86 -24 -155t-67 -117.5t-101.5 -74.5t-128.5 -26z" />
    <glyph glyph-name="H" unicode="H" horiz-adv-x="738" 
d="M530 0v274h-322v-274h-131v664h131v-273h322v273h131v-664h-131z" />
    <glyph glyph-name="I" unicode="I" horiz-adv-x="285" 
d="M208 0h-131v664h131v-664z" />
    <glyph glyph-name="J" unicode="J" horiz-adv-x="412" 
d="M340 664v-473q0 -93 -54.5 -142t-147.5 -49h-133v117h133q71 0 71 74v473h131z" />
    <glyph glyph-name="K" unicode="K" horiz-adv-x="641" 
d="M464 0l-256 263v-263h-131v664h131v-269l264 269h165l-324 -332l324 -332h-173z" />
    <glyph glyph-name="L" unicode="L" horiz-adv-x="570" 
d="M208 117h335v-117h-466v664h131v-547z" />
    <glyph glyph-name="M" unicode="M" horiz-adv-x="944" 
d="M474 141l244 523h149v-664h-131v416l-193 -416h-142l-193 416v-416h-131v664h153z" />
    <glyph glyph-name="N" unicode="N" horiz-adv-x="757" 
d="M680 664v-664h-142l-330 466v-466h-131v664h142l330 -466v466h131z" />
    <glyph glyph-name="O" unicode="O" horiz-adv-x="772" 
d="M386 -13q-77 0 -140 27t-109 74t-71 110t-25 134q0 72 25 134.5t71 109.5t109 74t140 27q76 0 139.5 -27t109.5 -74t71 -109.5t25 -134.5q0 -71 -25 -134t-71 -110t-109.5 -74t-139.5 -27zM386 104q46 0 85.5 18t68 49t44.5 72.5t16 88.5q0 48 -16 89.5t-44.5 72
t-68 48.5t-85.5 18q-47 0 -86 -18t-67.5 -48.5t-44.5 -72t-16 -89.5q0 -47 16 -88.5t44.5 -72.5t67.5 -49t86 -18z" />
    <glyph glyph-name="P" unicode="P" horiz-adv-x="671" 
d="M635 460q0 -42 -13.5 -79t-42 -65t-72 -44.5t-102.5 -16.5h-197v-255h-131v664h328q59 0 102.5 -16.5t72 -44.5t42 -65t13.5 -78zM208 372h188q51 0 79.5 24t28.5 64t-28.5 63.5t-79.5 23.5h-188v-175z" />
    <glyph glyph-name="Q" unicode="Q" horiz-adv-x="772" 
d="M386 -13q-77 0 -140 27t-109 74t-71 110t-25 134q0 72 25 134.5t71 109.5t109 74t140 27q76 0 139.5 -27t109.5 -74t71 -109.5t25 -134.5t-25 -134t-71 -109l94 -122h-157l-39 50q-32 -14 -69 -22t-78 -8zM483 288l73 -96q21 29 32.5 64.5t11.5 75.5q0 48 -16 89.5
t-44.5 72t-68 48.5t-85.5 18q-47 0 -86 -18t-67.5 -48.5t-44.5 -72t-16 -89.5q0 -47 16 -88.5t44.5 -72.5t67.5 -49t86 -18q38 0 71 12l-131 172h157z" />
    <glyph glyph-name="R" unicode="R" horiz-adv-x="693" 
d="M635 460q0 -35 -10 -67.5t-30 -59t-51 -45.5t-73 -27l199 -261h-163l-194 255h-105v-255h-131v664h328q59 0 102.5 -16.5t72 -44.5t42 -65t13.5 -78zM208 372h188q51 0 79.5 24t28.5 64t-28.5 63.5t-79.5 23.5h-188v-175z" />
    <glyph glyph-name="S" unicode="S" horiz-adv-x="631" 
d="M324 -13q-66 0 -116.5 15t-87 41.5t-60.5 62.5t-37 78h133q23 -42 67 -61t101 -19q63 0 101.5 23.5t38.5 62.5q0 36 -26.5 55t-85.5 25l-114 11q-52 5 -89 21t-61 41t-35 57t-11 69q0 46 18.5 84t53 65.5t83 43t109.5 15.5q62 0 111 -16.5t85.5 -44.5t60.5 -63.5
t36 -72.5h-133q-17 37 -62.5 58.5t-99.5 21.5q-66 0 -98.5 -26t-32.5 -61q0 -33 25 -52t70 -24l122 -12q96 -10 150.5 -61t54.5 -129q0 -41 -17 -78.5t-51 -66t-85 -46t-118 -17.5z" />
    <glyph glyph-name="T" unicode="T" horiz-adv-x="610" 
d="M587 664v-117h-216v-547h-131v547h-217v117h564z" />
    <glyph glyph-name="U" unicode="U" horiz-adv-x="727" 
d="M72 664h131v-385q0 -86 43 -130.5t118 -44.5t117.5 44.5t42.5 130.5v385h131v-386q0 -70 -21 -124t-59 -91t-91.5 -56.5t-119.5 -19.5t-120 19.5t-92 56.5t-59 91t-21 124v386z" />
    <glyph glyph-name="V" unicode="V" horiz-adv-x="699" 
d="M5 664h139l207 -490l208 490h135l-280 -664h-129z" />
    <glyph glyph-name="W" unicode="W" horiz-adv-x="1051" 
d="M142 664l160 -481l154 481h137l157 -480l159 480h133l-221 -664h-138l-158 490l-156 -490h-138l-222 664h133z" />
    <glyph glyph-name="X" unicode="X" horiz-adv-x="649" 
d="M250 330l-236 334h151l161 -228l163 228h146l-237 -330l237 -334h-150l-163 229l-164 -229h-144z" />
    <glyph glyph-name="Y" unicode="Y" horiz-adv-x="649" 
d="M507 664h142l-258 -430v-234h-131v234l-260 430h144l182 -298z" />
    <glyph glyph-name="Z" unicode="Z" horiz-adv-x="638" 
d="M588 547l-375 -430h375v-117h-537v117l374 430h-375v117h538v-117z" />
    <glyph glyph-name="bracketleft" unicode="[" horiz-adv-x="386" 
d="M213 -50h149v-112h-267v826h267v-111h-149v-603z" />
    <glyph glyph-name="backslash" unicode="\" horiz-adv-x="391" 
d="M125.032 664h-119.985l261.969 -744h118.985z" />
    <glyph glyph-name="bracketright" unicode="]" horiz-adv-x="385" 
d="M172 553h-148v111h266v-826h-266v112h148v603z" />
    <glyph glyph-name="asciicircum" unicode="^" horiz-adv-x="608" 
d="M558 285h-126l-128 245l-127 -245h-127l198 379h113z" />
    <glyph glyph-name="underscore" unicode="_" horiz-adv-x="444" 
d="M449 -36v-110h-454v110h454z" />
    <glyph glyph-name="grave" unicode="`" horiz-adv-x="402" 
d="M184 766l164 -214h-130l-164 214h130z" />
    <glyph glyph-name="a" unicode="a" horiz-adv-x="577" 
d="M274 488q54 0 98 -13t75.5 -37.5t49 -60.5t17.5 -82v-295h-126v36q-26 -26 -67 -37.5t-87 -11.5q-88 0 -137.5 42t-49.5 119q0 45 19.5 74t51 46.5t71.5 24t82 6.5h117q0 41 -33 59t-78 18q-40 0 -69 -13t-42 -44h-130q10 43 33.5 75t55.5 53t70.5 31t78.5 10zM388 205
h-117q-46 0 -72 -14.5t-26 -43.5q0 -25 22 -42t64 -17q25 0 48.5 6t41.5 18.5t28.5 30.5t10.5 42v20z" />
    <glyph glyph-name="b" unicode="b" horiz-adv-x="625" 
d="M580 237q0 -49 -16.5 -94t-47.5 -79.5t-76.5 -55.5t-102.5 -21q-40 0 -77.5 12.5t-61.5 36.5v-36h-126v669h126v-231q24 24 61.5 37t77.5 13q57 0 102.5 -21t76.5 -56t47.5 -80t16.5 -94zM454 237q0 27 -9.5 51.5t-26 43t-40 29.5t-51.5 11q-25 0 -49 -8.5t-43 -25.5
t-30.5 -42t-11.5 -59t11.5 -59t30.5 -41.5t43 -25t49 -8.5q28 0 51.5 10.5t40 29t26 43t9.5 51.5z" />
    <glyph glyph-name="c" unicode="c" horiz-adv-x="573" 
d="M298 103q32 0 60.5 12.5t45.5 40.5h128q-13 -39 -36 -70.5t-54 -53t-67.5 -33.5t-76.5 -12q-54 0 -100.5 19t-80 52.5t-53 79.5t-19.5 100t19.5 100t53 79t80 52t100.5 19q40 0 76.5 -12t67.5 -33.5t54 -53t36 -70.5h-128q-17 28 -45.5 40.5t-60.5 12.5q-57 0 -92 -37
t-35 -97t35 -97.5t92 -37.5z" />
    <glyph glyph-name="d" unicode="d" horiz-adv-x="625" 
d="M45 237q0 49 16.5 94t47.5 80t76.5 56t102.5 21q40 0 77.5 -13t61.5 -37v231h126v-669h-126v36q-24 -24 -61.5 -36.5t-77.5 -12.5q-57 0 -102.5 21t-76.5 55.5t-47.5 79.5t-16.5 94zM171 237q0 -27 9.5 -51.5t26 -43t40 -29t51.5 -10.5q25 0 49 8.5t43 25t30.5 41.5
t11.5 59t-11.5 59t-30.5 42t-43 25.5t-49 8.5q-28 0 -51.5 -11t-40 -29.5t-26 -43t-9.5 -51.5z" />
    <glyph glyph-name="e" unicode="e" horiz-adv-x="589" 
d="M536 144q-14 -36 -37.5 -65t-54.5 -49.5t-67.5 -31.5t-74.5 -11q-56 0 -103 19t-81 52.5t-53.5 79.5t-19.5 100q0 53 18.5 99t52 79.5t80 52.5t101.5 19t100.5 -19t78 -52.5t50.5 -79t18 -97.5v-22t-2 -22h-366q10 -43 44.5 -68t81.5 -25q30 0 55.5 9.5t42.5 31.5h136z
M410 290q-6 42 -37.5 66t-75.5 24q-43 0 -77.5 -24.5t-40.5 -65.5h231z" />
    <glyph glyph-name="f" unicode="f" horiz-adv-x="391" 
d="M101 0v365h-87v110h87v45q0 66 45.5 107.5t134.5 41.5h90v-110h-89q-29 0 -42 -16.5t-13 -42.5v-25h144v-110h-144v-365h-126z" />
    <glyph glyph-name="g" unicode="g" horiz-adv-x="621" 
d="M41 238q0 49 16.5 94t47.5 79.5t76.5 55.5t102.5 21q40 0 77.5 -12.5t61.5 -36.5v36h126v-449q0 -56 -17 -100.5t-49.5 -76.5t-79.5 -49t-107 -17q-44 0 -84 12t-72.5 34.5t-56 55t-35.5 73.5h136q12 -26 40.5 -42.5t71.5 -16.5q58 0 92.5 33.5t34.5 87.5v17
q-24 -24 -61.5 -37t-77.5 -13q-57 0 -102.5 21t-76.5 56t-47.5 80t-16.5 94zM167 238q0 -27 9.5 -51.5t26 -43t40 -29.5t51.5 -11q25 0 49 8.5t43 25.5t30.5 42t11.5 59t-11.5 59t-30.5 41.5t-43 25t-49 8.5q-28 0 -51.5 -10.5t-40 -29t-26 -43t-9.5 -51.5z" />
    <glyph glyph-name="h" unicode="h" horiz-adv-x="616" 
d="M342 488q46 0 85 -14t67 -40t43.5 -63.5t15.5 -84.5v-286h-126v263q0 51 -28 80t-83 29q-24 0 -45 -9t-37.5 -26t-26 -41t-9.5 -55v-241h-126v669h126v-230q20 22 58 35.5t86 13.5z" />
    <glyph glyph-name="i" unicode="i" horiz-adv-x="274" 
d="M68 689h138v-137h-138v137zM200 475v-475h-126v475h126z" />
    <glyph glyph-name="j" unicode="j" horiz-adv-x="291" 
d="M85 689h138v-137h-138v137zM217 475v-530q0 -66 -45.5 -107.5t-134.5 -41.5h-90v110h89q29 0 42 16.5t13 42.5v510h126z" />
    <glyph glyph-name="k" unicode="k" horiz-adv-x="571" 
d="M198 669v-378l194 184h175l-256 -238l255 -237h-174l-194 173v-173h-126v669h126z" />
    <glyph glyph-name="l" unicode="l" horiz-adv-x="270" 
d="M198 669v-669h-126v669h126z" />
    <glyph glyph-name="m" unicode="m" horiz-adv-x="945" 
d="M674 488q45 0 83.5 -14t66 -40.5t43 -64t15.5 -84.5v-285h-126v262q0 53 -25.5 81.5t-78.5 28.5q-48 0 -80 -36t-32 -96v-240h-126v262q0 53 -25.5 81.5t-78.5 28.5q-48 0 -80 -36t-32 -96v-240h-126v475h126v-36q20 20 56 34.5t80 14.5q57 0 100 -17t70 -55q24 30 67 51
t103 21z" />
    <glyph glyph-name="n" unicode="n" horiz-adv-x="616" 
d="M342 488q46 0 85 -14t67 -40t43.5 -63.5t15.5 -84.5v-286h-126v263q0 51 -28 80t-83 29q-24 0 -45 -9t-37.5 -26t-26 -41t-9.5 -55v-241h-126v475h126v-36q20 22 58 35.5t86 13.5z" />
    <glyph glyph-name="o" unicode="o" horiz-adv-x="606" 
d="M303 488q55 0 102.5 -19t82 -52.5t54 -79.5t19.5 -100t-19.5 -99.5t-54 -79t-82 -52.5t-102.5 -19t-102.5 19t-82 52.5t-54 79t-19.5 99.5t19.5 100t54 79.5t82 52.5t102.5 19zM303 372q-28 0 -52 -10t-42 -27.5t-28 -42.5t-10 -55t10 -54.5t28 -42t42 -27.5t52 -10
t52 10t42 27.5t28 42t10 54.5t-10 55t-28 42.5t-42 27.5t-52 10z" />
    <glyph glyph-name="p" unicode="p" horiz-adv-x="625" 
d="M580 238q0 -49 -16.5 -94t-47.5 -80t-76.5 -56t-102.5 -21q-40 0 -77.5 13t-61.5 37v-241h-126v679h126v-36q24 24 61.5 36.5t77.5 12.5q57 0 102.5 -21t76.5 -55.5t47.5 -79.5t16.5 -94zM454 238q0 27 -9.5 51.5t-26 43t-40 29t-51.5 10.5q-25 0 -49 -8.5t-43 -25
t-30.5 -41.5t-11.5 -59t11.5 -59t30.5 -42t43 -25.5t49 -8.5q28 0 51.5 11t40 29.5t26 43t9.5 51.5z" />
    <glyph glyph-name="q" unicode="q" horiz-adv-x="625" 
d="M45 238q0 49 16.5 94t47.5 79.5t76.5 55.5t102.5 21q40 0 77.5 -12.5t61.5 -36.5v36h126v-679h-126v241q-24 -24 -61.5 -37t-77.5 -13q-57 0 -102.5 21t-76.5 56t-47.5 80t-16.5 94zM171 238q0 -27 9.5 -51.5t26 -43t40 -29.5t51.5 -11q25 0 49 8.5t43 25.5t30.5 42
t11.5 59t-11.5 59t-30.5 41.5t-43 25t-49 8.5q-28 0 -51.5 -10.5t-40 -29t-26 -43t-9.5 -51.5z" />
    <glyph glyph-name="r" unicode="r" horiz-adv-x="417" 
d="M198 475v-49q16 24 50 38.5t75 14.5h58v-120h-59q-61 0 -92.5 -35.5t-31.5 -92.5v-231h-126v475h126z" />
    <glyph glyph-name="s" unicode="s" horiz-adv-x="545" 
d="M379 335q-14 26 -43.5 37.5t-72.5 11.5q-41 0 -64 -12.5t-23 -34.5q0 -20 19.5 -29.5t56.5 -12.5l86 -7q81 -7 126 -41t45 -103q0 -34 -15 -63t-43.5 -50t-70 -32.5t-93.5 -11.5q-106 0 -170 42.5t-81 120.5h134q11 -31 44 -45t83 -14q36 0 61 11t25 34q0 20 -19 30.5
t-55 14.5l-94 9q-81 8 -123 42t-42 99q0 34 15 63t42.5 50t67.5 32.5t91 11.5q107 0 167 -42t80 -111h-134z" />
    <glyph glyph-name="t" unicode="t" horiz-adv-x="425" 
d="M240 582v-107h144v-110h-144v-196q0 -26 13 -42.5t42 -16.5h89v-110h-90q-89 0 -134.5 41.5t-45.5 107.5v216h-87v110h87v107h126z" />
    <glyph glyph-name="u" unicode="u" horiz-adv-x="610" 
d="M271 -13q-46 0 -84 14t-65.5 40t-43 63.5t-15.5 84.5v286h126v-263q0 -51 27 -80t81 -29q23 0 44 9t36.5 26t25 41t9.5 55v241h126v-475h-126v36q-20 -22 -56.5 -35.5t-84.5 -13.5z" />
    <glyph glyph-name="v" unicode="v" horiz-adv-x="567" 
d="M343 0h-119l-215 475h139l138 -306l138 306h134z" />
    <glyph glyph-name="w" unicode="w" horiz-adv-x="879" 
d="M147 475l117 -312l115 312h124l117 -314l116 314h125l-175 -475h-129l-118 320l-117 -320h-127l-177 475h129z" />
    <glyph glyph-name="x" unicode="x" horiz-adv-x="580" 
d="M292 340l109 135h156l-188 -232l193 -243h-162l-113 142l-115 -142h-154l192 238l-187 237h162z" />
    <glyph glyph-name="y" unicode="y" horiz-adv-x="567" 
d="M332 -25q-24 -52 -41.5 -86.5t-38.5 -55t-49 -29t-73 -8.5h-70v110h54q27 0 47.5 16t37.5 54l18 41l-208 458h139l138 -306l138 306h134z" />
    <glyph glyph-name="z" unicode="z" horiz-adv-x="554" 
d="M55 0v110l268 255h-268v110h439v-110l-270 -255h270v-110h-439z" />
    <glyph glyph-name="braceleft" unicode="{" horiz-adv-x="379" 
d="M363 553h-51q-61 0 -61 -57v-132q0 -50 -17.5 -75.5t-38.5 -36.5q20 -11 38 -38.5t18 -75.5v-132q0 -56 61 -56h51v-112h-64q-36 0 -66 9.5t-52.5 28.5t-35 48t-12.5 69v131q0 37 -27 58t-71 21v96q44 0 71 21t27 59v131q0 39 12.5 68t35 48t52.5 28.5t66 9.5h64v-111z
" />
    <glyph glyph-name="bar" unicode="|" horiz-adv-x="258" 
d="M188 -162h-118v826h118v-826z" />
    <glyph glyph-name="braceright" unicode="}" horiz-adv-x="379" 
d="M16.0439 553h50.9941q60.9922 0 60.9922 -57v-132q0 -50 17.498 -75.5t38.4951 -36.5q-19.9971 -11 -37.9951 -38.5t-17.998 -75.5v-132q0 -56 -60.9922 -56h-50.9941v-112h63.9922q35.9961 0 65.9922 9.5t52.4941 28.5q22.4971 19 34.9951 48q12.499 29 12.499 69v131
q0 37 26.9961 58q26.9971 21 70.9912 21v96q-43.9941 0 -70.9912 21q-26.9961 21 -26.9961 59v131q0 39 -12.499 68q-12.498 29 -34.9951 48q-22.498 19 -52.4941 28.5t-65.9922 9.5h-63.9922v-111z" />
    <glyph glyph-name="asciitilde" unicode="~" horiz-adv-x="564" 
d="M514 373q0 -39 -8 -74.5t-25 -61.5t-44.5 -41.5t-66.5 -15.5q-28 0 -54 13t-48.5 29t-41 29t-32.5 13q-19 0 -27 -22.5t-8 -61.5h-109q0 39 8 74.5t25 61.5t44.5 41.5t66.5 15.5q28 0 53.5 -13t48 -29t41.5 -29t33 -13q19 0 27 22.5t8 61.5h109z" />
    <glyph glyph-name="nonbreakingspace" unicode="&#xa0;" horiz-adv-x="210" 
 />
    <glyph glyph-name="exclamdown" unicode="&#xa1;" horiz-adv-x="349" 
d="M100 475h149v-149h-149v149zM239 -204h-129v475h129v-475z" />
    <glyph glyph-name="cent" unicode="&#xa2;" horiz-adv-x="573" 
d="M298 103q32 0 60.5 12.5t45.5 40.5h128q-22 -63 -68 -105.5t-107 -56.5v-114h-118v114q-43 9 -78.5 31t-61 53.5t-40 72t-14.5 87.5q0 46 14.5 86.5t40 72.5t61 54t78.5 31v115h118v-115q61 -15 107 -57.5t68 -105.5h-128q-17 28 -45.5 40.5t-60.5 12.5q-57 0 -92 -37
t-35 -97t35 -97.5t92 -37.5z" />
    <glyph glyph-name="sterling" unicode="&#xa3;" horiz-adv-x="598" 
d="M556 0h-516v117q39 0 59 17t20 57v77h-79v110h79v92q0 47 16 85.5t44.5 65.5t68.5 41.5t89 14.5q86 0 142.5 -49t78.5 -129h-129q-11 25 -32.5 43t-59.5 18q-42 0 -65.5 -25t-23.5 -65v-92h156v-110h-156v-80q0 -27 -4.5 -44t-20.5 -27h333v-117z" />
    <glyph glyph-name="currency" unicode="&#xa4;" horiz-adv-x="602" 
d="M557 173l-80 -80l-78 78q-45 -25 -98 -25t-98 25l-78 -78l-80 80l78 78q-25 45 -25 98t25 98l-78 78l80 80l78 -78q45 25 98 25t98 -25l78 78l80 -80l-78 -78q25 -45 25 -98t-25 -98zM301 253q40 0 68 28t28 68t-28 68t-68 28t-68 -28t-28 -68t28 -68t68 -28z" />
    <glyph glyph-name="yen" unicode="&#xa5;" horiz-adv-x="649" 
d="M507 664h142l-141 -234h90v-92h-145l-31 -52h176v-92h-207v-194h-131v194h-207v92h175l-31 52h-144v92h88l-141 234h144l182 -298z" />
    <glyph glyph-name="brokenbar" unicode="&#xa6;" horiz-adv-x="258" 
d="M188 -162h-118v336h118v-336zM188 329h-118v335h118v-335z" />
    <glyph glyph-name="section" unicode="&#xa7;" horiz-adv-x="596" 
d="M552 222q0 -48 -27 -82t-75 -55q23 -23 38 -54t15 -66q0 -46 -17.5 -80t-46 -56.5t-64.5 -34t-73 -11.5q-87 0 -143.5 48.5t-79.5 136.5h123q11 -32 34 -51.5t61 -19.5q42 0 62 20.5t20 43.5q0 15 -5.5 27t-19 21.5t-36.5 17.5t-59 17q-51 12 -91 28t-67 38.5t-41.5 53
t-14.5 73.5q0 48 27 82.5t75 56.5q-23 22 -37 53t-14 66q0 46 17 80.5t45.5 57t64 33.5t73.5 11q88 0 145 -48.5t78 -136.5h-124q-10 32 -33 51t-61 19q-42 0 -62.5 -19.5t-20.5 -43.5q0 -15 5.5 -27t19.5 -21.5t37 -17.5t59 -17q51 -13 90.5 -28.5t67 -38t41.5 -53.5
t14 -74zM318 162q18 0 37.5 3.5t36 11t27.5 19.5t11 29q0 18 -12 31.5t-32 22.5t-47 14t-58 5q-18 0 -38 -3.5t-36.5 -11t-27 -19.5t-10.5 -30q0 -17 12 -30.5t32 -22.5t47.5 -14t57.5 -5z" />
    <glyph glyph-name="dieresis" unicode="&#xa8;" horiz-adv-x="462" 
d="M54 705h128v-128h-128v128zM280 705h128v-128h-128v128z" />
    <glyph glyph-name="copyright" unicode="&#xa9;" horiz-adv-x="816" 
d="M416 219q27 0 49 12.5t36 33.5h88q-25 -56 -69 -90t-104 -34q-40 0 -74.5 14.5t-60 40t-40 60.5t-14.5 76t14.5 76.5t40 61t60 40t74.5 14.5q60 0 104 -34t69 -91h-88q-14 22 -36 34.5t-49 12.5q-47 0 -77.5 -32t-30.5 -82t30.5 -81.5t77.5 -31.5zM63 332q0 71 27 134
t74 110t110 74t134 27t134 -27t110 -74t74 -110t27 -134t-27 -134t-74 -110t-110 -74t-134 -27t-134 27t-110 74t-74 110t-27 134zM128 332q0 -58 22 -109t60 -89t89 -60t109 -22t109 22t89 60t60 89t22 109t-22 109t-60 89t-89 60t-109 22t-109 -22t-89 -60t-60 -89
t-22 -109z" />
    <glyph glyph-name="ordfeminine" unicode="&#xaa;" horiz-adv-x="416" 
d="M199 671q73 0 118 -34t45 -97v-203h-88v29q-19 -21 -48.5 -29t-55.5 -8q-60 0 -93 28.5t-33 81.5q0 32 14 52t36 31.5t49.5 15.5t55.5 4h75q0 29 -21 42t-52 13q-27 0 -47.5 -9.5t-25.5 -32.5h-92q5 31 21 53t38.5 36t49.5 20.5t54 6.5zM274 480h-78q-31 0 -48.5 -10
t-17.5 -31q0 -17 15 -28.5t43 -11.5q35 0 60.5 17t25.5 51v13z" />
    <glyph glyph-name="guillemotleft" unicode="&#xab;" horiz-adv-x="608" 
d="M432 454h151l-183 -204l183 -203h-151l-140 155v97zM185 454h151l-183 -204l183 -203h-151l-140 155v97z" />
    <glyph glyph-name="logicalnot" unicode="&#xac;" horiz-adv-x="564" 
d="M514 420v-278h-110v168h-354v110h464z" />
    <glyph glyph-name="uni00AD" unicode="&#xad;" horiz-adv-x="393" 
d="M65 315h263v-120h-263v120z" />
    <glyph glyph-name="registered" unicode="&#xae;" horiz-adv-x="816" 
d="M423 517q34 0 59.5 -9.5t42.5 -26t25 -37.5t8 -45q0 -35 -18 -64.5t-56 -43.5l109 -143h-102l-100 133h-54v-133h-81v369h167zM337 359h91q23 0 36 10.5t13 29.5t-13 29.5t-36 10.5h-91v-80zM63 332q0 71 27 134t74 110t110 74t134 27t134 -27t110 -74t74 -110t27 -134
t-27 -134t-74 -110t-110 -74t-134 -27t-134 27t-110 74t-74 110t-27 134zM128 332q0 -58 22 -109t60 -89t89 -60t109 -22t109 22t89 60t60 89t22 109t-22 109t-60 89t-89 60t-109 22t-109 -22t-89 -60t-60 -89t-22 -109z" />
    <glyph glyph-name="macron" unicode="&#xaf;" horiz-adv-x="488" 
d="M434 654v-102h-380v102h380z" />
    <glyph glyph-name="degree" unicode="&#xb0;" horiz-adv-x="440" 
d="M395 501q0 -35 -13.5 -66t-36.5 -54t-55.5 -36.5t-69.5 -13.5q-38 0 -70 13.5t-55 36.5t-36.5 54t-13.5 66t13.5 66t36.5 54t55 36.5t70 13.5q37 0 69.5 -13.5t55.5 -36.5t36.5 -54t13.5 -66zM285 501q0 28 -18 48t-47 20t-47 -20t-18 -48t18 -48t47 -20t47 20t18 48z
" />
    <glyph glyph-name="plusminus" unicode="&#xb1;" horiz-adv-x="564" 
d="M50 110h464v-110h-464v110zM514 407v-110h-177v-141h-110v141h-177v110h177v141h110v-141h177z" />
    <glyph glyph-name="twosuperior" unicode="&#xb2;" horiz-adv-x="366" 
d="M44 551q11 58 48 89.5t91 31.5q62 0 99 -31t37 -82q0 -29 -13 -54.5t-42 -48.5l-72 -56h129v-78h-262v78l136 105q31 23 31 52q0 14 -10.5 25t-29.5 11q-18 0 -31 -9.5t-18 -32.5h-93v0z" />
    <glyph glyph-name="threesuperior" unicode="&#xb3;" horiz-adv-x="370" 
d="M287 496q20 -13 29 -33t9 -37q0 -23 -10 -43t-28 -35t-43 -24t-56 -9q-23 0 -46 6t-42.5 18.5t-34 33t-20.5 49.5h91q8 -17 21 -22.5t32 -5.5q18 0 31.5 8.5t13.5 24.5q0 14 -11 23t-34 9h-50v72h50q43 0 43 31q0 14 -13 22.5t-30 8.5q-18 0 -31.5 -5.5t-21.5 -21.5h-90
q5 29 19 49t33.5 33t43 18.5t46.5 5.5q30 0 55 -9t43 -24t28 -34.5t10 -40.5q0 -20 -8.5 -37t-28.5 -31z" />
    <glyph glyph-name="acute" unicode="&#xb4;" horiz-adv-x="402" 
d="M348 766l-164 -214h-130l164 214h130z" />
    <glyph glyph-name="mu" unicode="&#xb5;" horiz-adv-x="619" 
d="M280 -13q-23 0 -43.5 3.5t-38.5 9.5v-204h-126v679h126v-263q0 -51 27 -80t81 -29q23 0 44 9t36.5 26t25 41t9.5 55v241h126v-475h-126v36q-20 -22 -56.5 -35.5t-84.5 -13.5z" />
    <glyph glyph-name="paragraph" unicode="&#xb6;" horiz-adv-x="629" 
d="M266 277h-20q-43 0 -81.5 12.5t-67 37t-45 61t-16.5 83.5q0 46 16.5 82t45 61t67 37.5t81.5 12.5h127v-826h-107v439zM445 664h107v-826h-107v826z" />
    <glyph glyph-name="periodcentered" unicode="&#xb7;" horiz-adv-x="259" 
d="M55 360h149v-149h-149v149z" />
    <glyph glyph-name="cedilla" unicode="&#xb8;" horiz-adv-x="384" 
d="M330 -13l-146 -191h-130l146 191h130z" />
    <glyph glyph-name="onesuperior" unicode="&#xb9;" horiz-adv-x="269" 
d="M109 665h88v-343h-91v234l-70 -63v105z" />
    <glyph glyph-name="ordmasculine" unicode="&#xba;" horiz-adv-x="443" 
d="M221 671q38 0 70.5 -13t56 -36t37 -54t13.5 -68t-13.5 -68t-37 -54t-56 -36t-70.5 -13t-70 13t-55.5 36t-37 54t-13.5 68t13.5 68t37 54t55.5 36t70 13zM221 592q-38 0 -64 -25t-26 -67q0 -41 26 -66t64 -25q39 0 65 25t26 66q0 42 -26 67t-65 25z" />
    <glyph glyph-name="guillemotright" unicode="&#xbb;" horiz-adv-x="608" 
d="M316 299v-97l-140 -155h-151l183 203l-183 204h151zM563 299v-97l-140 -155h-151l183 203l-183 204h151z" />
    <glyph glyph-name="onequarter" unicode="&#xbc;" horiz-adv-x="765" 
d="M669 145h51v-78h-51v-67h-90v67h-174v72l152 204h106l-149 -198h65v56h90v-56zM119 0l388 664h104l-388 -664h-104zM109 664h88v-343h-91v234l-70 -63v105z" />
    <glyph glyph-name="onehalf" unicode="&#xbd;" horiz-adv-x="786" 
d="M464 229q11 58 48 89.5t91 31.5q62 0 99 -31t37 -82q0 -29 -13 -54.5t-42 -48.5l-72 -56h129v-78h-262v78l136 105q31 23 31 52q0 14 -10.5 25t-29.5 11q-18 0 -31 -9.5t-18 -32.5h-93zM119 0l388 664h104l-388 -664h-104zM109 664h88v-343h-91v234l-70 -63v105z" />
    <glyph glyph-name="threequarters" unicode="&#xbe;" horiz-adv-x="838" 
d="M742 145h51v-78h-51v-67h-90v67h-174v72l152 204h106l-149 -198h65v56h90v-56zM192 0l388 664h104l-388 -664h-104zM287 495q20 -13 29 -33t9 -37q0 -23 -10 -43t-28 -35t-43 -24t-56 -9q-23 0 -46 6t-42.5 19t-34 34t-20.5 50h91q8 -17 21 -23.5t32 -6.5q18 0 31.5 8.5
t13.5 24.5q0 14 -11 23t-34 9h-50v72h50q43 0 43 31q0 14 -13 22.5t-30 8.5q-18 0 -31.5 -6t-21.5 -23h-90q5 30 19 50.5t33.5 33t43 18.5t46.5 6q30 0 55 -9t43 -24t28 -34.5t10 -40.5q0 -20 -8.5 -37t-28.5 -31z" />
    <glyph glyph-name="questiondown" unicode="&#xbf;" horiz-adv-x="543" 
d="M268 -217q-53 0 -92.5 14.5t-66.5 38.5t-40.5 55t-13.5 64t7.5 57t22 43.5t35.5 38t49 40.5q27 21 37.5 38.5t10.5 47.5v51h124v-51q0 -30 -5.5 -53t-17.5 -43t-31 -38.5t-46 -40.5q-28 -22 -44 -41t-16 -45q0 -29 24.5 -44.5t62.5 -15.5q45 0 72.5 21.5t36.5 57.5h131
q-7 -41 -27.5 -76.5t-51.5 -62t-72 -41.5t-89 -15zM354 326h-149v149h149v-149z" />
    <glyph glyph-name="Agrave" unicode="&#xc0;" horiz-adv-x="706" 
d="M706 0h-139l-65 147h-303l-65 -147h-134l289 664h128zM251 264h199l-99 226zM247 936l164 -197h-130l-164 197h130z" />
    <glyph glyph-name="Aacute" unicode="&#xc1;" horiz-adv-x="706" 
d="M706 0h-139l-65 147h-303l-65 -147h-134l289 664h128zM251 264h199l-99 226zM585 936l-164 -197h-130l164 197h130z" />
    <glyph glyph-name="Acircumflex" unicode="&#xc2;" horiz-adv-x="706" 
d="M706 0h-139l-65 147h-303l-65 -147h-134l289 664h128zM251 264h199l-99 226zM126 739l173 195h109l172 -195h-130l-97 100l-98 -100h-129z" />
    <glyph glyph-name="Atilde" unicode="&#xc3;" horiz-adv-x="706" 
d="M706 0h-139l-65 147h-303l-65 -147h-134l289 664h128zM251 264h199l-99 226zM562 932q0 -93 -35.5 -143t-98.5 -50q-29 0 -51.5 14t-41 31.5t-33 31.5t-27.5 14q-17 0 -26 -21.5t-9 -69.5h-96q0 93 35.5 143t98.5 50q28 0 50.5 -14t41 -31.5t33.5 -31.5t28 -14
q17 0 26 21.5t9 69.5h96z" />
    <glyph glyph-name="Adieresis" unicode="&#xc4;" horiz-adv-x="706" 
d="M706 0h-139l-65 147h-303l-65 -147h-134l289 664h128zM251 264h199l-99 226zM176 875h128v-128h-128v128zM402 875h128v-128h-128v128z" />
    <glyph glyph-name="Aring" unicode="&#xc5;" horiz-adv-x="706" 
d="M706 0h-139l-65 147h-303l-65 -147h-134l289 664h128zM251 264h199l-99 226zM353 1026q31 0 58.5 -12t47.5 -32t32 -47.5t12 -58.5t-12 -58.5t-32 -47.5t-47.5 -32t-58.5 -12t-58.5 12t-47.5 32t-32 47.5t-12 58.5t12 58.5t32 47.5t47.5 32t58.5 12zM353 821q23 0 39 16
t16 39t-16 39.5t-39 16.5t-39.5 -16.5t-16.5 -39.5t16.5 -39t39.5 -16z" />
    <glyph glyph-name="AE" unicode="&#xc6;" horiz-adv-x="1033" 
d="M639 547v-156h328v-117h-328v-157h335v-117h-466v147h-252l-103 -147h-164l478 664h507v-117h-335zM508 264v240l-169 -240h169z" />
    <glyph glyph-name="Ccedilla" unicode="&#xc7;" horiz-adv-x="722" 
d="M384 677q109 0 185.5 -54t116.5 -143h-140q-27 35 -69 57.5t-93 22.5q-46 0 -84.5 -17.5t-67 -48t-44.5 -72t-16 -90.5t16 -90.5t44.5 -72t67 -48t84.5 -17.5q51 0 93 22t69 58h140q-35 -77 -96.5 -127.5t-146.5 -64.5l-134 -176h-130l135 178q-60 11 -110 41t-86 74
t-56.5 101t-20.5 122q0 74 26 137.5t72 109.5t109 72t136 26z" />
    <glyph glyph-name="Egrave" unicode="&#xc8;" horiz-adv-x="602" 
d="M208 547v-156h328v-117h-328v-157h335v-117h-466v664h466v-117h-335zM232 936l164 -197h-130l-164 197h130z" />
    <glyph glyph-name="Eacute" unicode="&#xc9;" horiz-adv-x="602" 
d="M208 547v-156h328v-117h-328v-157h335v-117h-466v664h466v-117h-335zM530 936l-164 -197h-130l164 197h130z" />
    <glyph glyph-name="Ecircumflex" unicode="&#xca;" horiz-adv-x="602" 
d="M208 547v-156h328v-117h-328v-157h335v-117h-466v664h466v-117h-335zM79 739l173 195h109l172 -195h-130l-97 100l-98 -100h-129z" />
    <glyph glyph-name="Edieresis" unicode="&#xcb;" horiz-adv-x="602" 
d="M208 547v-156h328v-117h-328v-157h335v-117h-466v664h466v-117h-335zM133 875h128v-128h-128v128zM359 875h128v-128h-128v128z" />
    <glyph glyph-name="Igrave" unicode="&#xcc;" horiz-adv-x="285" 
d="M208 0h-131v664h131v-664zM45 936l164 -197h-130l-164 197h130z" />
    <glyph glyph-name="Iacute" unicode="&#xcd;" horiz-adv-x="285" 
d="M208 0h-131v664h131v-664zM370 936l-164 -197h-130l164 197h130z" />
    <glyph glyph-name="Icircumflex" unicode="&#xce;" horiz-adv-x="285" 
d="M208 0h-131v664h131v-664zM-84 739l173 195h109l172 -195h-130l-97 100l-98 -100h-129z" />
    <glyph glyph-name="Idieresis" unicode="&#xcf;" horiz-adv-x="285" 
d="M208 0h-131v664h131v-664zM-34 875h128v-128h-128v128zM192 875h128v-128h-128v128z" />
    <glyph glyph-name="Eth" unicode="&#xd0;" horiz-adv-x="742" 
d="M339 664q87 0 154 -26.5t113.5 -71.5t70.5 -105.5t24 -128.5t-24 -128.5t-70.5 -105.5t-113.5 -71.5t-154 -26.5h-230v274h-91v117h91v273h230zM335 117q54 0 97.5 16t74 44.5t47 68t16.5 86.5t-16.5 86.5t-47 68t-74 44.5t-97.5 16h-95v-156h192v-117h-192v-157h95z" />
    <glyph glyph-name="Ntilde" unicode="&#xd1;" horiz-adv-x="757" 
d="M680 664v-664h-142l-330 466v-466h-131v664h142l330 -466v466h131zM587 932q0 -93 -35.5 -143t-98.5 -50q-29 0 -51.5 14t-41 31.5t-33 31.5t-27.5 14q-17 0 -26 -21.5t-9 -69.5h-96q0 93 35.5 143t98.5 50q28 0 50.5 -14t41 -31.5t33.5 -31.5t28 -14q17 0 26 21.5
t9 69.5h96z" />
    <glyph glyph-name="Ograve" unicode="&#xd2;" horiz-adv-x="772" 
d="M386 -13q-77 0 -140 27t-109 74t-71 110t-25 134q0 72 25 134.5t71 109.5t109 74t140 27q76 0 139.5 -27t109.5 -74t71 -109.5t25 -134.5q0 -71 -25 -134t-71 -110t-109.5 -74t-139.5 -27zM386 104q46 0 85.5 18t68 49t44.5 72.5t16 88.5q0 48 -16 89.5t-44.5 72
t-68 48.5t-85.5 18q-47 0 -86 -18t-67.5 -48.5t-44.5 -72t-16 -89.5q0 -47 16 -88.5t44.5 -72.5t67.5 -49t86 -18zM293 936l164 -197h-130l-164 197h130z" />
    <glyph glyph-name="Oacute" unicode="&#xd3;" horiz-adv-x="772" 
d="M386 -13q-77 0 -140 27t-109 74t-71 110t-25 134q0 72 25 134.5t71 109.5t109 74t140 27q76 0 139.5 -27t109.5 -74t71 -109.5t25 -134.5q0 -71 -25 -134t-71 -110t-109.5 -74t-139.5 -27zM386 104q46 0 85.5 18t68 49t44.5 72.5t16 88.5q0 48 -16 89.5t-44.5 72
t-68 48.5t-85.5 18q-47 0 -86 -18t-67.5 -48.5t-44.5 -72t-16 -89.5q0 -47 16 -88.5t44.5 -72.5t67.5 -49t86 -18zM608 936l-164 -197h-130l164 197h130z" />
    <glyph glyph-name="Ocircumflex" unicode="&#xd4;" horiz-adv-x="772" 
d="M386 -13q-77 0 -140 27t-109 74t-71 110t-25 134q0 72 25 134.5t71 109.5t109 74t140 27q76 0 139.5 -27t109.5 -74t71 -109.5t25 -134.5q0 -71 -25 -134t-71 -110t-109.5 -74t-139.5 -27zM386 104q46 0 85.5 18t68 49t44.5 72.5t16 88.5q0 48 -16 89.5t-44.5 72
t-68 48.5t-85.5 18q-47 0 -86 -18t-67.5 -48.5t-44.5 -72t-16 -89.5q0 -47 16 -88.5t44.5 -72.5t67.5 -49t86 -18zM159 739l173 195h109l172 -195h-130l-97 100l-98 -100h-129z" />
    <glyph glyph-name="Otilde" unicode="&#xd5;" horiz-adv-x="772" 
d="M386 -13q-77 0 -140 27t-109 74t-71 110t-25 134q0 72 25 134.5t71 109.5t109 74t140 27q76 0 139.5 -27t109.5 -74t71 -109.5t25 -134.5q0 -71 -25 -134t-71 -110t-109.5 -74t-139.5 -27zM386 104q46 0 85.5 18t68 49t44.5 72.5t16 88.5q0 48 -16 89.5t-44.5 72
t-68 48.5t-85.5 18q-47 0 -86 -18t-67.5 -48.5t-44.5 -72t-16 -89.5q0 -47 16 -88.5t44.5 -72.5t67.5 -49t86 -18zM595 932q0 -93 -35.5 -143t-98.5 -50q-29 0 -51.5 14t-41 31.5t-33 31.5t-27.5 14q-17 0 -26 -21.5t-9 -69.5h-96q0 93 35.5 143t98.5 50q28 0 50.5 -14
t41 -31.5t33.5 -31.5t28 -14q17 0 26 21.5t9 69.5h96z" />
    <glyph glyph-name="Odieresis" unicode="&#xd6;" horiz-adv-x="772" 
d="M386 -13q-77 0 -140 27t-109 74t-71 110t-25 134q0 72 25 134.5t71 109.5t109 74t140 27q76 0 139.5 -27t109.5 -74t71 -109.5t25 -134.5q0 -71 -25 -134t-71 -110t-109.5 -74t-139.5 -27zM386 104q46 0 85.5 18t68 49t44.5 72.5t16 88.5q0 48 -16 89.5t-44.5 72
t-68 48.5t-85.5 18q-47 0 -86 -18t-67.5 -48.5t-44.5 -72t-16 -89.5q0 -47 16 -88.5t44.5 -72.5t67.5 -49t86 -18zM209 875h128v-128h-128v128zM435 875h128v-128h-128v128z" />
    <glyph glyph-name="multiply" unicode="&#xd7;" horiz-adv-x="548" 
d="M498 137l-77 -77l-147 146l-146 -146l-78 77l146 146l-146 147l78 78l146 -146l147 146l77 -78l-146 -147z" />
    <glyph glyph-name="Oslash" unicode="&#xd8;" horiz-adv-x="814" 
d="M407 -13q-51 0 -95 11.5t-82 33.5l-38 -45h-157l104 122q-37 45 -57 102t-20 121q0 72 25 134.5t71 109.5t109 74t140 27q50 0 94 -11.5t82 -33.5l38 45h158l-104 -123q37 -45 57 -101.5t20 -120.5q0 -71 -25 -134t-71 -110t-109.5 -74t-139.5 -27zM407 104q46 0 85.5 18
t68 49t44.5 72.5t16 88.5q0 34 -7.5 65t-24.5 57l-278 -327q43 -23 96 -23zM193 332q0 -70 31 -122l278 327q-43 23 -95 23q-47 0 -86 -18t-67.5 -48.5t-44.5 -72t-16 -89.5z" />
    <glyph glyph-name="Ugrave" unicode="&#xd9;" horiz-adv-x="727" 
d="M72 664h131v-385q0 -86 43 -130.5t118 -44.5t117.5 44.5t42.5 130.5v385h131v-386q0 -70 -21 -124t-59 -91t-91.5 -56.5t-119.5 -19.5t-120 19.5t-92 56.5t-59 91t-21 124v386zM262 936l164 -197h-130l-164 197h130z" />
    <glyph glyph-name="Uacute" unicode="&#xda;" horiz-adv-x="727" 
d="M72 664h131v-385q0 -86 43 -130.5t118 -44.5t117.5 44.5t42.5 130.5v385h131v-386q0 -70 -21 -124t-59 -91t-91.5 -56.5t-119.5 -19.5t-120 19.5t-92 56.5t-59 91t-21 124v386zM590 936l-164 -197h-130l164 197h130z" />
    <glyph glyph-name="Ucircumflex" unicode="&#xdb;" horiz-adv-x="727" 
d="M72 664h131v-385q0 -86 43 -130.5t118 -44.5t117.5 44.5t42.5 130.5v385h131v-386q0 -70 -21 -124t-59 -91t-91.5 -56.5t-119.5 -19.5t-120 19.5t-92 56.5t-59 91t-21 124v386zM136 739l173 195h109l172 -195h-130l-97 100l-98 -100h-129z" />
    <glyph glyph-name="Udieresis" unicode="&#xdc;" horiz-adv-x="727" 
d="M72 664h131v-385q0 -86 43 -130.5t118 -44.5t117.5 44.5t42.5 130.5v385h131v-386q0 -70 -21 -124t-59 -91t-91.5 -56.5t-119.5 -19.5t-120 19.5t-92 56.5t-59 91t-21 124v386zM186 875h128v-128h-128v128zM412 875h128v-128h-128v128z" />
    <glyph glyph-name="Yacute" unicode="&#xdd;" horiz-adv-x="649" 
d="M507 664h142l-258 -430v-234h-131v234l-260 430h144l182 -298zM552 936l-164 -197h-130l164 197h130z" />
    <glyph glyph-name="Thorn" unicode="&#xde;" horiz-adv-x="671" 
d="M635 338q0 -42 -13.5 -79t-42 -65t-72 -44.5t-102.5 -16.5h-197v-133h-131v664h131v-122h197q59 0 102.5 -16.5t72 -44.5t42 -65t13.5 -78zM208 250h188q51 0 79.5 24t28.5 64t-28.5 63.5t-79.5 23.5h-188v-175z" />
    <glyph glyph-name="germandbls" unicode="&#xdf;" horiz-adv-x="585" 
d="M444 337q38 -26 59 -63t21 -82q0 -40 -14.5 -75t-41.5 -61t-65 -41t-84 -15h-53v110h35q48 0 72.5 25t24.5 60q0 38 -24.5 62.5t-72.5 24.5h-35v110h33q42 0 68.5 25t26.5 64q0 37 -24.5 61t-69.5 24q-21 0 -40 -6t-32.5 -20.5t-21.5 -38t-8 -58.5v-443h-126v443
q0 115 61 177t166 62q50 0 91 -15t70 -42t44.5 -64t15.5 -81q0 -38 -19 -76.5t-57 -66.5z" />
    <glyph glyph-name="agrave" unicode="&#xe0;" horiz-adv-x="577" 
d="M274 488q54 0 98 -13t75.5 -37.5t49 -60.5t17.5 -82v-295h-126v36q-26 -26 -67 -37.5t-87 -11.5q-88 0 -137.5 42t-49.5 119q0 45 19.5 74t51 46.5t71.5 24t82 6.5h117q0 41 -33 59t-78 18q-40 0 -69 -13t-42 -44h-130q10 43 33.5 75t55.5 53t70.5 31t78.5 10zM388 205
h-117q-46 0 -72 -14.5t-26 -43.5q0 -25 22 -42t64 -17q25 0 48.5 6t41.5 18.5t28.5 30.5t10.5 42v20zM212 766l164 -214h-130l-164 214h130z" />
    <glyph glyph-name="aacute" unicode="&#xe1;" horiz-adv-x="577" 
d="M274 488q54 0 98 -13t75.5 -37.5t49 -60.5t17.5 -82v-295h-126v36q-26 -26 -67 -37.5t-87 -11.5q-88 0 -137.5 42t-49.5 119q0 45 19.5 74t51 46.5t71.5 24t82 6.5h117q0 41 -33 59t-78 18q-40 0 -69 -13t-42 -44h-130q10 43 33.5 75t55.5 53t70.5 31t78.5 10zM388 205
h-117q-46 0 -72 -14.5t-26 -43.5q0 -25 22 -42t64 -17q25 0 48.5 6t41.5 18.5t28.5 30.5t10.5 42v20zM490 766l-164 -214h-130l164 214h130z" />
    <glyph glyph-name="acircumflex" unicode="&#xe2;" horiz-adv-x="577" 
d="M274 488q54 0 98 -13t75.5 -37.5t49 -60.5t17.5 -82v-295h-126v36q-26 -26 -67 -37.5t-87 -11.5q-88 0 -137.5 42t-49.5 119q0 45 19.5 74t51 46.5t71.5 24t82 6.5h117q0 41 -33 59t-78 18q-40 0 -69 -13t-42 -44h-130q10 43 33.5 75t55.5 53t70.5 31t78.5 10zM388 205
h-117q-46 0 -72 -14.5t-26 -43.5q0 -25 22 -42t64 -17q25 0 48.5 6t41.5 18.5t28.5 30.5t10.5 42v20zM55 552l173 214h109l172 -214h-130l-97 116l-98 -116h-129z" />
    <glyph glyph-name="atilde" unicode="&#xe3;" horiz-adv-x="577" 
d="M274 488q54 0 98 -13t75.5 -37.5t49 -60.5t17.5 -82v-295h-126v36q-26 -26 -67 -37.5t-87 -11.5q-88 0 -137.5 42t-49.5 119q0 45 19.5 74t51 46.5t71.5 24t82 6.5h117q0 41 -33 59t-78 18q-40 0 -69 -13t-42 -44h-130q10 43 33.5 75t55.5 53t70.5 31t78.5 10zM388 205
h-117q-46 0 -72 -14.5t-26 -43.5q0 -25 22 -42t64 -17q25 0 48.5 6t41.5 18.5t28.5 30.5t10.5 42v20zM491 744q0 -93 -35.5 -143t-98.5 -50q-29 0 -51.5 14t-41 31.5t-33 31.5t-27.5 14q-17 0 -26 -21.5t-9 -69.5h-96q0 93 35.5 143t98.5 50q28 0 50.5 -14t41 -31.5
t33.5 -31.5t28 -14q17 0 26 21.5t9 69.5h96z" />
    <glyph glyph-name="adieresis" unicode="&#xe4;" horiz-adv-x="577" 
d="M274 488q54 0 98 -13t75.5 -37.5t49 -60.5t17.5 -82v-295h-126v36q-26 -26 -67 -37.5t-87 -11.5q-88 0 -137.5 42t-49.5 119q0 45 19.5 74t51 46.5t71.5 24t82 6.5h117q0 41 -33 59t-78 18q-40 0 -69 -13t-42 -44h-130q10 43 33.5 75t55.5 53t70.5 31t78.5 10zM388 205
h-117q-46 0 -72 -14.5t-26 -43.5q0 -25 22 -42t64 -17q25 0 48.5 6t41.5 18.5t28.5 30.5t10.5 42v20zM105 705h128v-128h-128v128zM331 705h128v-128h-128v128z" />
    <glyph glyph-name="aring" unicode="&#xe5;" horiz-adv-x="577" 
d="M274 488q54 0 98 -13t75.5 -37.5t49 -60.5t17.5 -82v-295h-126v36q-26 -26 -67 -37.5t-87 -11.5q-88 0 -137.5 42t-49.5 119q0 45 19.5 74t51 46.5t71.5 24t82 6.5h117q0 41 -33 59t-78 18q-40 0 -69 -13t-42 -44h-130q10 43 33.5 75t55.5 53t70.5 31t78.5 10zM388 205
h-117q-46 0 -72 -14.5t-26 -43.5q0 -25 22 -42t64 -17q25 0 48.5 6t41.5 18.5t28.5 30.5t10.5 42v20zM282 831q31 0 58.5 -12t47.5 -32t32 -47.5t12 -58.5t-12 -58.5t-32 -47.5t-47.5 -32t-58.5 -12t-58.5 12t-47.5 32t-32 47.5t-12 58.5t12 58.5t32 47.5t47.5 32t58.5 12z
M282 626q23 0 39 16t16 39t-16 39.5t-39 16.5t-39.5 -16.5t-16.5 -39.5t16.5 -39t39.5 -16z" />
    <glyph glyph-name="ae" unicode="&#xe6;" horiz-adv-x="928" 
d="M274 488q61 0 109 -16t80 -48q33 30 77 47t96 17q55 0 100.5 -19t78 -52.5t50.5 -79t18 -97.5v-22t-2 -22h-366q10 -43 44.5 -68t81.5 -25q30 0 55.5 9.5t42.5 31.5h136q-14 -36 -37.5 -65t-54.5 -49.5t-67.5 -31.5t-74.5 -11q-63 0 -114.5 23.5t-86.5 65.5
q-28 -36 -79.5 -62.5t-126.5 -26.5q-88 0 -137.5 42t-49.5 119q0 45 19.5 74t51 46.5t71.5 24t82 6.5h117q0 41 -33 59t-78 18q-40 0 -69 -13t-42 -44h-130q10 43 33.5 75t55.5 53t70.5 31t78.5 10zM388 205h-117q-46 0 -72 -14.5t-26 -43.5q0 -25 22 -42t64 -17
q25 0 48.5 6t41.5 18.5t28.5 30.5t10.5 42v20zM749 290q-6 42 -37.5 66t-75.5 24q-43 0 -77.5 -24.5t-40.5 -65.5h231z" />
    <glyph glyph-name="ccedilla" unicode="&#xe7;" horiz-adv-x="573" 
d="M298 103q32 0 60.5 12.5t45.5 40.5h128q-21 -63 -67 -105t-106 -56l-136 -179h-130l137 180q-41 10 -75 32.5t-58.5 54t-38 71t-13.5 84.5q0 54 19.5 100t53 79t80 52t100.5 19q40 0 76.5 -12t67.5 -33.5t54 -53t36 -70.5h-128q-17 28 -45.5 40.5t-60.5 12.5
q-57 0 -92 -37t-35 -97t35 -97.5t92 -37.5z" />
    <glyph glyph-name="egrave" unicode="&#xe8;" horiz-adv-x="589" 
d="M536 144q-14 -36 -37.5 -65t-54.5 -49.5t-67.5 -31.5t-74.5 -11q-56 0 -103 19t-81 52.5t-53.5 79.5t-19.5 100q0 53 18.5 99t52 79.5t80 52.5t101.5 19t100.5 -19t78 -52.5t50.5 -79t18 -97.5v-22t-2 -22h-366q10 -43 44.5 -68t81.5 -25q30 0 55.5 9.5t42.5 31.5h136z
M410 290q-6 42 -37.5 66t-75.5 24q-43 0 -77.5 -24.5t-40.5 -65.5h231zM207 766l164 -214h-130l-164 214h130z" />
    <glyph glyph-name="eacute" unicode="&#xe9;" horiz-adv-x="589" 
d="M536 144q-14 -36 -37.5 -65t-54.5 -49.5t-67.5 -31.5t-74.5 -11q-56 0 -103 19t-81 52.5t-53.5 79.5t-19.5 100q0 53 18.5 99t52 79.5t80 52.5t101.5 19t100.5 -19t78 -52.5t50.5 -79t18 -97.5v-22t-2 -22h-366q10 -43 44.5 -68t81.5 -25q30 0 55.5 9.5t42.5 31.5h136z
M410 290q-6 42 -37.5 66t-75.5 24q-43 0 -77.5 -24.5t-40.5 -65.5h231zM515 766l-164 -214h-130l164 214h130z" />
    <glyph glyph-name="ecircumflex" unicode="&#xea;" horiz-adv-x="589" 
d="M536 144q-14 -36 -37.5 -65t-54.5 -49.5t-67.5 -31.5t-74.5 -11q-56 0 -103 19t-81 52.5t-53.5 79.5t-19.5 100q0 53 18.5 99t52 79.5t80 52.5t101.5 19t100.5 -19t78 -52.5t50.5 -79t18 -97.5v-22t-2 -22h-366q10 -43 44.5 -68t81.5 -25q30 0 55.5 9.5t42.5 31.5h136z
M410 290q-6 42 -37.5 66t-75.5 24q-43 0 -77.5 -24.5t-40.5 -65.5h231zM67 552l173 214h109l172 -214h-130l-97 116l-98 -116h-129z" />
    <glyph glyph-name="edieresis" unicode="&#xeb;" horiz-adv-x="589" 
d="M536 144q-14 -36 -37.5 -65t-54.5 -49.5t-67.5 -31.5t-74.5 -11q-56 0 -103 19t-81 52.5t-53.5 79.5t-19.5 100q0 53 18.5 99t52 79.5t80 52.5t101.5 19t100.5 -19t78 -52.5t50.5 -79t18 -97.5v-22t-2 -22h-366q10 -43 44.5 -68t81.5 -25q30 0 55.5 9.5t42.5 31.5h136z
M410 290q-6 42 -37.5 66t-75.5 24q-43 0 -77.5 -24.5t-40.5 -65.5h231zM117 705h128v-128h-128v128zM343 705h128v-128h-128v128z" />
    <glyph glyph-name="igrave" unicode="&#xec;" horiz-adv-x="274" 
d="M200 475v-475h-126v475h126zM39 766l164 -214h-130l-164 214h130z" />
    <glyph glyph-name="iacute" unicode="&#xed;" horiz-adv-x="274" 
d="M200 475v-475h-126v475h126zM365 766l-164 -214h-130l164 214h130z" />
    <glyph glyph-name="icircumflex" unicode="&#xee;" horiz-adv-x="274" 
d="M200 475v-475h-126v475h126zM-89 552l173 214h109l172 -214h-130l-97 116l-98 -116h-129z" />
    <glyph glyph-name="idieresis" unicode="&#xef;" horiz-adv-x="274" 
d="M200 475v-475h-126v475h126zM-39 705h128v-128h-128v128zM187 705h128v-128h-128v128z" />
    <glyph glyph-name="eth" unicode="&#xf0;" horiz-adv-x="595" 
d="M261 669l29 -35l144 68v-106l-79 -38l106 -124q44 -51 66.5 -102t22.5 -105q0 -50 -19.5 -93.5t-53.5 -76t-80 -51.5t-99 -19q-54 0 -100 18t-80 49t-53.5 73.5t-19.5 92.5q0 44 15.5 83.5t43.5 70.5t67 52t85 28q21 3 43 3l-44 54l-146 -70v108l84 39l-65 81h133z
M298 103q27 0 50.5 9.5t40 25.5t26 38t9.5 46t-9.5 46t-26 38.5t-40 26t-50.5 9.5q-28 0 -51.5 -9.5t-40 -26t-26 -38.5t-9.5 -46t9.5 -46t26 -38t40 -25.5t51.5 -9.5z" />
    <glyph glyph-name="ntilde" unicode="&#xf1;" horiz-adv-x="616" 
d="M342 488q46 0 85 -14t67 -40t43.5 -63.5t15.5 -84.5v-286h-126v263q0 51 -28 80t-83 29q-24 0 -45 -9t-37.5 -26t-26 -41t-9.5 -55v-241h-126v475h126v-36q20 22 58 35.5t86 13.5zM517 744q0 -93 -35.5 -143t-98.5 -50q-29 0 -51.5 14t-41 31.5t-33 31.5t-27.5 14
q-17 0 -26 -21.5t-9 -69.5h-96q0 93 35.5 143t98.5 50q28 0 50.5 -14t41 -31.5t33.5 -31.5t28 -14q17 0 26 21.5t9 69.5h96z" />
    <glyph glyph-name="ograve" unicode="&#xf2;" horiz-adv-x="606" 
d="M303 488q55 0 102.5 -19t82 -52.5t54 -79.5t19.5 -100t-19.5 -99.5t-54 -79t-82 -52.5t-102.5 -19t-102.5 19t-82 52.5t-54 79t-19.5 99.5t19.5 100t54 79.5t82 52.5t102.5 19zM303 372q-28 0 -52 -10t-42 -27.5t-28 -42.5t-10 -55t10 -54.5t28 -42t42 -27.5t52 -10
t52 10t42 27.5t28 42t10 54.5t-10 55t-28 42.5t-42 27.5t-52 10zM208 766l164 -214h-130l-164 214h130z" />
    <glyph glyph-name="oacute" unicode="&#xf3;" horiz-adv-x="606" 
d="M303 488q55 0 102.5 -19t82 -52.5t54 -79.5t19.5 -100t-19.5 -99.5t-54 -79t-82 -52.5t-102.5 -19t-102.5 19t-82 52.5t-54 79t-19.5 99.5t19.5 100t54 79.5t82 52.5t102.5 19zM303 372q-28 0 -52 -10t-42 -27.5t-28 -42.5t-10 -55t10 -54.5t28 -42t42 -27.5t52 -10
t52 10t42 27.5t28 42t10 54.5t-10 55t-28 42.5t-42 27.5t-52 10zM527 766l-164 -214h-130l164 214h130z" />
    <glyph glyph-name="ocircumflex" unicode="&#xf4;" horiz-adv-x="606" 
d="M303 488q55 0 102.5 -19t82 -52.5t54 -79.5t19.5 -100t-19.5 -99.5t-54 -79t-82 -52.5t-102.5 -19t-102.5 19t-82 52.5t-54 79t-19.5 99.5t19.5 100t54 79.5t82 52.5t102.5 19zM303 372q-28 0 -52 -10t-42 -27.5t-28 -42.5t-10 -55t10 -54.5t28 -42t42 -27.5t52 -10
t52 10t42 27.5t28 42t10 54.5t-10 55t-28 42.5t-42 27.5t-52 10zM76 552l173 214h109l172 -214h-130l-97 116l-98 -116h-129z" />
    <glyph glyph-name="otilde" unicode="&#xf5;" horiz-adv-x="606" 
d="M303 488q55 0 102.5 -19t82 -52.5t54 -79.5t19.5 -100t-19.5 -99.5t-54 -79t-82 -52.5t-102.5 -19t-102.5 19t-82 52.5t-54 79t-19.5 99.5t19.5 100t54 79.5t82 52.5t102.5 19zM303 372q-28 0 -52 -10t-42 -27.5t-28 -42.5t-10 -55t10 -54.5t28 -42t42 -27.5t52 -10
t52 10t42 27.5t28 42t10 54.5t-10 55t-28 42.5t-42 27.5t-52 10zM512 744q0 -93 -35.5 -143t-98.5 -50q-29 0 -51.5 14t-41 31.5t-33 31.5t-27.5 14q-17 0 -26 -21.5t-9 -69.5h-96q0 93 35.5 143t98.5 50q28 0 50.5 -14t41 -31.5t33.5 -31.5t28 -14q17 0 26 21.5t9 69.5h96z
" />
    <glyph glyph-name="odieresis" unicode="&#xf6;" horiz-adv-x="606" 
d="M303 488q55 0 102.5 -19t82 -52.5t54 -79.5t19.5 -100t-19.5 -99.5t-54 -79t-82 -52.5t-102.5 -19t-102.5 19t-82 52.5t-54 79t-19.5 99.5t19.5 100t54 79.5t82 52.5t102.5 19zM303 372q-28 0 -52 -10t-42 -27.5t-28 -42.5t-10 -55t10 -54.5t28 -42t42 -27.5t52 -10
t52 10t42 27.5t28 42t10 54.5t-10 55t-28 42.5t-42 27.5t-52 10zM126 705h128v-128h-128v128zM352 705h128v-128h-128v128z" />
    <glyph glyph-name="divide" unicode="&#xf7;" horiz-adv-x="564" 
d="M514 331v-110h-464v110h464zM216 179h133v-133h-133v133zM216 506h133v-133h-133v133z" />
    <glyph glyph-name="oslash" unicode="&#xf8;" horiz-adv-x="606" 
d="M303 488q33 0 63.5 -7t56.5 -20l24 27h151l-87 -99q23 -32 36.5 -70t13.5 -82q0 -54 -19.5 -99.5t-54 -79t-82 -52.5t-102.5 -19q-33 0 -63.5 7t-57.5 20l-23 -27h-151l86 98q-23 32 -36 70t-13 82q0 54 19.5 100t54 79.5t82 52.5t102.5 19zM303 98q29 0 54 10t43.5 28.5
t29 44t10.5 56.5t-11 58l-168 -191q19 -6 42 -6zM166 237q0 -31 11 -58l168 192q-20 6 -42 6q-29 0 -54 -10t-43.5 -28.5t-29 -44.5t-10.5 -57z" />
    <glyph glyph-name="ugrave" unicode="&#xf9;" horiz-adv-x="610" 
d="M271 -13q-46 0 -84 14t-65.5 40t-43 63.5t-15.5 84.5v286h126v-263q0 -51 27 -80t81 -29q23 0 44 9t36.5 26t25 41t9.5 55v241h126v-475h-126v36q-20 -22 -56.5 -35.5t-84.5 -13.5zM209 766l164 -214h-130l-164 214h130z" />
    <glyph glyph-name="uacute" unicode="&#xfa;" horiz-adv-x="610" 
d="M271 -13q-46 0 -84 14t-65.5 40t-43 63.5t-15.5 84.5v286h126v-263q0 -51 27 -80t81 -29q23 0 44 9t36.5 26t25 41t9.5 55v241h126v-475h-126v36q-20 -22 -56.5 -35.5t-84.5 -13.5zM532 766l-164 -214h-130l164 214h130z" />
    <glyph glyph-name="ucircumflex" unicode="&#xfb;" horiz-adv-x="610" 
d="M271 -13q-46 0 -84 14t-65.5 40t-43 63.5t-15.5 84.5v286h126v-263q0 -51 27 -80t81 -29q23 0 44 9t36.5 26t25 41t9.5 55v241h126v-475h-126v36q-20 -22 -56.5 -35.5t-84.5 -13.5zM78 552l173 214h109l172 -214h-130l-97 116l-98 -116h-129z" />
    <glyph glyph-name="udieresis" unicode="&#xfc;" horiz-adv-x="610" 
d="M271 -13q-46 0 -84 14t-65.5 40t-43 63.5t-15.5 84.5v286h126v-263q0 -51 27 -80t81 -29q23 0 44 9t36.5 26t25 41t9.5 55v241h126v-475h-126v36q-20 -22 -56.5 -35.5t-84.5 -13.5zM128 705h128v-128h-128v128zM354 705h128v-128h-128v128z" />
    <glyph glyph-name="yacute" unicode="&#xfd;" horiz-adv-x="567" 
d="M332 -25q-24 -52 -41.5 -86.5t-38.5 -55t-49 -29t-73 -8.5h-70v110h54q27 0 47.5 16t37.5 54l18 41l-208 458h139l138 -306l138 306h134zM523 766l-164 -214h-130l164 214h130z" />
    <glyph glyph-name="thorn" unicode="&#xfe;" horiz-adv-x="625" 
d="M580 238q0 -49 -16.5 -94t-47.5 -80t-76.5 -56t-102.5 -21q-40 0 -77.5 13t-61.5 37v-241h-126v873h126v-230q24 24 61.5 36.5t77.5 12.5q57 0 102.5 -21t76.5 -55.5t47.5 -79.5t16.5 -94zM454 238q0 27 -9.5 51.5t-26 43t-40 29t-51.5 10.5q-25 0 -49 -8.5t-43 -25
t-30.5 -41.5t-11.5 -59t11.5 -59t30.5 -42t43 -25.5t49 -8.5q28 0 51.5 11t40 29.5t26 43t9.5 51.5z" />
    <glyph glyph-name="ydieresis" unicode="&#xff;" horiz-adv-x="567" 
d="M332 -25q-24 -52 -41.5 -86.5t-38.5 -55t-49 -29t-73 -8.5h-70v110h54q27 0 47.5 16t37.5 54l18 41l-208 458h139l138 -306l138 306h134zM116 705h128v-128h-128v128zM342 705h128v-128h-128v128z" />
    <glyph glyph-name="Amacron" unicode="&#x100;" horiz-adv-x="706" 
d="M706 0h-139l-65 147h-303l-65 -147h-134l289 664h128zM251 264h199l-99 226zM543 850v-102h-380v102h380z" />
    <glyph glyph-name="amacron" unicode="&#x101;" horiz-adv-x="577" 
d="M274 488q54 0 98 -13t75.5 -37.5t49 -60.5t17.5 -82v-295h-126v36q-26 -26 -67 -37.5t-87 -11.5q-88 0 -137.5 42t-49.5 119q0 45 19.5 74t51 46.5t71.5 24t82 6.5h117q0 41 -33 59t-78 18q-40 0 -69 -13t-42 -44h-130q10 43 33.5 75t55.5 53t70.5 31t78.5 10zM388 205
h-117q-46 0 -72 -14.5t-26 -43.5q0 -25 22 -42t64 -17q25 0 48.5 6t41.5 18.5t28.5 30.5t10.5 42v20zM472 654v-102h-380v102h380z" />
    <glyph glyph-name="Abreve" unicode="&#x102;" horiz-adv-x="706" 
d="M706 0h-139l-65 147h-303l-65 -147h-134l289 664h128zM251 264h199l-99 226zM252 934q5 -44 32.5 -68.5t68.5 -24.5q42 0 70 24.5t33 68.5h102q-3 -44 -20 -80t-44.5 -61.5t-63.5 -39.5t-77 -14t-76.5 14t-63 39.5t-44.5 61.5t-20 80h103z" />
    <glyph glyph-name="abreve" unicode="&#x103;" horiz-adv-x="577" 
d="M274 488q54 0 98 -13t75.5 -37.5t49 -60.5t17.5 -82v-295h-126v36q-26 -26 -67 -37.5t-87 -11.5q-88 0 -137.5 42t-49.5 119q0 45 19.5 74t51 46.5t71.5 24t82 6.5h117q0 41 -33 59t-78 18q-40 0 -69 -13t-42 -44h-130q10 43 33.5 75t55.5 53t70.5 31t78.5 10zM388 205
h-117q-46 0 -72 -14.5t-26 -43.5q0 -25 22 -42t64 -17q25 0 48.5 6t41.5 18.5t28.5 30.5t10.5 42v20zM481 766q-1 -47 -16.5 -86.5t-42 -68t-63 -44t-78.5 -15.5t-78.5 15.5t-63 44t-42 68t-16.5 86.5h104q2 -51 28 -81.5t68 -30.5t68 30.5t28 81.5h104z" />
    <glyph glyph-name="Aogonek" unicode="&#x104;" horiz-adv-x="706" 
d="M249 264h204l-102 237zM503 147h-305l-63 -147h-135l286 664h134l286 -664q-40 -21 -67 -41t-27 -42q0 -16 12.5 -23.5t32.5 -7.5h49v-90h-63q-69 0 -109 23t-40 74q0 31 19 56.5t54 50.5z" />
    <glyph glyph-name="aogonek" unicode="&#x105;" horiz-adv-x="577" 
d="M274 488q54 0 98 -13t75.5 -37.5t49 -60.5t17.5 -82v-295q-40 -21 -67 -41t-27 -42q0 -16 12.5 -23.5t32.5 -7.5h49v-90h-63q-69 0 -109 23t-40 74q0 31 22 57.5t64 49.5v36q-26 -26 -67 -37.5t-87 -11.5q-88 0 -137.5 42t-49.5 119q0 45 19.5 74t51 46.5t71.5 24t82 6.5
h117q0 41 -33 59t-78 18q-40 0 -69 -13t-42 -44h-130q10 43 33.5 75t55.5 53t70.5 31t78.5 10zM388 205h-117q-46 0 -72 -14.5t-26 -43.5q0 -25 22 -42t64 -17q25 0 48.5 6t41.5 18.5t28.5 30.5t10.5 42v20z" />
    <glyph glyph-name="Cacute" unicode="&#x106;" horiz-adv-x="722" 
d="M384 677q109 0 185.5 -54t116.5 -143h-140q-27 35 -69 57.5t-93 22.5q-46 0 -84.5 -17.5t-67 -48t-44.5 -72t-16 -90.5t16 -90.5t44.5 -72t67 -48t84.5 -17.5q51 0 93 22t69 58h140q-40 -90 -116.5 -143.5t-185.5 -53.5q-73 0 -136 26t-109 72t-72 109.5t-26 137.5
t26 137.5t72 109.5t109 72t136 26zM612 936l-164 -197h-130l164 197h130z" />
    <glyph glyph-name="cacute" unicode="&#x107;" horiz-adv-x="573" 
d="M298 103q32 0 60.5 12.5t45.5 40.5h128q-13 -39 -36 -70.5t-54 -53t-67.5 -33.5t-76.5 -12q-54 0 -100.5 19t-80 52.5t-53 79.5t-19.5 100t19.5 100t53 79t80 52t100.5 19q40 0 76.5 -12t67.5 -33.5t54 -53t36 -70.5h-128q-17 28 -45.5 40.5t-60.5 12.5q-57 0 -92 -37
t-35 -97t35 -97.5t92 -37.5zM517 766l-164 -214h-130l164 214h130z" />
    <glyph glyph-name="Ccircumflex" unicode="&#x108;" horiz-adv-x="722" 
d="M384 677q109 0 185.5 -54t116.5 -143h-140q-27 35 -69 57.5t-93 22.5q-46 0 -84.5 -17.5t-67 -48t-44.5 -72t-16 -90.5t16 -90.5t44.5 -72t67 -48t84.5 -17.5q51 0 93 22t69 58h140q-40 -90 -116.5 -143.5t-185.5 -53.5q-73 0 -136 26t-109 72t-72 109.5t-26 137.5
t26 137.5t72 109.5t109 72t136 26zM160 739l173 195h109l172 -195h-130l-97 100l-98 -100h-129z" />
    <glyph glyph-name="ccircumflex" unicode="&#x109;" horiz-adv-x="573" 
d="M298 103q32 0 60.5 12.5t45.5 40.5h128q-13 -39 -36 -70.5t-54 -53t-67.5 -33.5t-76.5 -12q-54 0 -100.5 19t-80 52.5t-53 79.5t-19.5 100t19.5 100t53 79t80 52t100.5 19q40 0 76.5 -12t67.5 -33.5t54 -53t36 -70.5h-128q-17 28 -45.5 40.5t-60.5 12.5q-57 0 -92 -37
t-35 -97t35 -97.5t92 -37.5zM68 552l173 214h109l172 -214h-130l-97 116l-98 -116h-129z" />
    <glyph glyph-name="Cdotaccent" unicode="&#x10a;" horiz-adv-x="722" 
d="M384 677q109 0 185.5 -54t116.5 -143h-140q-27 35 -69 57.5t-93 22.5q-46 0 -84.5 -17.5t-67 -48t-44.5 -72t-16 -90.5t16 -90.5t44.5 -72t67 -48t84.5 -17.5q51 0 93 22t69 58h140q-40 -90 -116.5 -143.5t-185.5 -53.5q-73 0 -136 26t-109 72t-72 109.5t-26 137.5
t26 137.5t72 109.5t109 72t136 26zM317 885h138v-138h-138v138z" />
    <glyph glyph-name="cdotaccent" unicode="&#x10b;" horiz-adv-x="573" 
d="M298 103q32 0 60.5 12.5t45.5 40.5h128q-13 -39 -36 -70.5t-54 -53t-67.5 -33.5t-76.5 -12q-54 0 -100.5 19t-80 52.5t-53 79.5t-19.5 100t19.5 100t53 79t80 52t100.5 19q40 0 76.5 -12t67.5 -33.5t54 -53t36 -70.5h-128q-17 28 -45.5 40.5t-60.5 12.5q-57 0 -92 -37
t-35 -97t35 -97.5t92 -37.5zM230 689h138v-137h-138v137z" />
    <glyph glyph-name="Ccaron" unicode="&#x10c;" horiz-adv-x="722" 
d="M384 677q109 0 185.5 -54t116.5 -143h-140q-27 35 -69 57.5t-93 22.5q-46 0 -84.5 -17.5t-67 -48t-44.5 -72t-16 -90.5t16 -90.5t44.5 -72t67 -48t84.5 -17.5q51 0 93 22t69 58h140q-40 -90 -116.5 -143.5t-185.5 -53.5q-73 0 -136 26t-109 72t-72 109.5t-26 137.5
t26 137.5t72 109.5t109 72t136 26zM613 934l-173 -195h-109l-172 195h130l97 -100l98 100h129z" />
    <glyph glyph-name="ccaron" unicode="&#x10d;" horiz-adv-x="573" 
d="M298 103q32 0 60.5 12.5t45.5 40.5h128q-13 -39 -36 -70.5t-54 -53t-67.5 -33.5t-76.5 -12q-54 0 -100.5 19t-80 52.5t-53 79.5t-19.5 100t19.5 100t53 79t80 52t100.5 19q40 0 76.5 -12t67.5 -33.5t54 -53t36 -70.5h-128q-17 28 -45.5 40.5t-60.5 12.5q-57 0 -92 -37
t-35 -97t35 -97.5t92 -37.5zM526 766l-173 -214h-109l-172 214h130l97 -116l98 116h129z" />
    <glyph glyph-name="Dcaron" unicode="&#x10e;" horiz-adv-x="710" 
d="M307 664q87 0 154 -26.5t113.5 -71.5t70.5 -105.5t24 -128.5t-24 -128.5t-70.5 -105.5t-113.5 -71.5t-154 -26.5h-230v664h230zM303 117q54 0 97.5 16t74 44.5t47 68t16.5 86.5t-16.5 86.5t-47 68t-74 44.5t-97.5 16h-95v-430h95zM558 964l-173 -214h-109l-172 214h130
l97 -116l98 116h129z" />
    <glyph glyph-name="dcaron" unicode="&#x10f;" horiz-adv-x="793" 
d="M45 237q0 49 16.5 94t47.5 80t76.5 56t102.5 21q40 0 77.5 -13t61.5 -37v231h126v-669h-126v36q-24 -24 -61.5 -36.5t-77.5 -12.5q-57 0 -102.5 21t-76.5 55.5t-47.5 79.5t-16.5 94zM171 237q0 -27 9.5 -51.5t26 -43t40 -29t51.5 -10.5q25 0 49 8.5t43 25t30.5 41.5
t11.5 59t-11.5 59t-30.5 42t-43 25.5t-49 8.5q-28 0 -51.5 -11t-40 -29.5t-26 -43t-9.5 -51.5zM630 378l83 137h-69v149h149v-164l-76 -122h-87z" />
    <glyph glyph-name="Dcroat" unicode="&#x110;" horiz-adv-x="742" 
d="M339 664q87 0 154 -26.5t113.5 -71.5t70.5 -105.5t24 -128.5t-24 -128.5t-70.5 -105.5t-113.5 -71.5t-154 -26.5h-230v274h-91v117h91v273h230zM335 117q54 0 97.5 16t74 44.5t47 68t16.5 86.5t-16.5 86.5t-47 68t-74 44.5t-97.5 16h-95v-156h192v-117h-192v-157h95z" />
    <glyph glyph-name="dcroat" unicode="&#x111;" horiz-adv-x="642" 
d="M427 0v36q-16 -16 -34.5 -25.5t-37.5 -15t-36 -7t-30 -1.5q-58 0 -103 20.5t-76.5 54.5t-48 77.5t-16.5 90.5q0 46 16.5 90t48 77.5t76.5 54t103 20.5q13 0 30.5 -1.5t36 -6.5t37 -14.5t34.5 -24.5v92h-155v94h155v58h126v-58h80v-94h-80v-517h-126zM433 230
q0 32 -11.5 55.5t-30.5 39.5t-43 23.5t-49 7.5q-29 0 -52.5 -10t-40 -27t-26 -40t-9.5 -49t9.5 -49.5t26 -40.5t40 -27t52.5 -10q25 0 49 8t43 23.5t30.5 39.5t11.5 56z" />
    <glyph glyph-name="Emacron" unicode="&#x112;" horiz-adv-x="602" 
d="M208 547v-156h328v-117h-328v-157h335v-117h-466v664h466v-117h-335zM501 850v-102h-380v102h380z" />
    <glyph glyph-name="emacron" unicode="&#x113;" horiz-adv-x="589" 
d="M536 144q-14 -36 -37.5 -65t-54.5 -49.5t-67.5 -31.5t-74.5 -11q-56 0 -103 19t-81 52.5t-53.5 79.5t-19.5 100q0 53 18.5 99t52 79.5t80 52.5t101.5 19t100.5 -19t78 -52.5t50.5 -79t18 -97.5v-22t-2 -22h-366q10 -43 44.5 -68t81.5 -25q30 0 55.5 9.5t42.5 31.5h136z
M410 290q-6 42 -37.5 66t-75.5 24q-43 0 -77.5 -24.5t-40.5 -65.5h231zM484 654v-102h-380v102h380z" />
    <glyph glyph-name="Ebreve" unicode="&#x114;" horiz-adv-x="602" 
d="M208 547v-156h328v-117h-328v-157h335v-117h-466v664h466v-117h-335zM210 934q5 -44 32.5 -68.5t68.5 -24.5q42 0 70 24.5t33 68.5h102q-3 -44 -20 -80t-44.5 -61.5t-63.5 -39.5t-77 -14t-76.5 14t-63 39.5t-44.5 61.5t-20 80h103z" />
    <glyph glyph-name="ebreve" unicode="&#x115;" horiz-adv-x="589" 
d="M536 144q-14 -36 -37.5 -65t-54.5 -49.5t-67.5 -31.5t-74.5 -11q-56 0 -103 19t-81 52.5t-53.5 79.5t-19.5 100q0 53 18.5 99t52 79.5t80 52.5t101.5 19t100.5 -19t78 -52.5t50.5 -79t18 -97.5v-22t-2 -22h-366q10 -43 44.5 -68t81.5 -25q30 0 55.5 9.5t42.5 31.5h136z
M410 290q-6 42 -37.5 66t-75.5 24q-43 0 -77.5 -24.5t-40.5 -65.5h231zM499 766q-1 -47 -16.5 -86.5t-42 -68t-63 -44t-78.5 -15.5t-78.5 15.5t-63 44t-42 68t-16.5 86.5h104q2 -51 28 -81.5t68 -30.5t68 30.5t28 81.5h104z" />
    <glyph glyph-name="Edotaccent" unicode="&#x116;" horiz-adv-x="602" 
d="M208 547v-156h328v-117h-328v-157h335v-117h-466v664h466v-117h-335zM240 885h138v-138h-138v138z" />
    <glyph glyph-name="edotaccent" unicode="&#x117;" horiz-adv-x="589" 
d="M536 144q-14 -36 -37.5 -65t-54.5 -49.5t-67.5 -31.5t-74.5 -11q-56 0 -103 19t-81 52.5t-53.5 79.5t-19.5 100q0 53 18.5 99t52 79.5t80 52.5t101.5 19t100.5 -19t78 -52.5t50.5 -79t18 -97.5v-22t-2 -22h-366q10 -43 44.5 -68t81.5 -25q30 0 55.5 9.5t42.5 31.5h136z
M410 290q-6 42 -37.5 66t-75.5 24q-43 0 -77.5 -24.5t-40.5 -65.5h231zM225 689h138v-137h-138v137z" />
    <glyph glyph-name="Eogonek" unicode="&#x118;" horiz-adv-x="602" 
d="M77 0v664h466v-117h-335v-156h328v-117h-328v-157h335v-117q-40 -21 -67 -41t-27 -42q0 -16 12.5 -23.5t32.5 -7.5h49v-90h-63q-69 0 -109 23t-40 74q0 31 22.5 56.5t64.5 50.5h-341z" />
    <glyph glyph-name="eogonek" unicode="&#x119;" horiz-adv-x="589" 
d="M536 144q-20 -53 -55.5 -85.5t-80.5 -58.5q-38 -21 -66 -40t-28 -43q0 -16 12.5 -23.5t32.5 -7.5h49v-90h-63q-69 0 -109 23t-40 74q0 28 18.5 51.5t50.5 46.5q-47 7 -86 28.5t-67 54t-43.5 74.5t-15.5 90q0 53 18.5 99t52 79.5t80 52.5t101.5 19t100.5 -19t78 -52.5
t50.5 -79t18 -97.5v-22t-2 -22h-366q10 -43 44.5 -68t81.5 -25q30 0 55.5 9.5t42.5 31.5h136zM410 290q-6 42 -37.5 66t-75.5 24q-43 0 -77.5 -24.5t-40.5 -65.5h231z" />
    <glyph glyph-name="Ecaron" unicode="&#x11a;" horiz-adv-x="602" 
d="M208 547v-156h328v-117h-328v-157h335v-117h-466v664h466v-117h-335zM536 934l-173 -195h-109l-172 195h130l97 -100l98 100h129z" />
    <glyph glyph-name="ecaron" unicode="&#x11b;" horiz-adv-x="589" 
d="M536 144q-14 -36 -37.5 -65t-54.5 -49.5t-67.5 -31.5t-74.5 -11q-56 0 -103 19t-81 52.5t-53.5 79.5t-19.5 100q0 53 18.5 99t52 79.5t80 52.5t101.5 19t100.5 -19t78 -52.5t50.5 -79t18 -97.5v-22t-2 -22h-366q10 -43 44.5 -68t81.5 -25q30 0 55.5 9.5t42.5 31.5h136z
M410 290q-6 42 -37.5 66t-75.5 24q-43 0 -77.5 -24.5t-40.5 -65.5h231zM521 766l-173 -214h-109l-172 214h130l97 -116l98 116h129z" />
    <glyph glyph-name="Gcircumflex" unicode="&#x11c;" horiz-adv-x="746" 
d="M384 -13q-73 0 -136 26t-109 72t-72 109.5t-26 137.5t26 137.5t72 109.5t109 72t136 26q109 0 186 -53.5t116 -143.5h-140q-27 36 -68.5 58t-93.5 22q-46 0 -84.5 -17.5t-67 -48t-44.5 -72t-16 -90.5t16 -90.5t44.5 -72t67 -48t84.5 -17.5q72 0 117.5 38t62.5 101h-216
v117h357q0 -86 -24 -155t-67 -117.5t-101.5 -74.5t-128.5 -26zM146 739l173 195h109l172 -195h-130l-97 100l-98 -100h-129z" />
    <glyph glyph-name="gcircumflex" unicode="&#x11d;" horiz-adv-x="621" 
d="M41 238q0 49 16.5 94t47.5 79.5t76.5 55.5t102.5 21q40 0 77.5 -12.5t61.5 -36.5v36h126v-449q0 -56 -17 -100.5t-49.5 -76.5t-79.5 -49t-107 -17q-44 0 -84 12t-72.5 34.5t-56 55t-35.5 73.5h136q12 -26 40.5 -42.5t71.5 -16.5q58 0 92.5 33.5t34.5 87.5v17
q-24 -24 -61.5 -37t-77.5 -13q-57 0 -102.5 21t-76.5 56t-47.5 80t-16.5 94zM167 238q0 -27 9.5 -51.5t26 -43t40 -29.5t51.5 -11q25 0 49 8.5t43 25.5t30.5 42t11.5 59t-11.5 59t-30.5 41.5t-43 25t-49 8.5q-28 0 -51.5 -10.5t-40 -29t-26 -43t-9.5 -51.5zM77 552l173 214
h109l172 -214h-130l-97 116l-98 -116h-129z" />
    <glyph glyph-name="Gbreve" unicode="&#x11e;" horiz-adv-x="746" 
d="M384 -13q-73 0 -136 26t-109 72t-72 109.5t-26 137.5t26 137.5t72 109.5t109 72t136 26q109 0 186 -53.5t116 -143.5h-140q-27 36 -68.5 58t-93.5 22q-46 0 -84.5 -17.5t-67 -48t-44.5 -72t-16 -90.5t16 -90.5t44.5 -72t67 -48t84.5 -17.5q72 0 117.5 38t62.5 101h-216
v117h357q0 -86 -24 -155t-67 -117.5t-101.5 -74.5t-128.5 -26zM272 934q5 -44 32.5 -68.5t68.5 -24.5q42 0 70 24.5t33 68.5h102q-3 -44 -20 -80t-44.5 -61.5t-63.5 -39.5t-77 -14t-76.5 14t-63 39.5t-44.5 61.5t-20 80h103z" />
    <glyph glyph-name="gbreve" unicode="&#x11f;" horiz-adv-x="621" 
d="M41 238q0 49 16.5 94t47.5 79.5t76.5 55.5t102.5 21q40 0 77.5 -12.5t61.5 -36.5v36h126v-449q0 -56 -17 -100.5t-49.5 -76.5t-79.5 -49t-107 -17q-44 0 -84 12t-72.5 34.5t-56 55t-35.5 73.5h136q12 -26 40.5 -42.5t71.5 -16.5q58 0 92.5 33.5t34.5 87.5v17
q-24 -24 -61.5 -37t-77.5 -13q-57 0 -102.5 21t-76.5 56t-47.5 80t-16.5 94zM167 238q0 -27 9.5 -51.5t26 -43t40 -29.5t51.5 -11q25 0 49 8.5t43 25.5t30.5 42t11.5 59t-11.5 59t-30.5 41.5t-43 25t-49 8.5q-28 0 -51.5 -10.5t-40 -29t-26 -43t-9.5 -51.5zM504 766
q-1 -47 -16.5 -86.5t-42 -68t-63 -44t-78.5 -15.5t-78.5 15.5t-63 44t-42 68t-16.5 86.5h104q2 -51 28 -81.5t68 -30.5t68 30.5t28 81.5h104z" />
    <glyph glyph-name="Gdotaccent" unicode="&#x120;" horiz-adv-x="746" 
d="M384 -13q-73 0 -136 26t-109 72t-72 109.5t-26 137.5t26 137.5t72 109.5t109 72t136 26q109 0 186 -53.5t116 -143.5h-140q-27 36 -68.5 58t-93.5 22q-46 0 -84.5 -17.5t-67 -48t-44.5 -72t-16 -90.5t16 -90.5t44.5 -72t67 -48t84.5 -17.5q72 0 117.5 38t62.5 101h-216
v117h357q0 -86 -24 -155t-67 -117.5t-101.5 -74.5t-128.5 -26zM304 885h138v-138h-138v138z" />
    <glyph glyph-name="gdotaccent" unicode="&#x121;" horiz-adv-x="621" 
d="M41 238q0 49 16.5 94t47.5 79.5t76.5 55.5t102.5 21q40 0 77.5 -12.5t61.5 -36.5v36h126v-449q0 -56 -17 -100.5t-49.5 -76.5t-79.5 -49t-107 -17q-44 0 -84 12t-72.5 34.5t-56 55t-35.5 73.5h136q12 -26 40.5 -42.5t71.5 -16.5q58 0 92.5 33.5t34.5 87.5v17
q-24 -24 -61.5 -37t-77.5 -13q-57 0 -102.5 21t-76.5 56t-47.5 80t-16.5 94zM167 238q0 -27 9.5 -51.5t26 -43t40 -29.5t51.5 -11q25 0 49 8.5t43 25.5t30.5 42t11.5 59t-11.5 59t-30.5 41.5t-43 25t-49 8.5q-28 0 -51.5 -10.5t-40 -29t-26 -43t-9.5 -51.5zM235 689h138
v-137h-138v137z" />
    <glyph glyph-name="uni0122" unicode="&#x122;" horiz-adv-x="746" 
d="M384 -13q-73 0 -136 26t-109 72t-72 109.5t-26 137.5t26 137.5t72 109.5t109 72t136 26q109 0 186 -53.5t116 -143.5h-140q-27 36 -68.5 58t-93.5 22q-46 0 -84.5 -17.5t-67 -48t-44.5 -72t-16 -90.5t16 -90.5t44.5 -72t67 -48t84.5 -17.5q72 0 117.5 38t62.5 101h-216
v117h357q0 -86 -24 -155t-67 -117.5t-101.5 -74.5t-128.5 -26zM313 -307l68 113h-74v139h149v-154l-61 -98h-82z" />
    <glyph glyph-name="uni0123" unicode="&#x123;" horiz-adv-x="621" 
d="M41 238q0 49 16.5 94t47.5 79.5t76.5 55.5t102.5 21q40 0 77.5 -12.5t61.5 -36.5v36h126v-449q0 -56 -17 -100.5t-49.5 -76.5t-79.5 -49t-107 -17q-44 0 -84 12t-72.5 34.5t-56 55t-35.5 73.5h136q12 -26 40.5 -42.5t71.5 -16.5q58 0 92.5 33.5t34.5 87.5v17
q-24 -24 -61.5 -37t-77.5 -13q-57 0 -102.5 21t-76.5 56t-47.5 80t-16.5 94zM167 238q0 -27 9.5 -51.5t26 -43t40 -29.5t51.5 -11q25 0 49 8.5t43 25.5t30.5 42t11.5 59t-11.5 59t-30.5 41.5t-43 25t-49 8.5q-28 0 -51.5 -10.5t-40 -29t-26 -43t-9.5 -51.5zM372.008 787.965
l-67.9922 -112.986h73.9912v-138.982h-148.982v153.98l60.9932 97.9883h81.9902z" />
    <glyph glyph-name="Hcircumflex" unicode="&#x124;" horiz-adv-x="738" 
d="M530 0v274h-322v-274h-131v664h131v-273h322v273h131v-664h-131zM142 739l173 195h109l172 -195h-130l-97 100l-98 -100h-129z" />
    <glyph glyph-name="hcircumflex" unicode="&#x125;" horiz-adv-x="616" 
d="M342 488q46 0 85 -14t67 -40t43.5 -63.5t15.5 -84.5v-286h-126v263q0 51 -28 80t-83 29q-24 0 -45 -9t-37.5 -26t-26 -41t-9.5 -55v-241h-126v669h126v-230q20 22 58 35.5t86 13.5zM81 739l173 195h109l172 -195h-130l-97 100l-98 -100h-129z" />
    <glyph glyph-name="Hbar" unicode="&#x126;" horiz-adv-x="766" 
d="M544 0v274h-322v-274h-131v468h-82v117h82v79h131v-79h322v79h131v-79h82v-117h-82v-468h-131zM544 391v77h-322v-77h322z" />
    <glyph glyph-name="hbar" unicode="&#x127;" horiz-adv-x="633" 
d="M444 0v247q0 51 -28 80t-83 29q-24 0 -45 -9t-37.5 -26t-26 -41t-9.5 -55v-225h-126v517h-80v94h80v58h126v-58h155v-94h-155v-94q20 22 58 35.5t86 13.5q46 0 85 -14t67 -40t43.5 -63.5t15.5 -84.5v-270h-126z" />
    <glyph glyph-name="Itilde" unicode="&#x128;" horiz-adv-x="285" 
d="M208 0h-131v664h131v-664zM352 932q0 -93 -35.5 -143t-98.5 -50q-29 0 -51.5 14t-41 31.5t-33 31.5t-27.5 14q-17 0 -26 -21.5t-9 -69.5h-96q0 93 35.5 143t98.5 50q28 0 50.5 -14t41 -31.5t33.5 -31.5t28 -14q17 0 26 21.5t9 69.5h96z" />
    <glyph glyph-name="itilde" unicode="&#x129;" horiz-adv-x="274" 
d="M200 475v-475h-126v475h126zM347 744q0 -93 -35.5 -143t-98.5 -50q-29 0 -51.5 14t-41 31.5t-33 31.5t-27.5 14q-17 0 -26 -21.5t-9 -69.5h-96q0 93 35.5 143t98.5 50q28 0 50.5 -14t41 -31.5t33.5 -31.5t28 -14q17 0 26 21.5t9 69.5h96z" />
    <glyph glyph-name="Imacron" unicode="&#x12a;" horiz-adv-x="285" 
d="M208 0h-131v664h131v-664zM333 850v-102h-380v102h380z" />
    <glyph glyph-name="imacron" unicode="&#x12b;" horiz-adv-x="274" 
d="M274 654v-102h-274v102h274zM200 475v-475h-126v475h126z" />
    <glyph glyph-name="Ibreve" unicode="&#x12c;" horiz-adv-x="285" 
d="M208 0h-131v664h131v-664zM28 934q5 -44 32.5 -68.5t68.5 -24.5q42 0 70 24.5t33 68.5h102q-3 -44 -20 -80t-44.5 -61.5t-63.5 -39.5t-77 -14t-76.5 14t-63 39.5t-44.5 61.5t-20 80h103z" />
    <glyph glyph-name="ibreve" unicode="&#x12d;" horiz-adv-x="274" 
d="M200 475v-475h-126v475h126zM338 766q-1 -47 -16.5 -86.5t-42 -68t-63 -44t-78.5 -15.5t-78.5 15.5t-63 44t-42 68t-16.5 86.5h104q2 -51 28 -81.5t68 -30.5t68 30.5t28 81.5h104z" />
    <glyph glyph-name="Iogonek" unicode="&#x12e;" horiz-adv-x="285" 
d="M77 664h131v-664q-40 -21 -67 -41t-27 -42q0 -16 12.5 -23.5t32.5 -7.5h49v-90h-63q-69 0 -109 23t-40 74q0 31 21.5 56.5t59.5 50.5v664z" />
    <glyph glyph-name="iogonek" unicode="&#x12f;" horiz-adv-x="274" 
d="M68 689h138v-137h-138v137zM74 475h126v-475q-40 -21 -67 -41t-27 -42q0 -16 12.5 -23.5t32.5 -7.5h49v-90h-63q-69 0 -109 23t-40 74q0 31 22.5 56.5t63.5 50.5v475z" />
    <glyph glyph-name="Idotaccent" unicode="&#x130;" horiz-adv-x="285" 
d="M208 0h-131v664h131v-664zM73 885h138v-138h-138v138z" />
    <glyph glyph-name="dotlessi" unicode="&#x131;" horiz-adv-x="274" 
d="M200 475v-475h-126v475h126z" />
    <glyph glyph-name="IJ" unicode="&#x132;" horiz-adv-x="678" 
d="M208 0h-131v664h131v-664zM606 664v-473q0 -93 -54.5 -142t-147.5 -49h-133v117h133q71 0 71 74v473h131z" />
    <glyph glyph-name="ij" unicode="&#x133;" horiz-adv-x="515" 
d="M68 689h138v-137h-138v137zM200 475v-475h-126v475h126zM309 689h138v-137h-138v137zM441 475v-530q0 -66 -45.5 -107.5t-134.5 -41.5h-90v110h89q29 0 42 16.5t13 42.5v510h126z" />
    <glyph glyph-name="Jcircumflex" unicode="&#x134;" horiz-adv-x="412" 
d="M340 664v-473q0 -93 -54.5 -142t-147.5 -49h-133v117h133q71 0 71 74v473h131zM48 739l173 195h109l172 -195h-130l-97 100l-98 -100h-129z" />
    <glyph glyph-name="jcircumflex" unicode="&#x135;" horiz-adv-x="296" 
d="M222 475v-495q0 -91 -52.5 -137.5t-143.5 -46.5h-79v110h78q35 0 53 19.5t18 54.5v495h126zM-67 552l173 214h109l172 -214h-130l-97 116l-98 -116h-129z" />
    <glyph glyph-name="uni0136" unicode="&#x136;" horiz-adv-x="641" 
d="M464 0l-256 263v-263h-131v664h131v-269l264 269h165l-324 -332l324 -332h-173zM247 -288l68 113h-74v139h149v-154l-61 -98h-82z" />
    <glyph glyph-name="uni0137" unicode="&#x137;" horiz-adv-x="571" 
d="M198 669v-378l194 184h175l-256 -238l255 -237h-174l-194 173v-173h-126v669h126zM218 -288l68 113h-74v139h149v-154l-61 -98h-82z" />
    <glyph glyph-name="kgreenlandic" unicode="&#x138;" horiz-adv-x="571" 
d="M198 475v-184l194 184h175l-256 -238l255 -237h-174l-194 173v-173h-126v475h126z" />
    <glyph glyph-name="Lacute" unicode="&#x139;" horiz-adv-x="570" 
d="M208 117h335v-117h-466v664h131v-547zM370 936l-164 -197h-130l164 197h130z" />
    <glyph glyph-name="lacute" unicode="&#x13a;" horiz-adv-x="270" 
d="M198 669v-669h-126v669h126zM363 936l-164 -197h-130l164 197h130z" />
    <glyph glyph-name="uni013B" unicode="&#x13b;" horiz-adv-x="570" 
d="M208 117h335v-117h-466v664h131v-547zM240 -288l68 113h-74v139h149v-154l-61 -98h-82z" />
    <glyph glyph-name="uni013C" unicode="&#x13c;" horiz-adv-x="270" 
d="M198 669v-669h-126v669h126zM67 -288l68 113h-74v139h149v-154l-61 -98h-82z" />
    <glyph glyph-name="Lcaron" unicode="&#x13d;" horiz-adv-x="570" 
d="M208 117h335v-117h-466v664h131v-547zM380 378l83 137h-69v149h149v-164l-76 -122h-87z" />
    <glyph glyph-name="lcaron" unicode="&#x13e;" horiz-adv-x="438" 
d="M198 669v-669h-126v669h126zM275 378l83 137h-69v149h149v-164l-76 -122h-87z" />
    <glyph glyph-name="Ldot" unicode="&#x13f;" horiz-adv-x="570" 
d="M208 117h335v-117h-466v664h131v-547zM348 438h149v-149h-149v149z" />
    <glyph glyph-name="ldot" unicode="&#x140;" horiz-adv-x="482" 
d="M198 669v-669h-126v669h126zM293 451h149v-149h-149v149z" />
    <glyph glyph-name="Lslash" unicode="&#x141;" horiz-adv-x="607" 
d="M245 444l174 94v-127l-174 -94v-200h335v-117h-466v246l-105 -57v128l105 56v291h131v-220z" />
    <glyph glyph-name="lslash" unicode="&#x142;" horiz-adv-x="374" 
d="M250 669v-221l99 55v-132l-99 -55v-316h-126v245l-99 -55v133l99 55v291h126z" />
    <glyph glyph-name="Nacute" unicode="&#x143;" horiz-adv-x="757" 
d="M680 664v-664h-142l-330 466v-466h-131v664h142l330 -466v466h131zM615 936l-164 -197h-130l164 197h130z" />
    <glyph glyph-name="nacute" unicode="&#x144;" horiz-adv-x="616" 
d="M342 488q46 0 85 -14t67 -40t43.5 -63.5t15.5 -84.5v-286h-126v263q0 51 -28 80t-83 29q-24 0 -45 -9t-37.5 -26t-26 -41t-9.5 -55v-241h-126v475h126v-36q20 22 58 35.5t86 13.5zM536 766l-164 -214h-130l164 214h130z" />
    <glyph glyph-name="uni0145" unicode="&#x145;" horiz-adv-x="757" 
d="M680 664v-664h-142l-330 466v-466h-131v664h142l330 -466v466h131zM310 -288l68 113h-74v139h149v-154l-61 -98h-82z" />
    <glyph glyph-name="uni0146" unicode="&#x146;" horiz-adv-x="616" 
d="M342 488q46 0 85 -14t67 -40t43.5 -63.5t15.5 -84.5v-286h-126v263q0 51 -28 80t-83 29q-24 0 -45 -9t-37.5 -26t-26 -41t-9.5 -55v-241h-126v475h126v-36q20 22 58 35.5t86 13.5zM240 -288l68 113h-74v139h149v-154l-61 -98h-82z" />
    <glyph glyph-name="Ncaron" unicode="&#x147;" horiz-adv-x="757" 
d="M680 664v-664h-142l-330 466v-466h-131v664h142l330 -466v466h131zM605 934l-173 -195h-109l-172 195h130l97 -100l98 100h129z" />
    <glyph glyph-name="ncaron" unicode="&#x148;" horiz-adv-x="616" 
d="M342 488q46 0 85 -14t67 -40t43.5 -63.5t15.5 -84.5v-286h-126v263q0 51 -28 80t-83 29q-24 0 -45 -9t-37.5 -26t-26 -41t-9.5 -55v-241h-126v475h126v-36q20 22 58 35.5t86 13.5zM535 766l-173 -214h-109l-172 214h130l97 -116l98 116h129z" />
    <glyph glyph-name="napostrophe" unicode="&#x149;" horiz-adv-x="616" 
d="M342 488q46 0 85 -14t67 -40t43.5 -63.5t15.5 -84.5v-286h-126v263q0 51 -28 80t-83 29q-24 0 -45 -9t-37.5 -26t-26 -41t-9.5 -55v-241h-126v475h126v-36q20 22 58 35.5t86 13.5zM72 531l83 137h-69v149h149v-164l-76 -122h-87z" />
    <glyph glyph-name="Eng" unicode="&#x14a;" horiz-adv-x="757" 
d="M680 664v-677q0 -93 -54.5 -142t-147.5 -49h-133v117h133q71 0 71 74v13l-341 466v-466h-131v664h142l330 -452v452h131z" />
    <glyph glyph-name="eng" unicode="&#x14b;" horiz-adv-x="616" 
d="M427 263q0 51 -28 80t-83 29q-24 0 -45 -9t-37.5 -26t-26 -41t-9.5 -55v-241h-126v475h126v-36q20 22 58 35.5t86 13.5q46 0 85 -14t67 -40t43.5 -63.5t15.5 -84.5v-341q0 -66 -45.5 -107.5t-134.5 -41.5h-90v110h89q29 0 42 16.5t13 42.5v298v0z" />
    <glyph glyph-name="Omacron" unicode="&#x14c;" horiz-adv-x="772" 
d="M386 -13q-77 0 -140 27t-109 74t-71 110t-25 134q0 72 25 134.5t71 109.5t109 74t140 27q76 0 139.5 -27t109.5 -74t71 -109.5t25 -134.5q0 -71 -25 -134t-71 -110t-109.5 -74t-139.5 -27zM386 104q46 0 85.5 18t68 49t44.5 72.5t16 88.5q0 48 -16 89.5t-44.5 72
t-68 48.5t-85.5 18q-47 0 -86 -18t-67.5 -48.5t-44.5 -72t-16 -89.5q0 -47 16 -88.5t44.5 -72.5t67.5 -49t86 -18zM576 850v-102h-380v102h380z" />
    <glyph glyph-name="omacron" unicode="&#x14d;" horiz-adv-x="606" 
d="M303 488q55 0 102.5 -19t82 -52.5t54 -79.5t19.5 -100t-19.5 -99.5t-54 -79t-82 -52.5t-102.5 -19t-102.5 19t-82 52.5t-54 79t-19.5 99.5t19.5 100t54 79.5t82 52.5t102.5 19zM303 372q-28 0 -52 -10t-42 -27.5t-28 -42.5t-10 -55t10 -54.5t28 -42t42 -27.5t52 -10
t52 10t42 27.5t28 42t10 54.5t-10 55t-28 42.5t-42 27.5t-52 10zM493 654v-102h-380v102h380z" />
    <glyph glyph-name="Obreve" unicode="&#x14e;" horiz-adv-x="772" 
d="M386 -13q-77 0 -140 27t-109 74t-71 110t-25 134q0 72 25 134.5t71 109.5t109 74t140 27q76 0 139.5 -27t109.5 -74t71 -109.5t25 -134.5q0 -71 -25 -134t-71 -110t-109.5 -74t-139.5 -27zM386 104q46 0 85.5 18t68 49t44.5 72.5t16 88.5q0 48 -16 89.5t-44.5 72
t-68 48.5t-85.5 18q-47 0 -86 -18t-67.5 -48.5t-44.5 -72t-16 -89.5q0 -47 16 -88.5t44.5 -72.5t67.5 -49t86 -18zM285 934q5 -44 32.5 -68.5t68.5 -24.5q42 0 70 24.5t33 68.5h102q-3 -44 -20 -80t-44.5 -61.5t-63.5 -39.5t-77 -14t-76.5 14t-63 39.5t-44.5 61.5t-20 80
h103z" />
    <glyph glyph-name="obreve" unicode="&#x14f;" horiz-adv-x="606" 
d="M303 488q55 0 102.5 -19t82 -52.5t54 -79.5t19.5 -100t-19.5 -99.5t-54 -79t-82 -52.5t-102.5 -19t-102.5 19t-82 52.5t-54 79t-19.5 99.5t19.5 100t54 79.5t82 52.5t102.5 19zM303 372q-28 0 -52 -10t-42 -27.5t-28 -42.5t-10 -55t10 -54.5t28 -42t42 -27.5t52 -10
t52 10t42 27.5t28 42t10 54.5t-10 55t-28 42.5t-42 27.5t-52 10zM503 766q-1 -47 -16.5 -86.5t-42 -68t-63 -44t-78.5 -15.5t-78.5 15.5t-63 44t-42 68t-16.5 86.5h104q2 -51 28 -81.5t68 -30.5t68 30.5t28 81.5h104z" />
    <glyph glyph-name="Ohungarumlaut" unicode="&#x150;" horiz-adv-x="772" 
d="M386 -13q-77 0 -140 27t-109 74t-71 110t-25 134q0 72 25 134.5t71 109.5t109 74t140 27q76 0 139.5 -27t109.5 -74t71 -109.5t25 -134.5q0 -71 -25 -134t-71 -110t-109.5 -74t-139.5 -27zM386 104q46 0 85.5 18t68 49t44.5 72.5t16 88.5q0 48 -16 89.5t-44.5 72
t-68 48.5t-85.5 18q-47 0 -86 -18t-67.5 -48.5t-44.5 -72t-16 -89.5q0 -47 16 -88.5t44.5 -72.5t67.5 -49t86 -18zM689 936l-164 -197h-130l164 197h130zM503 936l-164 -197h-130l164 197h130z" />
    <glyph glyph-name="ohungarumlaut" unicode="&#x151;" horiz-adv-x="606" 
d="M303 488q55 0 102.5 -19t82 -52.5t54 -79.5t19.5 -100t-19.5 -99.5t-54 -79t-82 -52.5t-102.5 -19t-102.5 19t-82 52.5t-54 79t-19.5 99.5t19.5 100t54 79.5t82 52.5t102.5 19zM303 372q-28 0 -52 -10t-42 -27.5t-28 -42.5t-10 -55t10 -54.5t28 -42t42 -27.5t52 -10
t52 10t42 27.5t28 42t10 54.5t-10 55t-28 42.5t-42 27.5t-52 10zM589 766l-164 -214h-130l164 214h130zM403 766l-164 -214h-130l164 214h130z" />
    <glyph glyph-name="OE" unicode="&#x152;" horiz-adv-x="1125" 
d="M731 547v-156h328v-117h-328v-157h335v-117h-466v57q-43 -33 -97 -51.5t-117 -18.5q-77 0 -140 27t-109 74t-71 110t-25 134q0 72 25 134.5t71 109.5t109 74t140 27q63 0 117 -18.5t97 -51.5v57h466v-117h-335zM386 104q46 0 85.5 18t68 49t44.5 72.5t16 88.5
q0 48 -16 89.5t-44.5 72t-68 48.5t-85.5 18q-47 0 -86 -18t-67.5 -48.5t-44.5 -72t-16 -89.5q0 -47 16 -88.5t44.5 -72.5t67.5 -49t86 -18z" />
    <glyph glyph-name="oe" unicode="&#x153;" horiz-adv-x="979" 
d="M926 144q-14 -36 -37.5 -65t-54.5 -49.5t-67.5 -31.5t-74.5 -11q-61 0 -110.5 22t-84.5 60q-35 -38 -84.5 -60t-109.5 -22q-55 0 -102.5 19t-82 52.5t-54 79t-19.5 99.5t19.5 100t54 79.5t82 52.5t102.5 19q59 0 108.5 -22t84.5 -60q34 38 82.5 60t108.5 22
q55 0 100.5 -19t78 -52.5t50.5 -79t18 -97.5v-22t-2 -22h-366q10 -43 44.5 -68t81.5 -25q30 0 55.5 9.5t42.5 31.5h136zM303 372q-28 0 -52 -10t-42 -27.5t-28 -42.5t-10 -55t10 -54.5t28 -42t42 -27.5t52 -10t52 10t42 27.5t28 42t10 54.5t-10 55t-28 42.5t-42 27.5t-52 10
zM800 290q-6 42 -37.5 66t-75.5 24q-43 0 -77.5 -24.5t-40.5 -65.5h231z" />
    <glyph glyph-name="Racute" unicode="&#x154;" horiz-adv-x="693" 
d="M635 460q0 -35 -10 -67.5t-30 -59t-51 -45.5t-73 -27l199 -261h-163l-194 255h-105v-255h-131v664h328q59 0 102.5 -16.5t72 -44.5t42 -65t13.5 -78zM208 372h188q51 0 79.5 24t28.5 64t-28.5 63.5t-79.5 23.5h-188v-175zM542 936l-164 -197h-130l164 197h130z" />
    <glyph glyph-name="racute" unicode="&#x155;" horiz-adv-x="417" 
d="M198 475v-49q16 24 50 38.5t75 14.5h58v-120h-59q-61 0 -92.5 -35.5t-31.5 -92.5v-231h-126v475h126zM434 766l-164 -214h-130l164 214h130z" />
    <glyph glyph-name="uni0156" unicode="&#x156;" horiz-adv-x="693" 
d="M635 460q0 -35 -10 -67.5t-30 -59t-51 -45.5t-73 -27l199 -261h-163l-194 255h-105v-255h-131v664h328q59 0 102.5 -16.5t72 -44.5t42 -65t13.5 -78zM208 372h188q51 0 79.5 24t28.5 64t-28.5 63.5t-79.5 23.5h-188v-175zM278 -288l68 113h-74v139h149v-154l-61 -98h-82z
" />
    <glyph glyph-name="uni0157" unicode="&#x157;" horiz-adv-x="417" 
d="M198 475v-49q16 24 50 38.5t75 14.5h58v-120h-59q-61 0 -92.5 -35.5t-31.5 -92.5v-231h-126v475h126zM67 -288l68 113h-74v139h149v-154l-61 -98h-82z" />
    <glyph glyph-name="Rcaron" unicode="&#x158;" horiz-adv-x="693" 
d="M635 460q0 -35 -10 -67.5t-30 -59t-51 -45.5t-73 -27l199 -261h-163l-194 255h-105v-255h-131v664h328q59 0 102.5 -16.5t72 -44.5t42 -65t13.5 -78zM208 372h188q51 0 79.5 24t28.5 64t-28.5 63.5t-79.5 23.5h-188v-175zM556 934l-173 -195h-109l-172 195h130l97 -100
l98 100h129z" />
    <glyph glyph-name="rcaron" unicode="&#x159;" horiz-adv-x="417" 
d="M198 475v-49q16 24 50 38.5t75 14.5h58v-120h-59q-61 0 -92.5 -35.5t-31.5 -92.5v-231h-126v475h126zM439 766l-173 -214h-109l-172 214h130l97 -116l98 116h129z" />
    <glyph glyph-name="Sacute" unicode="&#x15a;" horiz-adv-x="631" 
d="M324 -13q-66 0 -116.5 15t-87 41.5t-60.5 62.5t-37 78h133q23 -42 67 -61t101 -19q63 0 101.5 23.5t38.5 62.5q0 36 -26.5 55t-85.5 25l-114 11q-52 5 -89 21t-61 41t-35 57t-11 69q0 46 18.5 84t53 65.5t83 43t109.5 15.5q62 0 111 -16.5t85.5 -44.5t60.5 -63.5
t36 -72.5h-133q-17 37 -62.5 58.5t-99.5 21.5q-66 0 -98.5 -26t-32.5 -61q0 -33 25 -52t70 -24l122 -12q96 -10 150.5 -61t54.5 -129q0 -41 -17 -78.5t-51 -66t-85 -46t-118 -17.5zM530 936l-164 -197h-130l164 197h130z" />
    <glyph glyph-name="sacute" unicode="&#x15b;" horiz-adv-x="545" 
d="M379 335q-14 26 -43.5 37.5t-72.5 11.5q-41 0 -64 -12.5t-23 -34.5q0 -20 19.5 -29.5t56.5 -12.5l86 -7q81 -7 126 -41t45 -103q0 -34 -15 -63t-43.5 -50t-70 -32.5t-93.5 -11.5q-106 0 -170 42.5t-81 120.5h134q11 -31 44 -45t83 -14q36 0 61 11t25 34q0 20 -19 30.5
t-55 14.5l-94 9q-81 8 -123 42t-42 99q0 34 15 63t42.5 50t67.5 32.5t91 11.5q107 0 167 -42t80 -111h-134zM483 766l-164 -214h-130l164 214h130z" />
    <glyph glyph-name="Scircumflex" unicode="&#x15c;" horiz-adv-x="631" 
d="M324 -13q-66 0 -116.5 15t-87 41.5t-60.5 62.5t-37 78h133q23 -42 67 -61t101 -19q63 0 101.5 23.5t38.5 62.5q0 36 -26.5 55t-85.5 25l-114 11q-52 5 -89 21t-61 41t-35 57t-11 69q0 46 18.5 84t53 65.5t83 43t109.5 15.5q62 0 111 -16.5t85.5 -44.5t60.5 -63.5
t36 -72.5h-133q-17 37 -62.5 58.5t-99.5 21.5q-66 0 -98.5 -26t-32.5 -61q0 -33 25 -52t70 -24l122 -12q96 -10 150.5 -61t54.5 -129q0 -41 -17 -78.5t-51 -66t-85 -46t-118 -17.5zM88 739l173 195h109l172 -195h-130l-97 100l-98 -100h-129z" />
    <glyph glyph-name="scircumflex" unicode="&#x15d;" horiz-adv-x="545" 
d="M379 335q-14 26 -43.5 37.5t-72.5 11.5q-41 0 -64 -12.5t-23 -34.5q0 -20 19.5 -29.5t56.5 -12.5l86 -7q81 -7 126 -41t45 -103q0 -34 -15 -63t-43.5 -50t-70 -32.5t-93.5 -11.5q-106 0 -170 42.5t-81 120.5h134q11 -31 44 -45t83 -14q36 0 61 11t25 34q0 20 -19 30.5
t-55 14.5l-94 9q-81 8 -123 42t-42 99q0 34 15 63t42.5 50t67.5 32.5t91 11.5q107 0 167 -42t80 -111h-134zM52 552l173 214h109l172 -214h-130l-97 116l-98 -116h-129z" />
    <glyph glyph-name="Scedilla" unicode="&#x15e;" horiz-adv-x="631" 
d="M595 195q0 -36 -13.5 -69.5t-40.5 -61t-67 -47t-93 -26.5l-133 -175h-130l134 177q-48 7 -86 24.5t-66 42.5t-47 56.5t-30 67.5h133q23 -42 67 -61t101 -19q63 0 101.5 23.5t38.5 62.5q0 36 -26.5 55t-85.5 25l-114 11q-52 5 -89 21t-61 41t-35 57t-11 69q0 46 18.5 84
t53 65.5t83 43t109.5 15.5q62 0 111 -16.5t85.5 -44.5t60.5 -63.5t36 -72.5h-133q-17 37 -62.5 58.5t-99.5 21.5q-66 0 -98.5 -26t-32.5 -61q0 -33 25 -52t70 -24l122 -12q96 -10 150.5 -61t54.5 -129z" />
    <glyph glyph-name="scedilla" unicode="&#x15f;" horiz-adv-x="545" 
d="M379 335q-14 26 -43.5 37.5t-72.5 11.5q-41 0 -64 -12.5t-23 -34.5q0 -20 19.5 -29.5t56.5 -12.5l86 -7q81 -7 126 -41t45 -103q0 -59 -43 -100.5t-122 -52.5l-134 -175h-130l135 177q-74 13 -119.5 53t-59.5 104h134q11 -31 44 -45t83 -14q36 0 61 11t25 34
q0 20 -19 30.5t-55 14.5l-94 9q-81 8 -123 42t-42 99q0 34 15 63t42.5 50t67.5 32.5t91 11.5q107 0 167 -42t80 -111h-134z" />
    <glyph glyph-name="Scaron" unicode="&#x160;" horiz-adv-x="631" 
d="M324 -13q-66 0 -116.5 15t-87 41.5t-60.5 62.5t-37 78h133q23 -42 67 -61t101 -19q63 0 101.5 23.5t38.5 62.5q0 36 -26.5 55t-85.5 25l-114 11q-52 5 -89 21t-61 41t-35 57t-11 69q0 46 18.5 84t53 65.5t83 43t109.5 15.5q62 0 111 -16.5t85.5 -44.5t60.5 -63.5
t36 -72.5h-133q-17 37 -62.5 58.5t-99.5 21.5q-66 0 -98.5 -26t-32.5 -61q0 -33 25 -52t70 -24l122 -12q96 -10 150.5 -61t54.5 -129q0 -41 -17 -78.5t-51 -66t-85 -46t-118 -17.5zM542 934l-173 -195h-109l-172 195h130l97 -100l98 100h129z" />
    <glyph glyph-name="scaron" unicode="&#x161;" horiz-adv-x="545" 
d="M379 335q-14 26 -43.5 37.5t-72.5 11.5q-41 0 -64 -12.5t-23 -34.5q0 -20 19.5 -29.5t56.5 -12.5l86 -7q81 -7 126 -41t45 -103q0 -34 -15 -63t-43.5 -50t-70 -32.5t-93.5 -11.5q-106 0 -170 42.5t-81 120.5h134q11 -31 44 -45t83 -14q36 0 61 11t25 34q0 20 -19 30.5
t-55 14.5l-94 9q-81 8 -123 42t-42 99q0 34 15 63t42.5 50t67.5 32.5t91 11.5q107 0 167 -42t80 -111h-134zM500 766l-173 -214h-109l-172 214h130l97 -116l98 116h129z" />
    <glyph glyph-name="uni0162" unicode="&#x162;" horiz-adv-x="610" 
d="M587 664v-117h-216v-547l-141 -184h-131l141 184v547h-217v117h564z" />
    <glyph glyph-name="uni0163" unicode="&#x163;" horiz-adv-x="425" 
d="M240 582v-107h144v-110h-144v-196q0 -26 13 -42.5t42 -16.5h89v-110h-32l-146 -191h-130l150 199q-56 14 -84 51t-28 90v216h-87v110h87v107h126z" />
    <glyph glyph-name="Tcaron" unicode="&#x164;" horiz-adv-x="610" 
d="M587 664v-117h-216v-547h-131v547h-217v117h564zM532 934l-173 -195h-109l-172 195h130l97 -100l98 100h129z" />
    <glyph glyph-name="tcaron" unicode="&#x165;" horiz-adv-x="596" 
d="M240 582v-107h144v-110h-144v-196q0 -26 13 -42.5t42 -16.5h89v-110h-90q-89 0 -134.5 41.5t-45.5 107.5v216h-87v110h87v107h126zM433 378l83 137h-69v149h149v-164l-76 -122h-87z" />
    <glyph glyph-name="Tbar" unicode="&#x166;" horiz-adv-x="610" 
d="M587 664v-117h-216v-156h163v-117h-163v-274h-131v274h-164v117h164v156h-217v117h564z" />
    <glyph glyph-name="tbar" unicode="&#x167;" horiz-adv-x="438" 
d="M240 582v-107h144v-110h-144v-55h144v-110h-144v-31q0 -26 13 -42.5t42 -16.5h89v-110h-90q-89 0 -134.5 41.5t-45.5 107.5v51h-87v110h87v55h-87v110h87v107h126z" />
    <glyph glyph-name="Utilde" unicode="&#x168;" horiz-adv-x="727" 
d="M72 664h131v-385q0 -86 43 -130.5t118 -44.5t117.5 44.5t42.5 130.5v385h131v-386q0 -70 -21 -124t-59 -91t-91.5 -56.5t-119.5 -19.5t-120 19.5t-92 56.5t-59 91t-21 124v386zM572 932q0 -93 -35.5 -143t-98.5 -50q-29 0 -51.5 14t-41 31.5t-33 31.5t-27.5 14
q-17 0 -26 -21.5t-9 -69.5h-96q0 93 35.5 143t98.5 50q28 0 50.5 -14t41 -31.5t33.5 -31.5t28 -14q17 0 26 21.5t9 69.5h96z" />
    <glyph glyph-name="utilde" unicode="&#x169;" horiz-adv-x="610" 
d="M271 -13q-46 0 -84 14t-65.5 40t-43 63.5t-15.5 84.5v286h126v-263q0 -51 27 -80t81 -29q23 0 44 9t36.5 26t25 41t9.5 55v241h126v-475h-126v36q-20 -22 -56.5 -35.5t-84.5 -13.5zM517 744q0 -93 -35.5 -143t-98.5 -50q-29 0 -51.5 14t-41 31.5t-33 31.5t-27.5 14
q-17 0 -26 -21.5t-9 -69.5h-96q0 93 35.5 143t98.5 50q28 0 50.5 -14t41 -31.5t33.5 -31.5t28 -14q17 0 26 21.5t9 69.5h96z" />
    <glyph glyph-name="Umacron" unicode="&#x16a;" horiz-adv-x="727" 
d="M72 664h131v-385q0 -86 43 -130.5t118 -44.5t117.5 44.5t42.5 130.5v385h131v-386q0 -70 -21 -124t-59 -91t-91.5 -56.5t-119.5 -19.5t-120 19.5t-92 56.5t-59 91t-21 124v386zM553 850v-102h-380v102h380z" />
    <glyph glyph-name="umacron" unicode="&#x16b;" horiz-adv-x="610" 
d="M271 -13q-46 0 -84 14t-65.5 40t-43 63.5t-15.5 84.5v286h126v-263q0 -51 27 -80t81 -29q23 0 44 9t36.5 26t25 41t9.5 55v241h126v-475h-126v36q-20 -22 -56.5 -35.5t-84.5 -13.5zM495 654v-102h-380v102h380z" />
    <glyph glyph-name="Ubreve" unicode="&#x16c;" horiz-adv-x="727" 
d="M72 664h131v-385q0 -86 43 -130.5t118 -44.5t117.5 44.5t42.5 130.5v385h131v-386q0 -70 -21 -124t-59 -91t-91.5 -56.5t-119.5 -19.5t-120 19.5t-92 56.5t-59 91t-21 124v386zM262 934q5 -44 32.5 -68.5t68.5 -24.5q42 0 70 24.5t33 68.5h102q-3 -44 -20 -80
t-44.5 -61.5t-63.5 -39.5t-77 -14t-76.5 14t-63 39.5t-44.5 61.5t-20 80h103z" />
    <glyph glyph-name="ubreve" unicode="&#x16d;" horiz-adv-x="610" 
d="M271 -13q-46 0 -84 14t-65.5 40t-43 63.5t-15.5 84.5v286h126v-263q0 -51 27 -80t81 -29q23 0 44 9t36.5 26t25 41t9.5 55v241h126v-475h-126v36q-20 -22 -56.5 -35.5t-84.5 -13.5zM505 766q-1 -47 -16.5 -86.5t-42 -68t-63 -44t-78.5 -15.5t-78.5 15.5t-63 44t-42 68
t-16.5 86.5h104q2 -51 28 -81.5t68 -30.5t68 30.5t28 81.5h104z" />
    <glyph glyph-name="Uring" unicode="&#x16e;" horiz-adv-x="727" 
d="M72 664h131v-385q0 -86 43 -130.5t118 -44.5t117.5 44.5t42.5 130.5v385h131v-386q0 -70 -21 -124t-59 -91t-91.5 -56.5t-119.5 -19.5t-120 19.5t-92 56.5t-59 91t-21 124v386zM363 1026q31 0 58.5 -12t47.5 -32t32 -47.5t12 -58.5t-12 -58.5t-32 -47.5t-47.5 -32
t-58.5 -12t-58.5 12t-47.5 32t-32 47.5t-12 58.5t12 58.5t32 47.5t47.5 32t58.5 12zM363 821q23 0 39 16t16 39t-16 39.5t-39 16.5t-39.5 -16.5t-16.5 -39.5t16.5 -39t39.5 -16z" />
    <glyph glyph-name="uring" unicode="&#x16f;" horiz-adv-x="610" 
d="M271 -13q-46 0 -84 14t-65.5 40t-43 63.5t-15.5 84.5v286h126v-263q0 -51 27 -80t81 -29q23 0 44 9t36.5 26t25 41t9.5 55v241h126v-475h-126v36q-20 -22 -56.5 -35.5t-84.5 -13.5zM305 831q31 0 58.5 -12t47.5 -32t32 -47.5t12 -58.5t-12 -58.5t-32 -47.5t-47.5 -32
t-58.5 -12t-58.5 12t-47.5 32t-32 47.5t-12 58.5t12 58.5t32 47.5t47.5 32t58.5 12zM305 626q23 0 39 16t16 39t-16 39.5t-39 16.5t-39.5 -16.5t-16.5 -39.5t16.5 -39t39.5 -16z" />
    <glyph glyph-name="Uhungarumlaut" unicode="&#x170;" horiz-adv-x="727" 
d="M72 664h131v-385q0 -86 43 -130.5t118 -44.5t117.5 44.5t42.5 130.5v385h131v-386q0 -70 -21 -124t-59 -91t-91.5 -56.5t-119.5 -19.5t-120 19.5t-92 56.5t-59 91t-21 124v386zM668 936l-164 -197h-130l164 197h130zM482 936l-164 -197h-130l164 197h130z" />
    <glyph glyph-name="uhungarumlaut" unicode="&#x171;" horiz-adv-x="610" 
d="M271 -13q-46 0 -84 14t-65.5 40t-43 63.5t-15.5 84.5v286h126v-263q0 -51 27 -80t81 -29q23 0 44 9t36.5 26t25 41t9.5 55v241h126v-475h-126v36q-20 -22 -56.5 -35.5t-84.5 -13.5zM606 766l-164 -214h-130l164 214h130zM420 766l-164 -214h-130l164 214h130z" />
    <glyph glyph-name="Uogonek" unicode="&#x172;" horiz-adv-x="727" 
d="M72 664h131v-385q0 -86 43 -130.5t118 -44.5t117.5 44.5t42.5 130.5v385h131v-386q0 -56 -13 -100t-34.5 -77.5t-49 -58t-57.5 -39.5q-38 -20 -66 -41t-28 -45q0 -16 12.5 -23.5t32.5 -7.5h49v-90h-63q-69 0 -109 23t-40 74q0 28 16.5 50t46.5 44q-63 2 -115 22t-88.5 57
t-56.5 90.5t-20 121.5v386z" />
    <glyph glyph-name="uogonek" unicode="&#x173;" horiz-adv-x="610" 
d="M412 36q-20 -22 -56.5 -35.5t-84.5 -13.5q-46 0 -84 14t-65.5 40t-43 63.5t-15.5 84.5v286h126v-263q0 -51 27 -80t81 -29q23 0 44 9t36.5 26t25 41t9.5 55v241h126v-475q-40 -21 -67 -41t-27 -42q0 -16 12.5 -23.5t32.5 -7.5h49v-90h-63q-69 0 -109 23t-40 74
q0 31 22 56.5t64 50.5v36z" />
    <glyph glyph-name="Wcircumflex" unicode="&#x174;" horiz-adv-x="1051" 
d="M142 664l160 -481l154 481h137l157 -480l159 480h133l-221 -664h-138l-158 490l-156 -490h-138l-222 664h133zM298 739l173 195h109l172 -195h-130l-97 100l-98 -100h-129z" />
    <glyph glyph-name="wcircumflex" unicode="&#x175;" horiz-adv-x="879" 
d="M147 475l117 -312l115 312h124l117 -314l116 314h125l-175 -475h-129l-118 320l-117 -320h-127l-177 475h129zM219 552l173 214h109l172 -214h-130l-97 116l-98 -116h-129z" />
    <glyph glyph-name="Ycircumflex" unicode="&#x176;" horiz-adv-x="649" 
d="M507 664h142l-258 -430v-234h-131v234l-260 430h144l182 -298zM97 739l173 195h109l172 -195h-130l-97 100l-98 -100h-129z" />
    <glyph glyph-name="ycircumflex" unicode="&#x177;" horiz-adv-x="567" 
d="M332 -25q-24 -52 -41.5 -86.5t-38.5 -55t-49 -29t-73 -8.5h-70v110h54q27 0 47.5 16t37.5 54l18 41l-208 458h139l138 -306l138 306h134zM66 552l173 214h109l172 -214h-130l-97 116l-98 -116h-129z" />
    <glyph glyph-name="Ydieresis" unicode="&#x178;" horiz-adv-x="649" 
d="M507 664h142l-258 -430v-234h-131v234l-260 430h144l182 -298zM147 875h128v-128h-128v128zM373 875h128v-128h-128v128z" />
    <glyph glyph-name="Zacute" unicode="&#x179;" horiz-adv-x="638" 
d="M588 547l-375 -430h375v-117h-537v117l374 430h-375v117h538v-117zM536 936l-164 -197h-130l164 197h130z" />
    <glyph glyph-name="zacute" unicode="&#x17a;" horiz-adv-x="554" 
d="M55 0v110l268 255h-268v110h439v-110l-270 -255h270v-110h-439zM505 766l-164 -214h-130l164 214h130z" />
    <glyph glyph-name="Zdotaccent" unicode="&#x17b;" horiz-adv-x="638" 
d="M588 547l-375 -430h375v-117h-537v117l374 430h-375v117h538v-117zM250 885h138v-138h-138v138z" />
    <glyph glyph-name="zdotaccent" unicode="&#x17c;" horiz-adv-x="554" 
d="M55 0v110l268 255h-268v110h439v-110l-270 -255h270v-110h-439zM213 689h138v-137h-138v137z" />
    <glyph glyph-name="Zcaron" unicode="&#x17d;" horiz-adv-x="638" 
d="M588 547l-375 -430h375v-117h-537v117l374 430h-375v117h538v-117zM546 934l-173 -195h-109l-172 195h130l97 -100l98 100h129z" />
    <glyph glyph-name="zcaron" unicode="&#x17e;" horiz-adv-x="554" 
d="M55 0v110l268 255h-268v110h439v-110l-270 -255h270v-110h-439zM500 766l-173 -214h-109l-172 214h130l97 -116l98 116h129z" />
    <glyph glyph-name="longs" unicode="&#x17f;" horiz-adv-x="347" 
d="M72 0v511q0 33 12 62t35 50t57 33.5t78 12.5h88v-110h-88q-29 0 -42.5 -15t-13.5 -38v-506h-126z" />
    <glyph glyph-name="uni018F" unicode="&#x18f;" horiz-adv-x="756" 
d="M367 560q-57 0 -98.5 -21t-68.5 -59h-139q19 45 49.5 81t70 62t86.5 40t100 14q78 0 142 -27t110 -73.5t71 -109t25 -134.5t-25.5 -135t-71.5 -110t-108.5 -74t-136.5 -27t-135.5 27t-105 74t-67.5 109.5t-24 134.5v25t2 28h535q-7 38 -25 70t-45.5 55.5t-63 36.5
t-77.5 13zM375 104q39 0 73.5 12.5t61 34.5t44 53t23.5 68h-398q5 -37 21.5 -68t42 -53t59 -34.5t73.5 -12.5z" />
    <glyph glyph-name="florin" unicode="&#x192;" horiz-adv-x="508" 
d="M323 379h143l-15 -110h-144l-45 -320q-10 -66 -60 -109.5t-144 -43.5h-88l16 110h88q29 0 44.5 15t18.5 38l44 310h-144l15 110h144l20 137q10 66 60 109.5t144 43.5h88l-16 -110h-88q-29 0 -44.5 -15t-18.5 -38z" />
    <glyph glyph-name="uni01B5" unicode="&#x1b5;" horiz-adv-x="638" 
d="M588 547l-136 -156h109v-117h-211l-137 -157h375v-117h-537v117l136 157h-110v117h212l136 156h-375v117h538v-117z" />
    <glyph glyph-name="uni01B6" unicode="&#x1b6;" horiz-adv-x="554" 
d="M476 189h-170l-86 -79h274v-110h-439v114l81 75h-63v100h171l83 76h-272v110h439v-115l-78 -71h60v-100z" />
    <glyph glyph-name="Icaron" unicode="&#x1cf;" horiz-adv-x="285" 
d="M208 0h-131v664h131v-664zM370 934l-173 -195h-109l-172 195h130l97 -100l98 100h129z" />
    <glyph glyph-name="icaron" unicode="&#x1d0;" horiz-adv-x="274" 
d="M200 475v-475h-126v475h126zM365 766l-173 -214h-109l-172 214h130l97 -116l98 116h129z" />
    <glyph glyph-name="Aringacute" unicode="&#x1fa;" horiz-adv-x="706" 
d="M353 850q31 0 58.5 -12t47.5 -32t32 -47.5t12 -58.5q0 -35 -14 -64t-38 -50l255 -586h-139l-65 147h-303l-65 -147h-134l255 586q-24 21 -38 50t-14 64q0 31 12 58.5t32 47.5t47.5 32t58.5 12zM251 264h199l-99 226zM548 1059l-126 -165h-130l126 165h130zM353 645
q23 0 39 16t16 39t-16 39.5t-39 16.5t-39.5 -16.5t-16.5 -39.5t16.5 -39t39.5 -16z" />
    <glyph glyph-name="aringacute" unicode="&#x1fb;" horiz-adv-x="577" 
d="M466 1040l-126 -165h-130l126 165h130zM275 831q31 0 58.5 -12t47.5 -32t32 -47.5t12 -58.5t-12 -58.5t-32 -47.5t-47.5 -32t-58.5 -12t-58.5 12t-47.5 32t-32 47.5t-12 58.5t12 58.5t32 47.5t47.5 32t58.5 12zM275 626q23 0 39 16t16 39t-16 39.5t-39 16.5t-39.5 -16.5
t-16.5 -39.5t16.5 -39t39.5 -16zM274 488q54 0 98 -13t75.5 -37.5t49 -60.5t17.5 -82v-295h-126v36q-26 -26 -67 -37.5t-87 -11.5q-88 0 -137.5 42t-49.5 119q0 45 19.5 74t51 46.5t71.5 24t82 6.5h117q0 41 -33 59t-78 18q-40 0 -69 -13t-42 -44h-130q10 43 33.5 75
t55.5 53t70.5 31t78.5 10zM388 205h-117q-46 0 -72 -14.5t-26 -43.5q0 -25 22 -42t64 -17q25 0 48.5 6t41.5 18.5t28.5 30.5t10.5 42v20z" />
    <glyph glyph-name="AEacute" unicode="&#x1fc;" horiz-adv-x="1033" 
d="M639 547v-156h328v-117h-328v-157h335v-117h-466v147h-252l-103 -147h-164l478 664h507v-117h-335zM508 264v240l-169 -240h169zM882 936l-164 -197h-130l164 197h130z" />
    <glyph glyph-name="aeacute" unicode="&#x1fd;" horiz-adv-x="928" 
d="M274 488q61 0 109 -16t80 -48q33 30 77 47t96 17q55 0 100.5 -19t78 -52.5t50.5 -79t18 -97.5v-22t-2 -22h-366q10 -43 44.5 -68t81.5 -25q30 0 55.5 9.5t42.5 31.5h136q-14 -36 -37.5 -65t-54.5 -49.5t-67.5 -31.5t-74.5 -11q-63 0 -114.5 23.5t-86.5 65.5
q-28 -36 -79.5 -62.5t-126.5 -26.5q-88 0 -137.5 42t-49.5 119q0 45 19.5 74t51 46.5t71.5 24t82 6.5h117q0 41 -33 59t-78 18q-40 0 -69 -13t-42 -44h-130q10 43 33.5 75t55.5 53t70.5 31t78.5 10zM388 205h-117q-46 0 -72 -14.5t-26 -43.5q0 -25 22 -42t64 -17
q25 0 48.5 6t41.5 18.5t28.5 30.5t10.5 42v20zM749 290q-6 42 -37.5 66t-75.5 24q-43 0 -77.5 -24.5t-40.5 -65.5h231zM695 766l-164 -214h-130l164 214h130z" />
    <glyph glyph-name="Oslashacute" unicode="&#x1fe;" horiz-adv-x="814" 
d="M407 -13q-51 0 -95 11.5t-82 33.5l-38 -45h-157l104 122q-37 45 -57 102t-20 121q0 72 25 134.5t71 109.5t109 74t140 27q50 0 94 -11.5t82 -33.5l38 45h158l-104 -123q37 -45 57 -101.5t20 -120.5q0 -71 -25 -134t-71 -110t-109.5 -74t-139.5 -27zM407 104q46 0 85.5 18
t68 49t44.5 72.5t16 88.5q0 34 -7.5 65t-24.5 57l-278 -327q43 -23 96 -23zM193 332q0 -70 31 -122l278 327q-43 23 -95 23q-47 0 -86 -18t-67.5 -48.5t-44.5 -72t-16 -89.5zM629 936l-164 -197h-130l164 197h130z" />
    <glyph glyph-name="oslashacute" unicode="&#x1ff;" horiz-adv-x="606" 
d="M303 488q33 0 63.5 -7t56.5 -20l24 27h151l-87 -99q23 -32 36.5 -70t13.5 -82q0 -54 -19.5 -99.5t-54 -79t-82 -52.5t-102.5 -19q-33 0 -63.5 7t-57.5 20l-23 -27h-151l86 98q-23 32 -36 70t-13 82q0 54 19.5 100t54 79.5t82 52.5t102.5 19zM303 98q29 0 54 10t43.5 28.5
t29 44t10.5 56.5t-11 58l-168 -191q19 -6 42 -6zM166 237q0 -31 11 -58l168 192q-20 6 -42 6q-29 0 -54 -10t-43.5 -28.5t-29 -44.5t-10.5 -57zM527 766l-164 -214h-130l164 214h130z" />
    <glyph glyph-name="uni0218" unicode="&#x218;" horiz-adv-x="631" 
d="M324 -13q-66 0 -116.5 15t-87 41.5t-60.5 62.5t-37 78h133q23 -42 67 -61t101 -19q63 0 101.5 23.5t38.5 62.5q0 36 -26.5 55t-85.5 25l-114 11q-52 5 -89 21t-61 41t-35 57t-11 69q0 46 18.5 84t53 65.5t83 43t109.5 15.5q62 0 111 -16.5t85.5 -44.5t60.5 -63.5
t36 -72.5h-133q-17 37 -62.5 58.5t-99.5 21.5q-66 0 -98.5 -26t-32.5 -61q0 -33 25 -52t70 -24l122 -12q96 -10 150.5 -61t54.5 -129q0 -41 -17 -78.5t-51 -66t-85 -46t-118 -17.5zM247 -307l68 113h-74v139h149v-154l-61 -98h-82z" />
    <glyph glyph-name="uni0219" unicode="&#x219;" horiz-adv-x="545" 
d="M379 335q-14 26 -43.5 37.5t-72.5 11.5q-41 0 -64 -12.5t-23 -34.5q0 -20 19.5 -29.5t56.5 -12.5l86 -7q81 -7 126 -41t45 -103q0 -34 -15 -63t-43.5 -50t-70 -32.5t-93.5 -11.5q-106 0 -170 42.5t-81 120.5h134q11 -31 44 -45t83 -14q36 0 61 11t25 34q0 20 -19 30.5
t-55 14.5l-94 9q-81 8 -123 42t-42 99q0 34 15 63t42.5 50t67.5 32.5t91 11.5q107 0 167 -42t80 -111h-134zM204 -307l68 113h-74v139h149v-154l-61 -98h-82z" />
    <glyph glyph-name="uni021A" unicode="&#x21a;" horiz-adv-x="610" 
d="M587 664v-117h-216v-547h-131v547h-217v117h564zM237 -288l68 113h-74v139h149v-154l-61 -98h-82z" />
    <glyph glyph-name="uni021B" unicode="&#x21b;" horiz-adv-x="425" 
d="M240 582v-107h144v-110h-144v-196q0 -26 13 -42.5t42 -16.5h89v-110h-90q-89 0 -134.5 41.5t-45.5 107.5v216h-87v110h87v107h126zM162 -288l68 113h-74v139h149v-154l-61 -98h-82z" />
    <glyph glyph-name="uni0259" unicode="&#x259;" horiz-adv-x="589" 
d="M53 331q13 36 37.5 65t56 49.5t68.5 31.5t76 11q55 0 101 -19t80 -52.5t53 -79.5t19 -100q0 -53 -18.5 -99t-52 -79.5t-80 -52.5t-101.5 -19t-100.5 19t-78 52.5t-50.5 78.5t-18 98v22t2 22h366q-10 43 -43.5 69t-78.5 26q-32 0 -58 -10.5t-43 -32.5h-137zM179 185
q6 -42 37.5 -66t75.5 -24q43 0 77.5 24.5t40.5 65.5h-231z" />
    <glyph glyph-name="circumflex" unicode="&#x2c6;" horiz-adv-x="562" 
d="M54 552l173 214h109l172 -214h-130l-97 116l-98 -116h-129z" />
    <glyph glyph-name="caron" unicode="&#x2c7;" horiz-adv-x="562" 
d="M508 766l-173 -214h-109l-172 214h130l97 -116l98 116h129z" />
    <glyph glyph-name="uni02C9" unicode="&#x2c9;" horiz-adv-x="488" 
d="M434 654v-102h-380v102h380z" />
    <glyph glyph-name="breve" unicode="&#x2d8;" horiz-adv-x="508" 
d="M454 766q-1 -47 -16.5 -86.5t-42 -68t-63 -44t-78.5 -15.5t-78.5 15.5t-63 44t-42 68t-16.5 86.5h104q2 -51 28 -81.5t68 -30.5t68 30.5t28 81.5h104z" />
    <glyph glyph-name="dotaccent" unicode="&#x2d9;" horiz-adv-x="246" 
d="M54 689h138v-137h-138v137z" />
    <glyph glyph-name="ring" unicode="&#x2da;" horiz-adv-x="408" 
d="M204 831q31 0 58.5 -12t47.5 -32t32 -47.5t12 -58.5t-12 -58.5t-32 -47.5t-47.5 -32t-58.5 -12t-58.5 12t-47.5 32t-32 47.5t-12 58.5t12 58.5t32 47.5t47.5 32t58.5 12zM204 626q23 0 39 16t16 39t-16 39.5t-39 16.5t-39.5 -16.5t-16.5 -39.5t16.5 -39t39.5 -16z" />
    <glyph glyph-name="ogonek" unicode="&#x2db;" horiz-adv-x="327" 
d="M266 0q-40 -21 -67 -41t-27 -42q0 -16 12.5 -23.5t32.5 -7.5h49v-90h-63q-69 0 -109 23t-40 74q0 31 22.5 56.5t64.5 50.5h125z" />
    <glyph glyph-name="tilde" unicode="&#x2dc;" horiz-adv-x="526" 
d="M472 744q0 -93 -35.5 -143t-98.5 -50q-29 0 -51.5 14t-41 31.5t-33 31.5t-27.5 14q-17 0 -26 -21.5t-9 -69.5h-96q0 93 35.5 143t98.5 50q28 0 50.5 -14t41 -31.5t33.5 -31.5t28 -14q17 0 26 21.5t9 69.5h96z" />
    <glyph glyph-name="hungarumlaut" unicode="&#x2dd;" horiz-adv-x="588" 
d="M534 766l-164 -214h-130l164 214h130zM348 766l-164 -214h-130l164 214h130z" />
    <glyph glyph-name="accent" unicode="&#x301;" horiz-adv-x="2" 
d="M-70 766l-164 -214h-130l164 214h130z" />
    <glyph glyph-name="pi" unicode="&#x3c0;" horiz-adv-x="616" 
d="M104 0v365h-74v110h556v-110h-74v-365h-125v365h-158v-365h-125z" />
    <glyph glyph-name="uni0401" unicode="&#x401;" horiz-adv-x="602" 
d="M208 547v-156h328v-117h-328v-157h335v-117h-466v664h466v-117h-335zM133 875h128v-128h-128v128zM359 875h128v-128h-128v128z" />
    <glyph glyph-name="uni0402" unicode="&#x402;" horiz-adv-x="801" 
d="M485 411q63 0 114.5 -13t88.5 -39t57 -64.5t20 -89.5q0 -50 -19 -88.5t-54 -64.5t-84 -39t-110 -13h-75v117h69q30 0 55.5 4.5t45 15t30.5 27.5t11 43q0 87 -154 87q-35 0 -72 -3.5t-76 -9.5v-281h-131v547h-187v117h534v-117h-216v-149q32 5 69 9t84 4z" />
    <glyph glyph-name="uni0403" unicode="&#x403;" horiz-adv-x="553" 
d="M530 547h-322v-547h-131v664h453v-117zM500 936l-164 -197h-130l164 197h130z" />
    <glyph glyph-name="uni0404" unicode="&#x404;" horiz-adv-x="722" 
d="M386.041 677q-73.9902 0 -136.983 -26q-62.9922 -26 -108.486 -71.5t-71.4912 -109t-25.9971 -138.5t25.9971 -138.5t71.4912 -109t108.486 -71.5q62.9932 -26 136.983 -26q108.987 0 185.478 53.5q76.4912 53.5 116.485 143.5h-139.982q-26.9971 -36 -68.9912 -58
q-41.9951 -22 -92.9893 -22q-38.9951 0 -72.9912 12q-33.9951 12 -60.9922 34t-45.4941 53.5q-18.498 31.5 -25.4971 70.5h317.961v117h-317.961q6.99902 39 25.4971 70q18.4971 31 45.4941 53t60.9922 34q33.9961 12 72.9912 12q50.9941 0 92.9893 -22.5
q41.9941 -22.5 68.9912 -57.5h139.982q-39.9941 89 -116.485 143q-76.4902 54 -185.478 54z" />
    <glyph glyph-name="uni0405" unicode="&#x405;" horiz-adv-x="631" 
d="M324 -13q-66 0 -116.5 15t-87 41.5t-60.5 62.5t-37 78h133q23 -42 67 -61t101 -19q63 0 101.5 23.5t38.5 62.5q0 36 -26.5 55t-85.5 25l-114 11q-52 5 -89 21t-61 41t-35 57t-11 69q0 46 18.5 84t53 65.5t83 43t109.5 15.5q62 0 111 -16.5t85.5 -44.5t60.5 -63.5
t36 -72.5h-133q-17 37 -62.5 58.5t-99.5 21.5q-66 0 -98.5 -26t-32.5 -61q0 -33 25 -52t70 -24l122 -12q96 -10 150.5 -61t54.5 -129q0 -41 -17 -78.5t-51 -66t-85 -46t-118 -17.5z" />
    <glyph glyph-name="uni0406" unicode="&#x406;" horiz-adv-x="285" 
d="M208 0h-131v664h131v-664z" />
    <glyph glyph-name="uni0407" unicode="&#x407;" horiz-adv-x="285" 
d="M208 0h-131v664h131v-664zM-34 875h128v-128h-128v128zM192 875h128v-128h-128v128z" />
    <glyph glyph-name="uni0408" unicode="&#x408;" horiz-adv-x="412" 
d="M340 664v-473q0 -93 -54.5 -142t-147.5 -49h-133v117h133q71 0 71 74v473h131z" />
    <glyph glyph-name="uni0409" unicode="&#x409;" horiz-adv-x="1110" 
d="M1074 211q0 -43 -14.5 -81t-43.5 -67t-74 -46t-106 -17h-319v547h-229v-198q0 -62 -6.5 -124.5t-29 -112.5t-65 -81t-114.5 -31h-59v118h38q37 0 58 20.5t31.5 52.5t13 71.5t2.5 77.5v324h491v-241h188q61 0 106 -17t74 -46t43.5 -67.5t14.5 -81.5zM648 117h178
q56 0 86.5 25.5t30.5 68.5t-30.5 69t-86.5 26h-178v-189z" />
    <glyph glyph-name="uni040A" unicode="&#x40a;" horiz-adv-x="1123" 
d="M1087 211q0 -43 -14.5 -81t-43.5 -67t-74 -46t-106 -17h-319v274h-322v-274h-131v664h131v-273h322v273h131v-241h188q61 0 106 -17t74 -46t43.5 -67.5t14.5 -81.5zM839 117q56 0 86.5 25.5t30.5 68.5t-30.5 69t-86.5 26h-178v-189h178z" />
    <glyph glyph-name="uni040B" unicode="&#x40b;" horiz-adv-x="815" 
d="M332 397q16 3 36.5 5.5t41.5 4.5t40.5 3t33.5 1q145 0 213 -56t68 -173v-182h-131v185q0 60 -34 84.5t-112 24.5q-30 0 -72 -3.5t-84 -10.5v-280h-131v547h-187v117h534v-117h-216v-150z" />
    <glyph glyph-name="uni040C" unicode="&#x40c;" horiz-adv-x="641" 
d="M464 0l-256 263v-263h-131v664h131v-269l264 269h165l-324 -332l324 -332h-173zM533 936l-164 -197h-130l164 197h130z" />
    <glyph glyph-name="uni040E" unicode="&#x40e;" horiz-adv-x="640" 
d="M510 664h132l-259 -508q-23 -44 -41 -74t-38.5 -48t-46.5 -26t-63 -8h-85v117h74q30 0 46.5 11t28.5 37l8 18l-248 481h134l179 -346zM222 892q5 -38 33.5 -60.5t70.5 -22.5t70.5 22.5t33.5 60.5h104q-3 -42 -20 -76t-45 -58t-64.5 -37.5t-78.5 -13.5t-78.5 13.5
t-64.5 37.5t-45 58t-20 76h104z" />
    <glyph glyph-name="uni040F" unicode="&#x40f;" horiz-adv-x="721" 
d="M296 -147v147h-219v664h131v-547h305v547h131v-664h-220v-147h-128z" />
    <glyph glyph-name="uni0410" unicode="&#x410;" horiz-adv-x="706" 
d="M706 0h-139l-65 147h-303l-65 -147h-134l289 664h128zM251 264h199l-99 226z" />
    <glyph glyph-name="uni0411" unicode="&#x411;" horiz-adv-x="670" 
d="M634 211q0 -43 -14.5 -81t-43.5 -67t-74 -46t-106 -17h-319v664h505v-117h-374v-124h188q61 0 106 -17t74 -46t43.5 -67.5t14.5 -81.5zM208 117h178q56 0 86.5 25.5t30.5 68.5t-30.5 69t-86.5 26h-178v-189z" />
    <glyph glyph-name="uni0412" unicode="&#x412;" horiz-adv-x="653" 
d="M382 664q57 0 98.5 -15t68.5 -40.5t40.5 -60.5t13.5 -74q0 -45 -19.5 -82.5t-57.5 -59.5q38 -22 57.5 -59.5t19.5 -82.5q0 -39 -13.5 -74t-40.5 -60.5t-68.5 -40.5t-98.5 -15h-305v664h305zM208 390h161q47 0 75 20t28 58q0 40 -27.5 59.5t-75.5 19.5h-161v-157zM208 117
h161q47 0 75 19.5t28 57.5q0 40 -27.5 59.5t-75.5 19.5h-161v-156z" />
    <glyph glyph-name="uni0413" unicode="&#x413;" horiz-adv-x="553" 
d="M530 547h-322v-547h-131v664h453v-117z" />
    <glyph glyph-name="uni0414" unicode="&#x414;" horiz-adv-x="757" 
d="M634 664v-547h91v-264h-128v147h-455v-147h-128v264h64q18 20 30.5 48t20 60.5t11 68.5t3.5 72v298h491zM274 367q0 -59 -8 -126t-35 -124h272v430h-229v-180z" />
    <glyph glyph-name="uni0415" unicode="&#x415;" horiz-adv-x="602" 
d="M208 547v-156h328v-117h-328v-157h335v-117h-466v664h466v-117h-335z" />
    <glyph glyph-name="uni0416" unicode="&#x416;" horiz-adv-x="963" 
d="M783 0l-236 263v-263h-131v263l-236 -263h-171l302 332l-302 332h163l244 -269v269h131v-269l244 269h163l-302 -332l302 -332h-171z" />
    <glyph glyph-name="uni0417" unicode="&#x417;" horiz-adv-x="652" 
d="M521 332q38 -22 57.5 -57t19.5 -80q0 -41 -18 -78.5t-53 -66t-86.5 -46t-118.5 -17.5q-65 0 -114 15t-84 41.5t-58 62.5t-36 78h133q22 -42 63 -61t96 -19q63 0 104 24t41 66q0 40 -28 59.5t-76 19.5h-147v117h147q48 0 76 20t28 58t-36 65t-102 27q-55 0 -100 -21
t-61 -59h-132q11 38 34.5 73.5t59.5 63t85 44t112 16.5q61 0 111 -15.5t85.5 -43t55 -65.5t19.5 -84q0 -45 -19.5 -80t-57.5 -57z" />
    <glyph glyph-name="uni0418" unicode="&#x418;" horiz-adv-x="746" 
d="M538 0v467l-330 -467h-131v664h131v-467l330 467h131v-664h-131z" />
    <glyph glyph-name="uni0419" unicode="&#x419;" horiz-adv-x="746" 
d="M538 0v467l-330 -467h-131v664h131v-467l330 467h131v-664h-131zM269 892q5 -38 33.5 -60.5t70.5 -22.5t70.5 22.5t33.5 60.5h104q-3 -42 -20 -76t-45 -58t-64.5 -37.5t-78.5 -13.5t-78.5 13.5t-64.5 37.5t-45 58t-20 76h104z" />
    <glyph glyph-name="uni041A" unicode="&#x41a;" horiz-adv-x="641" 
d="M464 0l-256 263v-263h-131v664h131v-269l264 269h165l-324 -332l324 -332h-173z" />
    <glyph glyph-name="uni041B" unicode="&#x41b;" horiz-adv-x="725" 
d="M648 664v-664h-131v547h-229v-198q0 -62 -6.5 -124.5t-29 -112.5t-65 -81t-114.5 -31h-59v118h38q37 0 58 20.5t31.5 52.5t13 71.5t2.5 77.5v324h491z" />
    <glyph glyph-name="uni041C" unicode="&#x41c;" horiz-adv-x="944" 
d="M474 141l244 523h149v-664h-131v416l-193 -416h-142l-193 416v-416h-131v664h153z" />
    <glyph glyph-name="uni041D" unicode="&#x41d;" horiz-adv-x="738" 
d="M530 0v274h-322v-274h-131v664h131v-273h322v273h131v-664h-131z" />
    <glyph glyph-name="uni041E" unicode="&#x41e;" horiz-adv-x="772" 
d="M386 -13q-77 0 -140 27t-109 74t-71 110t-25 134q0 72 25 134.5t71 109.5t109 74t140 27q76 0 139.5 -27t109.5 -74t71 -109.5t25 -134.5q0 -71 -25 -134t-71 -110t-109.5 -74t-139.5 -27zM386 104q46 0 85.5 18t68 49t44.5 72.5t16 88.5q0 48 -16 89.5t-44.5 72
t-68 48.5t-85.5 18q-47 0 -86 -18t-67.5 -48.5t-44.5 -72t-16 -89.5q0 -47 16 -88.5t44.5 -72.5t67.5 -49t86 -18z" />
    <glyph glyph-name="uni041F" unicode="&#x41f;" horiz-adv-x="728" 
d="M520 0v547h-312v-547h-131v664h574v-664h-131z" />
    <glyph glyph-name="uni0420" unicode="&#x420;" horiz-adv-x="671" 
d="M635 460q0 -42 -13.5 -79t-42 -65t-72 -44.5t-102.5 -16.5h-197v-255h-131v664h328q59 0 102.5 -16.5t72 -44.5t42 -65t13.5 -78zM208 372h188q51 0 79.5 24t28.5 64t-28.5 63.5t-79.5 23.5h-188v-175z" />
    <glyph glyph-name="uni0421" unicode="&#x421;" horiz-adv-x="722" 
d="M384 677q109 0 185.5 -54t116.5 -143h-140q-27 35 -69 57.5t-93 22.5q-46 0 -84.5 -17.5t-67 -48t-44.5 -72t-16 -90.5t16 -90.5t44.5 -72t67 -48t84.5 -17.5q51 0 93 22t69 58h140q-40 -90 -116.5 -143.5t-185.5 -53.5q-73 0 -136 26t-109 72t-72 109.5t-26 137.5
t26 137.5t72 109.5t109 72t136 26z" />
    <glyph glyph-name="uni0422" unicode="&#x422;" horiz-adv-x="610" 
d="M587 664v-117h-216v-547h-131v547h-217v117h564z" />
    <glyph glyph-name="uni0423" unicode="&#x423;" horiz-adv-x="640" 
d="M510 664h132l-259 -508q-23 -44 -41 -74t-38.5 -48t-46.5 -26t-63 -8h-85v117h74q30 0 46.5 11t28.5 37l8 18l-248 481h134l179 -346z" />
    <glyph glyph-name="uni0424" unicode="&#x424;" horiz-adv-x="895" 
d="M513 487v-298h51q30 0 58.5 8.5t51 26.5t36 46.5t13.5 67.5t-13.5 67.5t-36 46.5t-51 26.5t-58.5 8.5h-51zM382 487h-51q-30 0 -58.5 -8.5t-51 -26.5t-36 -46.5t-13.5 -67.5t13.5 -67.5t36 -46.5t51 -26.5t58.5 -8.5h51v298zM382 679h131v-75h51q62 0 115 -18.5t92 -53
t61 -84t22 -110.5q0 -62 -22 -111t-61 -83.5t-92 -53t-115 -18.5h-51v-88h-131v88h-51q-62 0 -115 18.5t-92 53t-61 83.5t-22 111q0 61 22 110.5t61 84t92 53t115 18.5h51v75z" />
    <glyph glyph-name="uni0425" unicode="&#x425;" horiz-adv-x="649" 
d="M250 330l-236 334h151l161 -228l163 228h146l-237 -330l237 -334h-150l-163 229l-164 -229h-144z" />
    <glyph glyph-name="uni0426" unicode="&#x426;" horiz-adv-x="767" 
d="M607 -147v147h-530v664h131v-547h305v547h131v-547h91v-264h-128z" />
    <glyph glyph-name="uni0427" unicode="&#x427;" horiz-adv-x="695" 
d="M181 664v-195q0 -64 35 -90.5t113 -26.5q30 0 73 3.5t85 11.5v297h131v-664h-131v249q-16 -3 -36.5 -5.5t-41.5 -4.5t-41 -3t-34 -1q-146 0 -215 56.5t-69 174.5v198h131z" />
    <glyph glyph-name="uni0428" unicode="&#x428;" horiz-adv-x="1026" 
d="M949 664v-664h-872v664h131v-547h240v547h131v-547h239v547h131z" />
    <glyph glyph-name="uni0429" unicode="&#x429;" horiz-adv-x="1072" 
d="M579 664v-547h239v547h131v-547h91v-264h-128v147h-835v664h131v-547h240v547h131z" />
    <glyph glyph-name="uni042A" unicode="&#x42a;" horiz-adv-x="794" 
d="M758 211q0 -43 -14.5 -81t-43.5 -67t-74 -46t-106 -17h-319v547h-187v117h318v-241h188q61 0 106 -17t74 -46t43.5 -67.5t14.5 -81.5zM332 117h178q56 0 86.5 25.5t30.5 68.5t-30.5 69t-86.5 26h-178v-189z" />
    <glyph glyph-name="uni042B" unicode="&#x42b;" horiz-adv-x="893" 
d="M816 0h-131v664h131v-664zM614 211q0 -43 -14.5 -81t-43.5 -67t-74 -46t-106 -17h-299v664h131v-241h168q61 0 106 -17t74 -46t43.5 -67.5t14.5 -81.5zM208 117h158q56 0 86.5 25.5t30.5 68.5t-30.5 69t-86.5 26h-158v-189z" />
    <glyph glyph-name="uni042C" unicode="&#x42c;" horiz-adv-x="670" 
d="M634 211q0 -43 -14.5 -81t-43.5 -67t-74 -46t-106 -17h-319v664h131v-241h188q61 0 106 -17t74 -46t43.5 -67.5t14.5 -81.5zM208 117h178q56 0 86.5 25.5t30.5 68.5t-30.5 69t-86.5 26h-178v-189z" />
    <glyph glyph-name="uni042D" unicode="&#x42d;" horiz-adv-x="722" 
d="M338 677q74 0 137 -26t108.5 -71.5t71.5 -109t26 -138.5t-26 -138.5t-71.5 -109t-108.5 -71.5t-137 -26q-109 0 -185.5 53.5t-116.5 143.5h140q27 -36 69 -58t93 -22q39 0 73 12t61 34t45.5 53.5t25.5 70.5h-318v117h318q-7 39 -25.5 70t-45.5 53t-61 34t-73 12
q-51 0 -93 -22.5t-69 -57.5h-140q40 89 116.5 143t185.5 54z" />
    <glyph glyph-name="uni042E" unicode="&#x42e;" horiz-adv-x="1047" 
d="M665 -13q-68 0 -125.5 21.5t-101 60t-72 91t-37.5 114.5h-121v-274h-131v664h131v-273h121q9 62 37.5 114.5t72 90.5t101 59.5t125.5 21.5q76 0 139 -26.5t108 -73t69.5 -109.5t24.5 -136q0 -72 -24.5 -135t-69.5 -109.5t-108 -73.5t-139 -27zM665 104q46 0 85 17.5
t66.5 48.5t43 72.5t15.5 89.5t-15.5 90t-43 72.5t-66.5 48t-85 17.5t-84.5 -17.5t-66 -48t-43 -72.5t-15.5 -90t15.5 -89.5t43 -72.5t66 -48.5t84.5 -17.5z" />
    <glyph glyph-name="uni042F" unicode="&#x42f;" horiz-adv-x="693" 
d="M58.0771 460q0 -35 9.99902 -67.5t29.9961 -59q19.998 -26.5 50.9941 -45.5t72.9912 -27l-198.976 -261h162.979l193.977 255h104.987v-255h130.984v664h-327.96q-58.9932 0 -102.488 -16.5q-43.4941 -16.5 -71.9912 -44.5q-28.4961 -28 -41.9941 -65
q-13.499 -37 -13.499 -78zM485.025 372h-187.977q-50.9941 0 -79.4912 24q-28.4961 24 -28.4961 64t28.4961 63.5q28.4971 23.5 79.4912 23.5h187.977v-175z" />
    <glyph glyph-name="uni0430" unicode="&#x430;" horiz-adv-x="577" 
d="M274 488q54 0 98 -13t75.5 -37.5t49 -60.5t17.5 -82v-295h-126v36q-26 -26 -67 -37.5t-87 -11.5q-88 0 -137.5 42t-49.5 119q0 45 19.5 74t51 46.5t71.5 24t82 6.5h117q0 41 -33 59t-78 18q-40 0 -69 -13t-42 -44h-130q10 43 33.5 75t55.5 53t70.5 31t78.5 10zM388 205
h-117q-46 0 -72 -14.5t-26 -43.5q0 -25 22 -42t64 -17q25 0 48.5 6t41.5 18.5t28.5 30.5t10.5 42v20z" />
    <glyph glyph-name="uni0431" unicode="&#x431;" horiz-adv-x="603" 
d="M321 464q50 0 93 -18t75 -50t50.5 -75.5t18.5 -95.5q0 -51 -19.5 -95t-53.5 -75.5t-80 -49.5t-98 -18q-56 0 -102.5 18t-80 54.5t-52 91t-18.5 127.5q0 86 14 147.5t41 102.5t66.5 62t89.5 26l81 8q32 3 51.5 12t25.5 33h125q-5 -40 -17.5 -67.5t-32 -45.5t-47 -27.5
t-61.5 -12.5l-108 -10q-46 -5 -78 -29.5t-36 -72.5q18 25 56 42.5t97 17.5zM307 103q26 0 48.5 9t39.5 25t27 38.5t10 49.5q0 28 -10 50.5t-27 38.5t-39.5 25t-48.5 9t-49 -9t-40 -25t-27 -38.5t-10 -50.5q0 -27 10 -49.5t27 -38.5t40 -25t49 -9z" />
    <glyph glyph-name="uni0432" unicode="&#x432;" horiz-adv-x="572" 
d="M521 333q0 -27 -9 -51.5t-28 -41.5q20 -17 31.5 -43.5t11.5 -53.5q0 -29 -9.5 -55t-29.5 -45.5t-50.5 -31t-71.5 -11.5h-294v475h288q41 0 71.5 -11.5t50.5 -31t29.5 -45t9.5 -54.5zM198 103h149q26 0 40 12t14 32t-14 31.5t-40 11.5h-149v-87zM198 286h143q26 0 40 12
t14 32t-14 31t-40 11h-143v-86z" />
    <glyph glyph-name="uni0433" unicode="&#x433;" horiz-adv-x="476" 
d="M449 365h-251v-365h-126v475h377v-110z" />
    <glyph glyph-name="uni0434" unicode="&#x434;" horiz-adv-x="664" 
d="M509 -126v126h-360v-126h-119v236h64q23 27 33.5 71.5t10.5 95.5v198h410v-365h80v-236h-119zM264 278q0 -40 -5 -84.5t-22 -83.5h185v255h-158v-87z" />
    <glyph glyph-name="uni0435" unicode="&#x435;" horiz-adv-x="589" 
d="M536 144q-14 -36 -37.5 -65t-54.5 -49.5t-67.5 -31.5t-74.5 -11q-56 0 -103 19t-81 52.5t-53.5 79.5t-19.5 100q0 53 18.5 99t52 79.5t80 52.5t101.5 19t100.5 -19t78 -52.5t50.5 -79t18 -97.5v-22t-2 -22h-366q10 -43 44.5 -68t81.5 -25q30 0 55.5 9.5t42.5 31.5h136z
M410 290q-6 42 -37.5 66t-75.5 24q-43 0 -77.5 -24.5t-40.5 -65.5h231z" />
    <glyph glyph-name="uni0436" unicode="&#x436;" horiz-adv-x="818" 
d="M472 475v-187l174 187h162l-228 -238l228 -237h-166l-170 176v-176h-126v176l-170 -176h-166l228 237l-228 238h162l174 -187v187h126z" />
    <glyph glyph-name="uni0437" unicode="&#x437;" horiz-adv-x="564" 
d="M465 240q20 -14 34.5 -39.5t14.5 -56.5q0 -34 -16 -63t-45 -50t-71.5 -32.5t-94.5 -11.5q-106 0 -167.5 42.5t-78.5 120.5h134q12 -31 41.5 -45t74.5 -14q42 0 68.5 16.5t26.5 39.5q0 21 -16.5 32t-42.5 11h-110v96h106q26 0 43 12t17 32q0 24 -25 39t-66 15
q-83 0 -112 -49h-134q19 69 79 111t164 42q36 0 75 -8.5t71.5 -27t53 -48.5t20.5 -73q0 -26 -11.5 -50.5t-32.5 -40.5z" />
    <glyph glyph-name="uni0438" unicode="&#x438;" horiz-adv-x="625" 
d="M553 475v-475h-126v301l-229 -301h-126v475h126v-301l229 301h126z" />
    <glyph glyph-name="uni0439" unicode="&#x439;" horiz-adv-x="625" 
d="M553 475v-475h-126v301l-229 -301h-126v475h126v-301l229 301h126zM219 714q4 -34 29.5 -54.5t63.5 -20.5t63.5 20.5t29.5 54.5h104q-3 -39 -19 -71.5t-42.5 -56t-61 -36.5t-74.5 -13t-74.5 13t-61 36.5t-42.5 56t-19 71.5h104z" />
    <glyph glyph-name="uni043A" unicode="&#x43a;" horiz-adv-x="577" 
d="M198 475v-184l194 184h175l-256 -238l255 -237h-174l-194 173v-173h-126v475h126z" />
    <glyph glyph-name="uni043B" unicode="&#x43b;" horiz-adv-x="606" 
d="M534 475v-475h-126v365h-155v-88q0 -45 -6.5 -93.5t-26 -89.5t-56 -67.5t-97.5 -26.5h-49v117h36q26 0 41 16t22 40.5t8.5 53t1.5 54.5v194h407z" />
    <glyph glyph-name="uni043C" unicode="&#x43c;" horiz-adv-x="750" 
d="M437 0h-126l-113 263v-263h-126v475h149l154 -353l156 353h147v-475h-126v263z" />
    <glyph glyph-name="uni043D" unicode="&#x43d;" horiz-adv-x="625" 
d="M553 475v-475h-126v185h-229v-185h-126v475h126v-180h229v180h126z" />
    <glyph glyph-name="uni043E" unicode="&#x43e;" horiz-adv-x="606" 
d="M303 488q55 0 102.5 -19t82 -52.5t54 -79.5t19.5 -100t-19.5 -99.5t-54 -79t-82 -52.5t-102.5 -19t-102.5 19t-82 52.5t-54 79t-19.5 99.5t19.5 100t54 79.5t82 52.5t102.5 19zM303 372q-28 0 -52 -10t-42 -27.5t-28 -42.5t-10 -55t10 -54.5t28 -42t42 -27.5t52 -10
t52 10t42 27.5t28 42t10 54.5t-10 55t-28 42.5t-42 27.5t-52 10z" />
    <glyph glyph-name="uni043F" unicode="&#x43f;" horiz-adv-x="618" 
d="M546 475v-475h-126v365h-222v-365h-126v475h474z" />
    <glyph glyph-name="uni0440" unicode="&#x440;" horiz-adv-x="625" 
d="M580 238q0 -49 -16.5 -94t-47.5 -80t-76.5 -56t-102.5 -21q-40 0 -77.5 13t-61.5 37v-241h-126v679h126v-36q24 24 61.5 36.5t77.5 12.5q57 0 102.5 -21t76.5 -55.5t47.5 -79.5t16.5 -94zM454 238q0 27 -9.5 51.5t-26 43t-40 29t-51.5 10.5q-25 0 -49 -8.5t-43 -25
t-30.5 -41.5t-11.5 -59t11.5 -59t30.5 -42t43 -25.5t49 -8.5q28 0 51.5 11t40 29.5t26 43t9.5 51.5z" />
    <glyph glyph-name="uni0441" unicode="&#x441;" horiz-adv-x="573" 
d="M298 103q32 0 60.5 12.5t45.5 40.5h128q-13 -39 -36 -70.5t-54 -53t-67.5 -33.5t-76.5 -12q-54 0 -100.5 19t-80 52.5t-53 79.5t-19.5 100t19.5 100t53 79t80 52t100.5 19q40 0 76.5 -12t67.5 -33.5t54 -53t36 -70.5h-128q-17 28 -45.5 40.5t-60.5 12.5q-57 0 -92 -37
t-35 -97t35 -97.5t92 -37.5z" />
    <glyph glyph-name="uni0442" unicode="&#x442;" horiz-adv-x="517" 
d="M499 365h-178v-365h-126v365h-177v110h481v-110z" />
    <glyph glyph-name="uni0443" unicode="&#x443;" horiz-adv-x="567" 
d="M332 -25q-24 -52 -41.5 -86.5t-38.5 -55t-49 -29t-73 -8.5h-70v110h54q27 0 47.5 16t37.5 54l18 41l-208 458h139l138 -306l138 306h134z" />
    <glyph glyph-name="uni0444" unicode="&#x444;" horiz-adv-x="806" 
d="M340 669h126v-194h41q55 0 101.5 -18t80.5 -49.5t53 -75t19 -94.5q0 -55 -18 -99t-51 -75t-79.5 -47.5t-104.5 -16.5h-42v-204h-126v204h-42q-58 0 -104.5 16.5t-79.5 47.5t-51 75t-18 99q0 51 19 94.5t53 75t80.5 49.5t101.5 18h41v194zM466 365v-255h43q63 0 94.5 36
t31.5 92q0 57 -33 92t-93 35h-43zM297 365q-60 0 -93 -35t-33 -92q0 -56 31.5 -92t94.5 -36h43v255h-43z" />
    <glyph glyph-name="uni0445" unicode="&#x445;" horiz-adv-x="580" 
d="M292 340l109 135h156l-188 -232l193 -243h-162l-113 142l-115 -142h-154l192 238l-187 237h162z" />
    <glyph glyph-name="uni0446" unicode="&#x446;" horiz-adv-x="657" 
d="M72 475h126v-365h217v365h126v-365h80v-236h-119v126h-430v475z" />
    <glyph glyph-name="uni0447" unicode="&#x447;" horiz-adv-x="585" 
d="M50 475h126v-139q0 -42 25 -59t79 -17q23 0 53 3t54 8v204h126v-475h-126v154q-12 -2 -27.5 -3.5l-31 -3t-30 -2.5t-24.5 -1q-110 0 -167 40t-57 130v161z" />
    <glyph glyph-name="uni0448" unicode="&#x448;" horiz-adv-x="862" 
d="M72 475h126v-365h170v365h126v-365h170v365h126v-475h-718v475z" />
    <glyph glyph-name="uni0449" unicode="&#x449;" horiz-adv-x="906" 
d="M72 475h126v-365h170v365h126v-365h170v365h126v-365h80v-236h-119v126h-679v475z" />
    <glyph glyph-name="uni044A" unicode="&#x44a;" horiz-adv-x="641" 
d="M287 338h137q49 0 85 -14t59 -37t34.5 -53.5t11.5 -64.5t-11.5 -64.5t-34.5 -54t-59 -37t-85 -13.5h-263v365h-147v110h273v-137zM420 110q32 0 50 15t18 44q0 28 -18 43.5t-50 15.5h-133v-118h133z" />
    <glyph glyph-name="uni044B" unicode="&#x44b;" horiz-adv-x="788" 
d="M198 475v-137h127q49 0 85 -14t59 -37t34.5 -53.5t11.5 -64.5t-11.5 -64.5t-34.5 -54t-59 -37t-85 -13.5h-253v475h126zM198 110h123q32 0 50 15t18 44q0 28 -18 43.5t-50 15.5h-123v-118zM716 475v-475h-126v475h126z" />
    <glyph glyph-name="uni044C" unicode="&#x44c;" horiz-adv-x="552" 
d="M198 475v-137h137q49 0 85 -14t59 -37t34.5 -53.5t11.5 -64.5t-11.5 -64.5t-34.5 -54t-59 -37t-85 -13.5h-263v475h126zM198 110h133q32 0 50 15t18 44q0 28 -18 43.5t-50 15.5h-133v-118z" />
    <glyph glyph-name="uni044D" unicode="&#x44d;" horiz-adv-x="570" 
d="M41 327q12 38 35 68t53.5 50.5t67 31.5t75.5 11q54 0 100.5 -19t80 -52.5t53 -79.5t19.5 -100t-19.5 -99.5t-53 -79t-80 -52.5t-100.5 -19q-38 0 -74 11t-66.5 32t-54 50.5t-35.5 65.5h132q17 -23 42.5 -33t55.5 -10q43 0 75 22t43 60h-195v107h194q-11 38 -43 59t-74 21
q-31 0 -57 -10t-43 -35h-131z" />
    <glyph glyph-name="uni044E" unicode="&#x44e;" horiz-adv-x="834" 
d="M536 488q54 0 100.5 -19t80 -52.5t53 -79.5t19.5 -100t-19.5 -99.5t-53 -79t-80 -52.5t-100.5 -19q-47 0 -88.5 14.5t-74 40.5t-54.5 62.5t-31 80.5h-90v-185h-126v475h126v-180h91q9 43 31.5 78.5t55 61t73 39.5t87.5 14zM536 372q-28 0 -51 -10t-40 -27.5t-26.5 -42.5
t-9.5 -55q0 -60 35.5 -97t91.5 -37t91.5 37t35.5 97q0 30 -9.5 55t-26.5 42.5t-40 27.5t-51 10z" />
    <glyph glyph-name="uni044F" unicode="&#x44f;" horiz-adv-x="566" 
d="M368 0v137h-71l-118 -137h-163l130 151q-53 20 -78 62t-25 93q0 34 11.5 64.5t34.5 54t59 37t85 13.5h261v-475h-126zM368 365h-131q-32 0 -50 -15t-18 -44q0 -28 18 -43.5t50 -15.5h131v118z" />
    <glyph glyph-name="uni0451" unicode="&#x451;" horiz-adv-x="589" 
d="M536 144q-14 -36 -37.5 -65t-54.5 -49.5t-67.5 -31.5t-74.5 -11q-56 0 -103 19t-81 52.5t-53.5 79.5t-19.5 100q0 53 18.5 99t52 79.5t80 52.5t101.5 19t100.5 -19t78 -52.5t50.5 -79t18 -97.5v-22t-2 -22h-366q10 -43 44.5 -68t81.5 -25q30 0 55.5 9.5t42.5 31.5h136z
M410 290q-6 42 -37.5 66t-75.5 24q-43 0 -77.5 -24.5t-40.5 -65.5h231zM117 705h128v-128h-128v128zM343 705h128v-128h-128v128z" />
    <glyph glyph-name="uni0452" unicode="&#x452;" horiz-adv-x="633" 
d="M570 -55q0 -66 -45.5 -107.5t-134.5 -41.5h-90v110h89q29 0 42 16.5t13 42.5v282q0 51 -28 80t-83 29q-24 0 -45 -9t-37.5 -26t-26 -41t-9.5 -55v-225h-126v517h-80v94h80v58h126v-58h155v-94h-155v-94q20 22 58 35.5t86 13.5q46 0 85 -14t67 -40t43.5 -63.5t15.5 -84.5
v-325z" />
    <glyph glyph-name="uni0453" unicode="&#x453;" horiz-adv-x="476" 
d="M449 365h-251v-365h-126v475h377v-110zM453 766l-164 -214h-130l164 214h130z" />
    <glyph glyph-name="uni0454" unicode="&#x454;" horiz-adv-x="570" 
d="M529.005 327q-11.998 38 -34.9951 68q-22.998 30 -53.4941 50.5t-66.9912 31.5q-36.4961 11 -75.4912 11q-53.9932 0 -100.487 -19q-46.4951 -19 -79.9902 -52.5q-33.4961 -33.5 -52.9941 -79.5q-19.4971 -46 -19.4971 -100t19.4971 -99.5q19.498 -45.5 52.9941 -79
q33.4951 -33.5 79.9902 -52.5q46.4941 -19 100.487 -19q37.9951 0 73.9912 11q35.9951 11 66.4912 32q30.4971 21 53.9941 50.5t35.4951 65.5h-131.983q-16.998 -23 -42.4951 -33t-55.4932 -10q-42.9951 0 -74.9912 22t-42.9941 60h194.976v107h-193.976
q10.998 38 42.9941 59t73.9912 21q30.9961 0 56.9932 -10t42.9951 -35h130.983z" />
    <glyph glyph-name="uni0455" unicode="&#x455;" horiz-adv-x="545" 
d="M379 335q-14 26 -43.5 37.5t-72.5 11.5q-41 0 -64 -12.5t-23 -34.5q0 -20 19.5 -29.5t56.5 -12.5l86 -7q81 -7 126 -41t45 -103q0 -34 -15 -63t-43.5 -50t-70 -32.5t-93.5 -11.5q-106 0 -170 42.5t-81 120.5h134q11 -31 44 -45t83 -14q36 0 61 11t25 34q0 20 -19 30.5
t-55 14.5l-94 9q-81 8 -123 42t-42 99q0 34 15 63t42.5 50t67.5 32.5t91 11.5q107 0 167 -42t80 -111h-134z" />
    <glyph glyph-name="uni0456" unicode="&#x456;" horiz-adv-x="274" 
d="M68 689h138v-137h-138v137zM200 475v-475h-126v475h126z" />
    <glyph glyph-name="uni0457" unicode="&#x457;" horiz-adv-x="274" 
d="M200 475v-475h-126v475h126zM-39 705h128v-128h-128v128zM187 705h128v-128h-128v128z" />
    <glyph glyph-name="uni0458" unicode="&#x458;" horiz-adv-x="296" 
d="M90 689h138v-137h-138v137zM222 475v-530q0 -66 -45.5 -107.5t-134.5 -41.5h-90v110h89q29 0 42 16.5t13 42.5v510h126z" />
    <glyph glyph-name="uni0459" unicode="&#x459;" horiz-adv-x="888" 
d="M671 338q49 0 85 -14t59 -37t34.5 -53.5t11.5 -64.5t-11.5 -64.5t-34.5 -54t-59 -37t-85 -13.5h-263v365h-155v-88q0 -45 -6.5 -93.5t-26 -89.5t-56 -67.5t-97.5 -26.5h-49v117h36q26 0 41 16t22 40.5t8.5 53t1.5 54.5v194h407v-137h137zM667 110q32 0 50 15t18 44
q0 28 -18 43.5t-50 15.5h-133v-118h133z" />
    <glyph glyph-name="uni045A" unicode="&#x45a;" horiz-adv-x="907" 
d="M553 475v-137h137q49 0 85 -14t59 -37t34.5 -53.5t11.5 -64.5t-11.5 -64.5t-34.5 -54t-59 -37t-85 -13.5h-263v185h-229v-185h-126v475h126v-180h229v180h126zM553 110h133q32 0 50 15t18 44q0 28 -18 43.5t-50 15.5h-133v-118z" />
    <glyph glyph-name="uni045B" unicode="&#x45b;" horiz-adv-x="633" 
d="M444 0v247q0 51 -28 80t-83 29q-24 0 -45 -9t-37.5 -26t-26 -41t-9.5 -55v-225h-126v517h-80v94h80v58h126v-58h155v-94h-155v-94q20 22 58 35.5t86 13.5q46 0 85 -14t67 -40t43.5 -63.5t15.5 -84.5v-270h-126z" />
    <glyph glyph-name="uni045C" unicode="&#x45c;" horiz-adv-x="577" 
d="M198 475v-184l194 184h175l-256 -238l255 -237h-174l-194 173v-173h-126v475h126zM491 766l-164 -214h-130l164 214h130z" />
    <glyph glyph-name="uni045E" unicode="&#x45e;" horiz-adv-x="567" 
d="M332 -25q-24 -52 -41.5 -86.5t-38.5 -55t-49 -29t-73 -8.5h-70v110h54q27 0 47.5 16t37.5 54l18 41l-208 458h139l138 -306l138 306h134zM197 714q4 -34 29.5 -54.5t63.5 -20.5t63.5 20.5t29.5 54.5h104q-3 -39 -19 -71.5t-42.5 -56t-61 -36.5t-74.5 -13t-74.5 13
t-61 36.5t-42.5 56t-19 71.5h104z" />
    <glyph glyph-name="uni045F" unicode="&#x45f;" horiz-adv-x="613" 
d="M72 475h126v-365h217v365h126v-475h-175v-126h-119v126h-175v475z" />
    <glyph glyph-name="uni0490" unicode="&#x490;" horiz-adv-x="553" 
d="M530 801v-254h-322v-547h-131v664h325v137h128z" />
    <glyph glyph-name="uni0491" unicode="&#x491;" horiz-adv-x="476" 
d="M449 591v-226h-251v-365h-126v475h258v116h119z" />
    <glyph glyph-name="uni0492" unicode="&#x492;" horiz-adv-x="585" 
d="M468 274h-228v-274h-131v274h-91v117h91v273h453v-117h-322v-156h228v-117z" />
    <glyph glyph-name="uni0493" unicode="&#x493;" horiz-adv-x="502" 
d="M475 365h-251v-99h165v-104h-165v-162h-126v162h-80v104h80v209h377v-110z" />
    <glyph glyph-name="uni049A" unicode="&#x49a;" horiz-adv-x="658" 
d="M509 -147v147h-45l-256 263v-263h-131v664h131v-269l264 269h165l-324 -332l210 -215h114v-264h-128z" />
    <glyph glyph-name="uni049B" unicode="&#x49b;" horiz-adv-x="594" 
d="M198 475v-184l194 184h175l-256 -238l136 -127h119v-236h-119v126h-55l-194 173v-173h-126v475h126z" />
    <glyph glyph-name="uni04A2" unicode="&#x4a2;" horiz-adv-x="784" 
d="M624 -147v147h-94v274h-322v-274h-131v664h131v-273h322v273h131v-547h91v-264h-128z" />
    <glyph glyph-name="uni04A3" unicode="&#x4a3;" horiz-adv-x="669" 
d="M553 475v-365h80v-236h-119v126h-87v185h-229v-185h-126v475h126v-180h229v180h126z" />
    <glyph glyph-name="uni04AE" unicode="&#x4ae;" horiz-adv-x="649" 
d="M507 664h142l-258 -430v-234h-131v234l-260 430h144l182 -298z" />
    <glyph glyph-name="uni04AF" unicode="&#x4af;" horiz-adv-x="567" 
d="M346 6v-210h-126v212l-211 467h139l138 -306l138 306h134z" />
    <glyph glyph-name="uni04B0" unicode="&#x4b0;" horiz-adv-x="649" 
d="M507 664h142l-210 -349h149v-117h-197v-198h-131v198h-197v117h148l-211 349h144l182 -298z" />
    <glyph glyph-name="uni04B1" unicode="&#x4b1;" horiz-adv-x="567" 
d="M376 71h129v-109h-159v-166h-126v166h-159v109h130l-182 404h139l138 -306l138 306h134z" />
    <glyph glyph-name="uni04BA" unicode="&#x4ba;" horiz-adv-x="695" 
d="M514.022 0.0810547v194.977q0 63.9922 -34.9961 90.4883q-34.9961 26.4971 -112.986 26.4971q-29.9961 0 -72.9912 -3.5q-42.9941 -3.49902 -84.9893 -11.498v-296.964h-130.984v663.919h130.984v-248.97q15.998 3 36.4951 5.49902q20.498 2.5 41.4951 4.5t40.9951 3
q19.998 0.999023 33.9961 0.999023q145.982 0 214.974 -56.4932q68.9912 -56.4922 68.9912 -174.479v-197.976h-130.983z" />
    <glyph glyph-name="uni04BB" unicode="&#x4bb;" horiz-adv-x="616" 
d="M342 488q46 0 85 -14t67 -40t43.5 -63.5t15.5 -84.5v-286h-126v263q0 51 -28 80t-83 29q-24 0 -45 -9t-37.5 -26t-26 -41t-9.5 -55v-241h-126v669h126v-230q20 22 58 35.5t86 13.5z" />
    <glyph glyph-name="uni04D8" unicode="&#x4d8;" horiz-adv-x="756" 
d="M367 560q-57 0 -98.5 -21t-68.5 -59h-139q19 45 49.5 81t70 62t86.5 40t100 14q78 0 142 -27t110 -73.5t71 -109t25 -134.5t-25.5 -135t-71.5 -110t-108.5 -74t-136.5 -27t-135.5 27t-105 74t-67.5 109.5t-24 134.5v25t2 28h535q-7 38 -25 70t-45.5 55.5t-63 36.5
t-77.5 13zM375 104q39 0 73.5 12.5t61 34.5t44 53t23.5 68h-398q5 -37 21.5 -68t42 -53t59 -34.5t73.5 -12.5z" />
    <glyph glyph-name="uni04D9" unicode="&#x4d9;" horiz-adv-x="589" 
d="M53 331q13 36 37.5 65t56 49.5t68.5 31.5t76 11q55 0 101 -19t80 -52.5t53 -79.5t19 -100q0 -53 -18.5 -99t-52 -79.5t-80 -52.5t-101.5 -19t-100.5 19t-78 52.5t-50.5 78.5t-18 98v22t2 22h366q-10 43 -43.5 69t-78.5 26q-32 0 -58 -10.5t-43 -32.5h-137zM179 185
q6 -42 37.5 -66t75.5 -24q43 0 77.5 24.5t40.5 65.5h-231z" />
    <glyph glyph-name="uni04E8" unicode="&#x4e8;" horiz-adv-x="772" 
d="M386 -13q-77 0 -140 27t-109 74t-71 110t-25 134q0 72 25 134.5t71 109.5t109 74t140 27q76 0 139.5 -27t109.5 -74t71 -109.5t25 -134.5q0 -71 -25 -134t-71 -110t-109.5 -74t-139.5 -27zM386 104q39 0 73.5 13t62 35.5t46 53.5t25.5 68h-415q7 -37 25.5 -68t46 -53.5
t62.5 -35.5t74 -13zM386 560q-39 0 -73.5 -12.5t-62 -35t-46 -53.5t-25.5 -68h414q-7 37 -25.5 68t-46 53.5t-62 35t-73.5 12.5z" />
    <glyph glyph-name="uni04E9" unicode="&#x4e9;" horiz-adv-x="606" 
d="M303 488q55 0 102.5 -19t82 -52.5t54 -79.5t19.5 -100t-19.5 -99.5t-54 -79t-82 -52.5t-102.5 -19t-102.5 19t-82 52.5t-54 79t-19.5 99.5t19.5 100t54 79.5t82 52.5t102.5 19zM303 99q45 0 79 22.5t48 65.5h-255q14 -43 48.5 -65.5t79.5 -22.5zM303 376q-45 0 -79 -22
t-48 -64h254q-14 42 -48 64t-79 22z" />
    <glyph glyph-name="uni1E02" unicode="&#x1e02;" horiz-adv-x="653" 
d="M382 664q57 0 98.5 -15t68.5 -40.5t40.5 -60.5t13.5 -74q0 -45 -19.5 -82.5t-57.5 -59.5q38 -22 57.5 -59.5t19.5 -82.5q0 -39 -13.5 -74t-40.5 -60.5t-68.5 -40.5t-98.5 -15h-305v664h305zM208 390h161q47 0 75 20t28 58q0 40 -27.5 59.5t-75.5 19.5h-161v-157zM208 117
h161q47 0 75 19.5t28 57.5q0 40 -27.5 59.5t-75.5 19.5h-161v-156zM257 885h138v-138h-138v138z" />
    <glyph glyph-name="uni1E03" unicode="&#x1e03;" horiz-adv-x="625" 
d="M580 237q0 -49 -16.5 -94t-47.5 -79.5t-76.5 -55.5t-102.5 -21q-40 0 -77.5 12.5t-61.5 36.5v-36h-126v669h126v-231q24 24 61.5 37t77.5 13q57 0 102.5 -21t76.5 -56t47.5 -80t16.5 -94zM454 237q0 27 -9.5 51.5t-26 43t-40 29.5t-51.5 11q-25 0 -49 -8.5t-43 -25.5
t-30.5 -42t-11.5 -59t11.5 -59t30.5 -41.5t43 -25t49 -8.5q28 0 51.5 10.5t40 29t26 43t9.5 51.5zM257 885h138v-138h-138v138z" />
    <glyph glyph-name="uni1E0A" unicode="&#x1e0a;" horiz-adv-x="710" 
d="M307 664q87 0 154 -26.5t113.5 -71.5t70.5 -105.5t24 -128.5t-24 -128.5t-70.5 -105.5t-113.5 -71.5t-154 -26.5h-230v664h230zM303 117q54 0 97.5 16t74 44.5t47 68t16.5 86.5t-16.5 86.5t-47 68t-74 44.5t-97.5 16h-95v-430h95zM279 885h138v-138h-138v138z" />
    <glyph glyph-name="uni1E0B" unicode="&#x1e0b;" horiz-adv-x="625" 
d="M45 237q0 49 16.5 94t47.5 80t76.5 56t102.5 21q40 0 77.5 -13t61.5 -37v231h126v-669h-126v36q-24 -24 -61.5 -36.5t-77.5 -12.5q-57 0 -102.5 21t-76.5 55.5t-47.5 79.5t-16.5 94zM171 237q0 -27 9.5 -51.5t26 -43t40 -29t51.5 -10.5q25 0 49 8.5t43 25t30.5 41.5
t11.5 59t-11.5 59t-30.5 42t-43 25.5t-49 8.5q-28 0 -51.5 -11t-40 -29.5t-26 -43t-9.5 -51.5zM234 885h138v-138h-138v138z" />
    <glyph glyph-name="uni1E1E" unicode="&#x1e1e;" horiz-adv-x="584" 
d="M208 547v-156h328v-117h-328v-274h-131v664h466v-117h-335zM247 885h138v-138h-138v138z" />
    <glyph glyph-name="uni1E1F" unicode="&#x1e1f;" horiz-adv-x="391" 
d="M101 0v365h-87v110h87v45q0 66 45.5 107.5t134.5 41.5h90v-110h-89q-29 0 -42 -16.5t-13 -42.5v-25h144v-110h-144v-365h-126zM143 885h138v-138h-138v138z" />
    <glyph glyph-name="uni1E40" unicode="&#x1e40;" horiz-adv-x="944" 
d="M474 141l244 523h149v-664h-131v416l-193 -416h-142l-193 416v-416h-131v664h153zM405 885h138v-138h-138v138z" />
    <glyph glyph-name="uni1E41" unicode="&#x1e41;" horiz-adv-x="945" 
d="M674 488q45 0 83.5 -14t66 -40.5t43 -64t15.5 -84.5v-285h-126v262q0 53 -25.5 81.5t-78.5 28.5q-48 0 -80 -36t-32 -96v-240h-126v262q0 53 -25.5 81.5t-78.5 28.5q-48 0 -80 -36t-32 -96v-240h-126v475h126v-36q20 20 56 34.5t80 14.5q57 0 100 -17t70 -55q24 30 67 51
t103 21zM403 689h138v-137h-138v137z" />
    <glyph glyph-name="uni1E56" unicode="&#x1e56;" horiz-adv-x="671" 
d="M635 460q0 -42 -13.5 -79t-42 -65t-72 -44.5t-102.5 -16.5h-197v-255h-131v664h328q59 0 102.5 -16.5t72 -44.5t42 -65t13.5 -78zM208 372h188q51 0 79.5 24t28.5 64t-28.5 63.5t-79.5 23.5h-188v-175zM267 885h138v-138h-138v138z" />
    <glyph glyph-name="uni1E57" unicode="&#x1e57;" horiz-adv-x="625" 
d="M580 238q0 -49 -16.5 -94t-47.5 -80t-76.5 -56t-102.5 -21q-40 0 -77.5 13t-61.5 37v-241h-126v679h126v-36q24 24 61.5 36.5t77.5 12.5q57 0 102.5 -21t76.5 -55.5t47.5 -79.5t16.5 -94zM454 238q0 27 -9.5 51.5t-26 43t-40 29t-51.5 10.5q-25 0 -49 -8.5t-43 -25
t-30.5 -41.5t-11.5 -59t11.5 -59t30.5 -42t43 -25.5t49 -8.5q28 0 51.5 11t40 29.5t26 43t9.5 51.5zM257 689h138v-137h-138v137z" />
    <glyph glyph-name="uni1E60" unicode="&#x1e60;" horiz-adv-x="631" 
d="M324 -13q-66 0 -116.5 15t-87 41.5t-60.5 62.5t-37 78h133q23 -42 67 -61t101 -19q63 0 101.5 23.5t38.5 62.5q0 36 -26.5 55t-85.5 25l-114 11q-52 5 -89 21t-61 41t-35 57t-11 69q0 46 18.5 84t53 65.5t83 43t109.5 15.5q62 0 111 -16.5t85.5 -44.5t60.5 -63.5
t36 -72.5h-133q-17 37 -62.5 58.5t-99.5 21.5q-66 0 -98.5 -26t-32.5 -61q0 -33 25 -52t70 -24l122 -12q96 -10 150.5 -61t54.5 -129q0 -41 -17 -78.5t-51 -66t-85 -46t-118 -17.5zM251 885h138v-138h-138v138z" />
    <glyph glyph-name="uni1E61" unicode="&#x1e61;" horiz-adv-x="545" 
d="M379 335q-14 26 -43.5 37.5t-72.5 11.5q-41 0 -64 -12.5t-23 -34.5q0 -20 19.5 -29.5t56.5 -12.5l86 -7q81 -7 126 -41t45 -103q0 -34 -15 -63t-43.5 -50t-70 -32.5t-93.5 -11.5q-106 0 -170 42.5t-81 120.5h134q11 -31 44 -45t83 -14q36 0 61 11t25 34q0 20 -19 30.5
t-55 14.5l-94 9q-81 8 -123 42t-42 99q0 34 15 63t42.5 50t67.5 32.5t91 11.5q107 0 167 -42t80 -111h-134zM210 689h138v-137h-138v137z" />
    <glyph glyph-name="uni1E6A" unicode="&#x1e6a;" horiz-adv-x="610" 
d="M587 664v-117h-216v-547h-131v547h-217v117h564zM236 885h138v-138h-138v138z" />
    <glyph glyph-name="uni1E6B" unicode="&#x1e6b;" horiz-adv-x="425" 
d="M240 582v-107h144v-110h-144v-196q0 -26 13 -42.5t42 -16.5h89v-110h-90q-89 0 -134.5 41.5t-45.5 107.5v216h-87v110h87v107h126zM108 804h138v-137h-138v137z" />
    <glyph glyph-name="Wgrave" unicode="&#x1e80;" horiz-adv-x="1051" 
d="M142 664l160 -481l154 481h137l157 -480l159 480h133l-221 -664h-138l-158 490l-156 -490h-138l-222 664h133zM417 936l164 -197h-130l-164 197h130z" />
    <glyph glyph-name="wgrave" unicode="&#x1e81;" horiz-adv-x="879" 
d="M147 475l117 -312l115 312h124l117 -314l116 314h125l-175 -475h-129l-118 320l-117 -320h-127l-177 475h129zM346 766l164 -214h-130l-164 214h130z" />
    <glyph glyph-name="Wacute" unicode="&#x1e82;" horiz-adv-x="1051" 
d="M142 664l160 -481l154 481h137l157 -480l159 480h133l-221 -664h-138l-158 490l-156 -490h-138l-222 664h133zM756 936l-164 -197h-130l164 197h130z" />
    <glyph glyph-name="wacute" unicode="&#x1e83;" horiz-adv-x="879" 
d="M147 475l117 -312l115 312h124l117 -314l116 314h125l-175 -475h-129l-118 320l-117 -320h-127l-177 475h129zM676 766l-164 -214h-130l164 214h130z" />
    <glyph glyph-name="Wdieresis" unicode="&#x1e84;" horiz-adv-x="1051" 
d="M142 664l160 -481l154 481h137l157 -480l159 480h133l-221 -664h-138l-158 490l-156 -490h-138l-222 664h133zM348 875h128v-128h-128v128zM574 875h128v-128h-128v128z" />
    <glyph glyph-name="wdieresis" unicode="&#x1e85;" horiz-adv-x="879" 
d="M147 475l117 -312l115 312h124l117 -314l116 314h125l-175 -475h-129l-118 320l-117 -320h-127l-177 475h129zM269 705h128v-128h-128v128zM495 705h128v-128h-128v128z" />
    <glyph glyph-name="uni1E9E" unicode="&#x1e9e;" horiz-adv-x="687" 
d="M465 396q43 -7 75.5 -25.5t54 -45t32 -59t10.5 -68.5q0 -40 -13.5 -76t-41.5 -63t-70.5 -43t-99.5 -16h-131v117h122q48 0 75.5 22t27.5 59t-27.5 59t-75.5 22h-92v117l141 151h-173q-71 0 -71 -74v-473h-131v473q0 93 54.5 142t147.5 49h328v-117l-142 -151v0z" />
    <glyph glyph-name="Ygrave" unicode="&#x1ef2;" horiz-adv-x="649" 
d="M507 664h142l-258 -430v-234h-131v234l-260 430h144l182 -298zM218 936l164 -197h-130l-164 197h130z" />
    <glyph glyph-name="ygrave" unicode="&#x1ef3;" horiz-adv-x="567" 
d="M332 -25q-24 -52 -41.5 -86.5t-38.5 -55t-49 -29t-73 -8.5h-70v110h54q27 0 47.5 16t37.5 54l18 41l-208 458h139l138 -306l138 306h134zM198 766l164 -214h-130l-164 214h130z" />
    <glyph glyph-name="uni2011" unicode="&#x2011;" horiz-adv-x="393" 
d="M65 315h263v-120h-263v120z" />
    <glyph glyph-name="endash" unicode="&#x2013;" horiz-adv-x="604" 
d="M563 310v-110h-522v110h522z" />
    <glyph glyph-name="emdash" unicode="&#x2014;" horiz-adv-x="920" 
d="M879 310v-110h-838v110h838z" />
    <glyph glyph-name="quoteleft" unicode="&#x2018;" horiz-adv-x="258" 
d="M218.005 663.983l-82.9902 -136.983h68.9922v-148.981h-148.982v163.979l75.9912 121.985h86.9893z" />
    <glyph glyph-name="quoteright" unicode="&#x2019;" horiz-adv-x="258" 
d="M40 378l83 137h-69v149h149v-164l-76 -122h-87z" />
    <glyph glyph-name="quotesinglbase" unicode="&#x201a;" horiz-adv-x="258" 
d="M40 -137l83 137h-69v149h149v-164l-76 -122h-87z" />
    <glyph glyph-name="quotedblleft" unicode="&#x201c;" horiz-adv-x="456" 
d="M416.005 663.983l-82.9902 -136.983h68.9922v-148.981h-148.982v163.979l75.9912 121.985h86.9893zM218.005 663.983l-82.9902 -136.983h68.9922v-148.981h-148.982v163.979l75.9912 121.985h86.9893z" />
    <glyph glyph-name="quotedblright" unicode="&#x201d;" horiz-adv-x="456" 
d="M238 378l83 137h-69v149h149v-164l-76 -122h-87zM40 378l83 137h-69v149h149v-164l-76 -122h-87z" />
    <glyph glyph-name="quotedblbase" unicode="&#x201e;" horiz-adv-x="456" 
d="M238 -137l83 137h-69v149h149v-164l-76 -122h-87zM40 -137l83 137h-69v149h149v-164l-76 -122h-87z" />
    <glyph glyph-name="dagger" unicode="&#x2020;" horiz-adv-x="508" 
d="M195 475v189h118v-189h150v-114h-150v-523h-118v523h-150v114h150z" />
    <glyph glyph-name="daggerdbl" unicode="&#x2021;" horiz-adv-x="508" 
d="M45 27v114h150v220h-150v114h150v189h118v-189h150v-114h-150v-220h150v-114h-150v-189h-118v189h-150z" />
    <glyph glyph-name="bullet" unicode="&#x2022;" horiz-adv-x="574" 
d="M72 275q0 45 17 84t46 68t68 46t84 17t84 -17t68 -46t46 -68t17 -84t-17 -84t-46 -68t-68 -46t-84 -17t-84 17t-68 46t-46 68t-17 84z" />
    <glyph glyph-name="ellipsis" unicode="&#x2026;" horiz-adv-x="755" 
d="M55 149h149v-149h-149v149zM303 149h149v-149h-149v149zM551 149h149v-149h-149v149z" />
    <glyph glyph-name="perthousand" unicode="&#x2030;" horiz-adv-x="1270" 
d="M1225 163q0 -35 -13.5 -66t-36.5 -54t-55.5 -36.5t-69.5 -13.5q-38 0 -70 13.5t-55 36.5t-36.5 54t-13.5 66t13.5 66t36.5 54t55 36.5t70 13.5q37 0 69.5 -13.5t55.5 -36.5t36.5 -54t13.5 -66zM1115 163q0 28 -18 48t-47 20t-47 -20t-18 -48t18 -48t47 -20t47 20t18 48z
M198 0l388 664h113l-388 -664h-113zM395 501q0 -35 -13.5 -66t-36.5 -54t-55.5 -36.5t-69.5 -13.5q-38 0 -70 13.5t-55 36.5t-36.5 54t-13.5 66t13.5 66t36.5 54t55 36.5t70 13.5q37 0 69.5 -13.5t55.5 -36.5t36.5 -54t13.5 -66zM285 501q0 28 -18 48t-47 20t-47 -20
t-18 -48t18 -48t47 -20t47 20t18 48zM852 163q0 -35 -13.5 -66t-36.5 -54t-55.5 -36.5t-69.5 -13.5q-38 0 -70 13.5t-55 36.5t-36.5 54t-13.5 66t13.5 66t36.5 54t55 36.5t70 13.5q37 0 69.5 -13.5t55.5 -36.5t36.5 -54t13.5 -66zM742 163q0 28 -18 48t-47 20t-47 -20
t-18 -48t18 -48t47 -20t47 20t18 48z" />
    <glyph glyph-name="guilsinglleft" unicode="&#x2039;" horiz-adv-x="361" 
d="M185 454h151l-183 -204l183 -203h-151l-140 155v97z" />
    <glyph glyph-name="guilsinglright" unicode="&#x203a;" horiz-adv-x="361" 
d="M316 299v-97l-140 -155h-151l183 203l-183 204h151z" />
    <glyph glyph-name="fraction" unicode="&#x2044;" horiz-adv-x="130" 
d="M-181 0l388 664h104l-388 -664h-104z" />
    <glyph glyph-name="Euro" unicode="&#x20ac;" horiz-adv-x="638" 
d="M18 358v92h69q12 52 36.5 94t59.5 71.5t80 45.5t98 16q49 0 89 -15t71.5 -41t53.5 -62t36 -79h-133q-14 35 -45.5 57.5t-71.5 22.5q-53 0 -88 -29.5t-50 -80.5h223l-23 -92h-216q-1 -7 -1 -13v-13v-13.5t1 -12.5h205l-23 -92h-166q14 -52 50 -81t88 -29q40 0 71.5 22.5
t45.5 57.5h133q-14 -43 -36 -79t-53.5 -62.5t-71.5 -41t-89 -14.5q-53 0 -98 16t-80.5 45.5t-59.5 71.5t-36 94h-69v92h56q-1 6 -1 12.5v13.5v13t1 13h-56z" />
    <glyph glyph-name="uni20B4" unicode="&#x20b4;" horiz-adv-x="627" 
d="M597 450v-92h-567v92h406q7 11 7 30q0 31 -28.5 55.5t-86.5 24.5q-40 0 -74.5 -13t-55.5 -46h-134q10 36 32.5 68t55.5 56t77 38t97 14q56 0 100.5 -15t75 -41.5t47 -62t16.5 -76.5q0 -19 -5 -32h37zM597 306v-92h-403q-2 -5 -3 -11.5t-1 -17.5q0 -35 33 -58t89 -23
q41 0 78 14.5t57 46.5h131q-11 -38 -33 -70.5t-55 -56.5t-77.5 -37.5t-100.5 -13.5q-62 0 -108 17t-76 45t-45 63.5t-15 72.5q0 15 3 29h-41v92h567z" />
    <glyph glyph-name="uni20B8" unicode="&#x20b8;" horiz-adv-x="550" 
d="M527 664v-117h-504v117h504zM527 495v-117h-186v-378h-131v378h-187v117h504z" />
    <glyph glyph-name="uni20BD" unicode="&#x20bd;" horiz-adv-x="657" 
d="M117 372v292h274q59 0 102.5 -16.5t72 -44.5t42 -65t13.5 -78q0 -42 -13.5 -79t-42 -65t-72 -44.5t-102.5 -16.5h-143v-52h200v-92h-200v-111h-131v111h-90v92h90v52h-90v117h90zM248 372h134q51 0 79.5 24t28.5 64t-28.5 63.5t-79.5 23.5h-134v-175z" />
    <glyph glyph-name="uni2113" unicode="&#x2113;" horiz-adv-x="424" 
d="M180 168q0 -58 62 -58h88v-110h-89q-88 0 -133 40.5t-45 106.5v369q0 81 43.5 121t114.5 40q34 0 63 -11t50 -31.5t33 -49.5t12 -64q0 -38 -17 -82.5t-44.5 -88.5t-63.5 -85t-74 -72v-25zM180 345q35 40 58 87t23 89q0 23 -11 36t-29 13q-19 0 -30 -14t-11 -40v-171z" />
    <glyph glyph-name="uni2116" unicode="&#x2116;" horiz-adv-x="1161" 
d="M770 268h342v-102h-342v102zM680 664v-664h-142l-330 466v-466h-131v664h142l330 -466v466h131zM1116 501q0 -35 -13.5 -66t-36.5 -54t-55.5 -36.5t-69.5 -13.5q-38 0 -70 13.5t-55 36.5t-36.5 54t-13.5 66t13.5 66t36.5 54t55 36.5t70 13.5q37 0 69.5 -13.5t55.5 -36.5
t36.5 -54t13.5 -66zM1006 501q0 28 -18 48t-47 20t-47 -20t-18 -48t18 -48t47 -20t47 20t18 48z" />
    <glyph glyph-name="trademark" unicode="&#x2122;" horiz-adv-x="906" 
d="M347 664v-80h-117v-292h-81v292h-117v80h315zM663 292h-81l-96 226v-226h-81v372h96l122 -285l123 285h95v-372h-81v226z" />
    <glyph glyph-name="Omega" unicode="&#x2126;" horiz-adv-x="784" 
d="M392 677q70 0 132.5 -23t109 -66t73.5 -104t27 -137q0 -37 -7.5 -71t-19.5 -64t-28 -55t-33 -44h85v-113h-294v94q31 15 61 39t54 56t38.5 71t14.5 83q0 51 -17 92t-46.5 69t-68 43t-81.5 15t-81.5 -15t-68 -43t-46.5 -69t-17 -92q0 -44 14.5 -83t38.5 -71t54 -56t61 -39
v-94h-294v113h85q-17 19 -33 44t-28 55t-19.5 64t-7.5 71q0 76 27 137t73.5 104t109 66t132.5 23z" />
    <glyph glyph-name="estimated" unicode="&#x212e;" horiz-adv-x="756" 
d="M389.045 104.068q56.9932 0 98.4883 20.9971q41.4941 20.998 68.4912 58.9932h138.983q-18.998 -44.9941 -49.4941 -80.9902q-30.4961 -35.9951 -69.9912 -61.9922t-86.4902 -39.9951q-46.9941 -13.998 -99.9873 -13.998q-77.9902 0 -141.982 26.9961
q-63.9922 26.9971 -109.987 73.4912q-45.9941 46.4941 -70.9912 108.986q-24.9971 62.4932 -24.9971 134.484t25.4971 134.983t71.4912 109.986q45.9951 46.9941 108.487 73.9912q62.4922 26.9961 136.483 26.9961q73.9902 0 135.483 -26.9961
q61.4922 -26.9971 104.987 -73.9912q43.4941 -46.9941 67.4912 -109.486q23.9971 -62.4932 23.9971 -134.483v-24.9971q0 -13.999 -2 -27.9971h-534.935q6.99902 -37.9951 24.9971 -69.9912t45.4941 -55.4932q27.4971 -23.4971 62.9932 -36.4961
q35.4951 -12.998 77.4902 -12.998zM381.046 560.013q-38.9951 0 -73.4912 -12.498q-34.4961 -12.499 -60.9922 -34.4961q-26.4971 -21.9971 -43.9951 -52.9932q-17.498 -30.9971 -23.4971 -67.9922h397.951q-4.99902 36.9951 -21.4971 67.9922
q-16.498 30.9961 -41.9951 52.9932q-25.4961 21.9971 -58.9922 34.4961q-33.4961 12.498 -73.4912 12.498z" />
    <glyph glyph-name="arrowleft" unicode="&#x2190;" horiz-adv-x="981" 
d="M241 331h690v-110h-691l185 -184h-154l-239 239l239 240h154z" />
    <glyph glyph-name="arrowup" unicode="&#x2191;" horiz-adv-x="561" 
d="M226 572l-185 -184v154l240 239l239 -239v-154l-184 185v-691h-110v690z" />
    <glyph glyph-name="arrowright" unicode="&#x2192;" horiz-adv-x="981" 
d="M740.029 331h-689.916v-110h690.916l-184.978 -184h153.981l238.971 239l-238.971 240h-153.981z" />
    <glyph glyph-name="arrowdown" unicode="&#x2193;" horiz-adv-x="561" 
d="M226 91.0703l-185 183.977v-153.98l240 -238.971l239 238.971v153.98l-184 -184.977v690.915h-110v-689.915z" />
    <glyph glyph-name="uni2196" unicode="&#x2196;" horiz-adv-x="746" 
d="M226 556l479 -478l-78 -78l-478 478v-261l-108 109v338h339l109 -108h-263z" />
    <glyph glyph-name="uni2197" unicode="&#x2197;" horiz-adv-x="746" 
d="M520.027 556l-478.941 -478l77.9902 -78l477.942 478v-261l107.986 109v338h-338.958l-108.987 -108h262.968z" />
    <glyph glyph-name="uni2198" unicode="&#x2198;" horiz-adv-x="746" 
d="M226 108.068l479 477.941l-78 77.9902l-478 -477.941v260.968l-108 -108.986v-337.959h339l109 107.987h-263z" />
    <glyph glyph-name="uni2199" unicode="&#x2199;" horiz-adv-x="746" 
d="M520.027 108.068l-478.941 477.941l77.9902 77.9902l477.942 -477.941v260.968l107.986 -108.986v-337.959h-338.958l-108.987 107.987h262.968z" />
    <glyph glyph-name="partialdiff" unicode="&#x2202;" horiz-adv-x="595" 
d="M266 664l195 -230q44 -51 66.5 -101t22.5 -104q0 -50 -19.5 -94t-53.5 -77t-80 -52t-99 -19q-54 0 -100 19t-80 51.5t-53.5 76.5t-19.5 95q0 50 18.5 94t51.5 77t78 52.5t98 19.5l-158 192h133zM298 103q27 0 50.5 10t40 27t26 40t9.5 49t-9.5 49.5t-26 41t-40 27.5
t-50.5 10q-28 0 -51.5 -10t-40 -27.5t-26 -41t-9.5 -49.5t9.5 -49t26 -40t40 -27t51.5 -10z" />
    <glyph glyph-name="Delta" unicode="&#x2206;" horiz-adv-x="612" 
d="M594 87v-87h-576v87l239 577h98zM160 113h292l-146 352z" />
    <glyph glyph-name="product" unicode="&#x220f;" horiz-adv-x="635" 
d="M608 664v-117h-92v-547h-131v547h-135v-547h-131v547h-92v117h581z" />
    <glyph glyph-name="summation" unicode="&#x2211;" horiz-adv-x="602" 
d="M40 565v99h522v-117h-329l207 -173v-84l-207 -173h329v-117h-522v99l266 233z" />
    <glyph glyph-name="minus" unicode="&#x2212;" horiz-adv-x="564" 
d="M514 331v-110h-464v110h464z" />
    <glyph glyph-name="uni2215" unicode="&#x2215;" horiz-adv-x="492" 
d="M0 0l388 664h104l-388 -664h-104z" />
    <glyph glyph-name="radical" unicode="&#x221a;" horiz-adv-x="651" 
d="M373 0h-96l-167 361h-92v114h173l128 -279l179 468h131z" />
    <glyph glyph-name="infinity" unicode="&#x221e;" horiz-adv-x="772" 
d="M36 273q0 42 15 76.5t40.5 59t60 38.5t73.5 14q56 0 95 -26t66 -61q27 35 66 61t95 26q39 0 73.5 -14t60 -38.5t40.5 -59t15 -76.5t-15 -76.5t-40.5 -59t-60 -38.5t-73.5 -14q-56 0 -95 26t-66 61q-27 -35 -66 -61t-95 -26q-39 0 -73.5 14t-60 38.5t-40.5 59t-15 76.5z
M152 273q0 -32 21.5 -56t58.5 -24q29 0 53.5 24t41.5 56q-17 32 -41.5 56t-53.5 24q-37 0 -58.5 -24t-21.5 -56zM620 273q0 32 -21.5 56t-58.5 24q-29 0 -53.5 -24t-41.5 -56q17 -32 41.5 -56t53.5 -24q37 0 58.5 24t21.5 56z" />
    <glyph glyph-name="integral" unicode="&#x222b;" horiz-adv-x="377" 
d="M253 -55q0 -68 -46.5 -108.5t-139.5 -40.5h-49v110h44q29 0 45.5 15.5t16.5 36.5v557q0 68 46.5 111t139.5 43h49v-110h-44q-29 0 -45.5 -15.5t-16.5 -36.5v-562v0z" />
    <glyph glyph-name="approxequal" unicode="&#x2248;" horiz-adv-x="564" 
d="M514 251q0 -39 -8 -74.5t-25 -61.5t-44.5 -41.5t-66.5 -15.5q-28 0 -54 13t-48.5 29t-41 29t-32.5 13q-19 0 -27 -22.5t-8 -61.5h-109q0 39 8 74.5t25 61.5t44.5 41.5t66.5 15.5q28 0 53.5 -13t48 -29t41.5 -29t33 -13q19 0 27 22.5t8 61.5h109zM514 472q0 -39 -8 -74.5
t-25 -61.5t-44.5 -41.5t-66.5 -15.5q-28 0 -54 13t-48.5 29t-41 29t-32.5 13q-19 0 -27 -22.5t-8 -61.5h-109q0 39 8 74.5t25 61.5t44.5 41.5t66.5 15.5q28 0 53.5 -13t48 -29t41.5 -29t33 -13q19 0 27 22.5t8 61.5h109z" />
    <glyph glyph-name="notequal" unicode="&#x2260;" horiz-adv-x="564" 
d="M309 428l39 66h123l-39 -66h82v-110h-146l-49 -84h195v-110h-259l-39 -67h-123l39 67h-82v110h146l49 84h-195v110h259z" />
    <glyph glyph-name="lessequal" unicode="&#x2264;" horiz-adv-x="564" 
d="M514 110v-110h-464v110h464zM514 431l-265 -90l265 -90v-117l-464 156v102l464 156v-117z" />
    <glyph glyph-name="greaterequal" unicode="&#x2265;" horiz-adv-x="564" 
d="M514 110v-110h-464v110h464zM50 548l464 -156v-102l-464 -156v117l265 90l-265 90v117z" />
    <glyph glyph-name="uni2460" unicode="&#x2460;" horiz-adv-x="816" 
d="M63 332q0 71 27 134t74 110t110 74t134 27t134 -27t110 -74t74 -110t27 -134t-27 -134t-74 -110t-110 -74t-134 -27t-134 27t-110 74t-74 110t-27 134zM128 332q0 -58 22 -109t60 -89t89 -60t109 -22t109 22t89 60t60 89t22 109t-22 109t-60 89t-89 60t-109 22t-109 -22
t-89 -60t-60 -89t-22 -109zM370 513h88v-343h-91v234l-70 -63v105z" />
    <glyph glyph-name="uni2461" unicode="&#x2461;" horiz-adv-x="816" 
d="M63 332q0 71 27 134t74 110t110 74t134 27t134 -27t110 -74t74 -110t27 -134t-27 -134t-74 -110t-110 -74t-134 -27t-134 27t-110 74t-74 110t-27 134zM128 332q0 -58 22 -109t60 -89t89 -60t109 -22t109 22t89 60t60 89t22 109t-22 109t-60 89t-89 60t-109 22t-109 -22
t-89 -60t-60 -89t-22 -109zM265 399q11 58 48 89.5t91 31.5q62 0 99 -31t37 -82q0 -29 -13 -54.5t-42 -48.5l-72 -56h129v-78h-262v78l136 105q31 23 31 52q0 14 -10.5 25t-29.5 11q-18 0 -31 -9.5t-18 -32.5h-93v0z" />
    <glyph glyph-name="uni2462" unicode="&#x2462;" horiz-adv-x="816" 
d="M63 332q0 71 27 134t74 110t110 74t134 27t134 -27t110 -74t74 -110t27 -134t-27 -134t-74 -110t-110 -74t-134 -27t-134 27t-110 74t-74 110t-27 134zM128 332q0 -58 22 -109t60 -89t89 -60t109 -22t109 22t89 60t60 89t22 109t-22 109t-60 89t-89 60t-109 22t-109 -22
t-89 -60t-60 -89t-22 -109zM503 344q20 -13 29 -33t9 -37q0 -23 -10 -43t-28 -35t-43 -24t-56 -9q-23 0 -46 6t-42.5 18.5t-34 33t-20.5 49.5h91q8 -17 21 -22.5t32 -5.5q18 0 31.5 8.5t13.5 24.5q0 14 -11 23t-34 9h-50v72h50q43 0 43 31q0 14 -13 22.5t-30 8.5
q-18 0 -31.5 -5.5t-21.5 -21.5h-90q5 29 19 49t33.5 33t43 18.5t46.5 5.5q30 0 55 -9t43 -24t28 -34.5t10 -40.5q0 -20 -8.5 -37t-28.5 -31z" />
    <glyph glyph-name="uni2463" unicode="&#x2463;" horiz-adv-x="816" 
d="M63 332q0 71 27 134t74 110t110 74t134 27t134 -27t110 -74t74 -110t27 -134t-27 -134t-74 -110t-110 -74t-134 -27t-134 27t-110 74t-74 110t-27 134zM128 332q0 -58 22 -109t60 -89t89 -60t109 -22t109 22t89 60t60 89t22 109t-22 109t-60 89t-89 60t-109 22t-109 -22
t-89 -60t-60 -89t-22 -109zM508 315h51v-78h-51v-67h-90v67h-174v72l152 204h106l-149 -198h65v56h90v-56z" />
    <glyph glyph-name="uni2464" unicode="&#x2464;" horiz-adv-x="816" 
d="M63 332q0 71 27 134t74 110t110 74t134 27t134 -27t110 -74t74 -110t27 -134t-27 -134t-74 -110t-110 -74t-134 -27t-134 27t-110 74t-74 110t-27 134zM128 332q0 -58 22 -109t60 -89t89 -60t109 -22t109 22t89 60t60 89t22 109t-22 109t-60 89t-89 60t-109 22t-109 -22
t-89 -60t-60 -89t-22 -109zM413 406q25 0 49 -7.5t43 -22.5t31 -38t12 -54q0 -24 -10 -46t-29 -38.5t-45 -26.5t-57 -10q-53 0 -90 29.5t-49 77.5h88q17 -28 50 -28q23 0 36.5 11.5t13.5 30.5q0 20 -13.5 31.5t-36.5 11.5q-31 0 -49 -20h-78l21 206h231v-78h-158l-3 -35
q22 6 43 6z" />
    <glyph glyph-name="uni2465" unicode="&#x2465;" horiz-adv-x="816" 
d="M63 332q0 71 27 134t74 110t110 74t134 27t134 -27t110 -74t74 -110t27 -134t-27 -134t-74 -110t-110 -74t-134 -27t-134 27t-110 74t-74 110t-27 134zM128 332q0 -58 22 -109t60 -89t89 -60t109 -22t109 22t89 60t60 89t22 109t-22 109t-60 89t-89 60t-109 22t-109 -22
t-89 -60t-60 -89t-22 -109zM407 402q28 0 53 -8.5t43.5 -24t29 -38t10.5 -49.5q0 -51 -37.5 -85t-100.5 -34q-32 0 -59 9.5t-47 30t-31 53t-11 78.5q0 35 8 68.5t26 59.5t46.5 42t69.5 16q48 0 81.5 -24.5t50.5 -72.5h-94q-7 10 -18 14t-24 4q-21 0 -37 -15t-21 -44
q13 11 30 15.5t32 4.5zM401 242q23 0 37 11.5t14 28.5q0 19 -14 30t-37 11q-22 0 -36 -11t-14 -30q0 -17 14 -28.5t36 -11.5z" />
    <glyph glyph-name="uni2466" unicode="&#x2466;" horiz-adv-x="816" 
d="M63 332q0 71 27 134t74 110t110 74t134 27t134 -27t110 -74t74 -110t27 -134t-27 -134t-74 -110t-110 -74t-134 -27t-134 27t-110 74t-74 110t-27 134zM128 332q0 -58 22 -109t60 -89t89 -60t109 -22t109 22t89 60t60 89t22 109t-22 109t-60 89t-89 60t-109 22t-109 -22
t-89 -60t-60 -89t-22 -109zM286 513h263v-80l-164 -263h-99l166 265h-166v78z" />
    <glyph glyph-name="uni2467" unicode="&#x2467;" horiz-adv-x="816" 
d="M63 332q0 71 27 134t74 110t110 74t134 27t134 -27t110 -74t74 -110t27 -134t-27 -134t-74 -110t-110 -74t-134 -27t-134 27t-110 74t-74 110t-27 134zM128 332q0 -58 22 -109t60 -89t89 -60t109 -22t109 22t89 60t60 89t22 109t-22 109t-60 89t-89 60t-109 22t-109 -22
t-89 -60t-60 -89t-22 -109zM408 163q-65 0 -103.5 31t-38.5 78q0 21 12.5 41t32.5 31q-20 11 -30 30t-10 39q0 46 37 76.5t100 30.5t100 -30.5t37 -76.5q0 -20 -10 -39t-30 -30q20 -11 32.5 -31t12.5 -41q0 -47 -38.5 -78t-103.5 -31zM408 242q25 0 38.5 9t13.5 24
q0 14 -13.5 22.5t-38.5 8.5t-38.5 -8.5t-13.5 -22.5q0 -15 13.5 -24t38.5 -9zM408 377q24 0 35.5 9t11.5 23q0 13 -12 22.5t-35 9.5t-35 -9.5t-12 -22.5q0 -14 11.5 -23t35.5 -9z" />
    <glyph glyph-name="uni2468" unicode="&#x2468;" horiz-adv-x="816" 
d="M63 332q0 71 27 134t74 110t110 74t134 27t134 -27t110 -74t74 -110t27 -134t-27 -134t-74 -110t-110 -74t-134 -27t-134 27t-110 74t-74 110t-27 134zM128 332q0 -58 22 -109t60 -89t89 -60t109 -22t109 22t89 60t60 89t22 109t-22 109t-60 89t-89 60t-109 22t-109 -22
t-89 -60t-60 -89t-22 -109zM402 281q-29 0 -53.5 8.5t-43 24t-29 38t-10.5 49.5q0 51 37.5 85t100.5 34q32 0 59 -9.5t47 -30t31 -53t11 -78.5q0 -35 -8 -68.5t-26 -59.5t-45.5 -42t-66.5 -16q-96 0 -129 97h94q12 -18 39 -18q20 0 34.5 15t19.5 44q-13 -11 -30 -15.5
t-32 -4.5zM408 441q-23 0 -37 -11.5t-14 -28.5q0 -19 14 -30t37 -11q22 0 36 11t14 30q0 17 -14 28.5t-36 11.5z" />
    <glyph glyph-name="lozenge" unicode="&#x25ca;" horiz-adv-x="593" 
d="M50 369l197 295h99l197 -295v-74l-197 -295h-99l-197 295v74zM296 520l-125 -188l125 -188l126 188z" />
    <glyph glyph-name="circle" unicode="&#x25cb;" horiz-adv-x="816" 
d="M63 332q0 71 27 134t74 110t110 74t134 27t134 -27t110 -74t74 -110t27 -134t-27 -134t-74 -110t-110 -74t-134 -27t-134 27t-110 74t-74 110t-27 134zM128 332q0 -58 22 -109t60 -89t89 -60t109 -22t109 22t89 60t60 89t22 109t-22 109t-60 89t-89 60t-109 22t-109 -22
t-89 -60t-60 -89t-22 -109z" />
    <glyph glyph-name="H18533" unicode="&#x25cf;" horiz-adv-x="816" 
d="M408 677q71 0 134 -27t110 -74t74 -110t27 -134t-27 -134t-74 -110t-110 -74t-134 -27t-134 27t-110 74t-74 110t-27 134t27 134t74 110t110 74t134 27z" />
    <glyph glyph-name="uni2776" unicode="&#x2776;" horiz-adv-x="816" 
d="M408 677q71 0 134 -27t110 -74t74 -110t27 -134t-27 -134t-74 -110t-110 -74t-134 -27t-134 27t-110 74t-74 110t-27 134t27 134t74 110t110 74t134 27zM297 445v-105l70 63v-234h91v343h-88z" />
    <glyph glyph-name="uni2777" unicode="&#x2777;" horiz-adv-x="816" 
d="M358 398q5 23 18 32.5t31 9.5q19 0 29.5 -11t10.5 -25q0 -29 -31 -52l-136 -105v-78h262v78h-129l72 56q29 23 42 48.5t13 54.5q0 51 -37 82t-99 31q-54 0 -91 -31.5t-48 -89.5h93zM408 677q71 0 134 -27t110 -74t74 -110t27 -134t-27 -134t-74 -110t-110 -74t-134 -27
t-134 27t-110 74t-74 110t-27 134t27 134t74 110t110 74t134 27z" />
    <glyph glyph-name="uni2778" unicode="&#x2778;" horiz-adv-x="816" 
d="M408 677q71 0 134 -27t110 -74t74 -110t27 -134t-27 -134t-74 -110t-110 -74t-134 -27t-134 27t-110 74t-74 110t-27 134t27 134t74 110t110 74t134 27zM503 343q20 14 28.5 31t8.5 37q0 21 -10 40.5t-28 34.5t-43 24t-55 9q-23 0 -46.5 -6t-43 -18.5t-33.5 -33
t-19 -50.5h90q8 17 21.5 23t31.5 6q17 0 30 -8.5t13 -22.5q0 -31 -43 -31h-50v-72h50q23 0 34 -9t11 -23q0 -16 -13.5 -24.5t-31.5 -8.5q-19 0 -32 6.5t-21 23.5h-91q6 -29 20.5 -50t34 -34t42.5 -19t46 -6q31 0 56 9t43 24t28 35t10 43q0 17 -9 37t-29 33z" />
    <glyph glyph-name="uni2779" unicode="&#x2779;" horiz-adv-x="816" 
d="M408 677q71 0 134 -27t110 -74t74 -110t27 -134t-27 -134t-74 -110t-110 -74t-134 -27t-134 27t-110 74t-74 110t-27 134t27 134t74 110t110 74t134 27zM508 370h-90v-56h-65l149 198h-106l-152 -204v-72h174v-67h90v67h51v78h-51v56z" />
    <glyph glyph-name="uni277A" unicode="&#x277a;" horiz-adv-x="816" 
d="M408 677q71 0 134 -27t110 -74t74 -110t27 -134t-27 -134t-74 -110t-110 -74t-134 -27t-134 27t-110 74t-74 110t-27 134t27 134t74 110t110 74t134 27zM413 405q-21 0 -43 -6l4 35h157v78h-231l-21 -206h78q18 20 49 20q23 0 36.5 -11.5t13.5 -31.5q0 -19 -13.5 -30.5
t-36.5 -11.5q-16 0 -28.5 6t-21.5 21h-88q12 -48 49 -77t90 -29q31 0 57 10t45 26.5t29 38.5t10 46q0 31 -12 54t-31 38t-43 22.5t-49 7.5z" />
    <glyph glyph-name="uni277B" unicode="&#x277b;" horiz-adv-x="816" 
d="M408 677q71 0 134 -27t110 -74t74 -110t27 -134t-27 -134t-74 -110t-110 -74t-134 -27t-134 27t-110 74t-74 110t-27 134t27 134t74 110t110 74t134 27zM407 401q-15 0 -32 -4.5t-30 -15.5q5 29 21 44t37 15q13 0 24 -4t18 -14h94q-17 48 -50.5 72.5t-81.5 24.5
q-41 0 -69.5 -16t-46.5 -42t-26 -59.5t-8 -68.5q0 -46 11 -78.5t31 -53t47 -30t59 -9.5q63 0 100.5 34t37.5 85q0 27 -10.5 49.5t-29 38t-43.5 24t-53 8.5zM401 241q-22 0 -36 11.5t-14 28.5q0 19 14 30t36 11q23 0 37 -11t14 -30q0 -17 -14 -28.5t-37 -11.5z" />
    <glyph glyph-name="uni277C" unicode="&#x277c;" horiz-adv-x="816" 
d="M408 677q71 0 134 -27t110 -74t74 -110t27 -134t-27 -134t-74 -110t-110 -74t-134 -27t-134 27t-110 74t-74 110t-27 134t27 134t74 110t110 74t134 27zM286 434h166l-166 -265h99l164 263v80h-263v-78z" />
    <glyph glyph-name="uni277D" unicode="&#x277d;" horiz-adv-x="816" 
d="M408 162q65 0 103.5 31t38.5 78q0 21 -12.5 41t-32.5 31q20 11 30 30t10 39q0 46 -37 76.5t-100 30.5t-100 -30.5t-37 -76.5q0 -20 10 -39t30 -30q-20 -11 -32.5 -31t-12.5 -41q0 -47 38.5 -78t103.5 -31zM408 241q-25 0 -38.5 9t-13.5 24q0 14 13.5 22.5t38.5 8.5
t38.5 -8.5t13.5 -22.5q0 -15 -13.5 -24t-38.5 -9zM408 376q-24 0 -35.5 9t-11.5 23q0 13 12 22.5t35 9.5t35 -9.5t12 -22.5q0 -14 -11.5 -23t-35.5 -9zM408 677q71 0 134 -27t110 -74t74 -110t27 -134t-27 -134t-74 -110t-110 -74t-134 -27t-134 27t-110 74t-74 110t-27 134
t27 134t74 110t110 74t134 27z" />
    <glyph glyph-name="uni277E" unicode="&#x277e;" horiz-adv-x="816" 
d="M402 280q15 0 32 4.5t30 15.5q-5 -29 -19.5 -44t-34.5 -15q-27 0 -39 18h-94q33 -97 129 -97q39 0 66.5 16t45.5 42t26 59.5t8 68.5q0 46 -11 78.5t-31 53t-47 30t-59 9.5q-63 0 -100.5 -34t-37.5 -85q0 -27 10.5 -49.5t29 -38t43 -24t53.5 -8.5zM408 440q22 0 36 -11.5
t14 -28.5q0 -19 -14 -30t-36 -11q-23 0 -37 11t-14 30q0 17 14 28.5t37 11.5zM408 677q71 0 134 -27t110 -74t74 -110t27 -134t-27 -134t-74 -110t-110 -74t-134 -27t-134 27t-110 74t-74 110t-27 134t27 134t74 110t110 74t134 27z" />
    <glyph glyph-name="Udotaccent" unicode="&#xf47e;" horiz-adv-x="727" 
d="M72 664h131v-385q0 -86 43 -130.5t118 -44.5t117.5 44.5t42.5 130.5v385h131v-386q0 -70 -21 -124t-59 -91t-91.5 -56.5t-119.5 -19.5t-120 19.5t-92 56.5t-59 91t-21 124v386zM294 885h138v-138h-138v138z" />
    <glyph glyph-name="udotaccent" unicode="&#xf47f;" horiz-adv-x="610" 
d="M271 -13q-46 0 -84 14t-65.5 40t-43 63.5t-15.5 84.5v286h126v-263q0 -51 27 -80t81 -29q23 0 44 9t36.5 26t25 41t9.5 55v241h126v-475h-126v36q-20 -22 -56.5 -35.5t-84.5 -13.5zM236 689h138v-137h-138v137z" />
    <glyph glyph-name="Germandbls" unicode="&#xf485;" horiz-adv-x="1262" 
d="M955 -13q-66 0 -116.5 15t-87 41.5t-60.5 62.5t-37 78h133q23 -42 67 -61t101 -19q63 0 101.5 23.5t38.5 62.5q0 36 -26.5 55t-85.5 25l-114 11q-52 5 -89 21t-61 41t-35 57t-11 69q0 46 18.5 84t53 65.5t83 43t109.5 15.5q62 0 111 -16.5t85.5 -44.5t60.5 -63.5
t36 -72.5h-133q-17 37 -62.5 58.5t-99.5 21.5q-66 0 -98.5 -26t-32.5 -61q0 -33 25 -52t70 -24l122 -12q96 -10 150.5 -61t54.5 -129q0 -41 -17 -78.5t-51 -66t-85 -46t-118 -17.5zM324 -13q-66 0 -116.5 15t-87 41.5t-60.5 62.5t-37 78h133q23 -42 67 -61t101 -19
q63 0 101.5 23.5t38.5 62.5q0 36 -26.5 55t-85.5 25l-114 11q-52 5 -89 21t-61 41t-35 57t-11 69q0 46 18.5 84t53 65.5t83 43t109.5 15.5q62 0 111 -16.5t85.5 -44.5t60.5 -63.5t36 -72.5h-133q-17 37 -62.5 58.5t-99.5 21.5q-66 0 -98.5 -26t-32.5 -61q0 -33 25 -52
t70 -24l122 -12q96 -10 150.5 -61t54.5 -129q0 -41 -17 -78.5t-51 -66t-85 -46t-118 -17.5z" />
    <glyph glyph-name="commaaccent" unicode="&#xf6c3;" horiz-adv-x="257" 
d="M60 -288l68 113h-74v139h149v-154l-61 -98h-82z" />
    <glyph glyph-name="cyrbreve" unicode="&#xf6d4;" horiz-adv-x="496" 
d="M155 714q4 -34 29.5 -54.5t63.5 -20.5t63.5 20.5t29.5 54.5h104q-3 -39 -19 -71.5t-42.5 -56t-61 -36.5t-74.5 -13t-74.5 13t-61 36.5t-42.5 56t-19 71.5h104z" />
    <glyph glyph-name="fi" unicode="&#xfb01;" horiz-adv-x="654" 
d="M101 0v365h-87v110h87v45q0 66 45.5 107.5t134.5 41.5h90v-110h-89q-29 0 -42 -16.5t-13 -42.5v-25h353v-475h-126v365h-227v-365h-126zM448 689h138v-137h-138v137z" />
    <glyph glyph-name="fl" unicode="&#xfb02;" horiz-adv-x="652" 
d="M101 0v365h-87v110h87v45q0 66 45.5 107.5t134.5 41.5h90v-110h-89q-29 0 -42 -16.5t-13 -42.5v-25h227v194h126v-669h-126v365h-227v-365h-126z" />
    <glyph glyph-name="one.sup" horiz-adv-x="269" 
d="M109 715h88v-343h-91v234l-70 -63v105z" />
    <glyph glyph-name="two.sup" horiz-adv-x="366" 
d="M44 601q11 58 48 89.5t91 31.5q62 0 99 -31t37 -82q0 -29 -13 -54.5t-42 -48.5l-72 -56h129v-78h-262v78l136 105q31 23 31 52q0 14 -10.5 25t-29.5 11q-18 0 -31 -9.5t-18 -32.5h-93v0z" />
    <glyph glyph-name="three.sup" horiz-adv-x="370" 
d="M287 546q20 -13 29 -33t9 -37q0 -23 -10 -43t-28 -35t-43 -24t-56 -9q-23 0 -46 6t-42.5 18.5t-34 33t-20.5 49.5h91q8 -17 21 -22.5t32 -5.5q18 0 31.5 8.5t13.5 24.5q0 14 -11 23t-34 9h-50v72h50q43 0 43 31q0 14 -13 22.5t-30 8.5q-18 0 -31.5 -5.5t-21.5 -21.5h-90
q5 29 19 49t33.5 33t43 18.5t46.5 5.5q30 0 55 -9t43 -24t28 -34.5t10 -40.5q0 -20 -8.5 -37t-28.5 -31z" />
    <glyph glyph-name="zero.sup" horiz-adv-x="386" 
d="M193 722q43 0 71.5 -17.5t45.5 -44.5t24 -58t7 -58t-7 -58.5t-24 -58t-45.5 -44.5t-71.5 -18t-71.5 18t-45.5 44.5t-24 58t-7 58.5t7 58t24 58t45.5 44.5t71.5 17.5zM251 544q0 17 -3 34.5t-9.5 32t-18 23.5t-27.5 9q-17 0 -28 -9t-17.5 -23.5t-9.5 -32t-3 -34.5t3 -34.5
t9.5 -32t17.5 -24t28 -9.5q16 0 27.5 9.5t18 24t9.5 32t3 34.5z" />
    <glyph glyph-name="four.sup" horiz-adv-x="405" 
d="M309 517h51v-78h-51v-67h-90v67h-174v72l152 204h106l-149 -198h65v56h90v-56z" />
    <glyph glyph-name="five.sup" horiz-adv-x="370" 
d="M190 608q25 0 49 -7.5t43 -22.5t31 -38t12 -54q0 -24 -10 -46t-29 -38.5t-45 -26.5t-57 -10q-53 0 -90 29.5t-49 77.5h88q17 -28 50 -28q23 0 36.5 11.5t13.5 30.5q0 20 -13.5 31.5t-36.5 11.5q-31 0 -49 -20h-78l21 206h231v-78h-158l-3 -35q22 6 43 6z" />
    <glyph glyph-name="six.sup" horiz-adv-x="376" 
d="M195 604q28 0 53 -8.5t43.5 -24t29 -38t10.5 -49.5q0 -51 -37.5 -85t-100.5 -34q-32 0 -59 9.5t-47 30t-31 53t-11 78.5q0 35 8 68.5t26 59.5t46.5 42t69.5 16q48 0 81.5 -24.5t50.5 -72.5h-94q-7 10 -18 14t-24 4q-21 0 -37 -15t-21 -44q13 11 30 15.5t32 4.5zM189 444
q23 0 37 11.5t14 28.5q0 19 -14 30t-37 11q-22 0 -36 -11t-14 -30q0 -17 14 -28.5t36 -11.5z" />
    <glyph glyph-name="seven.sup" horiz-adv-x="353" 
d="M45 715h263v-80l-164 -263h-99l166 265h-166v78z" />
    <glyph glyph-name="eight.sup" horiz-adv-x="371" 
d="M185 365q-65 0 -103.5 31t-38.5 78q0 21 12.5 41t32.5 31q-20 11 -30 30t-10 39q0 46 37 76.5t100 30.5t100 -30.5t37 -76.5q0 -20 -10 -39t-30 -30q20 -11 32.5 -31t12.5 -41q0 -47 -38.5 -78t-103.5 -31zM185 444q25 0 38.5 9t13.5 24q0 14 -13.5 22.5t-38.5 8.5
t-38.5 -8.5t-13.5 -22.5q0 -15 13.5 -24t38.5 -9zM185 579q24 0 35.5 9t11.5 23q0 13 -12 22.5t-35 9.5t-35 -9.5t-12 -22.5q0 -14 11.5 -23t35.5 -9z" />
    <glyph glyph-name="nine.sup" horiz-adv-x="376" 
d="M181 483q-29 0 -53.5 8.5t-43 24t-29 38t-10.5 49.5q0 51 37.5 85t100.5 34q32 0 59 -9.5t47 -30t31 -53t11 -78.5q0 -35 -8 -68.5t-26 -59.5t-45.5 -42t-66.5 -16q-96 0 -129 97h94q12 -18 39 -18q20 0 34.5 15t19.5 44q-13 -11 -30 -15.5t-32 -4.5zM187 643
q-23 0 -37 -11.5t-14 -28.5q0 -19 14 -30t37 -11q22 0 36 11t14 30q0 17 -14 28.5t-36 11.5z" />
    <glyph glyph-name="zero.sub" horiz-adv-x="386" 
d="M193 313q43 0 71.5 -17.5t45.5 -44.5t24 -58t7 -58t-7 -58.5t-24 -58t-45.5 -44.5t-71.5 -18t-71.5 18t-45.5 44.5t-24 58t-7 58.5t7 58t24 58t45.5 44.5t71.5 17.5zM251 135q0 17 -3 34.5t-9.5 32t-18 23.5t-27.5 9q-17 0 -28 -9t-17.5 -23.5t-9.5 -32t-3 -34.5t3 -34.5
t9.5 -32t17.5 -24t28 -9.5q16 0 27.5 9.5t18 24t9.5 32t3 34.5z" />
    <glyph glyph-name="one.sub" horiz-adv-x="269" 
d="M109 306h88v-343h-91v234l-70 -63v105z" />
    <glyph glyph-name="two.sub" horiz-adv-x="366" 
d="M44 192q11 58 48 89.5t91 31.5q62 0 99 -31t37 -82q0 -29 -13 -54.5t-42 -48.5l-72 -56h129v-78h-262v78l136 105q31 23 31 52q0 14 -10.5 25t-29.5 11q-18 0 -31 -9.5t-18 -32.5h-93v0z" />
    <glyph glyph-name="three.sub" horiz-adv-x="370" 
d="M287 137q20 -13 29 -33t9 -37q0 -23 -10 -43t-28 -35t-43 -24t-56 -9q-23 0 -46 6t-42.5 18.5t-34 33t-20.5 49.5h91q8 -17 21 -22.5t32 -5.5q18 0 31.5 8.5t13.5 24.5q0 14 -11 23t-34 9h-50v72h50q43 0 43 31q0 14 -13 22.5t-30 8.5q-18 0 -31.5 -5.5t-21.5 -21.5h-90
q5 29 19 49t33.5 33t43 18.5t46.5 5.5q30 0 55 -9t43 -24t28 -34.5t10 -40.5q0 -20 -8.5 -37t-28.5 -31z" />
    <glyph glyph-name="four.sub" horiz-adv-x="405" 
d="M309 108h51v-78h-51v-67h-90v67h-174v72l152 204h106l-149 -198h65v56h90v-56z" />
    <glyph glyph-name="five.sub" horiz-adv-x="370" 
d="M190 199q25 0 49 -7.5t43 -22.5t31 -38t12 -54q0 -24 -10 -46t-29 -38.5t-45 -26.5t-57 -10q-53 0 -90 29.5t-49 77.5h88q17 -28 50 -28q23 0 36.5 11.5t13.5 30.5q0 20 -13.5 31.5t-36.5 11.5q-31 0 -49 -20h-78l21 206h231v-78h-158l-3 -35q22 6 43 6z" />
    <glyph glyph-name="six.sub" horiz-adv-x="376" 
d="M195 195q28 0 53 -8.5t43.5 -24t29 -38t10.5 -49.5q0 -51 -37.5 -85t-100.5 -34q-32 0 -59 9.5t-47 30t-31 53t-11 78.5q0 35 8 68.5t26 59.5t46.5 42t69.5 16q48 0 81.5 -24.5t50.5 -72.5h-94q-7 10 -18 14t-24 4q-21 0 -37 -15t-21 -44q13 11 30 15.5t32 4.5zM189 35
q23 0 37 11.5t14 28.5q0 19 -14 30t-37 11q-22 0 -36 -11t-14 -30q0 -17 14 -28.5t36 -11.5z" />
    <glyph glyph-name="seven.sub" horiz-adv-x="353" 
d="M45 306h263v-80l-164 -263h-99l166 265h-166v78z" />
    <glyph glyph-name="eight.sub" horiz-adv-x="371" 
d="M185 -44q-65 0 -103.5 31t-38.5 78q0 21 12.5 41t32.5 31q-20 11 -30 30t-10 39q0 46 37 76.5t100 30.5t100 -30.5t37 -76.5q0 -20 -10 -39t-30 -30q20 -11 32.5 -31t12.5 -41q0 -47 -38.5 -78t-103.5 -31zM185 35q25 0 38.5 9t13.5 24q0 14 -13.5 22.5t-38.5 8.5
t-38.5 -8.5t-13.5 -22.5q0 -15 13.5 -24t38.5 -9zM185 170q24 0 35.5 9t11.5 23q0 13 -12 22.5t-35 9.5t-35 -9.5t-12 -22.5q0 -14 11.5 -23t35.5 -9z" />
    <glyph glyph-name="nine.sub" horiz-adv-x="376" 
d="M181 74q-29 0 -53.5 8.5t-43 24t-29 38t-10.5 49.5q0 51 37.5 85t100.5 34q32 0 59 -9.5t47 -30t31 -53t11 -78.5q0 -35 -8 -68.5t-26 -59.5t-45.5 -42t-66.5 -16q-96 0 -129 97h94q12 -18 39 -18q20 0 34.5 15t19.5 44q-13 -11 -30 -15.5t-32 -4.5zM187 234
q-23 0 -37 -11.5t-14 -28.5q0 -19 14 -30t37 -11q22 0 36 11t14 30q0 17 -14 28.5t-36 11.5z" />
    <glyph glyph-name="Tcommaaccent" horiz-adv-x="610" 
d="M587 664v-117h-216v-547h-131v547h-217v117h564zM237 -288l68 113h-74v139h149v-154l-61 -98h-82z" />
    <glyph glyph-name="tcommaaccent" horiz-adv-x="425" 
d="M240 582v-107h144v-110h-144v-196q0 -26 13 -42.5t42 -16.5h89v-110h-90q-89 0 -134.5 41.5t-45.5 107.5v216h-87v110h87v107h126zM173 -288l68 113h-74v139h149v-154l-61 -98h-82z" />
    <glyph glyph-name="zero.numr" horiz-adv-x="386" 
d="M193 672q43 0 71.5 -17.5t45.5 -44.5t24 -58t7 -58t-7 -58.5t-24 -58t-45.5 -44.5t-71.5 -18t-71.5 18t-45.5 44.5t-24 58t-7 58.5t7 58t24 58t45.5 44.5t71.5 17.5zM251 494q0 17 -3 34.5t-9.5 32t-18 23.5t-27.5 9q-17 0 -28 -9t-17.5 -23.5t-9.5 -32t-3 -34.5t3 -34.5
t9.5 -32t17.5 -24t28 -9.5q16 0 27.5 9.5t18 24t9.5 32t3 34.5z" />
    <glyph glyph-name="one.numr" horiz-adv-x="269" 
d="M109 665h88v-343h-91v234l-70 -63v105z" />
    <glyph glyph-name="two.numr" horiz-adv-x="366" 
d="M44 551q11 58 48 89.5t91 31.5q62 0 99 -31t37 -82q0 -29 -13 -54.5t-42 -48.5l-72 -56h129v-78h-262v78l136 105q31 23 31 52q0 14 -10.5 25t-29.5 11q-18 0 -31 -9.5t-18 -32.5h-93v0z" />
    <glyph glyph-name="three.numr" horiz-adv-x="370" 
d="M287 496q20 -13 29 -33t9 -37q0 -23 -10 -43t-28 -35t-43 -24t-56 -9q-23 0 -46 6t-42.5 18.5t-34 33t-20.5 49.5h91q8 -17 21 -22.5t32 -5.5q18 0 31.5 8.5t13.5 24.5q0 14 -11 23t-34 9h-50v72h50q43 0 43 31q0 14 -13 22.5t-30 8.5q-18 0 -31.5 -5.5t-21.5 -21.5h-90
q5 29 19 49t33.5 33t43 18.5t46.5 5.5q30 0 55 -9t43 -24t28 -34.5t10 -40.5q0 -20 -8.5 -37t-28.5 -31z" />
    <glyph glyph-name="four.numr" horiz-adv-x="405" 
d="M309 467h51v-78h-51v-67h-90v67h-174v72l152 204h106l-149 -198h65v56h90v-56z" />
    <glyph glyph-name="five.numr" horiz-adv-x="370" 
d="M190 558q25 0 49 -7.5t43 -22.5t31 -38t12 -54q0 -24 -10 -46t-29 -38.5t-45 -26.5t-57 -10q-53 0 -90 29.5t-49 77.5h88q17 -28 50 -28q23 0 36.5 11.5t13.5 30.5q0 20 -13.5 31.5t-36.5 11.5q-31 0 -49 -20h-78l21 206h231v-78h-158l-3 -35q22 6 43 6z" />
    <glyph glyph-name="six.numr" horiz-adv-x="376" 
d="M195 554q28 0 53 -8.5t43.5 -24t29 -38t10.5 -49.5q0 -51 -37.5 -85t-100.5 -34q-32 0 -59 9.5t-47 30t-31 53t-11 78.5q0 35 8 68.5t26 59.5t46.5 42t69.5 16q48 0 81.5 -24.5t50.5 -72.5h-94q-7 10 -18 14t-24 4q-21 0 -37 -15t-21 -44q13 11 30 15.5t32 4.5zM189 394
q23 0 37 11.5t14 28.5q0 19 -14 30t-37 11q-22 0 -36 -11t-14 -30q0 -17 14 -28.5t36 -11.5z" />
    <glyph glyph-name="seven.numr" horiz-adv-x="353" 
d="M45 665h263v-80l-164 -263h-99l166 265h-166v78z" />
    <glyph glyph-name="eight.numr" horiz-adv-x="371" 
d="M185 315q-65 0 -103.5 31t-38.5 78q0 21 12.5 41t32.5 31q-20 11 -30 30t-10 39q0 46 37 76.5t100 30.5t100 -30.5t37 -76.5q0 -20 -10 -39t-30 -30q20 -11 32.5 -31t12.5 -41q0 -47 -38.5 -78t-103.5 -31zM185 394q25 0 38.5 9t13.5 24q0 14 -13.5 22.5t-38.5 8.5
t-38.5 -8.5t-13.5 -22.5q0 -15 13.5 -24t38.5 -9zM185 529q24 0 35.5 9t11.5 23q0 13 -12 22.5t-35 9.5t-35 -9.5t-12 -22.5q0 -14 11.5 -23t35.5 -9z" />
    <glyph glyph-name="nine.numr" horiz-adv-x="376" 
d="M181 433q-29 0 -53.5 8.5t-43 24t-29 38t-10.5 49.5q0 51 37.5 85t100.5 34q32 0 59 -9.5t47 -30t31 -53t11 -78.5q0 -35 -8 -68.5t-26 -59.5t-45.5 -42t-66.5 -16q-96 0 -129 97h94q12 -18 39 -18q20 0 34.5 15t19.5 44q-13 -11 -30 -15.5t-32 -4.5zM187 593
q-23 0 -37 -11.5t-14 -28.5q0 -19 14 -30t37 -11q22 0 36 11t14 30q0 17 -14 28.5t-36 11.5z" />
    <glyph glyph-name="zero.dnom" horiz-adv-x="386" 
d="M193 351q43 0 71.5 -17.5t45.5 -44.5t24 -58t7 -58t-7 -58.5t-24 -58t-45.5 -44.5t-71.5 -18t-71.5 18t-45.5 44.5t-24 58t-7 58.5t7 58t24 58t45.5 44.5t71.5 17.5zM251 173q0 17 -3 34.5t-9.5 32t-18 23.5t-27.5 9q-17 0 -28 -9t-17.5 -23.5t-9.5 -32t-3 -34.5t3 -34.5
t9.5 -32t17.5 -24t28 -9.5q16 0 27.5 9.5t18 24t9.5 32t3 34.5z" />
    <glyph glyph-name="one.dnom" horiz-adv-x="269" 
d="M109 344h88v-343h-91v234l-70 -63v105z" />
    <glyph glyph-name="two.dnom" horiz-adv-x="366" 
d="M44 230q11 58 48 89.5t91 31.5q62 0 99 -31t37 -82q0 -29 -13 -54.5t-42 -48.5l-72 -56h129v-78h-262v78l136 105q31 23 31 52q0 14 -10.5 25t-29.5 11q-18 0 -31 -9.5t-18 -32.5h-93v0z" />
    <glyph glyph-name="three.dnom" horiz-adv-x="370" 
d="M287 175q20 -13 29 -33t9 -37q0 -23 -10 -43t-28 -35t-43 -24t-56 -9q-23 0 -46 6t-42.5 18.5t-34 33t-20.5 49.5h91q8 -17 21 -22.5t32 -5.5q18 0 31.5 8.5t13.5 24.5q0 14 -11 23t-34 9h-50v72h50q43 0 43 31q0 14 -13 22.5t-30 8.5q-18 0 -31.5 -5.5t-21.5 -21.5h-90
q5 29 19 49t33.5 33t43 18.5t46.5 5.5q30 0 55 -9t43 -24t28 -34.5t10 -40.5q0 -20 -8.5 -37t-28.5 -31z" />
    <glyph glyph-name="four.dnom" horiz-adv-x="405" 
d="M309 146h51v-78h-51v-67h-90v67h-174v72l152 204h106l-149 -198h65v56h90v-56z" />
    <glyph glyph-name="five.dnom" horiz-adv-x="370" 
d="M190 237q25 0 49 -7.5t43 -22.5t31 -38t12 -54q0 -24 -10 -46t-29 -38.5t-45 -26.5t-57 -10q-53 0 -90 29.5t-49 77.5h88q17 -28 50 -28q23 0 36.5 11.5t13.5 30.5q0 20 -13.5 31.5t-36.5 11.5q-31 0 -49 -20h-78l21 206h231v-78h-158l-3 -35q22 6 43 6z" />
    <glyph glyph-name="six.dnom" horiz-adv-x="376" 
d="M195 233q28 0 53 -8.5t43.5 -24t29 -38t10.5 -49.5q0 -51 -37.5 -85t-100.5 -34q-32 0 -59 9.5t-47 30t-31 53t-11 78.5q0 35 8 68.5t26 59.5t46.5 42t69.5 16q48 0 81.5 -24.5t50.5 -72.5h-94q-7 10 -18 14t-24 4q-21 0 -37 -15t-21 -44q13 11 30 15.5t32 4.5zM189 73
q23 0 37 11.5t14 28.5q0 19 -14 30t-37 11q-22 0 -36 -11t-14 -30q0 -17 14 -28.5t36 -11.5z" />
    <glyph glyph-name="seven.dnom" horiz-adv-x="353" 
d="M45 344h263v-80l-164 -263h-99l166 265h-166v78z" />
    <glyph glyph-name="eight.dnom" horiz-adv-x="371" 
d="M185 -6q-65 0 -103.5 31t-38.5 78q0 21 12.5 41t32.5 31q-20 11 -30 30t-10 39q0 46 37 76.5t100 30.5t100 -30.5t37 -76.5q0 -20 -10 -39t-30 -30q20 -11 32.5 -31t12.5 -41q0 -47 -38.5 -78t-103.5 -31zM185 73q25 0 38.5 9t13.5 24q0 14 -13.5 22.5t-38.5 8.5
t-38.5 -8.5t-13.5 -22.5q0 -15 13.5 -24t38.5 -9zM185 208q24 0 35.5 9t11.5 23q0 13 -12 22.5t-35 9.5t-35 -9.5t-12 -22.5q0 -14 11.5 -23t35.5 -9z" />
    <glyph glyph-name="nine.dnom" horiz-adv-x="376" 
d="M181 112q-29 0 -53.5 8.5t-43 24t-29 38t-10.5 49.5q0 51 37.5 85t100.5 34q32 0 59 -9.5t47 -30t31 -53t11 -78.5q0 -35 -8 -68.5t-26 -59.5t-45.5 -42t-66.5 -16q-96 0 -129 97h94q12 -18 39 -18q20 0 34.5 15t19.5 44q-13 -11 -30 -15.5t-32 -4.5zM187 272
q-23 0 -37 -11.5t-14 -28.5q0 -19 14 -30t37 -11q22 0 36 11t14 30q0 17 -14 28.5t-36 11.5z" />
    <glyph glyph-name="zero.tnum" 
d="M581 332q0 -34 -5 -73t-17.5 -77.5t-32.5 -73.5t-50 -62t-71 -43t-94 -16t-94 16t-71 43t-50 62t-32.5 73.5t-17.5 77t-5 73.5q0 52 12 112t43 112t83 86.5t132 34.5t132.5 -34.5t83 -86.5t42.5 -112t12 -112zM450 332q0 37 -7 77t-23 73.5t-43 55.5t-66 22t-65.5 -22
t-43 -55.5t-23.5 -73.5t-7 -77t7 -77t23.5 -73.5t43 -55.5t65.5 -22t66 22t43 55.5t23 73.5t7 77z" />
    <glyph glyph-name="one.tnum" 
d="M265 117v396l-137 -126v154l131 123h137v-547h150v-117h-442v117h161z" />
    <glyph glyph-name="two.tnum" 
d="M551 117v-117h-476v117l265 230q30 26 49 55.5t19 61.5q0 44 -28 70t-74 26q-43 0 -75.5 -22.5t-43.5 -72.5h-133q9 48 30 87t53 66.5t73 43t91 15.5q54 0 97.5 -15t75 -42.5t48.5 -66.5t17 -87q0 -51 -25 -99t-72 -89l-184 -161h293z" />
    <glyph glyph-name="three.tnum" 
d="M301 -13q-45 0 -85.5 11.5t-73.5 35.5t-57.5 61.5t-36.5 88.5h130q16 -43 47.5 -61.5t76.5 -18.5q52 0 82.5 24.5t30.5 62.5t-28 61t-82 23h-83v118h82q54 0 81.5 22t27.5 60t-29 61.5t-81 23.5q-44 0 -75.5 -20t-47.5 -60h-131q11 51 35.5 88t58.5 61t74.5 36t84.5 12
q56 0 101 -16.5t76.5 -44.5t48 -64.5t16.5 -76.5q0 -39 -17.5 -76t-58.5 -64q43 -29 60.5 -66.5t17.5 -77.5q0 -41 -17 -78t-49 -65t-77 -44.5t-102 -16.5z" />
    <glyph glyph-name="four.tnum" 
d="M499 416v-159h106v-117h-106v-140h-131v140h-341v117l318 407h152l-319 -407h190v159h131z" />
    <glyph glyph-name="five.tnum" 
d="M306 -13q-101 0 -167.5 51.5t-85.5 138.5h132q16 -38 47.5 -55.5t71.5 -17.5q57 0 90 32.5t33 80.5t-33 79.5t-90 31.5q-32 0 -62.5 -11.5t-51.5 -33.5h-117l37 381h421v-117h-310l-11 -120q20 8 50.5 13t56.5 5q45 0 88.5 -14.5t77 -43t54.5 -71t21 -99.5
q0 -46 -17.5 -88t-50.5 -73.5t-79.5 -50t-104.5 -18.5z" />
    <glyph glyph-name="six.tnum" 
d="M327 438q49 0 93 -16.5t77 -46.5t52 -71.5t19 -90.5q0 -46 -18 -87t-50.5 -72t-78.5 -49t-101 -18q-58 0 -107 18.5t-84.5 58t-55.5 102.5t-20 152q0 68 14.5 132.5t46.5 115t84 81t126 30.5q82 0 145 -44.5t90 -130.5h-135q-14 27 -39 42.5t-57 15.5t-57 -13t-43 -35.5
t-29.5 -54.5t-14.5 -69q29 27 68 38.5t75 11.5zM314 104q53 0 88 30t35 79t-35 79t-88 30t-87 -30t-34 -79t34 -79t87 -30z" />
    <glyph glyph-name="seven.tnum" 
d="M78 547v117h480v-117l-316 -547h-145l316 547h-335z" />
    <glyph glyph-name="eight.tnum" 
d="M311 -13q-59 0 -106.5 16t-80.5 43t-51 64t-18 79t21 81.5t65 65.5q-42 26 -60 64.5t-18 78.5q0 41 17 77t49 63t78 42.5t104 15.5q57 0 103 -15.5t78 -42.5t49 -63t17 -77q0 -40 -18 -78.5t-60 -64.5q44 -26 65 -65.5t21 -81.5t-18 -79t-51 -64t-80.5 -43t-105.5 -16z
M311 104q57 0 90.5 24.5t33.5 62.5t-33.5 62t-90.5 24t-91 -24t-34 -62t34 -62.5t91 -24.5zM427 478q0 36 -31 59.5t-85 23.5t-85.5 -23.5t-31.5 -59.5q0 -38 31 -61t86 -23t85.5 23t30.5 61z" />
    <glyph glyph-name="nine.tnum" 
d="M292.04 240.054q-48.9941 0 -92.9883 16.498q-43.9951 16.498 -76.9912 46.4941t-51.9932 71.4912q-18.998 41.4951 -18.998 90.4893q0 45.9941 17.998 86.9893t50.4941 71.9912t78.4902 48.9941q45.9941 17.9971 100.987 17.9971q57.9932 0 106.987 -18.4971
q48.9941 -18.498 84.4893 -57.9932q35.4961 -39.4951 55.4932 -102.487q19.998 -62.9922 19.998 -151.981q0 -67.9922 -14.498 -132.484q-14.499 -64.4922 -46.4951 -114.985q-31.9961 -50.4941 -83.9893 -80.9902t-125.984 -30.4961q-81.9902 0 -144.982 44.4941
q-62.9922 44.4951 -89.9893 130.484h134.983q13.999 -26.9971 38.9951 -42.4951q24.9971 -15.498 56.9932 -15.498t56.9932 12.998q24.9971 12.999 42.9951 35.4961q17.9971 22.4971 29.4961 54.4932t14.498 68.9912q-28.9961 -26.9961 -67.9912 -38.4951
q-38.9951 -11.498 -74.9912 -11.498zM305.039 574.013q-52.9941 0 -87.9902 -29.9961q-34.9951 -29.9971 -34.9951 -78.9902q0 -48.9941 34.9951 -78.9912q34.9961 -29.9961 87.9902 -29.9961q52.9932 0 86.9893 29.9961q33.9951 29.9971 33.9951 78.9912
q0 48.9932 -33.9951 78.9902q-33.9961 29.9961 -86.9893 29.9961z" />
    <glyph glyph-name="dollar.tnum" 
d="M168 193q20 -46 58.5 -67.5t92.5 -21.5q55 0 87.5 22.5t32.5 59.5q0 35 -29.5 57.5t-110.5 31.5q-67 7 -113 25.5t-74.5 44.5t-41 59t-12.5 70q0 76 49 129.5t137 68.5v123h120v-124q45 -8 80 -26.5t61.5 -44.5t43.5 -57.5t26 -64.5h-130q-13 40 -53 61t-91 21
q-54 0 -83.5 -24t-29.5 -58q0 -33 32 -55.5t112 -31.5q123 -14 180.5 -67t57.5 -130q0 -36 -13 -70t-39 -61.5t-64.5 -47t-89.5 -25.5v-122h-120v126q-44 9 -78 27.5t-59 44.5t-42 58.5t-26 68.5h129z" />
    <glyph glyph-name="Euro.tnum" 
d="M22 358v92h63q11 51 34.5 93t56.5 72t76 46t93 16q46 0 85 -15t69 -41t52 -62t35 -79h-132q-14 35 -42.5 57.5t-66.5 22.5q-49 0 -81 -29t-46 -81h190l-23 -92h-180q-1 -7 -1 -13v-13v-13.5t1 -12.5h169l-23 -92h-133q14 -52 46 -81t81 -29q38 0 66.5 22.5t42.5 57.5h132
q-13 -43 -35 -79t-52 -62.5t-69 -41t-85 -14.5q-50 0 -93 16t-76 45.5t-56.5 71.5t-34.5 94h-63v92h51q-1 6 -1 12.5v13.5v13t1 13h-51z" />
    <glyph glyph-name="sterling.tnum" 
d="M569 0h-516v117q39 0 59 17t20 57v77h-79v110h79v92q0 47 16 85.5t44.5 65.5t68.5 41.5t89 14.5q86 0 142.5 -49t78.5 -129h-129q-11 25 -32.5 43t-59.5 18q-42 0 -65.5 -25t-23.5 -65v-92h156v-110h-156v-80q0 -27 -4.5 -44t-20.5 -27h333v-117z" />
    <glyph glyph-name="yen.tnum" 
d="M493 664h142l-141 -234h90v-92h-145l-31 -52h176v-92h-207v-194h-131v194h-207v92h175l-31 52h-144v92h88l-141 234h144l182 -298z" />
    <glyph glyph-name="uni20BD.tnum" 
d="M104 372v292h259q59 0 102.5 -16.5t72 -44.5t42 -65t13.5 -78q0 -42 -13.5 -79t-42 -65t-72 -44.5t-102.5 -16.5h-128v-52h185v-92h-185v-111h-131v111h-80v92h80v52h-80v117h80zM235 372h119q51 0 79.5 24t28.5 64t-28.5 63.5t-79.5 23.5h-119v-175z" />
    <glyph glyph-name="uni20B4.tnum" 
d="M583 450v-92h-551v92h392q7 11 7 30q0 31 -26.5 55.5t-82.5 24.5q-39 0 -73 -13t-55 -46h-128q10 36 31.5 68t53.5 56t74.5 38t94.5 14q54 0 97.5 -15t73.5 -41.5t46 -62t16 -76.5q0 -19 -5 -32h35zM583 306v-92h-389q-2 -5 -3 -12t-1 -16q0 -35 31 -58.5t85 -23.5
q40 0 75 14.5t55 46.5h130q-11 -38 -32.5 -70.5t-54 -56.5t-76 -37.5t-97.5 -13.5q-60 0 -104.5 17t-74.5 45t-44.5 63.5t-14.5 72.5v15t2 14h-38v92h551z" />
    <glyph glyph-name="uni20B8.tnum" 
d="M562 664v-117h-504v117h504zM562 495v-117h-186v-378h-131v378h-187v117h504z" />
    <glyph glyph-name="cent.tnum" 
d="M318 103q32 0 60.5 12.5t45.5 40.5h128q-22 -63 -68 -105.5t-107 -56.5v-114h-118v114q-43 9 -78.5 31t-61 53.5t-40 72t-14.5 87.5q0 46 14.5 86.5t40 72.5t61 54t78.5 31v115h118v-115q61 -15 107 -57.5t68 -105.5h-128q-17 28 -45.5 40.5t-60.5 12.5q-57 0 -92 -37
t-35 -97t35 -97.5t92 -37.5z" />
    <glyph glyph-name="circumflex.cap" horiz-adv-x="562" 
d="M54 739l173 195h109l172 -195h-130l-97 100l-98 -100h-129z" />
    <glyph glyph-name="dieresis.cap" horiz-adv-x="462" 
d="M54 875h128v-128h-128v128zM280 875h128v-128h-128v128z" />
    <glyph glyph-name="acute.cap" horiz-adv-x="402" 
d="M348 936l-164 -197h-130l164 197h130z" />
    <glyph glyph-name="grave.cap" horiz-adv-x="402" 
d="M184 936l164 -197h-130l-164 197h130z" />
    <glyph glyph-name="ring.cap" horiz-adv-x="408" 
d="M204 1026q31 0 58.5 -12t47.5 -32t32 -47.5t12 -58.5t-12 -58.5t-32 -47.5t-47.5 -32t-58.5 -12t-58.5 12t-47.5 32t-32 47.5t-12 58.5t12 58.5t32 47.5t47.5 32t58.5 12zM204 821q23 0 39 16t16 39t-16 39.5t-39 16.5t-39.5 -16.5t-16.5 -39.5t16.5 -39t39.5 -16z" />
    <glyph glyph-name="caron.cap" horiz-adv-x="562" 
d="M508 934l-173 -195h-109l-172 195h130l97 -100l98 100h129z" />
    <glyph glyph-name="dotaccent.cap" horiz-adv-x="246" 
d="M54 885h138v-138h-138v138z" />
    <glyph glyph-name="breve.cap" horiz-adv-x="517" 
d="M157 934q5 -44 32.5 -68.5t68.5 -24.5q42 0 70 24.5t33 68.5h102q-3 -44 -20 -80t-44.5 -61.5t-63.5 -39.5t-77 -14t-76.5 14t-63 39.5t-44.5 61.5t-20 80h103z" />
    <glyph glyph-name="hungarumlaut.cap" horiz-adv-x="588" 
d="M534 936l-164 -197h-130l164 197h130zM348 936l-164 -197h-130l164 197h130z" />
    <glyph glyph-name="tilde.cap" horiz-adv-x="526" 
d="M472 932q0 -93 -35.5 -143t-98.5 -50q-29 0 -51.5 14t-41 31.5t-33 31.5t-27.5 14q-17 0 -26 -21.5t-9 -69.5h-96q0 93 35.5 143t98.5 50q28 0 50.5 -14t41 -31.5t33.5 -31.5t28 -14q17 0 26 21.5t9 69.5h96z" />
    <glyph glyph-name="macron.cap" horiz-adv-x="488" 
d="M434 850v-102h-380v102h380z" />
    <glyph glyph-name="cyrbreve.cap" horiz-adv-x="518" 
d="M155 892q5 -38 33.5 -60.5t70.5 -22.5t70.5 22.5t33.5 60.5h104q-3 -42 -20 -76t-45 -58t-64.5 -37.5t-78.5 -13.5t-78.5 13.5t-64.5 37.5t-45 58t-20 76h104z" />
    <glyph glyph-name="a.ss03" horiz-adv-x="625" 
d="M45 237q0 49 16.5 94t47.5 80t76.5 56t102.5 21q40 0 77.5 -13t61.5 -37v37h126v-475h-126v36q-24 -24 -61.5 -36.5t-77.5 -12.5q-57 0 -102.5 21t-76.5 55.5t-47.5 79.5t-16.5 94zM171 237q0 -27 9.5 -51.5t26 -43t40 -29t51.5 -10.5q25 0 49 8.5t43 25t30.5 41.5
t11.5 59t-11.5 59t-30.5 42t-43 25.5t-49 8.5q-28 0 -51.5 -11t-40 -29.5t-26 -43t-9.5 -51.5z" />
    <glyph glyph-name="aacute.ss03" horiz-adv-x="625" 
d="M45 237q0 49 16.5 94t47.5 80t76.5 56t102.5 21q40 0 77.5 -13t61.5 -37v37h126v-475h-126v36q-24 -24 -61.5 -36.5t-77.5 -12.5q-57 0 -102.5 21t-76.5 55.5t-47.5 79.5t-16.5 94zM171 237q0 -27 9.5 -51.5t26 -43t40 -29t51.5 -10.5q25 0 49 8.5t43 25t30.5 41.5
t11.5 59t-11.5 59t-30.5 42t-43 25.5t-49 8.5q-28 0 -51.5 -11t-40 -29.5t-26 -43t-9.5 -51.5zM522 766l-164 -214h-130l164 214h130z" />
    <glyph glyph-name="agrave.ss03" horiz-adv-x="625" 
d="M45 237q0 49 16.5 94t47.5 80t76.5 56t102.5 21q40 0 77.5 -13t61.5 -37v37h126v-475h-126v36q-24 -24 -61.5 -36.5t-77.5 -12.5q-57 0 -102.5 21t-76.5 55.5t-47.5 79.5t-16.5 94zM171 237q0 -27 9.5 -51.5t26 -43t40 -29t51.5 -10.5q25 0 49 8.5t43 25t30.5 41.5
t11.5 59t-11.5 59t-30.5 42t-43 25.5t-49 8.5q-28 0 -51.5 -11t-40 -29.5t-26 -43t-9.5 -51.5zM276 766l164 -214h-130l-164 214h130z" />
    <glyph glyph-name="acircumflex.ss03" horiz-adv-x="625" 
d="M45 237q0 49 16.5 94t47.5 80t76.5 56t102.5 21q40 0 77.5 -13t61.5 -37v37h126v-475h-126v36q-24 -24 -61.5 -36.5t-77.5 -12.5q-57 0 -102.5 21t-76.5 55.5t-47.5 79.5t-16.5 94zM171 237q0 -27 9.5 -51.5t26 -43t40 -29t51.5 -10.5q25 0 49 8.5t43 25t30.5 41.5
t11.5 59t-11.5 59t-30.5 42t-43 25.5t-49 8.5q-28 0 -51.5 -11t-40 -29.5t-26 -43t-9.5 -51.5zM85 552l173 214h109l172 -214h-130l-97 116l-98 -116h-129z" />
    <glyph glyph-name="adieresis.ss03" horiz-adv-x="625" 
d="M45 237q0 49 16.5 94t47.5 80t76.5 56t102.5 21q40 0 77.5 -13t61.5 -37v37h126v-475h-126v36q-24 -24 -61.5 -36.5t-77.5 -12.5q-57 0 -102.5 21t-76.5 55.5t-47.5 79.5t-16.5 94zM171 237q0 -27 9.5 -51.5t26 -43t40 -29t51.5 -10.5q25 0 49 8.5t43 25t30.5 41.5
t11.5 59t-11.5 59t-30.5 42t-43 25.5t-49 8.5q-28 0 -51.5 -11t-40 -29.5t-26 -43t-9.5 -51.5zM135 705h128v-128h-128v128zM361 705h128v-128h-128v128z" />
    <glyph glyph-name="atilde.ss03" horiz-adv-x="625" 
d="M45 237q0 49 16.5 94t47.5 80t76.5 56t102.5 21q40 0 77.5 -13t61.5 -37v37h126v-475h-126v36q-24 -24 -61.5 -36.5t-77.5 -12.5q-57 0 -102.5 21t-76.5 55.5t-47.5 79.5t-16.5 94zM171 237q0 -27 9.5 -51.5t26 -43t40 -29t51.5 -10.5q25 0 49 8.5t43 25t30.5 41.5
t11.5 59t-11.5 59t-30.5 42t-43 25.5t-49 8.5q-28 0 -51.5 -11t-40 -29.5t-26 -43t-9.5 -51.5zM521 744q0 -93 -35.5 -143t-98.5 -50q-29 0 -51.5 14t-41 31.5t-33 31.5t-27.5 14q-17 0 -26 -21.5t-9 -69.5h-96q0 93 35.5 143t98.5 50q28 0 50.5 -14t41 -31.5t33.5 -31.5
t28 -14q17 0 26 21.5t9 69.5h96z" />
    <glyph glyph-name="aring.ss03" horiz-adv-x="625" 
d="M45 237q0 49 16.5 94t47.5 80t76.5 56t102.5 21q40 0 77.5 -13t61.5 -37v37h126v-475h-126v36q-24 -24 -61.5 -36.5t-77.5 -12.5q-57 0 -102.5 21t-76.5 55.5t-47.5 79.5t-16.5 94zM171 237q0 -27 9.5 -51.5t26 -43t40 -29t51.5 -10.5q25 0 49 8.5t43 25t30.5 41.5
t11.5 59t-11.5 59t-30.5 42t-43 25.5t-49 8.5q-28 0 -51.5 -11t-40 -29.5t-26 -43t-9.5 -51.5zM312 831q31 0 58.5 -12t47.5 -32t32 -47.5t12 -58.5t-12 -58.5t-32 -47.5t-47.5 -32t-58.5 -12t-58.5 12t-47.5 32t-32 47.5t-12 58.5t12 58.5t32 47.5t47.5 32t58.5 12z
M312 626q23 0 39 16t16 39t-16 39.5t-39 16.5t-39.5 -16.5t-16.5 -39.5t16.5 -39t39.5 -16z" />
    <glyph glyph-name="amacron.ss03" horiz-adv-x="625" 
d="M45 237q0 49 16.5 94t47.5 80t76.5 56t102.5 21q40 0 77.5 -13t61.5 -37v37h126v-475h-126v36q-24 -24 -61.5 -36.5t-77.5 -12.5q-57 0 -102.5 21t-76.5 55.5t-47.5 79.5t-16.5 94zM171 237q0 -27 9.5 -51.5t26 -43t40 -29t51.5 -10.5q25 0 49 8.5t43 25t30.5 41.5
t11.5 59t-11.5 59t-30.5 42t-43 25.5t-49 8.5q-28 0 -51.5 -11t-40 -29.5t-26 -43t-9.5 -51.5zM502 654v-102h-380v102h380z" />
    <glyph glyph-name="abreve.ss03" horiz-adv-x="625" 
d="M45 237q0 49 16.5 94t47.5 80t76.5 56t102.5 21q40 0 77.5 -13t61.5 -37v37h126v-475h-126v36q-24 -24 -61.5 -36.5t-77.5 -12.5q-57 0 -102.5 21t-76.5 55.5t-47.5 79.5t-16.5 94zM171 237q0 -27 9.5 -51.5t26 -43t40 -29t51.5 -10.5q25 0 49 8.5t43 25t30.5 41.5
t11.5 59t-11.5 59t-30.5 42t-43 25.5t-49 8.5q-28 0 -51.5 -11t-40 -29.5t-26 -43t-9.5 -51.5zM512 766q-1 -47 -16.5 -86.5t-42 -68t-63 -44t-78.5 -15.5t-78.5 15.5t-63 44t-42 68t-16.5 86.5h104q2 -51 28 -81.5t68 -30.5t68 30.5t28 81.5h104z" />
    <glyph glyph-name="aogonek.ss03" horiz-adv-x="625" 
d="M45 237q0 49 16.5 94t47.5 80t76.5 56t102.5 21q40 0 77.5 -13t61.5 -37v37h126v-475q-40 -21 -67 -41t-27 -42q0 -16 12.5 -23.5t32.5 -7.5h49v-90h-63q-69 0 -109 23t-40 74q0 31 22 57.5t64 49.5v36q-24 -24 -61.5 -36.5t-77.5 -12.5q-57 0 -102.5 21t-76.5 55.5
t-47.5 79.5t-16.5 94zM171 237q0 -27 9.5 -51.5t26 -43t40 -29t51.5 -10.5q25 0 49 8.5t43 25t30.5 41.5t11.5 59t-11.5 59t-30.5 42t-43 25.5t-49 8.5q-28 0 -51.5 -11t-40 -29.5t-26 -43t-9.5 -51.5z" />
    <glyph glyph-name="uni0430.ss03" horiz-adv-x="625" 
d="M45 237q0 49 16.5 94t47.5 80t76.5 56t102.5 21q40 0 77.5 -13t61.5 -37v37h126v-475h-126v36q-24 -24 -61.5 -36.5t-77.5 -12.5q-57 0 -102.5 21t-76.5 55.5t-47.5 79.5t-16.5 94zM171 237q0 -27 9.5 -51.5t26 -43t40 -29t51.5 -10.5q25 0 49 8.5t43 25t30.5 41.5
t11.5 59t-11.5 59t-30.5 42t-43 25.5t-49 8.5q-28 0 -51.5 -11t-40 -29.5t-26 -43t-9.5 -51.5z" />
    <glyph glyph-name="slash.case" horiz-adv-x="391" 
d="M266 705h120l-262 -744h-119z" />
    <glyph glyph-name="at.case" horiz-adv-x="973" 
d="M814 88q-16 -33 -46.5 -64.5t-72 -55.5t-93 -38.5t-110.5 -14.5q-90 0 -168 32t-135.5 88.5t-90.5 132.5t-33 164q0 85 32.5 161t89 132.5t133.5 89.5t167 33q84 0 160 -29.5t134 -82t92.5 -124.5t34.5 -158q0 -45 -10.5 -86t-33 -72t-57 -49.5t-81.5 -18.5
q-33 0 -64.5 14.5t-51.5 35.5q-20 -20 -53 -35t-81 -15q-35 0 -69.5 12.5t-63 38t-46 63.5t-17.5 90q0 48 16.5 86t43.5 63.5t60.5 39t67.5 13.5q26 0 53 -7.5t52 -26.5v25h106v-234q0 -11 2 -22.5t7.5 -20.5t15 -15t24.5 -6q21 0 34.5 12.5t21 31t10 41t2.5 42.5
q0 63 -25 116t-67.5 91t-98 59t-116.5 21q-65 0 -121.5 -24t-99 -66t-67 -98.5t-24.5 -120.5t24 -120.5t66 -98.5t99 -66.5t123 -24.5q61 0 112 15.5t84 50.5h129zM483 225q19 0 36.5 6.5t31 20t21.5 34t8 47.5t-8 47t-21.5 33.5t-31 20t-36.5 6.5q-41 0 -66 -31t-25 -76
q0 -22 6.5 -41.5t18.5 -34.5t29 -23.5t37 -8.5z" />
    <glyph glyph-name="backslash.case" horiz-adv-x="391" 
d="M125.032 705h-119.985l261.969 -744h118.985z" />
    <glyph glyph-name="hyphen.case" horiz-adv-x="393" 
d="M65 392h263v-120h-263v120z" />
    <glyph glyph-name="endash.case" horiz-adv-x="604" 
d="M563 387v-110h-522v110h522z" />
    <glyph glyph-name="emdash.case" horiz-adv-x="920" 
d="M879 387v-110h-838v110h838z" />
    <glyph glyph-name="bracketleft.case" horiz-adv-x="386" 
d="M213 25h149v-112h-267v826h267v-111h-149v-603z" />
    <glyph glyph-name="bracketright.case" horiz-adv-x="386" 
d="M173.026 25h-148.982v-112h266.968v826h-266.968v-111h148.982v-603z" />
    <glyph glyph-name="braceleft.case" horiz-adv-x="379" 
d="M363 628h-51q-61 0 -61 -57v-132q0 -50 -17.5 -75.5t-38.5 -36.5q20 -11 38 -38.5t18 -75.5v-132q0 -56 61 -56h51v-112h-64q-36 0 -66 9.5t-52.5 28.5t-35 48t-12.5 69v131q0 37 -27 58t-71 21v96q44 0 71 21t27 59v131q0 39 12.5 68t35 48t52.5 28.5t66 9.5h64v-111z
" />
    <glyph glyph-name="braceright.case" horiz-adv-x="379" 
d="M16.0439 628h50.9941q60.9922 0 60.9922 -57v-132q0 -50 17.498 -75.5t38.4951 -36.5q-19.9971 -11 -37.9951 -38.5t-17.998 -75.5v-132q0 -56 -60.9922 -56h-50.9941v-112h63.9922q35.9961 0 65.9922 9.5t52.4941 28.5q22.4971 19 34.9951 48q12.499 29 12.499 69v131
q0 37 26.9961 58q26.9971 21 70.9912 21v96q-43.9941 0 -70.9912 21q-26.9961 21 -26.9961 59v131q0 39 -12.499 68q-12.498 29 -34.9951 48q-22.498 19 -52.4941 28.5t-65.9922 9.5h-63.9922v-111z" />
    <glyph glyph-name="parenleft.case" horiz-adv-x="357" 
d="M342 739q-27 -36 -53 -78.5t-46 -93.5t-32.5 -110.5t-12.5 -130.5t12.5 -130.5t32.5 -110.5t46 -93.5t53 -78.5h-135q-30 36 -55 81t-43 97.5t-28.5 111.5t-10.5 123t10.5 123t28.5 111.5t43 97.5t55 81h135z" />
    <glyph glyph-name="parenright.case" horiz-adv-x="357" 
d="M15.042 739q26.9961 -36 52.9932 -78.5t45.9941 -93.5q19.998 -51 32.4961 -110.5q12.499 -59.5 12.499 -130.5t-12.499 -130.5q-12.498 -59.5 -32.4961 -110.5q-19.9971 -51 -45.9941 -93.5t-52.9932 -78.5h134.983q29.9961 36 54.9932 81t42.9951 97.5
q17.9971 52.5 28.4961 111.5t10.499 123t-10.499 123t-28.4961 111.5q-17.998 52.5 -42.9951 97.5t-54.9932 81h-134.983z" />
    <glyph glyph-name="guillemotright.case" horiz-adv-x="608" 
d="M316 381v-97l-140 -155h-151l183 203l-183 204h151zM563 381v-97l-140 -155h-151l183 203l-183 204h151z" />
    <glyph glyph-name="guillemotleft.case" horiz-adv-x="608" 
d="M432 536h151l-183 -204l183 -203h-151l-140 155v97zM185 536h151l-183 -204l183 -203h-151l-140 155v97z" />
    <glyph glyph-name="guilsinglright.case" horiz-adv-x="361" 
d="M316 381v-97l-140 -155h-151l183 203l-183 204h151z" />
    <glyph glyph-name="guilsinglleft.case" horiz-adv-x="361" 
d="M185 536h151l-183 -204l183 -203h-151l-140 155v97z" />
    <glyph glyph-name="exclamdown.case" horiz-adv-x="349" 
d="M100 664h149v-149h-149v149zM239 0h-129v460h129v-460z" />
    <glyph glyph-name="questiondown.case" horiz-adv-x="543" 
d="M268.033 -12.917q-51.9932 0 -91.9883 14.498t-66.9922 38.4951q-26.9961 23.9971 -40.4951 54.9932q-13.498 30.9961 -13.498 63.9922t7.49902 56.9932t21.9971 43.4951q14.499 19.4971 35.4961 37.9951t48.9941 40.4951q26.9961 20.9971 37.4951 38.4951
t10.499 47.4941v35.9961h123.984v-35.9961q0 -29.9961 -5.49902 -52.9932t-17.498 -42.9951q-11.998 -19.998 -30.9961 -38.4951q-18.998 -18.498 -45.9941 -40.4951q-27.9971 -21.9971 -43.9951 -40.9951t-15.998 -44.9941q0 -28.9971 24.4971 -44.4951t62.4922 -15.498
q44.9951 0 72.4912 21.4971q27.4971 21.498 36.4961 57.4932h130.983q-6.99902 -40.9951 -27.4961 -76.4902q-20.498 -35.4961 -51.4941 -61.9922q-30.9961 -26.4971 -71.9912 -41.4951t-88.9893 -14.998zM354.023 515.019h-148.982v148.981h148.982v-148.981z" />
    <glyph glyph-name="bar.case" horiz-adv-x="258" 
d="M188 -84h-118v826h118v-826z" />
    <glyph glyph-name="brokenbar.case" horiz-adv-x="258" 
d="M188 -84h-118v336h118v-336zM188 407h-118v335h118v-335z" />
    <glyph glyph-name="bullet.case" horiz-adv-x="574" 
d="M72 332q0 45 17 84t46 68t68 46t84 17t84 -17t68 -46t46 -68t17 -84t-17 -84t-46 -68t-68 -46t-84 -17t-84 17t-68 46t-46 68t-17 84z" />
    <glyph glyph-name="periodcentered.case" horiz-adv-x="259" 
d="M55 407h149v-149h-149v149z" />
    <glyph glyph-name="emdash.ss02" horiz-adv-x="1320" 
d="M1279 310v-110h-1238v110h1238z" />
    <glyph glyph-name="emdash.ss02.case" horiz-adv-x="1320" 
d="M1279 387v-110h-1238v110h1238z" />
    <glyph glyph-name="plus.tnum" 
d="M542 331v-110h-177v-177h-110v177h-177v110h177v177h110v-177h177z" />
    <glyph glyph-name="comma.tnum" 
d="M222 -137l83 137h-69v149h149v-164l-76 -122h-87z" />
    <glyph glyph-name="period.tnum" 
d="M236 149h149v-149h-149v149z" />
    <glyph glyph-name="equal.tnum" 
d="M78 234h464v-110h-464v110zM542 428v-110h-464v110h464z" />
    <glyph glyph-name="florin.tnum" 
d="M380 379h143l-15 -110h-144l-45 -320q-10 -66 -60 -109.5t-144 -43.5h-88l16 110h88q29 0 44.5 15t18.5 38l44 310h-144l15 110h144l20 137q10 66 60 109.5t144 43.5h88l-16 -110h-88q-29 0 -44.5 -15t-18.5 -38z" />
    <glyph glyph-name="multiply.tnum" 
d="M534 137l-77 -77l-147 146l-146 -146l-78 77l146 146l-146 147l78 78l146 -146l147 146l77 -78l-146 -147z" />
    <glyph glyph-name="divide.tnum" 
d="M542 331v-110h-464v110h464zM244 179h133v-133h-133v133zM244 506h133v-133h-133v133z" />
    <glyph glyph-name="minus.tnum" 
d="M542 331v-110h-464v110h464z" />
    <glyph glyph-name="aringacute.ss03" horiz-adv-x="625" 
d="M506 1040l-126 -165h-130l126 165h130zM315 831q31 0 58.5 -12t47.5 -32t32 -47.5t12 -58.5t-12 -58.5t-32 -47.5t-47.5 -32t-58.5 -12t-58.5 12t-47.5 32t-32 47.5t-12 58.5t12 58.5t32 47.5t47.5 32t58.5 12zM315 626q23 0 39 16t16 39t-16 39.5t-39 16.5t-39.5 -16.5
t-16.5 -39.5t16.5 -39t39.5 -16zM45 237q0 49 16.5 94t47.5 80t76.5 56t102.5 21q40 0 77.5 -13t61.5 -37v37h126v-475h-126v36q-24 -24 -61.5 -36.5t-77.5 -12.5q-57 0 -102.5 21t-76.5 55.5t-47.5 79.5t-16.5 94zM171 237q0 -27 9.5 -51.5t26 -43t40 -29t51.5 -10.5
q25 0 49 8.5t43 25t30.5 41.5t11.5 59t-11.5 59t-30.5 42t-43 25.5t-49 8.5q-28 0 -51.5 -11t-40 -29.5t-26 -43t-9.5 -51.5z" />
    </font>
</defs>
</svg>
