<?xml version="1.0" standalone="no"?>
<!DOCTYPE svg PUBLIC "-//W3C//DTD SVG 1.1//EN" "http://www.w3.org/Graphics/SVG/1.1/DTD/svg11.dtd" >
<svg xmlns="http://www.w3.org/2000/svg" xmlns:xlink="http://www.w3.org/1999/xlink" version="1.1">
<metadata>
Created by FontForge 20200427 at Tue Oct 24 23:46:19 2017
 By www
Copyright (c) 2017 by Gayane Bagdasaryan, Vyacheslav Kirilenko. All rights reserved.
</metadata>
<defs>
<font id="Aeroport-Light" horiz-adv-x="620" >
  <font-face 
    font-family="Aeroport Light"
    font-weight="300"
    font-stretch="normal"
    units-per-em="1000"
    panose-1="2 0 0 0 0 0 0 0 0 0"
    ascent="800"
    descent="-200"
    x-height="452"
    cap-height="664"
    bbox="-325 -223 1243 1006"
    underline-thickness="50"
    underline-position="-100"
    unicode-range="U+000D-FB02"
  />
<missing-glyph 
d="M89 664h442v-664h-442v664zM462 63v538h-304v-538h304z" />
    <glyph glyph-name=".notdef" 
d="M89 664h442v-664h-442v664zM462 63v538h-304v-538h304z" />
    <glyph glyph-name=".null" horiz-adv-x="0" 
 />
    <glyph glyph-name=".null" horiz-adv-x="0" 
 />
    <glyph glyph-name="nonmarkingreturn" unicode="&#xd;" horiz-adv-x="240" 
 />
    <glyph glyph-name="space" unicode=" " horiz-adv-x="240" 
 />
    <glyph glyph-name="exclam" unicode="!" horiz-adv-x="311" 
d="M188 196h-66v468h66v-468zM115 81h81v-81h-81v81z" />
    <glyph glyph-name="quotedbl" unicode="&#x22;" horiz-adv-x="328" 
d="M210 664h66v-249h-66v249zM52 664h66v-249h-66v249z" />
    <glyph glyph-name="numbersign" unicode="#" horiz-adv-x="662" 
d="M220 476l50 188h66l-50 -188h166l50 188h66l-50 -188h139v-63h-156l-44 -164h138v-63h-155l-49 -186h-66l49 186h-166l-49 -186h-66l49 186h-136v63h153l44 164h-136v63h153zM225 249h166l44 164h-166z" />
    <glyph glyph-name="dollar" unicode="$" horiz-adv-x="566" 
d="M307 795v-120q49 -5 86 -22t63.5 -41t44 -51.5t26.5 -52.5h-74q-10 21 -27.5 40.5t-40.5 34t-51.5 23t-60.5 8.5q-41 0 -72 -10.5t-51 -28.5t-30 -41t-10 -48q0 -54 31 -79.5t90 -33.5l107 -15q89 -12 140.5 -56t51.5 -119q0 -35 -14 -68.5t-42 -61t-70 -45.5t-97 -21
v-119h-69v121q-49 7 -84.5 24.5t-60.5 40.5t-40.5 49.5t-24.5 51.5h75q21 -44 68 -74.5t116 -30.5q39 0 71 9.5t55 27t35.5 41t12.5 50.5q0 28 -9 47.5t-27.5 33t-46.5 22t-66 13.5l-99 14q-84 12 -128 56t-44 116q0 79 51.5 132t145.5 63v120h69z" />
    <glyph glyph-name="percent" unicode="%" horiz-adv-x="865" 
d="M202 0l390 664h74l-390 -664h-74zM220 671q36 0 66.5 -13t53 -35.5t35.5 -52.5t13 -63t-13 -63t-35.5 -52.5t-53 -35.5t-66.5 -13t-67 13t-53.5 35.5t-35 52.5t-12.5 63t12.5 63t35 52.5t53.5 35.5t67 13zM322 507q0 21 -7.5 39.5t-21 33t-32.5 23t-41 8.5t-41 -8.5
t-32.5 -23t-21 -33t-7.5 -39.5t7.5 -39.5t21 -33t32.5 -23t41 -8.5t41 8.5t32.5 23t21 33t7.5 39.5zM645 321q36 0 66.5 -13t53 -35.5t35.5 -52.5t13 -63t-13 -63t-35.5 -52.5t-53 -35.5t-66.5 -13t-67 13t-53.5 35.5t-35 52.5t-12.5 63t12.5 63t35 52.5t53.5 35.5t67 13z
M747 157q0 21 -7.5 39.5t-21 33t-32.5 23t-41 8.5t-41 -8.5t-32.5 -23t-21 -33t-7.5 -39.5t7.5 -39.5t21 -33t32.5 -23t41 -8.5t41 8.5t32.5 23t21 33t7.5 39.5z" />
    <glyph glyph-name="ampersand" unicode="&#x26;" horiz-adv-x="655" 
d="M656 0h-92l-110 96q-46 -48 -98 -78.5t-117 -30.5q-49 0 -85.5 14t-61.5 36.5t-37.5 52t-12.5 60.5q0 27 9 50t24.5 43t36.5 38t45 35l32 23l-38 37q-13 13 -26.5 28t-24.5 32.5t-18 37.5t-7 43q0 37 14.5 67t39.5 50.5t57.5 31.5t67.5 11q40 0 74 -11.5t59 -32t39 -50
t14 -65.5q0 -25 -8 -46t-21.5 -39.5t-31.5 -34.5t-37 -30l-53 -38l161 -142l170 182v-86l-128 -139zM235 48q57 0 98.5 28t76.5 66l-175 156l-28 -20q-15 -11 -32.5 -23t-32 -27.5t-24.5 -34t-10 -41.5q0 -21 9 -39.5t25.5 -33t40 -23t52.5 -8.5zM141 517q0 -16 6 -31.5
t15.5 -29t20.5 -25.5t22 -21l42 -37l62 46q38 29 51.5 51.5t13.5 48.5q0 21 -9.5 39t-25.5 31t-37.5 20.5t-46.5 7.5q-21 0 -41.5 -6t-36.5 -18t-26 -31t-10 -45z" />
    <glyph glyph-name="quotesingle" unicode="'" horiz-adv-x="170" 
d="M52 664h66v-249h-66v249z" />
    <glyph glyph-name="parenleft" unicode="(" horiz-adv-x="315" 
d="M295 664q-27 -36 -53 -78t-46 -92t-32.5 -109t-12.5 -130t12.5 -130t32.5 -108.5t46 -91.5t53 -78h-73q-30 36 -55 80t-43 96t-28.5 110t-10.5 122t10.5 122.5t28.5 110t43 96t55 80.5h73z" />
    <glyph glyph-name="parenright" unicode=")" horiz-adv-x="315" 
d="M20.0361 664q26.9971 -36 52.9932 -78q25.9971 -42 45.9941 -92q19.998 -50 32.4961 -109q12.499 -59 12.499 -130t-12.499 -130q-12.498 -59 -32.4961 -108.5q-19.9971 -49.5 -45.9941 -91.5q-25.9961 -42 -52.9932 -78h72.9912q29.9961 36 54.9932 80t42.9951 96
q17.9971 52 28.4961 110t10.499 122t-10.499 122.5t-28.4961 110q-17.998 51.5 -42.9951 96t-54.9932 80.5h-72.9912z" />
    <glyph glyph-name="asterisk" unicode="*" horiz-adv-x="420" 
d="M42 551l27 48l114 -67v132h54v-132l113 67l28 -48l-115 -65l115 -65l-28 -47l-113 65v-130h-54v130l-114 -65l-27 47l114 65z" />
    <glyph glyph-name="plus" unicode="+" horiz-adv-x="535" 
d="M234 274v178h66v-178h178v-63h-178v-178h-66v178h-178v63h178z" />
    <glyph glyph-name="comma" unicode="," horiz-adv-x="217" 
d="M44 -107l64 107h-45v92h92v-100l-60 -99h-51z" />
    <glyph glyph-name="hyphen" unicode="-" horiz-adv-x="403" 
d="M331 287v-63h-259v63h259z" />
    <glyph glyph-name="period" unicode="." horiz-adv-x="218" 
d="M63 92h92v-92h-92v92z" />
    <glyph glyph-name="slash" unicode="/" horiz-adv-x="344" 
d="M266 664h73l-262 -744h-72z" />
    <glyph glyph-name="zero" unicode="0" horiz-adv-x="617" 
d="M62 332q0 51 11.5 111t39.5 112t75.5 87t119.5 35t119.5 -35t75.5 -87t39.5 -112t11.5 -111t-11.5 -111t-39.5 -112t-75.5 -87t-119.5 -35t-119.5 35t-75.5 87t-39.5 112t-11.5 111zM131 332q0 -45 8 -95t28.5 -91.5t54.5 -68.5t86 -27t86 27t54.5 68.5t28.5 91.5t8 95
t-8 95t-28.5 91.5t-54.5 68.5t-86 27t-86 -27t-54.5 -68.5t-28.5 -91.5t-8 -95z" />
    <glyph glyph-name="one" unicode="1" horiz-adv-x="376" 
d="M197 583l-145 -129v88l142 122h72v-664h-69v583z" />
    <glyph glyph-name="two" unicode="2" horiz-adv-x="560" 
d="M502 63v-63h-442v63l275 263q15 15 30.5 31t28 34t20.5 39t8 47q0 32 -12 57.5t-32 43t-47 27t-57 9.5q-54 0 -97.5 -29.5t-57.5 -89.5h-69q7 40 25 73.5t46 57.5t65 37.5t83 13.5q48 0 89 -14t70 -40t45.5 -62.5t16.5 -81.5q0 -57 -29 -102t-72 -86l-239 -228h352z" />
    <glyph glyph-name="three" unicode="3" horiz-adv-x="572" 
d="M277 372q67 0 110.5 30.5t43.5 91.5q0 54 -41 87t-107 33q-53 0 -98 -24.5t-65 -81.5h-69q12 45 34.5 77t53.5 52.5t68 30t76 9.5q53 0 93.5 -15t68 -40.5t41.5 -58.5t14 -69q0 -39 -18.5 -78.5t-68.5 -73.5q27 -18 45 -38t28 -41t14 -42.5t4 -41.5q0 -39 -14.5 -74
t-43 -61t-70.5 -41.5t-97 -15.5q-40 0 -77.5 10t-68 30.5t-53.5 52t-34 75.5h69q24 -58 66.5 -81.5t99.5 -23.5q69 0 111.5 35t42.5 93q0 63 -44 97t-116 34h-71v63h73v0z" />
    <glyph glyph-name="four" unicode="4" horiz-adv-x="589" 
d="M456 425v-219h118v-63h-118v-143h-69v143h-367v63l328 458h80l-328 -458h287v219h69z" />
    <glyph glyph-name="five" unicode="5" horiz-adv-x="572" 
d="M120 145q19 -50 64 -72.5t98 -22.5q36 0 66.5 12t52 33.5t33.5 50.5t12 63q0 35 -12.5 64t-34.5 50t-52.5 33t-67.5 12q-38 0 -75.5 -16t-61.5 -39h-76l38 351h378v-63h-319l-23 -212q27 18 62.5 30t87.5 12q41 0 81.5 -15t72.5 -43.5t51.5 -70.5t19.5 -96
q0 -43 -17 -82.5t-47.5 -70t-73 -48.5t-94.5 -18q-45 0 -84 11.5t-70 32.5t-52 50t-30 64h73z" />
    <glyph glyph-name="six" unicode="6" horiz-adv-x="597" 
d="M321 420q45 0 85.5 -16.5t71 -45.5t48.5 -69t18 -87q0 -42 -17.5 -81t-48 -68.5t-73 -47.5t-92.5 -18q-54 0 -100 18.5t-79.5 58.5t-52.5 102.5t-19 151.5q0 67 15 131.5t47.5 115t83.5 81.5t122 31q153 0 212 -145h-67q-21 43 -59 62.5t-86 19.5q-40 0 -76 -18t-63 -53
t-43.5 -87.5t-17.5 -121.5q26 35 75.5 60.5t115.5 25.5zM310 50q33 0 62.5 11.5t52.5 31.5t36.5 47.5t13.5 60.5q0 34 -13.5 62.5t-36.5 49.5t-52.5 32.5t-62.5 11.5q-34 0 -63.5 -11.5t-51.5 -32.5t-34.5 -49.5t-12.5 -62.5q0 -33 12.5 -60.5t34.5 -48t51.5 -31.5t63.5 -11
z" />
    <glyph glyph-name="seven" unicode="7" horiz-adv-x="523" 
d="M47 601v63h438v-63l-320 -601h-78l324 601h-364z" />
    <glyph glyph-name="eight" unicode="8" horiz-adv-x="601" 
d="M301 -13q-57 0 -101.5 16t-75 43t-46.5 61.5t-16 72.5q0 20 4 40.5t15 41t30 40.5t48 40q-54 37 -72 75t-18 77q0 35 15.5 68t45 58.5t72.5 41t99 15.5q55 0 98.5 -15.5t73 -41t45 -58.5t15.5 -68q0 -39 -18 -77t-72 -75q58 -39 77.5 -80.5t19.5 -81.5q0 -38 -16 -72.5
t-46.5 -61.5t-75 -43t-101.5 -16zM301 50q36 0 67 9.5t54 26.5t36 40t13 51q0 31 -12.5 55t-35 41t-54 26t-68.5 9t-68.5 -9t-54 -26t-35 -41t-12.5 -55q0 -28 13 -51t36 -40t54 -26.5t67 -9.5zM467 491q0 29 -12.5 52t-34.5 38.5t-52.5 24t-66.5 8.5t-66.5 -8.5t-52.5 -24
t-34.5 -38.5t-12.5 -52q0 -26 13 -48t35.5 -38t52.5 -25t65 -9t65 9t52.5 25t35.5 38t13 48z" />
    <glyph glyph-name="nine" unicode="9" horiz-adv-x="597" 
d="M274 244q-45 0 -85.5 16.5t-71 45.5t-48.5 69t-18 87q0 42 17 81t48 68.5t73.5 47.5t92.5 18q54 0 100 -18.5t79.5 -58.5t52.5 -103t19 -151q0 -67 -14.5 -131.5t-46.5 -115t-82 -81.5t-120 -31q-78 0 -129 36.5t-80 108.5h67q21 -43 57.5 -62.5t84.5 -19.5q39 0 74 18
t61.5 53t42.5 87.5t17 121.5q-26 -35 -75.5 -60.5t-115.5 -25.5zM285 614q-33 0 -62.5 -11.5t-52.5 -31.5t-36.5 -47.5t-13.5 -60.5q0 -34 13.5 -62.5t36.5 -49.5t52.5 -32.5t62.5 -11.5q34 0 63.5 11.5t51.5 32.5t34.5 49.5t12.5 62.5q0 33 -12.5 60.5t-34.5 48t-51.5 31.5
t-63.5 11z" />
    <glyph glyph-name="colon" unicode=":" horiz-adv-x="218" 
d="M63 402h92v-92h-92v92zM63 92h92v-92h-92v92z" />
    <glyph glyph-name="semicolon" unicode=";" horiz-adv-x="217" 
d="M44 -107l64 107h-45v92h92v-100l-60 -99h-51zM63 402h92v-92h-92v92z" />
    <glyph glyph-name="less" unicode="&#x3c;" horiz-adv-x="525" 
d="M468 87v-75l-421 198v72l421 199v-75l-340 -160z" />
    <glyph glyph-name="equal" unicode="=" horiz-adv-x="535" 
d="M478 199v-63h-422v63h422zM478 353v-63h-422v63h422z" />
    <glyph glyph-name="greater" unicode="&#x3e;" horiz-adv-x="525" 
d="M57.0566 87v-75l420.949 198v72l-420.949 199v-75l339.959 -160z" />
    <glyph glyph-name="question" unicode="?" horiz-adv-x="514" 
d="M204 81h81v-81h-81v81zM260 677q49 0 85.5 -13.5t60 -36t35 -51t11.5 -59.5q0 -32 -7 -54t-19.5 -39.5t-29 -32.5t-35.5 -31q-27 -22 -43 -36t-24.5 -26.5t-11.5 -27t-3 -36.5v-38h-69v38q0 29 3 50t13.5 39.5t30 37t52.5 42.5q32 23 51 48t19 62q0 50 -34 75.5t-86 25.5
q-60 0 -93.5 -28t-47.5 -73h-74q7 33 24 62.5t44 52t64 36t84 13.5z" />
    <glyph glyph-name="at" unicode="@" horiz-adv-x="973" 
d="M652 443v-262q0 -34 18.5 -58t55.5 -24q48 0 78 48t30 144q0 69 -26.5 129t-72.5 103.5t-108.5 68.5t-135.5 25q-75 0 -139.5 -29t-112 -79.5t-74.5 -118t-27 -144.5q0 -78 27.5 -145.5t74.5 -117.5t111 -79t138 -29q37 0 67 5t55.5 14t48 22t44.5 29h87
q-27 -25 -58.5 -48.5t-68 -41.5t-80.5 -29t-97 -11q-87 0 -162.5 33.5t-132 92t-88.5 137t-32 168.5t32.5 169t89.5 137t133.5 91.5t164.5 33.5q85 0 159.5 -29t129.5 -80.5t87 -122t32 -153.5q0 -50 -11.5 -96t-34 -81t-57 -55.5t-79.5 -20.5q-42 0 -69 19.5t-46 49.5
q-17 -24 -53 -46.5t-90 -22.5q-36 0 -70.5 13.5t-60.5 39.5t-42 65t-16 90t16 90t42 65t60.5 39.5t70.5 13.5q26 0 47 -5.5t37 -13.5t26.5 -16t15.5 -14v37h66zM462 99q30 0 54 12t40.5 32t25.5 47t9 57t-9 57t-25.5 47t-40.5 32t-54 12t-53 -12t-39 -32.5t-24.5 -47
t-8.5 -56.5t8.5 -56.5t24.5 -47t39 -32.5t53 -12z" />
    <glyph glyph-name="A" unicode="A" horiz-adv-x="668" 
d="M525 159h-382l-70 -159h-73l292 664h85l291 -664h-73zM171 222h326l-163 370z" />
    <glyph glyph-name="B" unicode="B" horiz-adv-x="656" 
d="M506 332q31 -18 49.5 -37.5t28 -40t12 -41t2.5 -40.5q0 -36 -12.5 -67.5t-38 -55t-64.5 -37t-92 -13.5h-302v664h302q53 0 92 -13.5t64.5 -37.5t38 -55.5t12.5 -67.5q0 -20 -2.5 -40.5t-12 -40.5t-28 -39.5t-49.5 -37.5zM392 63q65 0 101 29t36 89t-36.5 89.5
t-100.5 29.5h-234v-237h234zM392 363q65 0 101 29.5t36 89.5t-36.5 89.5t-100.5 29.5h-234v-238h234z" />
    <glyph glyph-name="C" unicode="C" horiz-adv-x="711" 
d="M387 614q-59 0 -108.5 -21t-85.5 -58.5t-56.5 -89.5t-20.5 -113t20.5 -113t56.5 -89.5t85.5 -58.5t108.5 -21q71 0 121 29.5t82 76.5h76q-39 -75 -110 -122t-169 -47q-72 0 -134 26.5t-108 73t-72 109.5t-26 136t26 136t72 109.5t108 73t134 26.5q98 0 169 -47t110 -122
h-76q-32 47 -82 76.5t-121 29.5z" />
    <glyph glyph-name="D" unicode="D" horiz-adv-x="720" 
d="M308 664q87 0 155 -26.5t114.5 -71.5t71 -105.5t24.5 -128.5t-24.5 -128.5t-71 -105.5t-114.5 -71.5t-155 -26.5h-219v664h219zM604 332q0 60 -20 109.5t-57.5 85t-91 55t-121.5 19.5h-156v-538h156q68 0 121.5 19.5t91 55t57.5 85t20 109.5z" />
    <glyph glyph-name="E" unicode="E" horiz-adv-x="599" 
d="M158 601v-238h366v-63h-366v-237h373v-63h-442v664h442v-63h-373z" />
    <glyph glyph-name="F" unicode="F" horiz-adv-x="578" 
d="M158 601v-238h366v-63h-366v-300h-69v664h442v-63h-373z" />
    <glyph glyph-name="G" unicode="G" horiz-adv-x="756" 
d="M387 614q-59 0 -108.5 -21.5t-85.5 -59t-56.5 -89t-20.5 -112.5t20.5 -112.5t56.5 -89t86 -59t109 -21.5q51 0 92.5 17t73 46.5t52.5 70t30 88.5h-251v63h324q0 -78 -26 -142t-69.5 -109.5t-100.5 -71t-120 -25.5q-73 0 -136.5 26.5t-110 73t-73 109.5t-26.5 136t26 136
t72 109.5t108 73t134 26.5q48 0 91 -12.5t80 -35t67 -53.5t50 -68h-76q-31 45 -87.5 75.5t-124.5 30.5z" />
    <glyph glyph-name="H" unicode="H" horiz-adv-x="738" 
d="M580 0v300h-422v-300h-69v664h69v-301h422v301h69v-664h-69z" />
    <glyph glyph-name="I" unicode="I" horiz-adv-x="247" 
d="M158 0h-69v664h69v-664z" />
    <glyph glyph-name="J" unicode="J" horiz-adv-x="404" 
d="M320 664v-490q0 -85 -52.5 -129.5t-137.5 -44.5h-125v63h125q58 0 89.5 27t31.5 84v490h69z" />
    <glyph glyph-name="K" unicode="K" horiz-adv-x="597" 
d="M592 0h-94l-340 299v-299h-69v664h69v-296l336 296h98l-371 -332z" />
    <glyph glyph-name="L" unicode="L" horiz-adv-x="562" 
d="M158 63h373v-63h-442v664h69v-601z" />
    <glyph glyph-name="M" unicode="M" horiz-adv-x="968" 
d="M488 69l295 595h96v-664h-69v565l-277 -565h-88l-287 565v-565h-69v664h96z" />
    <glyph glyph-name="N" unicode="N" horiz-adv-x="770" 
d="M681 664v-664h-78l-445 569v-569h-69v664h78l445 -569v569h69z" />
    <glyph glyph-name="O" unicode="O" horiz-adv-x="772" 
d="M386 677q70 0 132 -26t108 -72t72.5 -109.5t26.5 -137.5t-26.5 -137.5t-72.5 -109.5t-108 -72t-132 -26q-71 0 -132.5 26t-107.5 72t-72.5 109.5t-26.5 137.5t26.5 137.5t72.5 109.5t107.5 72t132.5 26zM386 50q58 0 107.5 21t85.5 58.5t56.5 89t20.5 113.5
q0 61 -20.5 113t-56.5 89.5t-85.5 58.5t-107.5 21t-107.5 -21t-85.5 -58.5t-56.5 -89.5t-20.5 -113q0 -62 20.5 -113.5t56.5 -89t85.5 -58.5t107.5 -21z" />
    <glyph glyph-name="P" unicode="P" horiz-adv-x="654" 
d="M612 473q0 -39 -13 -73.5t-39.5 -60.5t-67.5 -41t-98 -15h-236v-283h-69v664h305q57 0 98 -15t67.5 -41.5t39.5 -61t13 -73.5zM543 473q0 65 -40.5 96.5t-109.5 31.5h-235v-255h235q69 0 109.5 31t40.5 96z" />
    <glyph glyph-name="Q" unicode="Q" horiz-adv-x="772" 
d="M386 677q70 0 132 -26t108 -72t72.5 -109.5t26.5 -137.5q0 -80 -30 -146t-82 -113l65 -86h-84l-36 46q-38 -22 -81 -34t-91 -12q-71 0 -132.5 26t-107.5 72t-72.5 109.5t-26.5 137.5t26.5 137.5t72.5 109.5t107.5 72t132.5 26zM465 267l109 -143q38 38 60 91t22 117
q0 61 -20.5 113t-56.5 89.5t-85.5 58.5t-107.5 21t-107.5 -21t-85.5 -58.5t-56.5 -89.5t-20.5 -113q0 -62 20.5 -113.5t56.5 -89t85.5 -58.5t107.5 -21q74 0 134 34l-139 183h84z" />
    <glyph glyph-name="R" unicode="R" horiz-adv-x="648" 
d="M612 473q0 -38 -12 -71.5t-37 -59t-64 -41.5t-92 -18l216 -283h-87l-216 283h-162v-283h-69v664h305q57 0 98 -15t67.5 -41.5t39.5 -61t13 -73.5zM543 473q0 65 -40.5 96.5t-109.5 31.5h-235v-255h235q69 0 109.5 31t40.5 96z" />
    <glyph glyph-name="S" unicode="S" horiz-adv-x="605" 
d="M103 155q23 -44 77.5 -74.5t126.5 -30.5q42 0 76.5 9.5t60 27t39.5 40.5t14 50q0 54 -39 82t-117 37l-114 13q-94 11 -139 58.5t-45 115.5q0 43 17.5 79t50 61.5t79 39.5t105.5 14q61 0 107 -16.5t79 -41t54 -54.5t31 -57h-75q-22 45 -74.5 75.5t-124.5 30.5
q-42 0 -75.5 -10t-56.5 -27.5t-35 -40.5t-12 -49q0 -53 35.5 -80.5t101.5 -34.5l126 -14q90 -10 140 -57t50 -119q0 -36 -16.5 -71t-48.5 -62.5t-81 -44.5t-113 -17q-66 0 -113.5 16t-80.5 40.5t-53.5 54.5t-30.5 57h74z" />
    <glyph glyph-name="T" unicode="T" horiz-adv-x="595" 
d="M569 664v-63h-237v-601h-69v601h-237v63h543z" />
    <glyph glyph-name="U" unicode="U" horiz-adv-x="740" 
d="M84 664h69v-390q0 -112 58 -168t159 -56t159 56t58 168v390h69v-391q0 -69 -20.5 -122.5t-58 -89.5t-90 -55t-117.5 -19t-117.5 19t-90 55t-58 89.5t-20.5 122.5v391z" />
    <glyph glyph-name="V" unicode="V" horiz-adv-x="660" 
d="M330 73l252 591h73l-283 -664h-85l-282 664h73z" />
    <glyph glyph-name="W" unicode="W" horiz-adv-x="1061" 
d="M85 664l203 -582l198 582h88l204 -582l198 582h73l-228 -664h-88l-205 584l-197 -584h-88l-233 664h75z" />
    <glyph glyph-name="X" unicode="X" horiz-adv-x="590" 
d="M296 277l-200 -277h-81l239 333l-239 331h79l200 -276l199 276h82l-240 -333l240 -331h-78z" />
    <glyph glyph-name="Y" unicode="Y" horiz-adv-x="560" 
d="M489 664h71l-246 -411v-253h-69v253l-245 411h74l207 -349z" />
    <glyph glyph-name="Z" unicode="Z" horiz-adv-x="638" 
d="M580 601l-439 -538h439v-63h-522v63l438 538h-439v63h523v-63z" />
    <glyph glyph-name="bracketleft" unicode="[" horiz-adv-x="377" 
d="M176 -93h171v-60h-237v817h237v-60h-171v-697z" />
    <glyph glyph-name="backslash" unicode="\" horiz-adv-x="344" 
d="M78.0322 664h-72.9912l261.969 -744h71.9912z" />
    <glyph glyph-name="bracketright" unicode="]" horiz-adv-x="377" 
d="M201 604h-171v60h237v-817h-237v60h171v697z" />
    <glyph glyph-name="asciicircum" unicode="^" horiz-adv-x="551" 
d="M57 328l178 336h80l178 -336h-74l-144 271l-144 -271h-74z" />
    <glyph glyph-name="underscore" unicode="_" horiz-adv-x="519" 
d="M-4 -37h527v-63h-527v63z" />
    <glyph glyph-name="grave" unicode="`" horiz-adv-x="333" 
d="M139 696l131 -171h-76l-131 171h76z" />
    <glyph glyph-name="a" unicode="a" horiz-adv-x="542" 
d="M259 465q46 0 84.5 -11.5t66.5 -34t43.5 -55t15.5 -74.5v-290h-66v56q-28 -32 -68.5 -50.5t-94.5 -18.5q-39 0 -73.5 9t-59.5 27.5t-39.5 46t-14.5 64.5q0 39 15 67t41.5 45.5t61 26t73.5 8.5h159v9q0 31 -11 52.5t-30.5 35.5t-46.5 20.5t-58 6.5q-54 0 -90.5 -22
t-50.5 -54h-71q20 64 77 100t137 36zM403 221h-161q-57 0 -90 -21.5t-33 -65.5t34 -65.5t88 -21.5q39 0 69.5 11.5t51 31t31 44.5t10.5 52v35z" />
    <glyph glyph-name="b" unicode="b" horiz-adv-x="593" 
d="M541 226q0 -47 -14.5 -90t-43 -76t-71.5 -53t-99 -20q-57 0 -99 21.5t-64 48.5v-57h-66v669h66v-274q22 27 64 48.5t99 21.5q56 0 99 -20t71.5 -53t43 -76t14.5 -90zM475 226q0 36 -11.5 68.5t-33 57t-51.5 39t-66 14.5q-33 0 -62.5 -11t-52.5 -33.5t-36.5 -56
t-13.5 -78.5t13.5 -78.5t36.5 -56t52.5 -33.5t62.5 -11q36 0 66 14.5t51.5 39t33 57t11.5 68.5z" />
    <glyph glyph-name="c" unicode="c" horiz-adv-x="541" 
d="M423 331q-19 32 -54.5 53t-82.5 21q-37 0 -68 -14t-53 -38.5t-34.5 -57t-12.5 -69.5t12.5 -69.5t34.5 -57t53 -38.5t68 -14q47 0 82.5 21t54.5 53h71q-24 -62 -78.5 -98t-129.5 -36q-50 0 -92.5 18t-74 50.5t-49.5 76t-18 94.5t18 94.5t49.5 76t74 50.5t92.5 18
q75 0 129.5 -36t78.5 -98h-71z" />
    <glyph glyph-name="d" unicode="d" horiz-adv-x="593" 
d="M52 226q0 47 14.5 90t43 76t71.5 53t99 20q57 0 99 -21.5t64 -48.5v274h66v-669h-66v57q-22 -27 -64 -48.5t-99 -21.5q-56 0 -99 20t-71.5 53t-43 76t-14.5 90zM118 226q0 -36 11.5 -68.5t33 -57t51.5 -39t66 -14.5q33 0 62.5 11t52.5 33.5t36.5 56t13.5 78.5t-13.5 78.5
t-36.5 56t-52.5 33.5t-62.5 11q-36 0 -66 -14.5t-51.5 -39t-33 -57t-11.5 -68.5z" />
    <glyph glyph-name="e" unicode="e" horiz-adv-x="548" 
d="M496 231v-14t-2 -15h-374q3 -33 17 -61t35.5 -49t50 -33t61.5 -12q51 0 84.5 19.5t53.5 54.5h68q-24 -64 -77.5 -99t-128.5 -35q-50 0 -92.5 17.5t-73.5 49.5t-48.5 76t-17.5 97q0 51 16.5 94.5t46.5 75.5t72 50t93 18q47 0 86.5 -18t68.5 -49.5t45 -74.5t16 -92z
M428 262q-4 30 -15.5 56t-30.5 45.5t-44.5 30.5t-57.5 11q-69 0 -110.5 -39.5t-49.5 -103.5h308z" />
    <glyph glyph-name="f" unicode="f" horiz-adv-x="349" 
d="M109 0v392h-94v60h94v83q0 67 38 100.5t124 33.5h63v-60h-62q-50 0 -73.5 -19.5t-23.5 -68.5v-69h159v-60h-159v-392h-66z" />
    <glyph glyph-name="g" unicode="g" horiz-adv-x="595" 
d="M54 226q0 47 14.5 90t43 76t71.5 53t99 20q57 0 99 -21.5t64 -48.5v57h66v-430q0 -54 -15.5 -98t-44.5 -75.5t-71 -48.5t-96 -17q-34 0 -66.5 8.5t-61 25.5t-51.5 42t-38 58h72q21 -35 58 -54.5t87 -19.5q40 0 70 13.5t50 38t30.5 58t10.5 73.5v31q-22 -27 -64 -48.5
t-99 -21.5q-56 0 -99 20t-71.5 53t-43 76t-14.5 90zM120 226q0 -36 11.5 -68.5t33 -57t51.5 -39t66 -14.5q33 0 62.5 11t52.5 33.5t36.5 56t13.5 78.5t-13.5 78.5t-36.5 56t-52.5 33.5t-62.5 11q-36 0 -66 -14.5t-51.5 -39t-33 -57t-11.5 -68.5z" />
    <glyph glyph-name="h" unicode="h" horiz-adv-x="578" 
d="M310 465q48 0 84 -15.5t61 -42.5t37.5 -64t12.5 -80v-263h-66v263q0 60 -31.5 101t-97.5 41q-30 0 -59 -11t-51.5 -32.5t-36 -52t-13.5 -69.5v-240h-66v669h66v-274q24 31 64 50.5t96 19.5z" />
    <glyph glyph-name="i" unicode="i" horiz-adv-x="238" 
d="M152 452v-452h-66v452h66zM78 659h81v-88h-81v88z" />
    <glyph glyph-name="j" unicode="j" horiz-adv-x="262" 
d="M102 659h81v-88h-81v88zM176 452v-522q0 -67 -38 -100.5t-124 -33.5h-63v60h62q50 0 73.5 19.5t23.5 68.5v508h66z" />
    <glyph glyph-name="k" unicode="k" horiz-adv-x="475" 
d="M150 669v-426l234 209h85l-254 -226l255 -226h-86l-234 197v-197h-66v669h66z" />
    <glyph glyph-name="l" unicode="l" horiz-adv-x="234" 
d="M150 669v-669h-66v669h66z" />
    <glyph glyph-name="m" unicode="m" horiz-adv-x="924" 
d="M784 271q0 57 -31.5 95.5t-96.5 38.5q-29 0 -57 -10.5t-50 -31t-36 -50.5t-14 -70v-243h-66v271q0 57 -31.5 95.5t-96.5 38.5q-29 0 -56.5 -10.5t-49.5 -30.5t-35.5 -49t-13.5 -67v-248h-66v452h66v-54q23 29 60 48t94 19q61 0 104.5 -26t66.5 -66q32 42 76.5 67
t104.5 25q48 0 84 -15t60.5 -41.5t37 -62.5t12.5 -78v-268h-66v271z" />
    <glyph glyph-name="n" unicode="n" horiz-adv-x="578" 
d="M310 465q48 0 84 -15.5t61 -42.5t37.5 -64t12.5 -80v-263h-66v263q0 60 -31.5 101t-97.5 41q-30 0 -59 -11t-51.5 -32.5t-36 -52t-13.5 -69.5v-240h-66v452h66v-57q24 31 64 50.5t96 19.5z" />
    <glyph glyph-name="o" unicode="o" horiz-adv-x="570" 
d="M517 226q0 -51 -17.5 -95t-48.5 -76t-73.5 -50t-92.5 -18t-93 18t-74 50t-48.5 76t-17.5 95t17.5 95t48.5 76t74 50t93 18t92.5 -18t73.5 -50t48.5 -76t17.5 -95zM451 226q0 37 -12 69.5t-33.5 57t-52.5 38.5t-68 14q-38 0 -68.5 -14t-52.5 -38.5t-34 -57t-12 -69.5
t12 -69.5t34 -57t52.5 -38.5t68.5 -14q37 0 68 14t52.5 38.5t33.5 57t12 69.5z" />
    <glyph glyph-name="p" unicode="p" horiz-adv-x="593" 
d="M541 226q0 -47 -14.5 -90t-43 -76t-71.5 -53t-99 -20q-57 0 -99 21.5t-64 48.5v-261h-66v656h66v-57q22 27 64 48.5t99 21.5q56 0 99 -20t71.5 -53t43 -76t14.5 -90zM475 226q0 36 -11.5 68.5t-33 57t-51.5 39t-66 14.5q-33 0 -62.5 -11t-52.5 -33.5t-36.5 -56
t-13.5 -78.5t13.5 -78.5t36.5 -56t52.5 -33.5t62.5 -11q36 0 66 14.5t51.5 39t33 57t11.5 68.5z" />
    <glyph glyph-name="q" unicode="q" horiz-adv-x="593" 
d="M52 226q0 47 14.5 90t43 76t71.5 53t99 20q57 0 99 -21.5t64 -48.5v57h66v-656h-66v261q-22 -27 -64 -48.5t-99 -21.5q-56 0 -99 20t-71.5 53t-43 76t-14.5 90zM118 226q0 -36 11.5 -68.5t33 -57t51.5 -39t66 -14.5q33 0 62.5 11t52.5 33.5t36.5 56t13.5 78.5t-13.5 78.5
t-36.5 56t-52.5 33.5t-62.5 11q-36 0 -66 -14.5t-51.5 -39t-33 -57t-11.5 -68.5z" />
    <glyph glyph-name="r" unicode="r" horiz-adv-x="384" 
d="M150 452v-73q10 14 25.5 28t37.5 25t51 17.5t66 6.5h12v-60h-11q-84 0 -132.5 -48.5t-48.5 -128.5v-219h-66v452h66z" />
    <glyph glyph-name="s" unicode="s" horiz-adv-x="507" 
d="M397 327q-19 41 -56.5 59.5t-94.5 18.5q-54 0 -88.5 -21t-34.5 -58q0 -38 27 -50.5t78 -16.5l96 -7q69 -5 105 -36.5t36 -91.5q0 -27 -13.5 -52t-38.5 -44t-61 -30t-82 -11q-50 0 -88.5 12t-66.5 32t-45.5 44.5t-24.5 50.5h72q17 -38 56.5 -58.5t107.5 -20.5
q50 0 83.5 21t33.5 56q0 38 -27 51t-79 17l-97 8q-138 12 -138 125q0 28 13.5 53.5t38 44.5t59.5 30.5t78 11.5q51 0 89.5 -12t66 -31.5t44.5 -44.5t24 -50h-73z" />
    <glyph glyph-name="t" unicode="t" horiz-adv-x="397" 
d="M191 588v-136h159v-60h-159v-244q0 -49 23.5 -68.5t73.5 -19.5h62v-60h-63q-86 0 -124 33.5t-38 100.5v258h-94v60h94v136h66z" />
    <glyph glyph-name="u" unicode="u" horiz-adv-x="572" 
d="M265 -13q-47 0 -83 15.5t-60 42.5t-36.5 64t-12.5 80v263h66v-263q0 -30 7.5 -56t23 -45t39.5 -30t56 -11q30 0 58 11t50 32.5t35.5 52t13.5 69.5v240h66v-452h-66v57q-24 -31 -63 -50.5t-94 -19.5z" />
    <glyph glyph-name="v" unicode="v" horiz-adv-x="500" 
d="M284 0h-68l-206 452h73l169 -374l169 374h69z" />
    <glyph glyph-name="w" unicode="w" horiz-adv-x="821" 
d="M452 452l141 -372l141 372h67l-171 -452h-76l-143 369l-143 -369h-76l-171 452h72l140 -372l143 372h76z" />
    <glyph glyph-name="x" unicode="x" horiz-adv-x="491" 
d="M286 228l188 -228h-82l-147 178l-146 -178h-79l186 226l-185 226h82l144 -176l144 176h79z" />
    <glyph glyph-name="y" unicode="y" horiz-adv-x="500" 
d="M83 452l169 -374l169 374h69l-207 -455q-23 -49 -38.5 -86.5t-32.5 -63t-40.5 -38.5t-62.5 -13h-36v60h16q22 0 37 5t27 17t23 32t23 50l17 41l-206 451h73z" />
    <glyph glyph-name="z" unicode="z" horiz-adv-x="469" 
d="M40 0v60l297 332h-297v60h382v-60l-298 -332h305v-60h-389z" />
    <glyph glyph-name="braceleft" unicode="{" horiz-adv-x="361" 
d="M128 256q16 -8 31.5 -20t27.5 -27t19.5 -34t7.5 -41v-146q0 -43 22.5 -62t70.5 -19h34v-60h-43q-65 0 -107.5 34t-42.5 105v130q0 45 -30 73t-78 35v63q48 7 78 35t30 73v130q0 35 11 61t31 43.5t47.5 26t60.5 8.5h43v-60h-34q-48 0 -70.5 -19t-22.5 -62v-146
q0 -23 -7.5 -41.5t-19.5 -33.5t-27.5 -26.5t-31.5 -19.5z" />
    <glyph glyph-name="bar" unicode="|" horiz-adv-x="210" 
d="M138 -153h-66v817h66v-817z" />
    <glyph glyph-name="braceright" unicode="}" horiz-adv-x="361" 
d="M233.016 256q-15.998 -8 -31.4961 -20t-27.4971 -27q-11.998 -15 -19.4971 -34t-7.49902 -41v-146q0 -43 -22.4971 -62q-22.498 -19 -70.4922 -19h-33.9951v-60h42.9941q64.9922 0 107.487 34q42.4941 34 42.4941 105v130q0 45 29.9971 73q29.9961 28 77.9902 35v63
q-47.9941 7 -77.9902 35q-29.9971 28 -29.9971 73v130q0 35 -10.998 61q-10.999 26 -30.9961 43.5q-19.998 17.5 -47.4941 26q-27.4971 8.5 -60.4932 8.5h-42.9941v-60h33.9951q47.9941 0 70.4922 -19q22.4971 -19 22.4971 -62v-146q0 -23 7.49902 -41.5t19.4971 -33.5
q11.999 -15 27.4971 -26.5t31.4961 -19.5z" />
    <glyph glyph-name="asciitilde" unicode="~" horiz-adv-x="535" 
d="M359 234q28 0 40.5 17.5t12.5 65.5h66q0 -76 -33 -111t-84 -35q-30 0 -55.5 13t-48 28.5t-42.5 28.5t-40 13q-28 0 -40.5 -17.5t-12.5 -65.5h-66q0 75 32.5 110.5t84.5 35.5q30 0 56.5 -13t49.5 -28.5t42.5 -28.5t37.5 -13z" />
    <glyph glyph-name="nonbreakingspace" unicode="&#xa0;" horiz-adv-x="240" 
 />
    <glyph glyph-name="exclamdown" unicode="&#xa1;" horiz-adv-x="311" 
d="M191 -204h-71v460h71v-460zM115 452h81v-81h-81v81z" />
    <glyph glyph-name="cent" unicode="&#xa2;" horiz-adv-x="541" 
d="M423 331q-19 32 -54.5 53t-82.5 21q-37 0 -68 -14t-53 -38.5t-34.5 -57t-12.5 -69.5t12.5 -69.5t34.5 -57t53 -38.5t68 -14q47 0 82.5 21t54.5 53h71q-23 -57 -70 -92t-113 -41v-108h-66v111q-42 7 -77.5 27.5t-61 51t-40 70.5t-14.5 86q0 45 14.5 85t40 71t61 51.5
t77.5 27.5v112h66v-109q66 -6 113 -41t70 -92h-71z" />
    <glyph glyph-name="sterling" unicode="&#xa3;" horiz-adv-x="583" 
d="M49 63q44 2 67.5 25t23.5 63v149h-93v63h93v119q0 40 12.5 75.5t37 62t62.5 42t89 15.5q41 0 73.5 -14t56 -36.5t39 -49.5t23.5 -54h-68q-15 42 -46.5 66.5t-81.5 24.5q-65 0 -96 -38t-31 -96v-117h200v-63h-200v-155q0 -30 -9 -52t-29 -30h364v-63h-487v63z" />
    <glyph glyph-name="currency" unicode="&#xa4;" horiz-adv-x="585" 
d="M504 350q0 -35 -10.5 -66.5t-29.5 -57.5l68 -68l-47 -47l-68 68q-26 -20 -58 -30.5t-67 -10.5t-66.5 10.5t-57.5 30.5l-68 -68l-47 47l68 68q-20 26 -30.5 57.5t-10.5 66.5t10.5 67t30.5 58l-68 68l47 47l68 -68q26 19 57.5 29.5t66.5 10.5t67 -10.5t58 -29.5l68 68
l47 -47l-68 -68q19 -26 29.5 -58t10.5 -67zM146 350q0 -30 11.5 -56.5t31.5 -46.5t46.5 -31.5t56.5 -11.5t57 11.5t46.5 31.5t31 46.5t11.5 56.5t-11.5 57t-31 46.5t-46.5 31t-57 11.5t-56.5 -11.5t-46.5 -31t-31.5 -46.5t-11.5 -57z" />
    <glyph glyph-name="yen" unicode="&#xa5;" horiz-adv-x="560" 
d="M489 664h71l-158 -263h106v-63h-143l-49 -82h192v-63h-194v-193h-69v193h-193v63h191l-49 82h-142v63h104l-156 263h74l207 -349z" />
    <glyph glyph-name="brokenbar" unicode="&#xa6;" horiz-adv-x="210" 
d="M138 -153h-66v343h66v-343zM138 320h-66v344h66v-344z" />
    <glyph glyph-name="section" unicode="&#xa7;" horiz-adv-x="587" 
d="M535 225q0 -51 -31 -87.5t-102 -55.5q34 -23 56 -58t22 -76q0 -42 -16 -73t-42 -51.5t-59 -30.5t-67 -10q-80 0 -128.5 36.5t-67.5 101.5h71q15 -34 43.5 -54.5t79.5 -20.5q59 0 88 29t29 69q0 23 -8 40t-25.5 30.5t-46.5 24.5t-71 22q-48 12 -86 27t-65 35t-41.5 47.5
t-14.5 65.5q0 50 31.5 88t102.5 55q-34 23 -57 57t-23 76q0 41 16 72t42.5 51.5t59.5 31t67 10.5q79 0 127.5 -36.5t68.5 -101.5h-70q-15 32 -44 53.5t-80 21.5q-29 0 -51 -8.5t-36.5 -22t-22 -31t-7.5 -36.5q0 -45 36.5 -71t114.5 -46q46 -12 84.5 -27t65.5 -35.5t42 -47.5
t15 -64zM314 127q23 0 50 5.5t49.5 17.5t37.5 31t15 46q0 25 -15 44.5t-41.5 33t-62 21t-75.5 7.5q-24 0 -50 -5.5t-48.5 -17t-37 -30t-14.5 -45.5q0 -25 15 -45t41 -34t61 -21.5t75 -7.5z" />
    <glyph glyph-name="dieresis" unicode="&#xa8;" horiz-adv-x="367" 
d="M224 657h80v-86h-80v86zM63 657h80v-86h-80v86z" />
    <glyph glyph-name="copyright" unicode="&#xa9;" horiz-adv-x="837" 
d="M431 467q-27 0 -51 -10.5t-41 -29t-27 -43.5t-10 -54q0 -28 10 -52t27 -42t41 -28t51 -10q32 0 56 13.5t42 36.5h67q-23 -48 -66 -77.5t-99 -29.5q-40 0 -74.5 14.5t-60 40t-40 60t-14.5 74.5q0 41 14.5 76.5t40 61.5t60 41t74.5 15q56 0 99 -30.5t66 -78.5h-67
q-18 23 -42 37.5t-56 14.5zM73 332q0 71 27 134t74 110t110 74t134 27t134 -27t110 -74t74 -110t27 -134t-27 -134t-74 -110t-110 -74t-134 -27t-134 27t-110 74t-74 110t-27 134zM133 332q0 -59 22.5 -111t61 -90.5t90.5 -61t111 -22.5t111 22.5t90.5 61t61 90.5t22.5 111
t-22.5 111t-61 90.5t-90.5 61t-111 22.5t-111 -22.5t-90.5 -61t-61 -90.5t-22.5 -111z" />
    <glyph glyph-name="ordfeminine" unicode="&#xaa;" horiz-adv-x="410" 
d="M198 671q67 0 108.5 -32.5t41.5 -92.5v-202h-55v37q-20 -21 -48 -33.5t-66 -12.5q-55 0 -91 25.5t-36 79.5q0 28 11.5 47.5t30.5 31.5t44 17.5t53 5.5h102q0 42 -27 60t-68 18q-29 0 -55 -12.5t-36 -34.5h-61q14 48 56 73t96 25zM293 493h-103q-38 0 -60.5 -13.5
t-22.5 -40.5t22 -40t58 -13q49 0 77.5 23t28.5 61v23z" />
    <glyph glyph-name="guillemotleft" unicode="&#xab;" horiz-adv-x="515" 
d="M479 409l-155 -182l155 -182h-86l-128 147v70l128 147h86zM269 409l-155 -182l155 -182h-86l-128 147v70l128 147h86z" />
    <glyph glyph-name="logicalnot" unicode="&#xac;" horiz-adv-x="535" 
d="M478 121h-66v168h-355v66h421v-234z" />
    <glyph glyph-name="uni00AD" unicode="&#xad;" horiz-adv-x="403" 
d="M331 287v-63h-259v63h259z" />
    <glyph glyph-name="registered" unicode="&#xae;" horiz-adv-x="837" 
d="M418 677q71 0 134 -27t110 -74t74 -110t27 -134t-27 -134t-74 -110t-110 -74t-134 -27t-134 27t-110 74t-74 110t-27 134t27 134t74 110t110 74t134 27zM418 47q59 0 111 22.5t90.5 61t61 90.5t22.5 111t-22.5 111t-61 90.5t-90.5 61t-111 22.5t-111 -22.5t-90.5 -61
t-61 -90.5t-22.5 -111t22.5 -111t61 -90.5t90.5 -61t111 -22.5zM578 406q0 -42 -24.5 -72.5t-78.5 -37.5l114 -149h-75l-113 148h-57v-147h-60v369h168q65 0 95.5 -33t30.5 -78zM518 406q0 27 -17 40.5t-46 13.5h-111v-108h111q29 0 46 13.5t17 40.5z" />
    <glyph glyph-name="macron" unicode="&#xaf;" horiz-adv-x="462" 
d="M399 632v-61h-336v61h336z" />
    <glyph glyph-name="degree" unicode="&#xb0;" horiz-adv-x="440" 
d="M220 671q36 0 66.5 -13t53 -35.5t35.5 -52.5t13 -63t-13 -63t-35.5 -52.5t-53 -35.5t-66.5 -13t-67 13t-53.5 35.5t-35 52.5t-12.5 63t12.5 63t35 52.5t53.5 35.5t67 13zM322 507q0 21 -7.5 39.5t-21 33t-32.5 23t-41 8.5t-41 -8.5t-32.5 -23t-21 -33t-7.5 -39.5
t7.5 -39.5t21 -33t32.5 -23t41 -8.5t41 8.5t32.5 23t21 33t7.5 39.5z" />
    <glyph glyph-name="plusminus" unicode="&#xb1;" horiz-adv-x="535" 
d="M478 63v-63h-422v63h422zM234 326v148h66v-148h178v-63h-178v-148h-66v148h-178v63h178z" />
    <glyph glyph-name="twosuperior" unicode="&#xb2;" horiz-adv-x="358" 
d="M306 380v-52h-244v52l139 123q17 14 28 29.5t11 33.5q0 26 -18.5 40.5t-44.5 14.5q-25 0 -45 -12.5t-27 -39.5h-55q8 45 40.5 74t84.5 29q54 0 87 -28.5t33 -77.5q0 -23 -13 -48t-35 -44l-108 -94h167z" />
    <glyph glyph-name="threesuperior" unicode="&#xb3;" horiz-adv-x="358" 
d="M106 422q7 -26 27 -38t48 -12q32 0 50.5 15t18.5 36q0 23 -16 36.5t-48 13.5h-43v51h41q32 0 49 12t17 35t-18 36.5t-51 13.5q-27 0 -47 -12t-27 -36h-56q10 48 46 73.5t83 25.5q59 0 92 -29.5t33 -71.5q0 -20 -9.5 -39t-32.5 -33q23 -15 32.5 -34.5t9.5 -41.5
q0 -20 -8.5 -38.5t-24.5 -32.5t-39 -22.5t-53 -8.5q-48 0 -84 25t-45 76h55z" />
    <glyph glyph-name="acute" unicode="&#xb4;" horiz-adv-x="333" 
d="M270 696l-131 -171h-76l131 171h76z" />
    <glyph glyph-name="mu" unicode="&#xb5;" horiz-adv-x="583" 
d="M150 465v-276q0 -30 7.5 -56t23 -45t39.5 -30t56 -11q30 0 58 11t50 32.5t35.5 52t13.5 69.5v240h66v-452h-66v57q-24 -31 -63 -50.5t-94 -19.5q-78 0 -126 42v-233h-66v669h66z" />
    <glyph glyph-name="paragraph" unicode="&#xb6;" horiz-adv-x="624" 
d="M272 277h-20q-43 0 -81.5 12.5t-67 37t-45 61t-16.5 83.5q0 46 16.5 82t45 61t67 37.5t81.5 12.5h86v-817h-66v430zM458 664h66v-817h-66v817z" />
    <glyph glyph-name="periodcentered" unicode="&#xb7;" horiz-adv-x="218" 
d="M63 292h92v-92h-92v92z" />
    <glyph glyph-name="cedilla" unicode="&#xb8;" horiz-adv-x="340" 
d="M277 6l-145 -190h-76l147 190h74z" />
    <glyph glyph-name="onesuperior" unicode="&#xb9;" horiz-adv-x="257" 
d="M118 604l-76 -65v65l70 61h61v-337h-55v276z" />
    <glyph glyph-name="ordmasculine" unicode="&#xba;" horiz-adv-x="435" 
d="M384 503q0 -36 -12.5 -66.5t-35 -53t-52.5 -35.5t-66 -13t-66 13t-52.5 35.5t-35 53t-12.5 66.5t12.5 66.5t35 53t52.5 35.5t66 13t66 -13t52.5 -35.5t35 -53t12.5 -66.5zM329 503q0 24 -8.5 45t-23 37t-35 25.5t-44.5 9.5t-44.5 -9.5t-35 -25.5t-23 -37t-8.5 -45
t8.5 -45t23 -37t35 -25.5t44.5 -9.5t44.5 9.5t35 25.5t23 37t8.5 45z" />
    <glyph glyph-name="guillemotright" unicode="&#xbb;" horiz-adv-x="515" 
d="M332 409l128 -147v-70l-128 -147h-86l155 182l-155 182h86zM122 409l128 -147v-70l-128 -147h-86l155 182l-155 182h86z" />
    <glyph glyph-name="onequarter" unicode="&#xbc;" horiz-adv-x="730" 
d="M118 604l-76 -65v65l70 61h61v-337h-55v276zM499 664h68l-385 -664h-66zM619 218v-92h59v-51h-59v-74h-55v74h-185v51l175 212h64l-174 -212h120v92h55z" />
    <glyph glyph-name="onehalf" unicode="&#xbd;" horiz-adv-x="750" 
d="M118 604l-76 -65v65l70 61h61v-337h-55v276zM499 664h68l-385 -664h-66zM697 53v-52h-244v52l139 123q17 14 28 29.5t11 33.5q0 26 -18.5 40.5t-44.5 14.5q-25 0 -45 -12.5t-27 -39.5h-55q8 45 40.5 74t84.5 29q54 0 87 -28.5t33 -77.5q0 -23 -13 -48t-35 -44l-108 -94
h167z" />
    <glyph glyph-name="threequarters" unicode="&#xbe;" horiz-adv-x="805" 
d="M573 664h68l-385 -664h-66zM693 218v-92h59v-51h-59v-74h-55v74h-185v51l175 212h64l-174 -212h120v92h55zM106 422q7 -26 27 -38t48 -12q32 0 50.5 15t18.5 36q0 23 -16 36.5t-48 13.5h-43v51h41q32 0 49 12t17 35t-18 36.5t-51 13.5q-27 0 -47 -12t-27 -36h-56
q10 48 46 73.5t83 25.5q59 0 92 -29.5t33 -71.5q0 -20 -9.5 -39t-32.5 -33q23 -15 32.5 -34.5t9.5 -41.5q0 -20 -8.5 -38.5t-24.5 -32.5t-39 -22.5t-53 -8.5q-48 0 -84 25t-45 76h55z" />
    <glyph glyph-name="questiondown" unicode="&#xbf;" horiz-adv-x="514" 
d="M310 371h-81v81h81v-81zM254 -217q-50 0 -86 13.5t-59.5 36t-35 51t-11.5 59.5t7 53.5t19.5 40t29 32.5t35.5 31q27 22 43 36t24.5 26.5t11.5 27t3 36.5v30h69v-30q0 -29 -3 -50t-13.5 -39.5t-30 -37t-52.5 -42.5q-32 -23 -51 -48t-19 -62q0 -50 34 -75.5t86 -25.5
q60 0 93.5 28t47.5 73h74q-7 -33 -24 -62.5t-44 -52t-64 -36t-84 -13.5z" />
    <glyph glyph-name="Agrave" unicode="&#xc0;" horiz-adv-x="668" 
d="M525 159h-382l-70 -159h-73l292 664h85l291 -664h-73zM171 222h326l-163 370zM239 869l131 -151h-76l-131 151h76z" />
    <glyph glyph-name="Aacute" unicode="&#xc1;" horiz-adv-x="668" 
d="M525 159h-382l-70 -159h-73l292 664h85l291 -664h-73zM171 222h326l-163 370zM506 869l-131 -151h-76l131 151h76z" />
    <glyph glyph-name="Acircumflex" unicode="&#xc2;" horiz-adv-x="668" 
d="M525 159h-382l-70 -159h-73l292 664h85l291 -664h-73zM171 222h326l-163 370zM298 869h72l145 -151h-75l-105 103l-105 -103h-77z" />
    <glyph glyph-name="Atilde" unicode="&#xc3;" horiz-adv-x="668" 
d="M525 159h-382l-70 -159h-73l292 664h85l291 -664h-73zM171 222h326l-163 370zM411 779q47 0 47 90h60q0 -69 -28 -110t-79 -41q-24 0 -44.5 14t-39 31t-35.5 31t-35 14q-47 0 -47 -90h-60q0 68 28 109.5t79 41.5q25 0 46.5 -14t40 -31t35.5 -31t32 -14z" />
    <glyph glyph-name="Adieresis" unicode="&#xc4;" horiz-adv-x="668" 
d="M525 159h-382l-70 -159h-73l292 664h85l291 -664h-73zM171 222h326l-163 370zM374 828h80v-86h-80v86zM213 828h80v-86h-80v86z" />
    <glyph glyph-name="Aring" unicode="&#xc5;" horiz-adv-x="668" 
d="M525 159h-382l-70 -159h-73l292 664h85l291 -664h-73zM171 222h326l-163 370zM206 829q0 26 10 49.5t27.5 41t40.5 27.5t49 10t49.5 -10t41 -27.5t27.5 -41t10 -49.5t-10 -49t-27.5 -40.5t-41 -27.5t-49.5 -10t-49 10t-40.5 27.5t-27.5 40.5t-10 49zM264 829
q0 -30 19.5 -50t49.5 -20q31 0 50.5 20t19.5 50t-19.5 50t-50.5 20q-30 0 -49.5 -20t-19.5 -50z" />
    <glyph glyph-name="AE" unicode="&#xc6;" horiz-adv-x="979" 
d="M469 159h-290l-112 -159h-77l471 664h450v-63h-373v-238h366v-63h-366v-237h373v-63h-442v159zM224 222h245v345z" />
    <glyph glyph-name="Ccedilla" unicode="&#xc7;" horiz-adv-x="711" 
d="M387 614q-59 0 -108.5 -21t-85.5 -58.5t-56.5 -89.5t-20.5 -113t20.5 -113t56.5 -89.5t85.5 -58.5t108.5 -21q71 0 121 29.5t82 76.5h76q-35 -68 -95.5 -113t-143.5 -54l-133 -173h-76l133 173q-65 6 -121 34.5t-96.5 74.5t-63.5 105.5t-23 128.5q0 73 26 136t72 109.5
t108 73t134 26.5q98 0 169 -47t110 -122h-76q-32 47 -82 76.5t-121 29.5z" />
    <glyph glyph-name="Egrave" unicode="&#xc8;" horiz-adv-x="599" 
d="M158 601v-238h366v-63h-366v-237h373v-63h-442v664h442v-63h-373zM256 869l131 -151h-76l-131 151h76z" />
    <glyph glyph-name="Eacute" unicode="&#xc9;" horiz-adv-x="599" 
d="M158 601v-238h366v-63h-366v-237h373v-63h-442v664h442v-63h-373zM462 869l-131 -151h-76l131 151h76z" />
    <glyph glyph-name="Ecircumflex" unicode="&#xca;" horiz-adv-x="599" 
d="M158 601v-238h366v-63h-366v-237h373v-63h-442v664h442v-63h-373zM276 869h72l145 -151h-75l-105 103l-105 -103h-77z" />
    <glyph glyph-name="Edieresis" unicode="&#xcb;" horiz-adv-x="599" 
d="M158 601v-238h366v-63h-366v-237h373v-63h-442v664h442v-63h-373zM351 828h80v-86h-80v86zM190 828h80v-86h-80v86z" />
    <glyph glyph-name="Igrave" unicode="&#xcc;" horiz-adv-x="247" 
d="M158 0h-69v664h69v-664zM33 869l131 -151h-76l-131 151h76z" />
    <glyph glyph-name="Iacute" unicode="&#xcd;" horiz-adv-x="247" 
d="M158 0h-69v664h69v-664zM292 869l-131 -151h-76l131 151h76z" />
    <glyph glyph-name="Icircumflex" unicode="&#xce;" horiz-adv-x="247" 
d="M158 0h-69v664h69v-664zM89 869h72l145 -151h-75l-105 103l-105 -103h-77z" />
    <glyph glyph-name="Idieresis" unicode="&#xcf;" horiz-adv-x="247" 
d="M158 0h-69v664h69v-664zM166 828h80v-86h-80v86zM5 828h80v-86h-80v86z" />
    <glyph glyph-name="Eth" unicode="&#xd0;" horiz-adv-x="743" 
d="M331 664q87 0 155 -26.5t114.5 -71.5t71 -105.5t24.5 -128.5t-24.5 -128.5t-71 -105.5t-114.5 -71.5t-155 -26.5h-219v300h-91v63h91v301h219zM627 332q0 60 -20 109.5t-57.5 85t-91 55t-121.5 19.5h-156v-238h234v-63h-234v-237h156q68 0 121.5 19.5t91 55t57.5 85
t20 109.5z" />
    <glyph glyph-name="Ntilde" unicode="&#xd1;" horiz-adv-x="770" 
d="M681 664v-664h-78l-445 569v-569h-69v664h78l445 -569v569h69zM462 779q47 0 47 90h60q0 -69 -28 -110t-79 -41q-24 0 -44.5 14t-39 31t-35.5 31t-35 14q-47 0 -47 -90h-60q0 68 28 109.5t79 41.5q25 0 46.5 -14t40 -31t35.5 -31t32 -14z" />
    <glyph glyph-name="Ograve" unicode="&#xd2;" horiz-adv-x="772" 
d="M386 677q70 0 132 -26t108 -72t72.5 -109.5t26.5 -137.5t-26.5 -137.5t-72.5 -109.5t-108 -72t-132 -26q-71 0 -132.5 26t-107.5 72t-72.5 109.5t-26.5 137.5t26.5 137.5t72.5 109.5t107.5 72t132.5 26zM386 50q58 0 107.5 21t85.5 58.5t56.5 89t20.5 113.5
q0 61 -20.5 113t-56.5 89.5t-85.5 58.5t-107.5 21t-107.5 -21t-85.5 -58.5t-56.5 -89.5t-20.5 -113q0 -62 20.5 -113.5t56.5 -89t85.5 -58.5t107.5 -21zM291 869l131 -151h-76l-131 151h76z" />
    <glyph glyph-name="Oacute" unicode="&#xd3;" horiz-adv-x="772" 
d="M386 677q70 0 132 -26t108 -72t72.5 -109.5t26.5 -137.5t-26.5 -137.5t-72.5 -109.5t-108 -72t-132 -26q-71 0 -132.5 26t-107.5 72t-72.5 109.5t-26.5 137.5t26.5 137.5t72.5 109.5t107.5 72t132.5 26zM386 50q58 0 107.5 21t85.5 58.5t56.5 89t20.5 113.5
q0 61 -20.5 113t-56.5 89.5t-85.5 58.5t-107.5 21t-107.5 -21t-85.5 -58.5t-56.5 -89.5t-20.5 -113q0 -62 20.5 -113.5t56.5 -89t85.5 -58.5t107.5 -21zM557 869l-131 -151h-76l131 151h76z" />
    <glyph glyph-name="Ocircumflex" unicode="&#xd4;" horiz-adv-x="772" 
d="M386 677q70 0 132 -26t108 -72t72.5 -109.5t26.5 -137.5t-26.5 -137.5t-72.5 -109.5t-108 -72t-132 -26q-71 0 -132.5 26t-107.5 72t-72.5 109.5t-26.5 137.5t26.5 137.5t72.5 109.5t107.5 72t132.5 26zM386 50q58 0 107.5 21t85.5 58.5t56.5 89t20.5 113.5
q0 61 -20.5 113t-56.5 89.5t-85.5 58.5t-107.5 21t-107.5 -21t-85.5 -58.5t-56.5 -89.5t-20.5 -113q0 -62 20.5 -113.5t56.5 -89t85.5 -58.5t107.5 -21zM350 869h72l145 -151h-75l-105 103l-105 -103h-77z" />
    <glyph glyph-name="Otilde" unicode="&#xd5;" horiz-adv-x="772" 
d="M386 677q70 0 132 -26t108 -72t72.5 -109.5t26.5 -137.5t-26.5 -137.5t-72.5 -109.5t-108 -72t-132 -26q-71 0 -132.5 26t-107.5 72t-72.5 109.5t-26.5 137.5t26.5 137.5t72.5 109.5t107.5 72t132.5 26zM386 50q58 0 107.5 21t85.5 58.5t56.5 89t20.5 113.5
q0 61 -20.5 113t-56.5 89.5t-85.5 58.5t-107.5 21t-107.5 -21t-85.5 -58.5t-56.5 -89.5t-20.5 -113q0 -62 20.5 -113.5t56.5 -89t85.5 -58.5t107.5 -21zM463 779q47 0 47 90h60q0 -69 -28 -110t-79 -41q-24 0 -44.5 14t-39 31t-35.5 31t-35 14q-47 0 -47 -90h-60
q0 68 28 109.5t79 41.5q25 0 46.5 -14t40 -31t35.5 -31t32 -14z" />
    <glyph glyph-name="Odieresis" unicode="&#xd6;" horiz-adv-x="772" 
d="M386 677q70 0 132 -26t108 -72t72.5 -109.5t26.5 -137.5t-26.5 -137.5t-72.5 -109.5t-108 -72t-132 -26q-71 0 -132.5 26t-107.5 72t-72.5 109.5t-26.5 137.5t26.5 137.5t72.5 109.5t107.5 72t132.5 26zM386 50q58 0 107.5 21t85.5 58.5t56.5 89t20.5 113.5
q0 61 -20.5 113t-56.5 89.5t-85.5 58.5t-107.5 21t-107.5 -21t-85.5 -58.5t-56.5 -89.5t-20.5 -113q0 -62 20.5 -113.5t56.5 -89t85.5 -58.5t107.5 -21zM427 828h80v-86h-80v86zM266 828h80v-86h-80v86z" />
    <glyph glyph-name="multiply" unicode="&#xd7;" horiz-adv-x="501" 
d="M397 49l-146 146l-146 -146l-46 47l145 145l-145 146l46 47l146 -146l146 146l46 -47l-145 -146l145 -145z" />
    <glyph glyph-name="Oslash" unicode="&#xd8;" horiz-adv-x="784" 
d="M641 567q42 -45 65.5 -105t23.5 -130q0 -74 -26.5 -137.5t-72.5 -109.5t-108 -72t-132 -26q-59 0 -111.5 18t-95.5 51l-62 -69h-81l98 110q-41 45 -64 105t-23 130q0 74 26.5 137.5t72.5 109.5t107.5 72t132.5 26q58 0 110.5 -18.5t95.5 -50.5l62 69h81zM391 50
q58 0 107.5 21t85.5 58.5t56.5 89t20.5 113.5q0 56 -17 103t-46 84l-372 -415q69 -54 165 -54zM121 332q0 -56 16.5 -103t45.5 -83l371 414q-33 26 -74 40t-89 14q-58 0 -107.5 -21t-85.5 -58.5t-56.5 -89.5t-20.5 -113z" />
    <glyph glyph-name="Ugrave" unicode="&#xd9;" horiz-adv-x="740" 
d="M84 664h69v-390q0 -112 58 -168t159 -56t159 56t58 168v390h69v-391q0 -69 -20.5 -122.5t-58 -89.5t-90 -55t-117.5 -19t-117.5 19t-90 55t-58 89.5t-20.5 122.5v391zM295 869l131 -151h-76l-131 151h76z" />
    <glyph glyph-name="Uacute" unicode="&#xda;" horiz-adv-x="740" 
d="M84 664h69v-390q0 -112 58 -168t159 -56t159 56t58 168v390h69v-391q0 -69 -20.5 -122.5t-58 -89.5t-90 -55t-117.5 -19t-117.5 19t-90 55t-58 89.5t-20.5 122.5v391zM519 869l-131 -151h-76l131 151h76z" />
    <glyph glyph-name="Ucircumflex" unicode="&#xdb;" horiz-adv-x="740" 
d="M84 664h69v-390q0 -112 58 -168t159 -56t159 56t58 168v390h69v-391q0 -69 -20.5 -122.5t-58 -89.5t-90 -55t-117.5 -19t-117.5 19t-90 55t-58 89.5t-20.5 122.5v391zM335 869h72l145 -151h-75l-105 103l-105 -103h-77z" />
    <glyph glyph-name="Udieresis" unicode="&#xdc;" horiz-adv-x="740" 
d="M84 664h69v-390q0 -112 58 -168t159 -56t159 56t58 168v390h69v-391q0 -69 -20.5 -122.5t-58 -89.5t-90 -55t-117.5 -19t-117.5 19t-90 55t-58 89.5t-20.5 122.5v391zM411 828h80v-86h-80v86zM250 828h80v-86h-80v86z" />
    <glyph glyph-name="Yacute" unicode="&#xdd;" horiz-adv-x="560" 
d="M489 664h71l-246 -411v-253h-69v253l-245 411h74l207 -349zM442 869l-131 -151h-76l131 151h76z" />
    <glyph glyph-name="Thorn" unicode="&#xde;" horiz-adv-x="654" 
d="M158 530h236q57 0 98 -15t67.5 -41.5t39.5 -61t13 -73.5t-13 -73.5t-39.5 -60.5t-67.5 -41t-98 -15h-236v-149h-69v664h69v-134zM543 339q0 65 -40.5 96.5t-109.5 31.5h-235v-255h235q69 0 109.5 31t40.5 96z" />
    <glyph glyph-name="germandbls" unicode="&#xdf;" horiz-adv-x="585" 
d="M428 345q46 -23 68 -65.5t22 -93.5q0 -38 -12 -72t-35.5 -59.5t-58 -40t-80.5 -14.5h-46v60h24q69 0 105.5 35t36.5 91t-36.5 91.5t-105.5 35.5h-24v60h23q66 0 99.5 36t33.5 90q0 57 -40 90t-101 33q-66 0 -108.5 -45.5t-42.5 -127.5v-449h-66v449q0 115 59 174t159 59
q44 0 81.5 -12.5t65.5 -36.5t43.5 -58t15.5 -76q0 -50 -20.5 -90t-59.5 -64z" />
    <glyph glyph-name="agrave" unicode="&#xe0;" horiz-adv-x="542" 
d="M259 465q46 0 84.5 -11.5t66.5 -34t43.5 -55t15.5 -74.5v-290h-66v56q-28 -32 -68.5 -50.5t-94.5 -18.5q-39 0 -73.5 9t-59.5 27.5t-39.5 46t-14.5 64.5q0 39 15 67t41.5 45.5t61 26t73.5 8.5h159v9q0 31 -11 52.5t-30.5 35.5t-46.5 20.5t-58 6.5q-54 0 -90.5 -22
t-50.5 -54h-71q20 64 77 100t137 36zM403 221h-161q-57 0 -90 -21.5t-33 -65.5t34 -65.5t88 -21.5q39 0 69.5 11.5t51 31t31 44.5t10.5 52v35zM215 696l131 -171h-76l-131 171h76z" />
    <glyph glyph-name="aacute" unicode="&#xe1;" horiz-adv-x="542" 
d="M259 465q46 0 84.5 -11.5t66.5 -34t43.5 -55t15.5 -74.5v-290h-66v56q-28 -32 -68.5 -50.5t-94.5 -18.5q-39 0 -73.5 9t-59.5 27.5t-39.5 46t-14.5 64.5q0 39 15 67t41.5 45.5t61 26t73.5 8.5h159v9q0 31 -11 52.5t-30.5 35.5t-46.5 20.5t-58 6.5q-54 0 -90.5 -22
t-50.5 -54h-71q20 64 77 100t137 36zM403 221h-161q-57 0 -90 -21.5t-33 -65.5t34 -65.5t88 -21.5q39 0 69.5 11.5t51 31t31 44.5t10.5 52v35zM401 696l-131 -171h-76l131 171h76z" />
    <glyph glyph-name="acircumflex" unicode="&#xe2;" horiz-adv-x="542" 
d="M259 465q46 0 84.5 -11.5t66.5 -34t43.5 -55t15.5 -74.5v-290h-66v56q-28 -32 -68.5 -50.5t-94.5 -18.5q-39 0 -73.5 9t-59.5 27.5t-39.5 46t-14.5 64.5q0 39 15 67t41.5 45.5t61 26t73.5 8.5h159v9q0 31 -11 52.5t-30.5 35.5t-46.5 20.5t-58 6.5q-54 0 -90.5 -22
t-50.5 -54h-71q20 64 77 100t137 36zM403 221h-161q-57 0 -90 -21.5t-33 -65.5t34 -65.5t88 -21.5q39 0 69.5 11.5t51 31t31 44.5t10.5 52v35zM230 696h74l144 -171h-73l-107 123l-107 -123h-75z" />
    <glyph glyph-name="atilde" unicode="&#xe3;" horiz-adv-x="542" 
d="M259 465q46 0 84.5 -11.5t66.5 -34t43.5 -55t15.5 -74.5v-290h-66v56q-28 -32 -68.5 -50.5t-94.5 -18.5q-39 0 -73.5 9t-59.5 27.5t-39.5 46t-14.5 64.5q0 39 15 67t41.5 45.5t61 26t73.5 8.5h159v9q0 31 -11 52.5t-30.5 35.5t-46.5 20.5t-58 6.5q-54 0 -90.5 -22
t-50.5 -54h-71q20 64 77 100t137 36zM403 221h-161q-57 0 -90 -21.5t-33 -65.5t34 -65.5t88 -21.5q39 0 69.5 11.5t51 31t31 44.5t10.5 52v35zM343 590q47 0 47 90h60q0 -69 -28 -110t-79 -41q-24 0 -44.5 14t-39 31t-35.5 31t-35 14q-47 0 -47 -90h-60q0 68 28 109.5
t79 41.5q25 0 46.5 -14t40 -31t35.5 -31t32 -14z" />
    <glyph glyph-name="adieresis" unicode="&#xe4;" horiz-adv-x="542" 
d="M259 465q46 0 84.5 -11.5t66.5 -34t43.5 -55t15.5 -74.5v-290h-66v56q-28 -32 -68.5 -50.5t-94.5 -18.5q-39 0 -73.5 9t-59.5 27.5t-39.5 46t-14.5 64.5q0 39 15 67t41.5 45.5t61 26t73.5 8.5h159v9q0 31 -11 52.5t-30.5 35.5t-46.5 20.5t-58 6.5q-54 0 -90.5 -22
t-50.5 -54h-71q20 64 77 100t137 36zM403 221h-161q-57 0 -90 -21.5t-33 -65.5t34 -65.5t88 -21.5q39 0 69.5 11.5t51 31t31 44.5t10.5 52v35zM308 657h80v-86h-80v86zM147 657h80v-86h-80v86z" />
    <glyph glyph-name="aring" unicode="&#xe5;" horiz-adv-x="542" 
d="M259 465q46 0 84.5 -11.5t66.5 -34t43.5 -55t15.5 -74.5v-290h-66v56q-28 -32 -68.5 -50.5t-94.5 -18.5q-39 0 -73.5 9t-59.5 27.5t-39.5 46t-14.5 64.5q0 39 15 67t41.5 45.5t61 26t73.5 8.5h159v9q0 31 -11 52.5t-30.5 35.5t-46.5 20.5t-58 6.5q-54 0 -90.5 -22
t-50.5 -54h-71q20 64 77 100t137 36zM403 221h-161q-57 0 -90 -21.5t-33 -65.5t34 -65.5t88 -21.5q39 0 69.5 11.5t51 31t31 44.5t10.5 52v35zM137 641q0 27 10 50t27.5 40.5t40.5 27.5t50 10t50 -10t40.5 -27.5t27.5 -40.5t10 -50t-10 -50t-27.5 -40.5t-40.5 -27.5t-50 -10
t-50 10t-40.5 27.5t-27.5 40.5t-10 50zM195 641q0 -29 20.5 -49.5t49.5 -20.5t49.5 20.5t20.5 49.5t-20.5 49.5t-49.5 20.5t-49.5 -20.5t-20.5 -49.5z" />
    <glyph glyph-name="ae" unicode="&#xe6;" horiz-adv-x="896" 
d="M847 231v-14t-2 -15h-374q3 -33 17 -61t35.5 -49t50 -33t61.5 -12q51 0 84.5 19.5t53.5 54.5h68q-24 -64 -77.5 -99t-128.5 -35q-64 0 -114.5 27.5t-81.5 76.5q-25 -42 -74.5 -73t-124.5 -31q-39 0 -73.5 9t-59.5 27.5t-39.5 46t-14.5 64.5q0 39 15 67t41.5 45.5t61 26
t73.5 8.5h159v9q0 31 -11 52.5t-30.5 35.5t-46.5 20.5t-58 6.5q-54 0 -90.5 -22t-50.5 -54h-71q20 64 77 100t137 36q66 0 115 -23t74 -67q30 42 76.5 66t106.5 24q47 0 86.5 -18t68.5 -49.5t45 -74.5t16 -92zM403 221h-161q-57 0 -90 -21.5t-33 -65.5t34 -65.5t88 -21.5
q39 0 69.5 11.5t51 31t31 44.5t10.5 52v35zM779 262q-4 30 -15.5 56t-30.5 45.5t-44.5 30.5t-57.5 11q-69 0 -110.5 -39.5t-49.5 -103.5h308z" />
    <glyph glyph-name="ccedilla" unicode="&#xe7;" horiz-adv-x="541" 
d="M423 331q-19 32 -54.5 53t-82.5 21q-37 0 -68 -14t-53 -38.5t-34.5 -57t-12.5 -69.5t12.5 -69.5t34.5 -57t53 -38.5t68 -14q47 0 82.5 21t54.5 53h71q-20 -51 -61 -84.5t-98 -44.5l-135 -176h-76l134 173q-44 5 -82 25t-65.5 51.5t-43 72.5t-15.5 88q0 51 18 94.5
t49.5 76t74 50.5t92.5 18q75 0 129.5 -36t78.5 -98h-71z" />
    <glyph glyph-name="egrave" unicode="&#xe8;" horiz-adv-x="548" 
d="M496 231v-14t-2 -15h-374q3 -33 17 -61t35.5 -49t50 -33t61.5 -12q51 0 84.5 19.5t53.5 54.5h68q-24 -64 -77.5 -99t-128.5 -35q-50 0 -92.5 17.5t-73.5 49.5t-48.5 76t-17.5 97q0 51 16.5 94.5t46.5 75.5t72 50t93 18q47 0 86.5 -18t68.5 -49.5t45 -74.5t16 -92z
M428 262q-4 30 -15.5 56t-30.5 45.5t-44.5 30.5t-57.5 11q-69 0 -110.5 -39.5t-49.5 -103.5h308zM207 696l131 -171h-76l-131 171h76z" />
    <glyph glyph-name="eacute" unicode="&#xe9;" horiz-adv-x="548" 
d="M496 231v-14t-2 -15h-374q3 -33 17 -61t35.5 -49t50 -33t61.5 -12q51 0 84.5 19.5t53.5 54.5h68q-24 -64 -77.5 -99t-128.5 -35q-50 0 -92.5 17.5t-73.5 49.5t-48.5 76t-17.5 97q0 51 16.5 94.5t46.5 75.5t72 50t93 18q47 0 86.5 -18t68.5 -49.5t45 -74.5t16 -92z
M428 262q-4 30 -15.5 56t-30.5 45.5t-44.5 30.5t-57.5 11q-69 0 -110.5 -39.5t-49.5 -103.5h308zM420 696l-131 -171h-76l131 171h76z" />
    <glyph glyph-name="ecircumflex" unicode="&#xea;" horiz-adv-x="548" 
d="M496 231v-14t-2 -15h-374q3 -33 17 -61t35.5 -49t50 -33t61.5 -12q51 0 84.5 19.5t53.5 54.5h68q-24 -64 -77.5 -99t-128.5 -35q-50 0 -92.5 17.5t-73.5 49.5t-48.5 76t-17.5 97q0 51 16.5 94.5t46.5 75.5t72 50t93 18q47 0 86.5 -18t68.5 -49.5t45 -74.5t16 -92z
M428 262q-4 30 -15.5 56t-30.5 45.5t-44.5 30.5t-57.5 11q-69 0 -110.5 -39.5t-49.5 -103.5h308zM245 696h74l144 -171h-73l-107 123l-107 -123h-75z" />
    <glyph glyph-name="edieresis" unicode="&#xeb;" horiz-adv-x="548" 
d="M496 231v-14t-2 -15h-374q3 -33 17 -61t35.5 -49t50 -33t61.5 -12q51 0 84.5 19.5t53.5 54.5h68q-24 -64 -77.5 -99t-128.5 -35q-50 0 -92.5 17.5t-73.5 49.5t-48.5 76t-17.5 97q0 51 16.5 94.5t46.5 75.5t72 50t93 18q47 0 86.5 -18t68.5 -49.5t45 -74.5t16 -92z
M428 262q-4 30 -15.5 56t-30.5 45.5t-44.5 30.5t-57.5 11q-69 0 -110.5 -39.5t-49.5 -103.5h308zM315 657h80v-86h-80v86zM154 657h80v-86h-80v86z" />
    <glyph glyph-name="igrave" unicode="&#xec;" horiz-adv-x="238" 
d="M30 696l131 -171h-76l-131 171h76zM155 452v-452h-66v452h66z" />
    <glyph glyph-name="iacute" unicode="&#xed;" horiz-adv-x="238" 
d="M282 696l-131 -171h-76l131 171h76zM152 452v-452h-66v452h66z" />
    <glyph glyph-name="icircumflex" unicode="&#xee;" horiz-adv-x="238" 
d="M152 452v-452h-66v452h66zM83 696h74l144 -171h-73l-107 123l-107 -123h-75z" />
    <glyph glyph-name="idieresis" unicode="&#xef;" horiz-adv-x="238" 
d="M161 657h80v-86h-80v86zM0 657h80v-86h-80v86zM155 452v-452h-66v452h66z" />
    <glyph glyph-name="eth" unicode="&#xf0;" horiz-adv-x="562" 
d="M219 669l50 -62l133 63v-55l-101 -48l128 -162q41 -51 60.5 -97t19.5 -96q0 -47 -17 -87.5t-47.5 -71.5t-72.5 -48.5t-91 -17.5q-50 0 -91.5 18t-72.5 49t-48 72.5t-17 88.5q0 48 17 90t47 73.5t70.5 49.5t87.5 18q13 0 27 -1.5t26 -6.5l-83 101l-140 -67v57l107 51
l-71 89h79zM281 47q36 0 66 13.5t51.5 36t33 53t11.5 65.5t-11.5 66t-33 54.5t-51.5 37t-66 13.5t-65.5 -13.5t-51.5 -37t-34 -54.5t-12 -66t12 -65.5t34 -53t51.5 -36t65.5 -13.5z" />
    <glyph glyph-name="ntilde" unicode="&#xf1;" horiz-adv-x="578" 
d="M310 465q48 0 84 -15.5t61 -42.5t37.5 -64t12.5 -80v-263h-66v263q0 60 -31.5 101t-97.5 41q-30 0 -59 -11t-51.5 -32.5t-36 -52t-13.5 -69.5v-240h-66v452h66v-57q24 31 64 50.5t96 19.5zM366 590q47 0 47 90h60q0 -69 -28 -110t-79 -41q-24 0 -44.5 14t-39 31t-35.5 31
t-35 14q-47 0 -47 -90h-60q0 68 28 109.5t79 41.5q25 0 46.5 -14t40 -31t35.5 -31t32 -14z" />
    <glyph glyph-name="ograve" unicode="&#xf2;" horiz-adv-x="570" 
d="M517 226q0 -51 -17.5 -95t-48.5 -76t-73.5 -50t-92.5 -18t-93 18t-74 50t-48.5 76t-17.5 95t17.5 95t48.5 76t74 50t93 18t92.5 -18t73.5 -50t48.5 -76t17.5 -95zM451 226q0 37 -12 69.5t-33.5 57t-52.5 38.5t-68 14q-38 0 -68.5 -14t-52.5 -38.5t-34 -57t-12 -69.5
t12 -69.5t34 -57t52.5 -38.5t68.5 -14q37 0 68 14t52.5 38.5t33.5 57t12 69.5zM205 696l131 -171h-76l-131 171h76z" />
    <glyph glyph-name="oacute" unicode="&#xf3;" horiz-adv-x="570" 
d="M517 226q0 -51 -17.5 -95t-48.5 -76t-73.5 -50t-92.5 -18t-93 18t-74 50t-48.5 76t-17.5 95t17.5 95t48.5 76t74 50t93 18t92.5 -18t73.5 -50t48.5 -76t17.5 -95zM451 226q0 37 -12 69.5t-33.5 57t-52.5 38.5t-68 14q-38 0 -68.5 -14t-52.5 -38.5t-34 -57t-12 -69.5
t12 -69.5t34 -57t52.5 -38.5t68.5 -14q37 0 68 14t52.5 38.5t33.5 57t12 69.5zM440 696l-131 -171h-76l131 171h76z" />
    <glyph glyph-name="ocircumflex" unicode="&#xf4;" horiz-adv-x="570" 
d="M517 226q0 -51 -17.5 -95t-48.5 -76t-73.5 -50t-92.5 -18t-93 18t-74 50t-48.5 76t-17.5 95t17.5 95t48.5 76t74 50t93 18t92.5 -18t73.5 -50t48.5 -76t17.5 -95zM451 226q0 37 -12 69.5t-33.5 57t-52.5 38.5t-68 14q-38 0 -68.5 -14t-52.5 -38.5t-34 -57t-12 -69.5
t12 -69.5t34 -57t52.5 -38.5t68.5 -14q37 0 68 14t52.5 38.5t33.5 57t12 69.5zM248 696h74l144 -171h-73l-107 123l-107 -123h-75z" />
    <glyph glyph-name="otilde" unicode="&#xf5;" horiz-adv-x="570" 
d="M517 226q0 -51 -17.5 -95t-48.5 -76t-73.5 -50t-92.5 -18t-93 18t-74 50t-48.5 76t-17.5 95t17.5 95t48.5 76t74 50t93 18t92.5 -18t73.5 -50t48.5 -76t17.5 -95zM451 226q0 37 -12 69.5t-33.5 57t-52.5 38.5t-68 14q-38 0 -68.5 -14t-52.5 -38.5t-34 -57t-12 -69.5
t12 -69.5t34 -57t52.5 -38.5t68.5 -14q37 0 68 14t52.5 38.5t33.5 57t12 69.5zM362 590q47 0 47 90h60q0 -69 -28 -110t-79 -41q-24 0 -44.5 14t-39 31t-35.5 31t-35 14q-47 0 -47 -90h-60q0 68 28 109.5t79 41.5q25 0 46.5 -14t40 -31t35.5 -31t32 -14z" />
    <glyph glyph-name="odieresis" unicode="&#xf6;" horiz-adv-x="570" 
d="M517 226q0 -51 -17.5 -95t-48.5 -76t-73.5 -50t-92.5 -18t-93 18t-74 50t-48.5 76t-17.5 95t17.5 95t48.5 76t74 50t93 18t92.5 -18t73.5 -50t48.5 -76t17.5 -95zM451 226q0 37 -12 69.5t-33.5 57t-52.5 38.5t-68 14q-38 0 -68.5 -14t-52.5 -38.5t-34 -57t-12 -69.5
t12 -69.5t34 -57t52.5 -38.5t68.5 -14q37 0 68 14t52.5 38.5t33.5 57t12 69.5zM326 657h80v-86h-80v86zM165 657h80v-86h-80v86z" />
    <glyph glyph-name="divide" unicode="&#xf7;" horiz-adv-x="535" 
d="M217 439h100v-100h-100v100zM217 150h100v-100h-100v100zM478 276v-63h-422v63h422z" />
    <glyph glyph-name="oslash" unicode="&#xf8;" horiz-adv-x="570" 
d="M458 388q28 -32 43.5 -73t15.5 -89q0 -51 -17.5 -95t-48.5 -76t-73.5 -50t-92.5 -18q-72 0 -129 37l-30 -37h-79l63 76q-28 32 -43 73.5t-15 89.5q0 51 17.5 95t48.5 76t74 50t93 18q71 0 127 -37l31 37h79zM118 226q0 -64 34 -112l220 266q-18 11 -40 18t-47 7
q-38 0 -68.5 -14t-52.5 -38.5t-34 -57t-12 -69.5zM285 47q37 0 68 14t52.5 38.5t33.5 57t12 69.5q0 64 -34 112l-221 -266q39 -25 89 -25z" />
    <glyph glyph-name="ugrave" unicode="&#xf9;" horiz-adv-x="572" 
d="M265 -13q-47 0 -83 15.5t-60 42.5t-36.5 64t-12.5 80v263h66v-263q0 -30 7.5 -56t23 -45t39.5 -30t56 -11q30 0 58 11t50 32.5t35.5 52t13.5 69.5v240h66v-452h-66v57q-24 -31 -63 -50.5t-94 -19.5zM198 696l131 -171h-76l-131 171h76z" />
    <glyph glyph-name="uacute" unicode="&#xfa;" horiz-adv-x="572" 
d="M265 -13q-47 0 -83 15.5t-60 42.5t-36.5 64t-12.5 80v263h66v-263q0 -30 7.5 -56t23 -45t39.5 -30t56 -11q30 0 58 11t50 32.5t35.5 52t13.5 69.5v240h66v-452h-66v57q-24 -31 -63 -50.5t-94 -19.5zM443 696l-131 -171h-76l131 171h76z" />
    <glyph glyph-name="ucircumflex" unicode="&#xfb;" horiz-adv-x="572" 
d="M265 -13q-47 0 -83 15.5t-60 42.5t-36.5 64t-12.5 80v263h66v-263q0 -30 7.5 -56t23 -45t39.5 -30t56 -11q30 0 58 11t50 32.5t35.5 52t13.5 69.5v240h66v-452h-66v57q-24 -31 -63 -50.5t-94 -19.5zM249 696h74l144 -171h-73l-107 123l-107 -123h-75z" />
    <glyph glyph-name="udieresis" unicode="&#xfc;" horiz-adv-x="572" 
d="M265 -13q-47 0 -83 15.5t-60 42.5t-36.5 64t-12.5 80v263h66v-263q0 -30 7.5 -56t23 -45t39.5 -30t56 -11q30 0 58 11t50 32.5t35.5 52t13.5 69.5v240h66v-452h-66v57q-24 -31 -63 -50.5t-94 -19.5zM326 657h80v-86h-80v86zM165 657h80v-86h-80v86z" />
    <glyph glyph-name="yacute" unicode="&#xfd;" horiz-adv-x="500" 
d="M83 452l169 -374l169 374h69l-207 -455q-23 -49 -38.5 -86.5t-32.5 -63t-40.5 -38.5t-62.5 -13h-36v60h16q22 0 37 5t27 17t23 32t23 50l17 41l-206 451h73zM415 696l-131 -171h-76l131 171h76z" />
    <glyph glyph-name="thorn" unicode="&#xfe;" horiz-adv-x="593" 
d="M541 226q0 -47 -14.5 -90t-43 -76t-71.5 -53t-99 -20q-57 0 -99 21.5t-64 48.5v-261h-66v873h66v-274q22 27 64 48.5t99 21.5q56 0 99 -20t71.5 -53t43 -76t14.5 -90zM475 226q0 36 -11.5 68.5t-33 57t-51.5 39t-66 14.5q-33 0 -62.5 -11t-52.5 -33.5t-36.5 -56
t-13.5 -78.5t13.5 -78.5t36.5 -56t52.5 -33.5t62.5 -11q36 0 66 14.5t51.5 39t33 57t11.5 68.5z" />
    <glyph glyph-name="ydieresis" unicode="&#xff;" horiz-adv-x="500" 
d="M83 452l169 -374l169 374h69l-207 -455q-23 -49 -38.5 -86.5t-32.5 -63t-40.5 -38.5t-62.5 -13h-36v60h16q22 0 37 5t27 17t23 32t23 50l17 41l-206 451h73zM292 657h80v-86h-80v86zM131 657h80v-86h-80v86z" />
    <glyph glyph-name="Amacron" unicode="&#x100;" horiz-adv-x="668" 
d="M525 159h-382l-70 -159h-73l292 664h85l291 -664h-73zM171 222h326l-163 370zM502 800v-61h-336v61h336z" />
    <glyph glyph-name="amacron" unicode="&#x101;" horiz-adv-x="542" 
d="M259 465q46 0 84.5 -11.5t66.5 -34t43.5 -55t15.5 -74.5v-290h-66v56q-28 -32 -68.5 -50.5t-94.5 -18.5q-39 0 -73.5 9t-59.5 27.5t-39.5 46t-14.5 64.5q0 39 15 67t41.5 45.5t61 26t73.5 8.5h159v9q0 31 -11 52.5t-30.5 35.5t-46.5 20.5t-58 6.5q-54 0 -90.5 -22
t-50.5 -54h-71q20 64 77 100t137 36zM403 221h-161q-57 0 -90 -21.5t-33 -65.5t34 -65.5t88 -21.5q39 0 69.5 11.5t51 31t31 44.5t10.5 52v35zM434 632v-61h-336v61h336z" />
    <glyph glyph-name="Abreve" unicode="&#x102;" horiz-adv-x="668" 
d="M525 159h-382l-70 -159h-73l292 664h85l291 -664h-73zM171 222h326l-163 370zM505 869q-3 -32 -16.5 -59.5t-36 -47.5t-53 -32t-65.5 -12q-36 0 -66 12t-52.5 32t-36 47.5t-16.5 59.5h60q5 -39 35.5 -64.5t75.5 -25.5t75 25.5t35 64.5h61z" />
    <glyph glyph-name="abreve" unicode="&#x103;" horiz-adv-x="542" 
d="M259 465q46 0 84.5 -11.5t66.5 -34t43.5 -55t15.5 -74.5v-290h-66v56q-28 -32 -68.5 -50.5t-94.5 -18.5q-39 0 -73.5 9t-59.5 27.5t-39.5 46t-14.5 64.5q0 39 15 67t41.5 45.5t61 26t73.5 8.5h159v9q0 31 -11 52.5t-30.5 35.5t-46.5 20.5t-58 6.5q-54 0 -90.5 -22
t-50.5 -54h-71q20 64 77 100t137 36zM403 221h-161q-57 0 -90 -21.5t-33 -65.5t34 -65.5t88 -21.5q39 0 69.5 11.5t51 31t31 44.5t10.5 52v35zM439 696q-2 -33 -16 -63.5t-36.5 -54.5t-53.5 -38.5t-67 -14.5q-37 0 -67.5 14.5t-53.5 38.5t-36.5 54.5t-15.5 63.5h60
q2 -21 11 -40.5t24 -35t34.5 -25t43.5 -9.5t43.5 9.5t34 25t23.5 35t11 40.5h61z" />
    <glyph glyph-name="Aogonek" unicode="&#x104;" horiz-adv-x="668" 
d="M525 159h-382l-70 -159h-73l292 664h85l291 -664q-11 -10 -26.5 -23t-30 -27.5t-24.5 -29.5t-10 -27q0 -34 50 -34h41v-63h-40q-58 0 -86 21.5t-28 61.5q0 32 24.5 63t56.5 58zM171 222h326l-163 369z" />
    <glyph glyph-name="aogonek" unicode="&#x105;" horiz-adv-x="542" 
d="M259 465q46 0 84.5 -11.5t66.5 -34t43.5 -55t15.5 -74.5v-290q-11 -10 -26.5 -23.5t-30 -28t-24.5 -29t-10 -26.5q0 -34 49 -34h42v-63h-41q-58 0 -85.5 21.5t-27.5 61.5q0 32 25.5 62.5t62.5 58.5v56q-28 -32 -68.5 -50.5t-94.5 -18.5q-39 0 -73.5 9t-59.5 27.5
t-39.5 46t-14.5 64.5q0 39 15 67t41.5 45.5t61 26t73.5 8.5h159v9q0 31 -11 52.5t-30.5 35.5t-46.5 20.5t-58 6.5q-54 0 -90.5 -22t-50.5 -54h-71q20 64 77 100t137 36zM403 221h-161q-57 0 -90 -21.5t-33 -65.5t34 -65.5t88 -21.5q39 0 69.5 11.5t51 31t31 44.5t10.5 52v35
z" />
    <glyph glyph-name="Cacute" unicode="&#x106;" horiz-adv-x="711" 
d="M387 614q-59 0 -108.5 -21t-85.5 -58.5t-56.5 -89.5t-20.5 -113t20.5 -113t56.5 -89.5t85.5 -58.5t108.5 -21q71 0 121 29.5t82 76.5h76q-39 -75 -110 -122t-169 -47q-72 0 -134 26.5t-108 73t-72 109.5t-26 136t26 136t72 109.5t108 73t134 26.5q98 0 169 -47t110 -122
h-76q-32 47 -82 76.5t-121 29.5zM537 869l-131 -151h-76l131 151h76z" />
    <glyph glyph-name="cacute" unicode="&#x107;" horiz-adv-x="541" 
d="M423 331q-19 32 -54.5 53t-82.5 21q-37 0 -68 -14t-53 -38.5t-34.5 -57t-12.5 -69.5t12.5 -69.5t34.5 -57t53 -38.5t68 -14q47 0 82.5 21t54.5 53h71q-24 -62 -78.5 -98t-129.5 -36q-50 0 -92.5 18t-74 50.5t-49.5 76t-18 94.5t18 94.5t49.5 76t74 50.5t92.5 18
q75 0 129.5 -36t78.5 -98h-71zM428 696l-131 -171h-76l131 171h76z" />
    <glyph glyph-name="Ccircumflex" unicode="&#x108;" horiz-adv-x="711" 
d="M387 614q-59 0 -108.5 -21t-85.5 -58.5t-56.5 -89.5t-20.5 -113t20.5 -113t56.5 -89.5t85.5 -58.5t108.5 -21q71 0 121 29.5t82 76.5h76q-39 -75 -110 -122t-169 -47q-72 0 -134 26.5t-108 73t-72 109.5t-26 136t26 136t72 109.5t108 73t134 26.5q98 0 169 -47t110 -122
h-76q-32 47 -82 76.5t-121 29.5zM349 869h72l145 -151h-75l-105 103l-105 -103h-77z" />
    <glyph glyph-name="ccircumflex" unicode="&#x109;" horiz-adv-x="541" 
d="M423 331q-19 32 -54.5 53t-82.5 21q-37 0 -68 -14t-53 -38.5t-34.5 -57t-12.5 -69.5t12.5 -69.5t34.5 -57t53 -38.5t68 -14q47 0 82.5 21t54.5 53h71q-24 -62 -78.5 -98t-129.5 -36q-50 0 -92.5 18t-74 50.5t-49.5 76t-18 94.5t18 94.5t49.5 76t74 50.5t92.5 18
q75 0 129.5 -36t78.5 -98h-71zM246 696h74l144 -171h-73l-107 123l-107 -123h-75z" />
    <glyph glyph-name="Cdotaccent" unicode="&#x10a;" horiz-adv-x="711" 
d="M387 614q-59 0 -108.5 -21t-85.5 -58.5t-56.5 -89.5t-20.5 -113t20.5 -113t56.5 -89.5t85.5 -58.5t108.5 -21q71 0 121 29.5t82 76.5h76q-39 -75 -110 -122t-169 -47q-72 0 -134 26.5t-108 73t-72 109.5t-26 136t26 136t72 109.5t108 73t134 26.5q98 0 169 -47t110 -122
h-76q-32 47 -82 76.5t-121 29.5zM339 838h75v-81h-75v81z" />
    <glyph glyph-name="cdotaccent" unicode="&#x10b;" horiz-adv-x="541" 
d="M423 331q-19 32 -54.5 53t-82.5 21q-37 0 -68 -14t-53 -38.5t-34.5 -57t-12.5 -69.5t12.5 -69.5t34.5 -57t53 -38.5t68 -14q47 0 82.5 21t54.5 53h71q-24 -62 -78.5 -98t-129.5 -36q-50 0 -92.5 18t-74 50.5t-49.5 76t-18 94.5t18 94.5t49.5 76t74 50.5t92.5 18
q75 0 129.5 -36t78.5 -98h-71zM238 659h81v-88h-81v88z" />
    <glyph glyph-name="Ccaron" unicode="&#x10c;" horiz-adv-x="711" 
d="M387 614q-59 0 -108.5 -21t-85.5 -58.5t-56.5 -89.5t-20.5 -113t20.5 -113t56.5 -89.5t85.5 -58.5t108.5 -21q71 0 121 29.5t82 76.5h76q-39 -75 -110 -122t-169 -47q-72 0 -134 26.5t-108 73t-72 109.5t-26 136t26 136t72 109.5t108 73t134 26.5q98 0 169 -47t110 -122
h-76q-32 47 -82 76.5t-121 29.5zM419 718h-72l-145 151h75l105 -103l105 103h77z" />
    <glyph glyph-name="ccaron" unicode="&#x10d;" horiz-adv-x="541" 
d="M423 331q-19 32 -54.5 53t-82.5 21q-37 0 -68 -14t-53 -38.5t-34.5 -57t-12.5 -69.5t12.5 -69.5t34.5 -57t53 -38.5t68 -14q47 0 82.5 21t54.5 53h71q-24 -62 -78.5 -98t-129.5 -36q-50 0 -92.5 18t-74 50.5t-49.5 76t-18 94.5t18 94.5t49.5 76t74 50.5t92.5 18
q75 0 129.5 -36t78.5 -98h-71zM314 525h-74l-144 171h73l107 -123l107 123h75z" />
    <glyph glyph-name="Dcaron" unicode="&#x10e;" horiz-adv-x="720" 
d="M308 664q87 0 155 -26.5t114.5 -71.5t71 -105.5t24.5 -128.5t-24.5 -128.5t-71 -105.5t-114.5 -71.5t-155 -26.5h-219v664h219zM604 332q0 60 -20 109.5t-57.5 85t-91 55t-121.5 19.5h-156v-538h156q68 0 121.5 19.5t91 55t57.5 85t20 109.5zM370 718h-72l-145 151h75
l105 -103l105 103h77z" />
    <glyph glyph-name="dcaron" unicode="&#x10f;" horiz-adv-x="706" 
d="M52 226q0 47 14.5 90t43 76t71.5 53t99 20q57 0 99 -21.5t64 -48.5v274h66v-669h-66v57q-22 -27 -64 -48.5t-99 -21.5q-56 0 -99 20t-71.5 53t-43 76t-14.5 90zM118 226q0 -36 11.5 -68.5t33 -57t51.5 -39t66 -14.5q33 0 62.5 11t52.5 33.5t36.5 56t13.5 78.5t-13.5 78.5
t-36.5 56t-52.5 33.5t-62.5 11q-36 0 -66 -14.5t-51.5 -39t-33 -57t-11.5 -68.5zM595 465l64 107h-45v92h92v-100l-60 -99h-51z" />
    <glyph glyph-name="Dcroat" unicode="&#x110;" horiz-adv-x="743" 
d="M331 664q87 0 155 -26.5t114.5 -71.5t71 -105.5t24.5 -128.5t-24.5 -128.5t-71 -105.5t-114.5 -71.5t-155 -26.5h-219v300h-91v63h91v301h219zM627 332q0 60 -20 109.5t-57.5 85t-91 55t-121.5 19.5h-156v-238h234v-63h-234v-237h156q68 0 121.5 19.5t91 55t57.5 85
t20 109.5z" />
    <glyph glyph-name="dcroat" unicode="&#x111;" horiz-adv-x="597" 
d="M443 0v57q-22 -27 -64 -48.5t-99 -21.5q-56 0 -99 20t-71.5 53t-43 76t-14.5 90t14.5 90t43 76t71.5 53t99 20q57 0 99 -21.5t64 -48.5v139h-152v60h152v75h66v-75h79v-60h-79v-534h-66zM118 226q0 -36 11.5 -68.5t33 -57t51.5 -39t66 -14.5q33 0 62.5 11t52.5 33.5
t36.5 56t13.5 78.5t-13.5 78.5t-36.5 56t-52.5 33.5t-62.5 11q-36 0 -66 -14.5t-51.5 -39t-33 -57t-11.5 -68.5z" />
    <glyph glyph-name="Emacron" unicode="&#x112;" horiz-adv-x="599" 
d="M158 601v-238h366v-63h-366v-237h373v-63h-442v664h442v-63h-373zM478 800v-61h-336v61h336z" />
    <glyph glyph-name="emacron" unicode="&#x113;" horiz-adv-x="548" 
d="M496 231v-14t-2 -15h-374q3 -33 17 -61t35.5 -49t50 -33t61.5 -12q51 0 84.5 19.5t53.5 54.5h68q-24 -64 -77.5 -99t-128.5 -35q-50 0 -92.5 17.5t-73.5 49.5t-48.5 76t-17.5 97q0 51 16.5 94.5t46.5 75.5t72 50t93 18q47 0 86.5 -18t68.5 -49.5t45 -74.5t16 -92z
M428 262q-4 30 -15.5 56t-30.5 45.5t-44.5 30.5t-57.5 11q-69 0 -110.5 -39.5t-49.5 -103.5h308zM449 632v-61h-336v61h336z" />
    <glyph glyph-name="Ebreve" unicode="&#x114;" horiz-adv-x="599" 
d="M158 601v-238h366v-63h-366v-237h373v-63h-442v664h442v-63h-373zM480 869q-3 -32 -16.5 -59.5t-36 -47.5t-53 -32t-65.5 -12q-36 0 -66 12t-52.5 32t-36 47.5t-16.5 59.5h60q5 -39 35.5 -64.5t75.5 -25.5t75 25.5t35 64.5h61z" />
    <glyph glyph-name="ebreve" unicode="&#x115;" horiz-adv-x="548" 
d="M496 231v-14t-2 -15h-374q3 -33 17 -61t35.5 -49t50 -33t61.5 -12q51 0 84.5 19.5t53.5 54.5h68q-24 -64 -77.5 -99t-128.5 -35q-50 0 -92.5 17.5t-73.5 49.5t-48.5 76t-17.5 97q0 51 16.5 94.5t46.5 75.5t72 50t93 18q47 0 86.5 -18t68.5 -49.5t45 -74.5t16 -92z
M428 262q-4 30 -15.5 56t-30.5 45.5t-44.5 30.5t-57.5 11q-69 0 -110.5 -39.5t-49.5 -103.5h308zM455 696q-2 -33 -16 -63.5t-36.5 -54.5t-53.5 -38.5t-67 -14.5q-37 0 -67.5 14.5t-53.5 38.5t-36.5 54.5t-15.5 63.5h60q2 -21 11 -40.5t24 -35t34.5 -25t43.5 -9.5t43.5 9.5
t34 25t23.5 35t11 40.5h61z" />
    <glyph glyph-name="Edotaccent" unicode="&#x116;" horiz-adv-x="599" 
d="M158 601v-238h366v-63h-366v-237h373v-63h-442v664h442v-63h-373zM273 838h75v-81h-75v81z" />
    <glyph glyph-name="edotaccent" unicode="&#x117;" horiz-adv-x="548" 
d="M496 231v-14t-2 -15h-374q3 -33 17 -61t35.5 -49t50 -33t61.5 -12q51 0 84.5 19.5t53.5 54.5h68q-24 -64 -77.5 -99t-128.5 -35q-50 0 -92.5 17.5t-73.5 49.5t-48.5 76t-17.5 97q0 51 16.5 94.5t46.5 75.5t72 50t93 18q47 0 86.5 -18t68.5 -49.5t45 -74.5t16 -92z
M428 262q-4 30 -15.5 56t-30.5 45.5t-44.5 30.5t-57.5 11q-69 0 -110.5 -39.5t-49.5 -103.5h308zM240 659h81v-88h-81v88z" />
    <glyph glyph-name="Eogonek" unicode="&#x118;" horiz-adv-x="599" 
d="M89 0v664h442v-63h-373v-238h366v-63h-366v-237h373v-63q-11 -10 -26.5 -23t-30 -27.5t-24.5 -29.5t-10 -27q0 -34 50 -34h41v-63h-40q-58 0 -86 21.5t-28 61.5q0 32 24.5 63t56.5 58h-369z" />
    <glyph glyph-name="eogonek" unicode="&#x119;" horiz-adv-x="548" 
d="M496 231v-14t-2 -15h-374q3 -33 17 -61t35.5 -49t50 -33t61.5 -12q51 0 84.5 19.5t53.5 54.5h68q-11 -37 -40 -66t-71 -58q-14 -9 -29.5 -22t-28 -27.5t-21 -28.5t-8.5 -26q0 -34 50 -34h41v-63h-40q-58 0 -86 21.5t-28 61.5q0 29 19 56t47 52h-11q-50 0 -92.5 17.5
t-73.5 49.5t-48.5 76t-17.5 97q0 51 16.5 94.5t46.5 75.5t72 50t93 18q47 0 86.5 -18t68.5 -49.5t45 -74.5t16 -92zM428 262q-4 30 -15.5 56t-30.5 45.5t-44.5 30.5t-57.5 11q-69 0 -110.5 -39.5t-49.5 -103.5h308z" />
    <glyph glyph-name="Ecaron" unicode="&#x11a;" horiz-adv-x="599" 
d="M158 601v-238h366v-63h-366v-237h373v-63h-442v664h442v-63h-373zM347 718h-72l-145 151h75l105 -103l105 103h77z" />
    <glyph glyph-name="ecaron" unicode="&#x11b;" horiz-adv-x="548" 
d="M496 231v-14t-2 -15h-374q3 -33 17 -61t35.5 -49t50 -33t61.5 -12q51 0 84.5 19.5t53.5 54.5h68q-24 -64 -77.5 -99t-128.5 -35q-50 0 -92.5 17.5t-73.5 49.5t-48.5 76t-17.5 97q0 51 16.5 94.5t46.5 75.5t72 50t93 18q47 0 86.5 -18t68.5 -49.5t45 -74.5t16 -92z
M428 262q-4 30 -15.5 56t-30.5 45.5t-44.5 30.5t-57.5 11q-69 0 -110.5 -39.5t-49.5 -103.5h308zM311 525h-74l-144 171h73l107 -123l107 123h75z" />
    <glyph glyph-name="Gcircumflex" unicode="&#x11c;" horiz-adv-x="756" 
d="M387 614q-59 0 -108.5 -21.5t-85.5 -59t-56.5 -89t-20.5 -112.5t20.5 -112.5t56.5 -89t86 -59t109 -21.5q51 0 92.5 17t73 46.5t52.5 70t30 88.5h-251v63h324q0 -78 -26 -142t-69.5 -109.5t-100.5 -71t-120 -25.5q-73 0 -136.5 26.5t-110 73t-73 109.5t-26.5 136t26 136
t72 109.5t108 73t134 26.5q48 0 91 -12.5t80 -35t67 -53.5t50 -68h-76q-31 45 -87.5 75.5t-124.5 30.5zM342 869h72l145 -151h-75l-105 103l-105 -103h-77z" />
    <glyph glyph-name="gcircumflex" unicode="&#x11d;" horiz-adv-x="595" 
d="M54 226q0 47 14.5 90t43 76t71.5 53t99 20q57 0 99 -21.5t64 -48.5v57h66v-430q0 -54 -15.5 -98t-44.5 -75.5t-71 -48.5t-96 -17q-34 0 -66.5 8.5t-61 25.5t-51.5 42t-38 58h72q21 -35 58 -54.5t87 -19.5q40 0 70 13.5t50 38t30.5 58t10.5 73.5v31q-22 -27 -64 -48.5
t-99 -21.5q-56 0 -99 20t-71.5 53t-43 76t-14.5 90zM120 226q0 -36 11.5 -68.5t33 -57t51.5 -39t66 -14.5q33 0 62.5 11t52.5 33.5t36.5 56t13.5 78.5t-13.5 78.5t-36.5 56t-52.5 33.5t-62.5 11q-36 0 -66 -14.5t-51.5 -39t-33 -57t-11.5 -68.5zM249 696h74l144 -171h-73
l-107 123l-107 -123h-75z" />
    <glyph glyph-name="Gbreve" unicode="&#x11e;" horiz-adv-x="756" 
d="M387 614q-59 0 -108.5 -21.5t-85.5 -59t-56.5 -89t-20.5 -112.5t20.5 -112.5t56.5 -89t86 -59t109 -21.5q51 0 92.5 17t73 46.5t52.5 70t30 88.5h-251v63h324q0 -78 -26 -142t-69.5 -109.5t-100.5 -71t-120 -25.5q-73 0 -136.5 26.5t-110 73t-73 109.5t-26.5 136t26 136
t72 109.5t108 73t134 26.5q48 0 91 -12.5t80 -35t67 -53.5t50 -68h-76q-31 45 -87.5 75.5t-124.5 30.5zM552 869q-3 -32 -16.5 -59.5t-36 -47.5t-53 -32t-65.5 -12q-36 0 -66 12t-52.5 32t-36 47.5t-16.5 59.5h60q5 -39 35.5 -64.5t75.5 -25.5t75 25.5t35 64.5h61z" />
    <glyph glyph-name="gbreve" unicode="&#x11f;" horiz-adv-x="595" 
d="M54 226q0 47 14.5 90t43 76t71.5 53t99 20q57 0 99 -21.5t64 -48.5v57h66v-430q0 -54 -15.5 -98t-44.5 -75.5t-71 -48.5t-96 -17q-34 0 -66.5 8.5t-61 25.5t-51.5 42t-38 58h72q21 -35 58 -54.5t87 -19.5q40 0 70 13.5t50 38t30.5 58t10.5 73.5v31q-22 -27 -64 -48.5
t-99 -21.5q-56 0 -99 20t-71.5 53t-43 76t-14.5 90zM120 226q0 -36 11.5 -68.5t33 -57t51.5 -39t66 -14.5q33 0 62.5 11t52.5 33.5t36.5 56t13.5 78.5t-13.5 78.5t-36.5 56t-52.5 33.5t-62.5 11q-36 0 -66 -14.5t-51.5 -39t-33 -57t-11.5 -68.5zM454 696q-2 -33 -16 -63.5
t-36.5 -54.5t-53.5 -38.5t-67 -14.5q-37 0 -67.5 14.5t-53.5 38.5t-36.5 54.5t-15.5 63.5h60q2 -21 11 -40.5t24 -35t34.5 -25t43.5 -9.5t43.5 9.5t34 25t23.5 35t11 40.5h61z" />
    <glyph glyph-name="Gdotaccent" unicode="&#x120;" horiz-adv-x="756" 
d="M387 614q-59 0 -108.5 -21.5t-85.5 -59t-56.5 -89t-20.5 -112.5t20.5 -112.5t56.5 -89t86 -59t109 -21.5q51 0 92.5 17t73 46.5t52.5 70t30 88.5h-251v63h324q0 -78 -26 -142t-69.5 -109.5t-100.5 -71t-120 -25.5q-73 0 -136.5 26.5t-110 73t-73 109.5t-26.5 136t26 136
t72 109.5t108 73t134 26.5q48 0 91 -12.5t80 -35t67 -53.5t50 -68h-76q-31 45 -87.5 75.5t-124.5 30.5zM346 838h75v-81h-75v81z" />
    <glyph glyph-name="gdotaccent" unicode="&#x121;" horiz-adv-x="595" 
d="M54 226q0 47 14.5 90t43 76t71.5 53t99 20q57 0 99 -21.5t64 -48.5v57h66v-430q0 -54 -15.5 -98t-44.5 -75.5t-71 -48.5t-96 -17q-34 0 -66.5 8.5t-61 25.5t-51.5 42t-38 58h72q21 -35 58 -54.5t87 -19.5q40 0 70 13.5t50 38t30.5 58t10.5 73.5v31q-22 -27 -64 -48.5
t-99 -21.5q-56 0 -99 20t-71.5 53t-43 76t-14.5 90zM120 226q0 -36 11.5 -68.5t33 -57t51.5 -39t66 -14.5q33 0 62.5 11t52.5 33.5t36.5 56t13.5 78.5t-13.5 78.5t-36.5 56t-52.5 33.5t-62.5 11q-36 0 -66 -14.5t-51.5 -39t-33 -57t-11.5 -68.5zM252 659h81v-88h-81v88z" />
    <glyph glyph-name="uni0122" unicode="&#x122;" horiz-adv-x="756" 
d="M387 614q-59 0 -108.5 -21.5t-85.5 -59t-56.5 -89t-20.5 -112.5t20.5 -112.5t56.5 -89t86 -59t109 -21.5q51 0 92.5 17t73 46.5t52.5 70t30 88.5h-251v63h324q0 -78 -26 -142t-69.5 -109.5t-100.5 -71t-120 -25.5q-73 0 -136.5 26.5t-110 73t-73 109.5t-26.5 136t26 136
t72 109.5t108 73t134 26.5q48 0 91 -12.5t80 -35t67 -53.5t50 -68h-76q-31 45 -87.5 75.5t-124.5 30.5zM343 -223l51 86h-47v82h92v-90l-47 -78h-49z" />
    <glyph glyph-name="uni0123" unicode="&#x123;" horiz-adv-x="595" 
d="M54 226q0 47 14.5 90t43 76t71.5 53t99 20q57 0 99 -21.5t64 -48.5v57h66v-430q0 -54 -15.5 -98t-44.5 -75.5t-71 -48.5t-96 -17q-34 0 -66.5 8.5t-61 25.5t-51.5 42t-38 58h72q21 -35 58 -54.5t87 -19.5q40 0 70 13.5t50 38t30.5 58t10.5 73.5v31q-22 -27 -64 -48.5
t-99 -21.5q-56 0 -99 20t-71.5 53t-43 76t-14.5 90zM120 226q0 -36 11.5 -68.5t33 -57t51.5 -39t66 -14.5q33 0 62.5 11t52.5 33.5t36.5 56t13.5 78.5t-13.5 78.5t-36.5 56t-52.5 33.5t-62.5 11q-36 0 -66 -14.5t-51.5 -39t-33 -57t-11.5 -68.5zM339.01 688.975
l-50.9932 -85.9893h46.9941v-81.9893h-91.9893v89.9883l46.9951 77.9902h48.9932z" />
    <glyph glyph-name="Hcircumflex" unicode="&#x124;" horiz-adv-x="738" 
d="M580 0v300h-422v-300h-69v664h69v-301h422v301h69v-664h-69zM333 869h72l145 -151h-75l-105 103l-105 -103h-77z" />
    <glyph glyph-name="hcircumflex" unicode="&#x125;" horiz-adv-x="578" 
d="M310 465q48 0 84 -15.5t61 -42.5t37.5 -64t12.5 -80v-263h-66v263q0 60 -31.5 101t-97.5 41q-30 0 -59 -11t-51.5 -32.5t-36 -52t-13.5 -69.5v-240h-66v669h66v-274q24 31 64 50.5t96 19.5zM253 869h72l145 -151h-75l-105 103l-105 -103h-77z" />
    <glyph glyph-name="Hbar" unicode="&#x126;" horiz-adv-x="754" 
d="M588 0v300h-422v-300h-69v498h-87v63h87v103h69v-103h422v103h69v-103h87v-63h-87v-498h-69zM588 363v135h-422v-135h422z" />
    <glyph glyph-name="hbar" unicode="&#x127;" horiz-adv-x="583" 
d="M444 263q0 60 -31.5 101t-97.5 41q-30 0 -59 -11t-51.5 -32.5t-36 -52t-13.5 -69.5v-240h-66v534h-79v60h79v75h66v-75h152v-60h-152v-139q24 31 64 50.5t96 19.5q48 0 84 -15.5t61 -42.5t37.5 -64t12.5 -80v-263h-66v263v0z" />
    <glyph glyph-name="Itilde" unicode="&#x128;" horiz-adv-x="247" 
d="M158 0h-69v664h69v-664zM201 779q47 0 47 90h60q0 -69 -28 -110t-79 -41q-24 0 -44.5 14t-39 31t-35.5 31t-35 14q-47 0 -47 -90h-60q0 68 28 109.5t79 41.5q25 0 46.5 -14t40 -31t35.5 -31t32 -14z" />
    <glyph glyph-name="itilde" unicode="&#x129;" horiz-adv-x="238" 
d="M197 590q47 0 47 90h60q0 -69 -28 -110t-79 -41q-24 0 -44.5 14t-39 31t-35.5 31t-35 14q-47 0 -47 -90h-60q0 68 28 109.5t79 41.5q25 0 46.5 -14t40 -31t35.5 -31t32 -14zM155 452v-452h-66v452h66z" />
    <glyph glyph-name="Imacron" unicode="&#x12a;" horiz-adv-x="247" 
d="M158 0h-69v664h69v-664zM293 800v-61h-336v61h336z" />
    <glyph glyph-name="imacron" unicode="&#x12b;" horiz-adv-x="238" 
d="M238 632v-61h-238v61h238zM155 452v-452h-66v452h66z" />
    <glyph glyph-name="Ibreve" unicode="&#x12c;" horiz-adv-x="247" 
d="M158 0h-69v664h69v-664zM295 869q-3 -32 -16.5 -59.5t-36 -47.5t-53 -32t-65.5 -12q-36 0 -66 12t-52.5 32t-36 47.5t-16.5 59.5h60q5 -39 35.5 -64.5t75.5 -25.5t75 25.5t35 64.5h61z" />
    <glyph glyph-name="ibreve" unicode="&#x12d;" horiz-adv-x="238" 
d="M293 696q-2 -33 -16 -63.5t-36.5 -54.5t-53.5 -38.5t-67 -14.5q-37 0 -67.5 14.5t-53.5 38.5t-36.5 54.5t-15.5 63.5h60q2 -21 11 -40.5t24 -35t34.5 -25t43.5 -9.5t43.5 9.5t34 25t23.5 35t11 40.5h61zM155 452v-452h-66v452h66z" />
    <glyph glyph-name="Iogonek" unicode="&#x12e;" horiz-adv-x="247" 
d="M89 664h69v-664q-11 -10 -26 -23t-29 -27.5t-24 -29.5t-10 -27q0 -34 50 -34h41v-63h-40q-58 0 -86 21.5t-28 61.5q0 32 25.5 63t57.5 58v664z" />
    <glyph glyph-name="iogonek" unicode="&#x12f;" horiz-adv-x="238" 
d="M152 452v-452q-11 -10 -26.5 -23.5t-30 -28t-24.5 -29t-10 -26.5q0 -34 49 -34h42v-63h-41q-58 0 -85.5 21.5t-27.5 61.5q0 32 25.5 62.5t62.5 58.5v452h66zM78 659h81v-88h-81v88z" />
    <glyph glyph-name="Idotaccent" unicode="&#x130;" horiz-adv-x="247" 
d="M158 0h-69v664h69v-664zM86 838h75v-81h-75v81z" />
    <glyph glyph-name="dotlessi" unicode="&#x131;" horiz-adv-x="238" 
d="M152 452v-452h-66v452h66z" />
    <glyph glyph-name="IJ" unicode="&#x132;" horiz-adv-x="634" 
d="M158 0h-69v664h69v-664zM550 664v-490q0 -85 -52.5 -129.5t-137.5 -44.5h-125v63h125q58 0 89.5 27t31.5 84v490h69z" />
    <glyph glyph-name="ij" unicode="&#x133;" horiz-adv-x="489" 
d="M152 452v-452h-66v452h66zM78 659h81v-88h-81v88zM329 659h81v-88h-81v88zM403 452v-522q0 -67 -38 -100.5t-124 -33.5h-63v60h62q50 0 73.5 19.5t23.5 68.5v508h66z" />
    <glyph glyph-name="Jcircumflex" unicode="&#x134;" horiz-adv-x="404" 
d="M320 664v-490q0 -85 -52.5 -129.5t-137.5 -44.5h-125v63h125q58 0 89.5 27t31.5 84v490h69zM250 869h72l145 -151h-75l-105 103l-105 -103h-77z" />
    <glyph glyph-name="jcircumflex" unicode="&#x135;" horiz-adv-x="254" 
d="M168 452v-480q0 -89 -35.5 -132.5t-124.5 -43.5h-57v60h57q55 0 74.5 30t19.5 86v480h66zM96 696h74l144 -171h-73l-107 123l-107 -123h-75z" />
    <glyph glyph-name="uni0136" unicode="&#x136;" horiz-adv-x="597" 
d="M592 0h-94l-340 299v-299h-69v664h69v-296l336 296h98l-371 -332zM260 -204l51 86h-47v82h92v-90l-47 -78h-49z" />
    <glyph glyph-name="uni0137" unicode="&#x137;" horiz-adv-x="475" 
d="M150 669v-426l234 209h85l-254 -226l255 -226h-86l-234 197v-197h-66v669h66zM210 -204l51 86h-47v82h92v-90l-47 -78h-49z" />
    <glyph glyph-name="kgreenlandic" unicode="&#x138;" horiz-adv-x="482" 
d="M150 452v-209l234 209h85l-254 -226l255 -226h-86l-234 197v-197h-66v452h66z" />
    <glyph glyph-name="Lacute" unicode="&#x139;" horiz-adv-x="562" 
d="M158 63h373v-63h-442v664h69v-601zM293 869l-131 -151h-76l131 151h76z" />
    <glyph glyph-name="lacute" unicode="&#x13a;" horiz-adv-x="234" 
d="M150 669v-669h-66v669h66zM289 869l-131 -151h-76l131 151h76z" />
    <glyph glyph-name="uni013B" unicode="&#x13b;" horiz-adv-x="562" 
d="M158 63h373v-63h-442v664h69v-601zM261 -204l51 86h-47v82h92v-90l-47 -78h-49z" />
    <glyph glyph-name="uni013C" unicode="&#x13c;" horiz-adv-x="234" 
d="M150 669v-669h-66v669h66zM68 -204l51 86h-47v82h92v-90l-47 -78h-49z" />
    <glyph glyph-name="Lcaron" unicode="&#x13d;" horiz-adv-x="562" 
d="M420 465l64 107h-45v92h92v-100l-60 -99h-51zM158 63h373v-63h-442v664h69v-601z" />
    <glyph glyph-name="lcaron" unicode="&#x13e;" horiz-adv-x="347" 
d="M150 669v-669h-66v669h66zM236 465l64 107h-45v92h92v-100l-60 -99h-51z" />
    <glyph glyph-name="Ldot" unicode="&#x13f;" horiz-adv-x="562" 
d="M158 63h373v-63h-442v664h69v-601zM383 388h92v-92h-92v92z" />
    <glyph glyph-name="ldot" unicode="&#x140;" horiz-adv-x="330" 
d="M150 669v-669h-66v669h66zM213 394h92v-92h-92v92z" />
    <glyph glyph-name="Lslash" unicode="&#x141;" horiz-adv-x="619" 
d="M214 399l206 111v-70l-206 -112v-265h373v-63h-442v291l-135 -73v71l135 73v302h69v-265z" />
    <glyph glyph-name="lslash" unicode="&#x142;" horiz-adv-x="329" 
d="M197 669v-270l129 72v-69l-129 -72v-330h-66v293l-129 -72v70l129 71v307h66z" />
    <glyph glyph-name="Nacute" unicode="&#x143;" horiz-adv-x="770" 
d="M681 664v-664h-78l-445 569v-569h-69v664h78l445 -569v569h69zM540 869l-131 -151h-76l131 151h76z" />
    <glyph glyph-name="nacute" unicode="&#x144;" horiz-adv-x="578" 
d="M310 465q48 0 84 -15.5t61 -42.5t37.5 -64t12.5 -80v-263h-66v263q0 60 -31.5 101t-97.5 41q-30 0 -59 -11t-51.5 -32.5t-36 -52t-13.5 -69.5v-240h-66v452h66v-57q24 31 64 50.5t96 19.5zM449 696l-131 -171h-76l131 171h76z" />
    <glyph glyph-name="uni0145" unicode="&#x145;" horiz-adv-x="770" 
d="M681 664v-664h-78l-445 569v-569h-69v664h78l445 -569v569h69zM337 -204l51 86h-47v82h92v-90l-47 -78h-49z" />
    <glyph glyph-name="uni0146" unicode="&#x146;" horiz-adv-x="578" 
d="M310 465q48 0 84 -15.5t61 -42.5t37.5 -64t12.5 -80v-263h-66v263q0 60 -31.5 101t-97.5 41q-30 0 -59 -11t-51.5 -32.5t-36 -52t-13.5 -69.5v-240h-66v452h66v-57q24 31 64 50.5t96 19.5zM241 -204l51 86h-47v82h92v-90l-47 -78h-49z" />
    <glyph glyph-name="Ncaron" unicode="&#x147;" horiz-adv-x="770" 
d="M681 664v-664h-78l-445 569v-569h-69v664h78l445 -569v569h69zM422 718h-72l-145 151h75l105 -103l105 103h77z" />
    <glyph glyph-name="ncaron" unicode="&#x148;" horiz-adv-x="578" 
d="M310 465q48 0 84 -15.5t61 -42.5t37.5 -64t12.5 -80v-263h-66v263q0 60 -31.5 101t-97.5 41q-30 0 -59 -11t-51.5 -32.5t-36 -52t-13.5 -69.5v-240h-66v452h66v-57q24 31 64 50.5t96 19.5zM326 525h-74l-144 171h73l107 -123l107 123h75z" />
    <glyph glyph-name="napostrophe" unicode="&#x149;" horiz-adv-x="578" 
d="M310 465q48 0 84 -15.5t61 -42.5t37.5 -64t12.5 -80v-263h-66v263q0 60 -31.5 101t-97.5 41q-30 0 -59 -11t-51.5 -32.5t-36 -52t-13.5 -69.5v-240h-66v452h66v-57q24 31 64 50.5t96 19.5zM83 555l64 107h-45v92h92v-100l-60 -99h-51z" />
    <glyph glyph-name="Eng" unicode="&#x14a;" horiz-adv-x="770" 
d="M681 664v-694q0 -85 -52.5 -129.5t-137.5 -44.5h-125v63h125q58 0 89.5 27t31.5 84v30l-454 569v-569h-69v664h78l445 -560v560h69z" />
    <glyph glyph-name="eng" unicode="&#x14b;" horiz-adv-x="578" 
d="M505 -70q0 -67 -38 -100.5t-124 -33.5h-63v60h62q50 0 73.5 19.5t23.5 68.5v319q0 60 -31.5 101t-97.5 41q-30 0 -59 -11t-51.5 -32.5t-36 -52t-13.5 -69.5v-240h-66v452h66v-57q24 31 64 50.5t96 19.5q48 0 84 -15.5t61 -42.5t37.5 -64t12.5 -80v-333v0z" />
    <glyph glyph-name="Omacron" unicode="&#x14c;" horiz-adv-x="772" 
d="M386 677q70 0 132 -26t108 -72t72.5 -109.5t26.5 -137.5t-26.5 -137.5t-72.5 -109.5t-108 -72t-132 -26q-71 0 -132.5 26t-107.5 72t-72.5 109.5t-26.5 137.5t26.5 137.5t72.5 109.5t107.5 72t132.5 26zM386 50q58 0 107.5 21t85.5 58.5t56.5 89t20.5 113.5
q0 61 -20.5 113t-56.5 89.5t-85.5 58.5t-107.5 21t-107.5 -21t-85.5 -58.5t-56.5 -89.5t-20.5 -113q0 -62 20.5 -113.5t56.5 -89t85.5 -58.5t107.5 -21zM554 800v-61h-336v61h336z" />
    <glyph glyph-name="omacron" unicode="&#x14d;" horiz-adv-x="570" 
d="M517 226q0 -51 -17.5 -95t-48.5 -76t-73.5 -50t-92.5 -18t-93 18t-74 50t-48.5 76t-17.5 95t17.5 95t48.5 76t74 50t93 18t92.5 -18t73.5 -50t48.5 -76t17.5 -95zM451 226q0 37 -12 69.5t-33.5 57t-52.5 38.5t-68 14q-38 0 -68.5 -14t-52.5 -38.5t-34 -57t-12 -69.5
t12 -69.5t34 -57t52.5 -38.5t68.5 -14q37 0 68 14t52.5 38.5t33.5 57t12 69.5zM453 632v-61h-336v61h336z" />
    <glyph glyph-name="Obreve" unicode="&#x14e;" horiz-adv-x="772" 
d="M386 677q70 0 132 -26t108 -72t72.5 -109.5t26.5 -137.5t-26.5 -137.5t-72.5 -109.5t-108 -72t-132 -26q-71 0 -132.5 26t-107.5 72t-72.5 109.5t-26.5 137.5t26.5 137.5t72.5 109.5t107.5 72t132.5 26zM386 50q58 0 107.5 21t85.5 58.5t56.5 89t20.5 113.5
q0 61 -20.5 113t-56.5 89.5t-85.5 58.5t-107.5 21t-107.5 -21t-85.5 -58.5t-56.5 -89.5t-20.5 -113q0 -62 20.5 -113.5t56.5 -89t85.5 -58.5t107.5 -21zM557 869q-3 -32 -16.5 -59.5t-36 -47.5t-53 -32t-65.5 -12q-36 0 -66 12t-52.5 32t-36 47.5t-16.5 59.5h60
q5 -39 35.5 -64.5t75.5 -25.5t75 25.5t35 64.5h61z" />
    <glyph glyph-name="obreve" unicode="&#x14f;" horiz-adv-x="570" 
d="M517 226q0 -51 -17.5 -95t-48.5 -76t-73.5 -50t-92.5 -18t-93 18t-74 50t-48.5 76t-17.5 95t17.5 95t48.5 76t74 50t93 18t92.5 -18t73.5 -50t48.5 -76t17.5 -95zM451 226q0 37 -12 69.5t-33.5 57t-52.5 38.5t-68 14q-38 0 -68.5 -14t-52.5 -38.5t-34 -57t-12 -69.5
t12 -69.5t34 -57t52.5 -38.5t68.5 -14q37 0 68 14t52.5 38.5t33.5 57t12 69.5zM458 696q-2 -33 -16 -63.5t-36.5 -54.5t-53.5 -38.5t-67 -14.5q-37 0 -67.5 14.5t-53.5 38.5t-36.5 54.5t-15.5 63.5h60q2 -21 11 -40.5t24 -35t34.5 -25t43.5 -9.5t43.5 9.5t34 25t23.5 35
t11 40.5h61z" />
    <glyph glyph-name="Ohungarumlaut" unicode="&#x150;" horiz-adv-x="772" 
d="M386 677q70 0 132 -26t108 -72t72.5 -109.5t26.5 -137.5t-26.5 -137.5t-72.5 -109.5t-108 -72t-132 -26q-71 0 -132.5 26t-107.5 72t-72.5 109.5t-26.5 137.5t26.5 137.5t72.5 109.5t107.5 72t132.5 26zM386 50q58 0 107.5 21t85.5 58.5t56.5 89t20.5 113.5
q0 61 -20.5 113t-56.5 89.5t-85.5 58.5t-107.5 21t-107.5 -21t-85.5 -58.5t-56.5 -89.5t-20.5 -113q0 -62 20.5 -113.5t56.5 -89t85.5 -58.5t107.5 -21zM610 869l-131 -151h-76l131 151h76zM472 869l-131 -151h-76l131 151h76z" />
    <glyph glyph-name="ohungarumlaut" unicode="&#x151;" horiz-adv-x="570" 
d="M517 226q0 -51 -17.5 -95t-48.5 -76t-73.5 -50t-92.5 -18t-93 18t-74 50t-48.5 76t-17.5 95t17.5 95t48.5 76t74 50t93 18t92.5 -18t73.5 -50t48.5 -76t17.5 -95zM451 226q0 37 -12 69.5t-33.5 57t-52.5 38.5t-68 14q-38 0 -68.5 -14t-52.5 -38.5t-34 -57t-12 -69.5
t12 -69.5t34 -57t52.5 -38.5t68.5 -14q37 0 68 14t52.5 38.5t33.5 57t12 69.5zM516 696l-131 -171h-76l131 171h76zM378 696l-131 -171h-76l131 171h76z" />
    <glyph glyph-name="OE" unicode="&#x152;" horiz-adv-x="1165" 
d="M725 601v-238h366v-63h-366v-237h373v-63h-442v121q-47 -63 -116.5 -98.5t-153.5 -35.5q-71 0 -132.5 26t-107.5 72t-72.5 109.5t-26.5 137.5t26.5 137.5t72.5 109.5t107.5 72t132.5 26q84 0 153.5 -35.5t116.5 -98.5v121h442v-63h-373zM386 50q58 0 107.5 21t85.5 58.5
t56.5 89t20.5 113.5q0 61 -20.5 113t-56.5 89.5t-85.5 58.5t-107.5 21t-107.5 -21t-85.5 -58.5t-56.5 -89.5t-20.5 -113q0 -62 20.5 -113.5t56.5 -89t85.5 -58.5t107.5 -21z" />
    <glyph glyph-name="oe" unicode="&#x153;" horiz-adv-x="947" 
d="M895 231v-14t-2 -15h-374q3 -33 17 -61t35.5 -49t50 -33t61.5 -12q51 0 84.5 19.5t53.5 54.5h68q-24 -64 -77.5 -99t-128.5 -35q-66 0 -118 30t-81 82q-30 -52 -81.5 -82t-117.5 -30q-50 0 -93 18t-74 50t-48.5 76t-17.5 95t17.5 95t48.5 76t74 50t93 18
q65 0 116.5 -29.5t81.5 -80.5q29 51 79.5 80.5t116.5 29.5q47 0 86.5 -18t68.5 -49.5t45 -74.5t16 -92zM451 226q0 37 -12 69.5t-33.5 57t-52.5 38.5t-68 14q-38 0 -68.5 -14t-52.5 -38.5t-34 -57t-12 -69.5t12 -69.5t34 -57t52.5 -38.5t68.5 -14q37 0 68 14t52.5 38.5
t33.5 57t12 69.5zM827 262q-4 30 -15.5 56t-30.5 45.5t-44.5 30.5t-57.5 11q-69 0 -110.5 -39.5t-49.5 -103.5h308z" />
    <glyph glyph-name="Racute" unicode="&#x154;" horiz-adv-x="648" 
d="M612 473q0 -38 -12 -71.5t-37 -59t-64 -41.5t-92 -18l216 -283h-87l-216 283h-162v-283h-69v664h305q57 0 98 -15t67.5 -41.5t39.5 -61t13 -73.5zM543 473q0 65 -40.5 96.5t-109.5 31.5h-235v-255h235q69 0 109.5 31t40.5 96zM468 869l-131 -151h-76l131 151h76z" />
    <glyph glyph-name="racute" unicode="&#x155;" horiz-adv-x="384" 
d="M150 452v-73q10 14 25.5 28t37.5 25t51 17.5t66 6.5h12v-60h-11q-84 0 -132.5 -48.5t-48.5 -128.5v-219h-66v452h66zM377 696l-131 -171h-76l131 171h76z" />
    <glyph glyph-name="uni0156" unicode="&#x156;" horiz-adv-x="648" 
d="M612 473q0 -38 -12 -71.5t-37 -59t-64 -41.5t-92 -18l216 -283h-87l-216 283h-162v-283h-69v664h305q57 0 98 -15t67.5 -41.5t39.5 -61t13 -73.5zM543 473q0 65 -40.5 96.5t-109.5 31.5h-235v-255h235q69 0 109.5 31t40.5 96zM273 -204l51 86h-47v82h92v-90l-47 -78h-49z
" />
    <glyph glyph-name="uni0157" unicode="&#x157;" horiz-adv-x="384" 
d="M150 452v-73q10 14 25.5 28t37.5 25t51 17.5t66 6.5h12v-60h-11q-84 0 -132.5 -48.5t-48.5 -128.5v-219h-66v452h66zM69 -204l51 86h-47v82h92v-90l-47 -78h-49z" />
    <glyph glyph-name="Rcaron" unicode="&#x158;" horiz-adv-x="648" 
d="M612 473q0 -38 -12 -71.5t-37 -59t-64 -41.5t-92 -18l216 -283h-87l-216 283h-162v-283h-69v664h305q57 0 98 -15t67.5 -41.5t39.5 -61t13 -73.5zM543 473q0 65 -40.5 96.5t-109.5 31.5h-235v-255h235q69 0 109.5 31t40.5 96zM364 718h-72l-145 151h75l105 -103l105 103
h77z" />
    <glyph glyph-name="rcaron" unicode="&#x159;" horiz-adv-x="384" 
d="M150 452v-73q10 14 25.5 28t37.5 25t51 17.5t66 6.5h12v-60h-11q-84 0 -132.5 -48.5t-48.5 -128.5v-219h-66v452h66zM243 525h-74l-144 171h73l107 -123l107 123h75z" />
    <glyph glyph-name="Sacute" unicode="&#x15a;" horiz-adv-x="605" 
d="M103 155q23 -44 77.5 -74.5t126.5 -30.5q42 0 76.5 9.5t60 27t39.5 40.5t14 50q0 54 -39 82t-117 37l-114 13q-94 11 -139 58.5t-45 115.5q0 43 17.5 79t50 61.5t79 39.5t105.5 14q61 0 107 -16.5t79 -41t54 -54.5t31 -57h-75q-22 45 -74.5 75.5t-124.5 30.5
q-42 0 -75.5 -10t-56.5 -27.5t-35 -40.5t-12 -49q0 -53 35.5 -80.5t101.5 -34.5l126 -14q90 -10 140 -57t50 -119q0 -36 -16.5 -71t-48.5 -62.5t-81 -44.5t-113 -17q-66 0 -113.5 16t-80.5 40.5t-53.5 54.5t-30.5 57h74zM444 869l-131 -151h-76l131 151h76z" />
    <glyph glyph-name="sacute" unicode="&#x15b;" horiz-adv-x="507" 
d="M397 327q-19 41 -56.5 59.5t-94.5 18.5q-54 0 -88.5 -21t-34.5 -58q0 -38 27 -50.5t78 -16.5l96 -7q69 -5 105 -36.5t36 -91.5q0 -27 -13.5 -52t-38.5 -44t-61 -30t-82 -11q-50 0 -88.5 12t-66.5 32t-45.5 44.5t-24.5 50.5h72q17 -38 56.5 -58.5t107.5 -20.5
q50 0 83.5 21t33.5 56q0 38 -27 51t-79 17l-97 8q-138 12 -138 125q0 28 13.5 53.5t38 44.5t59.5 30.5t78 11.5q51 0 89.5 -12t66 -31.5t44.5 -44.5t24 -50h-73zM415 696l-131 -171h-76l131 171h76z" />
    <glyph glyph-name="Scircumflex" unicode="&#x15c;" horiz-adv-x="605" 
d="M103 155q23 -44 77.5 -74.5t126.5 -30.5q42 0 76.5 9.5t60 27t39.5 40.5t14 50q0 54 -39 82t-117 37l-114 13q-94 11 -139 58.5t-45 115.5q0 43 17.5 79t50 61.5t79 39.5t105.5 14q61 0 107 -16.5t79 -41t54 -54.5t31 -57h-75q-22 45 -74.5 75.5t-124.5 30.5
q-42 0 -75.5 -10t-56.5 -27.5t-35 -40.5t-12 -49q0 -53 35.5 -80.5t101.5 -34.5l126 -14q90 -10 140 -57t50 -119q0 -36 -16.5 -71t-48.5 -62.5t-81 -44.5t-113 -17q-66 0 -113.5 16t-80.5 40.5t-53.5 54.5t-30.5 57h74zM267 869h72l145 -151h-75l-105 103l-105 -103h-77z
" />
    <glyph glyph-name="scircumflex" unicode="&#x15d;" horiz-adv-x="507" 
d="M397 327q-19 41 -56.5 59.5t-94.5 18.5q-54 0 -88.5 -21t-34.5 -58q0 -38 27 -50.5t78 -16.5l96 -7q69 -5 105 -36.5t36 -91.5q0 -27 -13.5 -52t-38.5 -44t-61 -30t-82 -11q-50 0 -88.5 12t-66.5 32t-45.5 44.5t-24.5 50.5h72q17 -38 56.5 -58.5t107.5 -20.5
q50 0 83.5 21t33.5 56q0 38 -27 51t-79 17l-97 8q-138 12 -138 125q0 28 13.5 53.5t38 44.5t59.5 30.5t78 11.5q51 0 89.5 -12t66 -31.5t44.5 -44.5t24 -50h-73zM222 696h74l144 -171h-73l-107 123l-107 -123h-75z" />
    <glyph glyph-name="Scedilla" unicode="&#x15e;" horiz-adv-x="605" 
d="M103 155q23 -44 77.5 -74.5t126.5 -30.5q42 0 76.5 9.5t60 27t39.5 40.5t14 50q0 54 -39 82t-117 37l-114 13q-94 11 -139 58.5t-45 115.5q0 43 17.5 79t50 61.5t79 39.5t105.5 14q61 0 107 -16.5t79 -41t54 -54.5t31 -57h-75q-22 45 -74.5 75.5t-124.5 30.5
q-42 0 -75.5 -10t-56.5 -27.5t-35 -40.5t-12 -49q0 -53 35.5 -80.5t101.5 -34.5l126 -14q90 -10 140 -57t50 -119q0 -33 -13.5 -65.5t-40.5 -58.5t-67 -44.5t-94 -23.5l-133 -174h-76l133 172q-57 4 -99 21t-71.5 41t-47.5 51.5t-28 53.5h74z" />
    <glyph glyph-name="scedilla" unicode="&#x15f;" horiz-adv-x="507" 
d="M397 327q-19 41 -56.5 59.5t-94.5 18.5q-54 0 -88.5 -21t-34.5 -58q0 -38 27 -50.5t78 -16.5l96 -7q69 -5 105 -36.5t36 -91.5q0 -25 -11 -48t-32.5 -41t-52 -30.5t-69.5 -15.5l-132 -173h-76l134 174q-39 5 -70 18.5t-53.5 32t-37 40.5t-20.5 45h72q17 -38 56.5 -58.5
t107.5 -20.5q50 0 83.5 21t33.5 56q0 38 -27 51t-79 17l-97 8q-138 12 -138 125q0 28 13.5 53.5t38 44.5t59.5 30.5t78 11.5q51 0 89.5 -12t66 -31.5t44.5 -44.5t24 -50h-73z" />
    <glyph glyph-name="Scaron" unicode="&#x160;" horiz-adv-x="605" 
d="M103 155q23 -44 77.5 -74.5t126.5 -30.5q42 0 76.5 9.5t60 27t39.5 40.5t14 50q0 54 -39 82t-117 37l-114 13q-94 11 -139 58.5t-45 115.5q0 43 17.5 79t50 61.5t79 39.5t105.5 14q61 0 107 -16.5t79 -41t54 -54.5t31 -57h-75q-22 45 -74.5 75.5t-124.5 30.5
q-42 0 -75.5 -10t-56.5 -27.5t-35 -40.5t-12 -49q0 -53 35.5 -80.5t101.5 -34.5l126 -14q90 -10 140 -57t50 -119q0 -36 -16.5 -71t-48.5 -62.5t-81 -44.5t-113 -17q-66 0 -113.5 16t-80.5 40.5t-53.5 54.5t-30.5 57h74zM339 718h-72l-145 151h75l105 -103l105 103h77z" />
    <glyph glyph-name="scaron" unicode="&#x161;" horiz-adv-x="507" 
d="M397 327q-19 41 -56.5 59.5t-94.5 18.5q-54 0 -88.5 -21t-34.5 -58q0 -38 27 -50.5t78 -16.5l96 -7q69 -5 105 -36.5t36 -91.5q0 -27 -13.5 -52t-38.5 -44t-61 -30t-82 -11q-50 0 -88.5 12t-66.5 32t-45.5 44.5t-24.5 50.5h72q17 -38 56.5 -58.5t107.5 -20.5
q50 0 83.5 21t33.5 56q0 38 -27 51t-79 17l-97 8q-138 12 -138 125q0 28 13.5 53.5t38 44.5t59.5 30.5t78 11.5q51 0 89.5 -12t66 -31.5t44.5 -44.5t24 -50h-73zM291 525h-74l-144 171h73l107 -123l107 123h75z" />
    <glyph glyph-name="uni0162" unicode="&#x162;" horiz-adv-x="595" 
d="M569 664v-63h-237v-601l-142 -184h-76l149 194v591h-237v63h543z" />
    <glyph glyph-name="uni0163" unicode="&#x163;" horiz-adv-x="377" 
d="M181 588v-136h159v-60h-159v-244q0 -49 23.5 -68.5t73.5 -19.5h62v-60h-56l-138 -181h-76l147 186q-54 11 -78 43t-24 86v258h-94v60h94v136h66z" />
    <glyph glyph-name="Tcaron" unicode="&#x164;" horiz-adv-x="595" 
d="M569 664v-63h-237v-601h-69v601h-237v63h543zM334 718h-72l-145 151h75l105 -103l105 103h77z" />
    <glyph glyph-name="tcaron" unicode="&#x165;" horiz-adv-x="508" 
d="M191 588v-136h159v-60h-159v-244q0 -49 23.5 -68.5t73.5 -19.5h62v-60h-63q-86 0 -124 33.5t-38 100.5v258h-94v60h94v136h66zM397 465l64 107h-45v92h92v-100l-60 -99h-51z" />
    <glyph glyph-name="Tbar" unicode="&#x166;" horiz-adv-x="595" 
d="M569 664v-63h-237v-238h173v-63h-173v-300h-69v300h-174v63h174v238h-237v63h543z" />
    <glyph glyph-name="tbar" unicode="&#x167;" horiz-adv-x="397" 
d="M191 588v-136h159v-60h-159v-85h159v-60h-159v-99q0 -49 23.5 -68.5t73.5 -19.5h62v-60h-63q-86 0 -124 33.5t-38 100.5v113h-94v60h94v85h-94v60h94v136h66z" />
    <glyph glyph-name="Utilde" unicode="&#x168;" horiz-adv-x="740" 
d="M84 664h69v-390q0 -112 58 -168t159 -56t159 56t58 168v390h69v-391q0 -69 -20.5 -122.5t-58 -89.5t-90 -55t-117.5 -19t-117.5 19t-90 55t-58 89.5t-20.5 122.5v391zM447 779q47 0 47 90h60q0 -69 -28 -110t-79 -41q-24 0 -44.5 14t-39 31t-35.5 31t-35 14
q-47 0 -47 -90h-60q0 68 28 109.5t79 41.5q25 0 46.5 -14t40 -31t35.5 -31t32 -14z" />
    <glyph glyph-name="utilde" unicode="&#x169;" horiz-adv-x="572" 
d="M265 -13q-47 0 -83 15.5t-60 42.5t-36.5 64t-12.5 80v263h66v-263q0 -30 7.5 -56t23 -45t39.5 -30t56 -11q30 0 58 11t50 32.5t35.5 52t13.5 69.5v240h66v-452h-66v57q-24 -31 -63 -50.5t-94 -19.5zM362 590q47 0 47 90h60q0 -69 -28 -110t-79 -41q-24 0 -44.5 14t-39 31
t-35.5 31t-35 14q-47 0 -47 -90h-60q0 68 28 109.5t79 41.5q25 0 46.5 -14t40 -31t35.5 -31t32 -14z" />
    <glyph glyph-name="Umacron" unicode="&#x16a;" horiz-adv-x="740" 
d="M84 664h69v-390q0 -112 58 -168t159 -56t159 56t58 168v390h69v-391q0 -69 -20.5 -122.5t-58 -89.5t-90 -55t-117.5 -19t-117.5 19t-90 55t-58 89.5t-20.5 122.5v391zM539 800v-61h-336v61h336z" />
    <glyph glyph-name="umacron" unicode="&#x16b;" horiz-adv-x="572" 
d="M265 -13q-47 0 -83 15.5t-60 42.5t-36.5 64t-12.5 80v263h66v-263q0 -30 7.5 -56t23 -45t39.5 -30t56 -11q30 0 58 11t50 32.5t35.5 52t13.5 69.5v240h66v-452h-66v57q-24 -31 -63 -50.5t-94 -19.5zM454 632v-61h-336v61h336z" />
    <glyph glyph-name="Ubreve" unicode="&#x16c;" horiz-adv-x="740" 
d="M84 664h69v-390q0 -112 58 -168t159 -56t159 56t58 168v390h69v-391q0 -69 -20.5 -122.5t-58 -89.5t-90 -55t-117.5 -19t-117.5 19t-90 55t-58 89.5t-20.5 122.5v391zM541 869q-3 -32 -16.5 -59.5t-36 -47.5t-53 -32t-65.5 -12q-36 0 -66 12t-52.5 32t-36 47.5
t-16.5 59.5h60q5 -39 35.5 -64.5t75.5 -25.5t75 25.5t35 64.5h61z" />
    <glyph glyph-name="ubreve" unicode="&#x16d;" horiz-adv-x="572" 
d="M265 -13q-47 0 -83 15.5t-60 42.5t-36.5 64t-12.5 80v263h66v-263q0 -30 7.5 -56t23 -45t39.5 -30t56 -11q30 0 58 11t50 32.5t35.5 52t13.5 69.5v240h66v-452h-66v57q-24 -31 -63 -50.5t-94 -19.5zM458 696q-2 -33 -16 -63.5t-36.5 -54.5t-53.5 -38.5t-67 -14.5
q-37 0 -67.5 14.5t-53.5 38.5t-36.5 54.5t-15.5 63.5h60q2 -21 11 -40.5t24 -35t34.5 -25t43.5 -9.5t43.5 9.5t34 25t23.5 35t11 40.5h61z" />
    <glyph glyph-name="Uring" unicode="&#x16e;" horiz-adv-x="740" 
d="M84 664h69v-390q0 -112 58 -168t159 -56t159 56t58 168v390h69v-391q0 -69 -20.5 -122.5t-58 -89.5t-90 -55t-117.5 -19t-117.5 19t-90 55t-58 89.5t-20.5 122.5v391zM243 829q0 26 10 49.5t27.5 41t40.5 27.5t49 10t49.5 -10t41 -27.5t27.5 -41t10 -49.5t-10 -49
t-27.5 -40.5t-41 -27.5t-49.5 -10t-49 10t-40.5 27.5t-27.5 40.5t-10 49zM301 829q0 -30 19.5 -50t49.5 -20q31 0 50.5 20t19.5 50t-19.5 50t-50.5 20q-30 0 -49.5 -20t-19.5 -50z" />
    <glyph glyph-name="uring" unicode="&#x16f;" horiz-adv-x="572" 
d="M265 -13q-47 0 -83 15.5t-60 42.5t-36.5 64t-12.5 80v263h66v-263q0 -30 7.5 -56t23 -45t39.5 -30t56 -11q30 0 58 11t50 32.5t35.5 52t13.5 69.5v240h66v-452h-66v57q-24 -31 -63 -50.5t-94 -19.5zM157 641q0 27 10 50t27.5 40.5t40.5 27.5t50 10t50 -10t40.5 -27.5
t27.5 -40.5t10 -50t-10 -50t-27.5 -40.5t-40.5 -27.5t-50 -10t-50 10t-40.5 27.5t-27.5 40.5t-10 50zM215 641q0 -29 20.5 -49.5t49.5 -20.5t49.5 20.5t20.5 49.5t-20.5 49.5t-49.5 20.5t-49.5 -20.5t-20.5 -49.5z" />
    <glyph glyph-name="Uhungarumlaut" unicode="&#x170;" horiz-adv-x="740" 
d="M84 664h69v-390q0 -112 58 -168t159 -56t159 56t58 168v390h69v-391q0 -69 -20.5 -122.5t-58 -89.5t-90 -55t-117.5 -19t-117.5 19t-90 55t-58 89.5t-20.5 122.5v391zM570 869l-131 -151h-76l131 151h76zM432 869l-131 -151h-76l131 151h76z" />
    <glyph glyph-name="uhungarumlaut" unicode="&#x171;" horiz-adv-x="572" 
d="M265 -13q-47 0 -83 15.5t-60 42.5t-36.5 64t-12.5 80v263h66v-263q0 -30 7.5 -56t23 -45t39.5 -30t56 -11q30 0 58 11t50 32.5t35.5 52t13.5 69.5v240h66v-452h-66v57q-24 -31 -63 -50.5t-94 -19.5zM495 696l-131 -171h-76l131 171h76zM357 696l-131 -171h-76l131 171h76
z" />
    <glyph glyph-name="Uogonek" unicode="&#x172;" horiz-adv-x="740" 
d="M84 664h69v-391q0 -112 58 -168t159 -56t159 56t58 168v391h69v-391q0 -53 -10 -92t-29 -70t-47 -55.5t-65 -48.5q-12 -8 -30 -22t-34 -30.5t-27.5 -33t-11.5 -28.5q0 -34 50 -34h41v-63h-40q-58 0 -86 21.5t-28 61.5q0 29 19.5 56.5t47.5 53.5q-9 -1 -18 -1.5t-18 -0.5
q-65 0 -117.5 19t-90 55t-58 89.5t-20.5 122.5v391z" />
    <glyph glyph-name="uogonek" unicode="&#x173;" horiz-adv-x="572" 
d="M265 -13q-47 0 -83 15.5t-60 42.5t-36.5 64t-12.5 80v263h66v-263q0 -30 7.5 -56t23 -45t39.5 -30t56 -11q30 0 58 11t50 32.5t35.5 52t13.5 69.5v240h66v-452q-11 -10 -26.5 -23.5t-30 -28t-24.5 -29t-10 -26.5q0 -34 49 -34h42v-63h-41q-58 0 -85.5 21.5t-27.5 61.5
q0 32 25.5 62.5t62.5 58.5v57q-24 -31 -63 -50.5t-94 -19.5z" />
    <glyph glyph-name="Wcircumflex" unicode="&#x174;" horiz-adv-x="1061" 
d="M85 664l203 -582l198 582h88l204 -582l198 582h73l-228 -664h-88l-205 584l-197 -584h-88l-233 664h75zM495 869h72l145 -151h-75l-105 103l-105 -103h-77z" />
    <glyph glyph-name="wcircumflex" unicode="&#x175;" horiz-adv-x="821" 
d="M452 452l141 -372l141 372h67l-171 -452h-76l-143 369l-143 -369h-76l-171 452h72l140 -372l143 372h76zM373 696h74l144 -171h-73l-107 123l-107 -123h-75z" />
    <glyph glyph-name="Ycircumflex" unicode="&#x176;" horiz-adv-x="560" 
d="M489 664h71l-246 -411v-253h-69v253l-245 411h74l207 -349zM245 869h72l145 -151h-75l-105 103l-105 -103h-77z" />
    <glyph glyph-name="ycircumflex" unicode="&#x177;" horiz-adv-x="500" 
d="M83 452l169 -374l169 374h69l-207 -455q-23 -49 -38.5 -86.5t-32.5 -63t-40.5 -38.5t-62.5 -13h-36v60h16q22 0 37 5t27 17t23 32t23 50l17 41l-206 451h73zM213 696h74l144 -171h-73l-107 123l-107 -123h-75z" />
    <glyph glyph-name="Ydieresis" unicode="&#x178;" horiz-adv-x="560" 
d="M489 664h71l-246 -411v-253h-69v253l-245 411h74l207 -349zM321 828h80v-86h-80v86zM160 828h80v-86h-80v86z" />
    <glyph glyph-name="Zacute" unicode="&#x179;" horiz-adv-x="638" 
d="M580 601l-439 -538h439v-63h-522v63l438 538h-439v63h523v-63zM455 869l-131 -151h-76l131 151h76z" />
    <glyph glyph-name="zacute" unicode="&#x17a;" horiz-adv-x="469" 
d="M40 0v60l297 332h-297v60h382v-60l-298 -332h305v-60h-389zM392 696l-131 -171h-76l131 171h76z" />
    <glyph glyph-name="Zdotaccent" unicode="&#x17b;" horiz-adv-x="638" 
d="M580 601l-439 -538h439v-63h-522v63l438 538h-439v63h523v-63zM282 838h75v-81h-75v81z" />
    <glyph glyph-name="zdotaccent" unicode="&#x17c;" horiz-adv-x="469" 
d="M40 0v60l297 332h-297v60h382v-60l-298 -332h305v-60h-389zM197 659h81v-88h-81v88z" />
    <glyph glyph-name="Zcaron" unicode="&#x17d;" horiz-adv-x="638" 
d="M580 601l-439 -538h439v-63h-522v63l438 538h-439v63h523v-63zM348 718h-72l-145 151h75l105 -103l105 103h77z" />
    <glyph glyph-name="zcaron" unicode="&#x17e;" horiz-adv-x="469" 
d="M40 0v60l297 332h-297v60h382v-60l-298 -332h305v-60h-389zM274 525h-74l-144 171h73l107 -123l107 123h75z" />
    <glyph glyph-name="longs" unicode="&#x17f;" horiz-adv-x="303" 
d="M84 0v530q0 62 42 100.5t127 38.5h46v-60h-46q-49 0 -76 -24.5t-27 -63.5v-521h-66z" />
    <glyph glyph-name="uni018F" unicode="&#x18f;" horiz-adv-x="750" 
d="M74 508q18 39 46.5 70.5t66 53t82 33.5t94.5 12q75 0 137 -27t107 -73.5t70 -109.5t25 -136t-25 -136t-69.5 -109t-105.5 -72.5t-133 -26.5q-73 0 -132.5 26.5t-102 73t-65.5 109t-23 134.5v29h586q-3 55 -26 102t-59.5 81t-84 53t-99.5 19q-68 0 -125 -28t-89 -78h-75z
M368 50q55 0 101 18.5t80 51.5t55 78t27 98h-515q5 -56 25 -101.5t52.5 -77.5t77 -49.5t97.5 -17.5z" />
    <glyph glyph-name="florin" unicode="&#x192;" horiz-adv-x="457" 
d="M263 353h150l-9 -60h-148l-51 -356q-10 -68 -55.5 -104.5t-133.5 -36.5h-46l8 60h46q50 0 80.5 25t35.5 66l48 346h-150l9 60h150l25 175q10 67 55.5 104t133.5 37h46l-9 -60h-46q-50 0 -80 -26t-35 -66z" />
    <glyph glyph-name="uni01B5" unicode="&#x1b5;" horiz-adv-x="638" 
d="M580 601l-194 -238h166v-63h-218l-193 -237h439v-63h-522v63l193 237h-158v63h209l194 238h-439v63h523v-63z" />
    <glyph glyph-name="uni01B6" unicode="&#x1b6;" horiz-adv-x="469" 
d="M40 0v60l120 134h-88v60h141l124 138h-297v60h382v-60l-124 -138h103v-60h-157l-120 -134h305v-60h-389z" />
    <glyph glyph-name="Icaron" unicode="&#x1cf;" horiz-adv-x="247" 
d="M158 0h-69v664h69v-664zM160 718h-72l-145 151h75l105 -103l105 103h77z" />
    <glyph glyph-name="icaron" unicode="&#x1d0;" horiz-adv-x="238" 
d="M157 525h-74l-144 171h73l107 -123l107 123h75zM152 452v-452h-66v452h66z" />
    <glyph glyph-name="Aringacute" unicode="&#x1fa;" horiz-adv-x="668" 
d="M525 159h-382l-70 -159h-73l268 610q-28 17 -44.5 45.5t-16.5 62.5q0 26 10 49.5t27.5 41t40.5 27.5t49 10t49.5 -10t41 -27.5t27.5 -41t10 -49.5q0 -34 -17 -62.5t-45 -45.5l268 -610h-73zM171 222h326l-163 370zM265 718q0 -30 19.5 -50t49.5 -20q31 0 50.5 20t19.5 50
t-19.5 50t-50.5 20q-30 0 -49.5 -20t-19.5 -50zM473 1006l-99 -129h-76l99 129h76z" />
    <glyph glyph-name="aringacute" unicode="&#x1fb;" horiz-adv-x="542" 
d="M413 953l-99 -129h-76l99 129h76zM137 641q0 27 10 50t27.5 40.5t40.5 27.5t50 10t50 -10t40.5 -27.5t27.5 -40.5t10 -50t-10 -50t-27.5 -40.5t-40.5 -27.5t-50 -10t-50 10t-40.5 27.5t-27.5 40.5t-10 50zM195 641q0 -29 20.5 -49.5t49.5 -20.5t49.5 20.5t20.5 49.5
t-20.5 49.5t-49.5 20.5t-49.5 -20.5t-20.5 -49.5zM259 465q46 0 84.5 -11.5t66.5 -34t43.5 -55t15.5 -74.5v-290h-66v56q-28 -32 -68.5 -50.5t-94.5 -18.5q-39 0 -73.5 9t-59.5 27.5t-39.5 46t-14.5 64.5q0 39 15 67t41.5 45.5t61 26t73.5 8.5h159v9q0 31 -11 52.5
t-30.5 35.5t-46.5 20.5t-58 6.5q-54 0 -90.5 -22t-50.5 -54h-71q20 64 77 100t137 36zM403 221h-161q-57 0 -90 -21.5t-33 -65.5t34 -65.5t88 -21.5q39 0 69.5 11.5t51 31t31 44.5t10.5 52v35z" />
    <glyph glyph-name="AEacute" unicode="&#x1fc;" horiz-adv-x="979" 
d="M469 159h-290l-112 -159h-77l471 664h450v-63h-373v-238h366v-63h-366v-237h373v-63h-442v159zM224 222h245v345zM742 869l-131 -151h-76l131 151h76z" />
    <glyph glyph-name="aeacute" unicode="&#x1fd;" horiz-adv-x="897" 
d="M847 231v-14t-2 -15h-374q3 -33 17 -61t35.5 -49t50 -33t61.5 -12q51 0 84.5 19.5t53.5 54.5h68q-24 -64 -77.5 -99t-128.5 -35q-64 0 -114.5 27.5t-81.5 76.5q-25 -42 -74.5 -73t-124.5 -31q-39 0 -73.5 9t-59.5 27.5t-39.5 46t-14.5 64.5q0 39 15 67t41.5 45.5t61 26
t73.5 8.5h159v9q0 31 -11 52.5t-30.5 35.5t-46.5 20.5t-58 6.5q-54 0 -90.5 -22t-50.5 -54h-71q20 64 77 100t137 36q66 0 115 -23t74 -67q30 42 76.5 66t106.5 24q47 0 86.5 -18t68.5 -49.5t45 -74.5t16 -92zM403 221h-161q-57 0 -90 -21.5t-33 -65.5t34 -65.5t88 -21.5
q39 0 69.5 11.5t51 31t31 44.5t10.5 52v35zM779 262q-4 30 -15.5 56t-30.5 45.5t-44.5 30.5t-57.5 11q-69 0 -110.5 -39.5t-49.5 -103.5h308zM596 696l-131 -171h-76l131 171h76z" />
    <glyph glyph-name="Oslashacute" unicode="&#x1fe;" horiz-adv-x="784" 
d="M641 567q42 -45 65.5 -105t23.5 -130q0 -74 -26.5 -137.5t-72.5 -109.5t-108 -72t-132 -26q-59 0 -111.5 18t-95.5 51l-62 -69h-81l98 110q-41 45 -64 105t-23 130q0 74 26.5 137.5t72.5 109.5t107.5 72t132.5 26q58 0 110.5 -18.5t95.5 -50.5l62 69h81zM391 50
q58 0 107.5 21t85.5 58.5t56.5 89t20.5 113.5q0 56 -17 103t-46 84l-372 -415q69 -54 165 -54zM121 332q0 -56 16.5 -103t45.5 -83l371 414q-33 26 -74 40t-89 14q-58 0 -107.5 -21t-85.5 -58.5t-56.5 -89.5t-20.5 -113zM557 869l-131 -151h-76l131 151h76z" />
    <glyph glyph-name="oslashacute" unicode="&#x1ff;" horiz-adv-x="570" 
d="M458 388q28 -32 43.5 -73t15.5 -89q0 -51 -17.5 -95t-48.5 -76t-73.5 -50t-92.5 -18q-72 0 -129 37l-30 -37h-79l63 76q-28 32 -43 73.5t-15 89.5q0 51 17.5 95t48.5 76t74 50t93 18q71 0 127 -37l31 37h79zM118 226q0 -64 34 -112l220 266q-18 11 -40 18t-47 7
q-38 0 -68.5 -14t-52.5 -38.5t-34 -57t-12 -69.5zM285 47q37 0 68 14t52.5 38.5t33.5 57t12 69.5q0 64 -34 112l-221 -266q39 -25 89 -25zM440 696l-131 -171h-76l131 171h76z" />
    <glyph glyph-name="uni0218" unicode="&#x218;" horiz-adv-x="605" 
d="M103 155q23 -44 77.5 -74.5t126.5 -30.5q42 0 76.5 9.5t60 27t39.5 40.5t14 50q0 54 -39 82t-117 37l-114 13q-94 11 -139 58.5t-45 115.5q0 43 17.5 79t50 61.5t79 39.5t105.5 14q61 0 107 -16.5t79 -41t54 -54.5t31 -57h-75q-22 45 -74.5 75.5t-124.5 30.5
q-42 0 -75.5 -10t-56.5 -27.5t-35 -40.5t-12 -49q0 -53 35.5 -80.5t101.5 -34.5l126 -14q90 -10 140 -57t50 -119q0 -36 -16.5 -71t-48.5 -62.5t-81 -44.5t-113 -17q-66 0 -113.5 16t-80.5 40.5t-53.5 54.5t-30.5 57h74zM250 -223l51 86h-47v82h92v-90l-47 -78h-49z" />
    <glyph glyph-name="uni0219" unicode="&#x219;" horiz-adv-x="507" 
d="M397 327q-19 41 -56.5 59.5t-94.5 18.5q-54 0 -88.5 -21t-34.5 -58q0 -38 27 -50.5t78 -16.5l96 -7q69 -5 105 -36.5t36 -91.5q0 -27 -13.5 -52t-38.5 -44t-61 -30t-82 -11q-50 0 -88.5 12t-66.5 32t-45.5 44.5t-24.5 50.5h72q17 -38 56.5 -58.5t107.5 -20.5
q50 0 83.5 21t33.5 56q0 38 -27 51t-79 17l-97 8q-138 12 -138 125q0 28 13.5 53.5t38 44.5t59.5 30.5t78 11.5q51 0 89.5 -12t66 -31.5t44.5 -44.5t24 -50h-73zM205 -223l51 86h-47v82h92v-90l-47 -78h-49z" />
    <glyph glyph-name="uni021A" unicode="&#x21a;" horiz-adv-x="595" 
d="M569 664v-63h-237v-601h-69v601h-237v63h543zM246 -204l51 86h-47v82h92v-90l-47 -78h-49z" />
    <glyph glyph-name="uni021B" unicode="&#x21b;" horiz-adv-x="397" 
d="M191 588v-136h159v-60h-159v-244q0 -49 23.5 -68.5t73.5 -19.5h62v-60h-63q-86 0 -124 33.5t-38 100.5v258h-94v60h94v136h66zM209 -204l51 86h-47v82h92v-90l-47 -78h-49z" />
    <glyph glyph-name="uni0259" unicode="&#x259;" horiz-adv-x="548" 
d="M52 221v14t2 15h374q-3 33 -17 61t-36 49t-50 33t-61 12q-51 0 -84.5 -19.5t-53.5 -54.5h-68q24 64 77.5 99t128.5 35q50 0 92.5 -17.5t73.5 -49.5t48.5 -76t17.5 -97q0 -51 -16.5 -94.5t-46.5 -75.5t-72 -50t-93 -18q-47 0 -86.5 18t-68.5 49.5t-45 74.5t-16 92z
M120 190q4 -30 15.5 -56t30.5 -45.5t44.5 -30.5t57.5 -11q69 0 110.5 39.5t49.5 103.5h-308z" />
    <glyph glyph-name="circumflex" unicode="&#x2c6;" horiz-adv-x="488" 
d="M207 696h74l144 -171h-73l-107 123l-107 -123h-75z" />
    <glyph glyph-name="caron" unicode="&#x2c7;" horiz-adv-x="488" 
d="M281 525h-74l-144 171h73l107 -123l107 123h75z" />
    <glyph glyph-name="uni02C9" unicode="&#x2c9;" horiz-adv-x="462" 
d="M399 632v-61h-336v61h336z" />
    <glyph glyph-name="breve" unicode="&#x2d8;" horiz-adv-x="472" 
d="M409 696q-2 -33 -16 -63.5t-36.5 -54.5t-53.5 -38.5t-67 -14.5q-37 0 -67.5 14.5t-53.5 38.5t-36.5 54.5t-15.5 63.5h60q2 -21 11 -40.5t24 -35t34.5 -25t43.5 -9.5t43.5 9.5t34 25t23.5 35t11 40.5h61z" />
    <glyph glyph-name="dotaccent" unicode="&#x2d9;" horiz-adv-x="201" 
d="M59 659h81v-88h-81v88z" />
    <glyph glyph-name="ring" unicode="&#x2da;" horiz-adv-x="381" 
d="M62 641q0 27 10 50t27.5 40.5t40.5 27.5t50 10t50 -10t40.5 -27.5t27.5 -40.5t10 -50t-10 -50t-27.5 -40.5t-40.5 -27.5t-50 -10t-50 10t-40.5 27.5t-27.5 40.5t-10 50zM120 641q0 -29 20.5 -49.5t49.5 -20.5t49.5 20.5t20.5 49.5t-20.5 49.5t-49.5 20.5t-49.5 -20.5
t-20.5 -49.5z" />
    <glyph glyph-name="ogonek" unicode="&#x2db;" horiz-adv-x="285" 
d="M221 0q-11 -10 -26.5 -23t-30 -27.5t-24.5 -29.5t-10 -27q0 -34 50 -34h41v-63h-40q-58 0 -86 21.5t-28 61.5q0 32 24.5 63t56.5 58h73z" />
    <glyph glyph-name="tilde" unicode="&#x2dc;" horiz-adv-x="494" 
d="M324 590q47 0 47 90h60q0 -69 -28 -110t-79 -41q-24 0 -44.5 14t-39 31t-35.5 31t-35 14q-47 0 -47 -90h-60q0 68 28 109.5t79 41.5q25 0 46.5 -14t40 -31t35.5 -31t32 -14z" />
    <glyph glyph-name="hungarumlaut" unicode="&#x2dd;" horiz-adv-x="471" 
d="M408 696l-131 -171h-76l131 171h76zM270 696l-131 -171h-76l131 171h76z" />
    <glyph glyph-name="accent" unicode="&#x301;" horiz-adv-x="2" 
d="M-118 696l-131 -171h-76l131 171h76z" />
    <glyph glyph-name="pi" unicode="&#x3c0;" horiz-adv-x="548" 
d="M114 0v392h-92v60h504v-60h-92v-392h-66v392h-188v-392h-66z" />
    <glyph glyph-name="uni0401" unicode="&#x401;" horiz-adv-x="599" 
d="M158 601v-238h366v-63h-366v-237h373v-63h-442v664h442v-63h-373zM351 828h80v-86h-80v86zM190 828h80v-86h-80v86z" />
    <glyph glyph-name="uni0402" unicode="&#x402;" horiz-adv-x="793" 
d="M476 401q58 0 108 -12.5t87 -37.5t58.5 -62.5t21.5 -87.5q0 -99 -67.5 -150t-184.5 -51h-60v63h48q43 0 79 8t62 24.5t40 42.5t14 62q0 68 -55.5 103t-148.5 35q-48 0 -96 -6t-90 -15v-317h-70v601h-207v63h513v-63h-236v-221q39 10 86.5 15.5t97.5 5.5z" />
    <glyph glyph-name="uni0403" unicode="&#x403;" horiz-adv-x="572" 
d="M546 664v-63h-388v-601h-69v664h457zM477 869l-131 -151h-76l131 151h76z" />
    <glyph glyph-name="uni0404" unicode="&#x404;" horiz-adv-x="711" 
d="M386.039 614q70.9912 0 120.984 -29.5q49.9941 -29.5 81.9902 -76.5h75.9912q-38.9951 75 -109.987 122q-70.9912 47 -168.979 47q-71.9912 0 -133.984 -26.5q-61.9922 -26.5 -107.986 -73t-71.9912 -109.5t-25.9971 -136t25.9971 -136t71.9912 -109.5t107.986 -73
q61.9932 -26.5 133.984 -26.5q97.9873 0 168.979 47q70.9922 47 109.987 122h-75.9912q-31.9961 -47 -81.9902 -76.5q-49.9932 -29.5 -120.984 -29.5q-53.9941 0 -100.988 18.5t-82.4893 51.5q-35.4961 33 -57.9932 79t-27.4971 101h380.954v63h-380.954q5 55 26.9971 101
t57.4932 79.5q35.4951 33.5 82.4893 52t101.988 18.5z" />
    <glyph glyph-name="uni0405" unicode="&#x405;" horiz-adv-x="605" 
d="M103 155q23 -44 77.5 -74.5t126.5 -30.5q42 0 76.5 9.5t60 27t39.5 40.5t14 50q0 54 -39 82t-117 37l-114 13q-94 11 -139 58.5t-45 115.5q0 43 17.5 79t50 61.5t79 39.5t105.5 14q61 0 107 -16.5t79 -41t54 -54.5t31 -57h-75q-22 45 -74.5 75.5t-124.5 30.5
q-42 0 -75.5 -10t-56.5 -27.5t-35 -40.5t-12 -49q0 -53 35.5 -80.5t101.5 -34.5l126 -14q90 -10 140 -57t50 -119q0 -36 -16.5 -71t-48.5 -62.5t-81 -44.5t-113 -17q-66 0 -113.5 16t-80.5 40.5t-53.5 54.5t-30.5 57h74z" />
    <glyph glyph-name="uni0406" unicode="&#x406;" horiz-adv-x="247" 
d="M158 0h-69v664h69v-664z" />
    <glyph glyph-name="uni0407" unicode="&#x407;" horiz-adv-x="247" 
d="M158 0h-69v664h69v-664zM165 828h80v-86h-80v86zM4 828h80v-86h-80v86z" />
    <glyph glyph-name="uni0408" unicode="&#x408;" horiz-adv-x="404" 
d="M320 664v-490q0 -85 -52.5 -129.5t-137.5 -44.5h-125v63h125q58 0 89.5 27t31.5 84v490h69z" />
    <glyph glyph-name="uni0409" unicode="&#x409;" horiz-adv-x="1102" 
d="M1060 191q0 -39 -13 -73.5t-39.5 -61t-68 -41.5t-98.5 -15h-304v600h-316v-238q0 -63 -3 -127t-18.5 -116.5t-50 -85.5t-97.5 -33h-37v63h23q38 0 60.5 19t34.5 56t15.5 91t3.5 124v311h454v-283h235q57 0 98.5 -15t68 -41t39.5 -60.5t13 -73.5zM991 191q0 64 -40 95.5
t-107 31.5h-238v-255h238q67 0 107 31.5t40 96.5z" />
    <glyph glyph-name="uni040A" unicode="&#x40a;" horiz-adv-x="1145" 
d="M1103 191q0 -39 -13 -73.5t-39.5 -61t-68 -41.5t-98.5 -15h-304v300h-422v-300h-69v664h69v-301h422v301h69v-283h235q57 0 98.5 -15t68 -41t39.5 -60.5t13 -73.5zM1034 191q0 64 -40 95.5t-107 31.5h-238v-255h238q67 0 107 31.5t40 96.5z" />
    <glyph glyph-name="uni040B" unicode="&#x40b;" horiz-adv-x="809" 
d="M683 0v185q0 81 -44.5 117t-148.5 36q-42 0 -93 -4.5t-106 -17.5v-316h-69v601h-207v63h513v-63h-237v-223q13 4 38 8t54 7.5t57.5 5.5t48.5 2q72 0 122 -13t81.5 -40t45.5 -68t14 -98v-182h-69z" />
    <glyph glyph-name="uni040C" unicode="&#x40c;" horiz-adv-x="597" 
d="M592 0h-94l-340 299v-299h-69v664h69v-296l336 296h98l-371 -332zM440 869l-131 -151h-76l131 151h76z" />
    <glyph glyph-name="uni040E" unicode="&#x40e;" horiz-adv-x="585" 
d="M99 664l214 -416l202 416h73l-248 -511q-21 -44 -37.5 -73t-35 -47t-41.5 -25.5t-57 -7.5h-57v63h40q38 0 64 16.5t47 61.5l14 29l-252 494h74zM180 872q3 -21 13.5 -40t27 -33t37.5 -22.5t44 -8.5t44 8.5t37.5 22.5t27 33t13.5 40h63q-3 -33 -18.5 -63t-40 -52.5
t-57 -36t-69.5 -13.5t-69.5 13.5t-57 36t-40 52.5t-18.5 63h63z" />
    <glyph glyph-name="uni040F" unicode="&#x40f;" horiz-adv-x="715" 
d="M626 664v-664h-235v-147h-69v147h-233v664h69v-601h399v601h69z" />
    <glyph glyph-name="uni0410" unicode="&#x410;" horiz-adv-x="668" 
d="M525 159h-382l-70 -159h-73l292 664h85l291 -664h-73zM171 222h326l-163 370z" />
    <glyph glyph-name="uni0411" unicode="&#x411;" horiz-adv-x="655" 
d="M612 191q0 -39 -13 -73.5t-39.5 -61t-68 -41.5t-98.5 -15h-304v664h490v-63h-421v-220h235q57 0 98.5 -15t68 -41t39.5 -60.5t13 -73.5zM543 191q0 64 -40 95.5t-107 31.5h-238v-255h238q67 0 107 31.5t40 96.5z" />
    <glyph glyph-name="uni0412" unicode="&#x412;" horiz-adv-x="656" 
d="M506 332q31 -18 49.5 -37.5t28 -40t12 -41t2.5 -40.5q0 -36 -12.5 -67.5t-38 -55t-64.5 -37t-92 -13.5h-302v664h302q53 0 92 -13.5t64.5 -37.5t38 -55.5t12.5 -67.5q0 -20 -2.5 -40.5t-12 -40.5t-28 -39.5t-49.5 -37.5zM392 63q65 0 101 29t36 89t-36.5 89.5
t-100.5 29.5h-234v-237h234zM392 363q65 0 101 29.5t36 89.5t-36.5 89.5t-100.5 29.5h-234v-238h234z" />
    <glyph glyph-name="uni0413" unicode="&#x413;" horiz-adv-x="572" 
d="M546 664v-63h-388v-601h-69v664h457z" />
    <glyph glyph-name="uni0414" unicode="&#x414;" horiz-adv-x="749" 
d="M644 -147v147h-555v-147h-69v210h65q24 22 40.5 55.5t26.5 73t14 84t4 88.5v300h453v-601h90v-210h-69zM239 365q0 -36 -2.5 -77t-9.5 -81t-20 -77.5t-33 -66.5h380v538h-315v-236z" />
    <glyph glyph-name="uni0415" unicode="&#x415;" horiz-adv-x="599" 
d="M158 601v-238h366v-63h-366v-237h373v-63h-442v664h442v-63h-373z" />
    <glyph glyph-name="uni0416" unicode="&#x416;" horiz-adv-x="889" 
d="M348 332l-338 332h94l306 -298v298h69v-298l306 298h94l-338 -332l338 -332h-90l-310 300v-300h-69v300l-310 -300h-90z" />
    <glyph glyph-name="uni0417" unicode="&#x417;" horiz-adv-x="626" 
d="M495 183q0 58 -37 87.5t-100 29.5h-174v63h174q63 0 97.5 33t34.5 85q0 39 -16 64.5t-42 41t-59.5 21.5t-69.5 6q-71 0 -121.5 -30.5t-72.5 -75.5h-75q10 27 31 56.5t53.5 54.5t78 41.5t106.5 16.5q44 0 89.5 -8.5t82.5 -31t60.5 -61t23.5 -98.5q0 -18 -3.5 -37
t-13.5 -37.5t-28 -37t-46 -34.5q29 -17 47.5 -35t29 -37.5t14.5 -39t4 -37.5q0 -54 -24 -91.5t-61.5 -60.5t-83.5 -33.5t-89 -10.5q-66 0 -113 16t-78.5 40.5t-51 54.5t-29.5 57h74q23 -45 74 -75t124 -30q36 0 70 6.5t61 22t43 41t16 63.5z" />
    <glyph glyph-name="uni0418" unicode="&#x418;" horiz-adv-x="746" 
d="M158 664v-577l414 577h85v-664h-69v576l-413 -576h-86v664h69z" />
    <glyph glyph-name="uni0419" unicode="&#x419;" horiz-adv-x="746" 
d="M158 664v-577l414 577h85v-664h-69v576l-413 -576h-86v664h69zM251 872q3 -21 13.5 -40t27 -33t37.5 -22.5t44 -8.5t44 8.5t37.5 22.5t27 33t13.5 40h63q-3 -33 -18.5 -63t-40 -52.5t-57 -36t-69.5 -13.5t-69.5 13.5t-57 36t-40 52.5t-18.5 63h63z" />
    <glyph glyph-name="uni041A" unicode="&#x41a;" horiz-adv-x="597" 
d="M592 0h-94l-340 299v-299h-69v664h69v-296l336 296h98l-371 -332z" />
    <glyph glyph-name="uni041B" unicode="&#x41b;" horiz-adv-x="695" 
d="M606 664v-664h-69v600h-316v-238q0 -63 -3 -127t-18.5 -116.5t-50 -85.5t-97.5 -33h-37v63h23q38 0 60.5 19t34.5 56t15.5 91t3.5 124v311h454z" />
    <glyph glyph-name="uni041C" unicode="&#x41c;" horiz-adv-x="968" 
d="M488 69l295 595h96v-664h-69v565l-277 -565h-88l-287 565v-565h-69v664h96z" />
    <glyph glyph-name="uni041D" unicode="&#x41d;" horiz-adv-x="738" 
d="M580 0v300h-422v-300h-69v664h69v-301h422v301h69v-664h-69z" />
    <glyph glyph-name="uni041E" unicode="&#x41e;" horiz-adv-x="772" 
d="M386 677q70 0 132 -26t108 -72t72.5 -109.5t26.5 -137.5t-26.5 -137.5t-72.5 -109.5t-108 -72t-132 -26q-71 0 -132.5 26t-107.5 72t-72.5 109.5t-26.5 137.5t26.5 137.5t72.5 109.5t107.5 72t132.5 26zM386 50q58 0 107.5 21t85.5 58.5t56.5 89t20.5 113.5
q0 61 -20.5 113t-56.5 89.5t-85.5 58.5t-107.5 21t-107.5 -21t-85.5 -58.5t-56.5 -89.5t-20.5 -113q0 -62 20.5 -113.5t56.5 -89t85.5 -58.5t107.5 -21z" />
    <glyph glyph-name="uni041F" unicode="&#x41f;" horiz-adv-x="726" 
d="M568 0v601h-410v-601h-69v664h548v-664h-69z" />
    <glyph glyph-name="uni0420" unicode="&#x420;" horiz-adv-x="654" 
d="M612 473q0 -39 -13 -73.5t-39.5 -60.5t-67.5 -41t-98 -15h-236v-283h-69v664h305q57 0 98 -15t67.5 -41.5t39.5 -61t13 -73.5zM543 473q0 65 -40.5 96.5t-109.5 31.5h-235v-255h235q69 0 109.5 31t40.5 96z" />
    <glyph glyph-name="uni0421" unicode="&#x421;" horiz-adv-x="711" 
d="M387 614q-59 0 -108.5 -21t-85.5 -58.5t-56.5 -89.5t-20.5 -113t20.5 -113t56.5 -89.5t85.5 -58.5t108.5 -21q71 0 121 29.5t82 76.5h76q-39 -75 -110 -122t-169 -47q-72 0 -134 26.5t-108 73t-72 109.5t-26 136t26 136t72 109.5t108 73t134 26.5q98 0 169 -47t110 -122
h-76q-32 47 -82 76.5t-121 29.5z" />
    <glyph glyph-name="uni0422" unicode="&#x422;" horiz-adv-x="595" 
d="M569 664v-63h-237v-601h-69v601h-237v63h543z" />
    <glyph glyph-name="uni0423" unicode="&#x423;" horiz-adv-x="585" 
d="M99 664l214 -416l202 416h73l-248 -511q-21 -44 -37.5 -73t-35 -47t-41.5 -25.5t-57 -7.5h-57v63h40q38 0 64 16.5t47 61.5l14 29l-252 494h74z" />
    <glyph glyph-name="uni0424" unicode="&#x424;" horiz-adv-x="881" 
d="M476 604h73q58 0 110 -17t91.5 -50.5t62.5 -82.5t23 -113t-23 -113t-62.5 -82.5t-91.5 -50.5t-110 -17h-73v-96h-69v96h-73q-58 0 -110 17t-91.5 50.5t-62.5 82.5t-23 113t23 113t62.5 82.5t91.5 50.5t110 17h73v82h69v-82zM767 341q0 50 -18 87.5t-48 62.5t-69.5 37.5
t-82.5 12.5h-73v-400h73q43 0 82.5 12.5t69.5 37.5t48 62.5t18 87.5zM116 341q0 -50 18 -87.5t48 -62.5t69.5 -37.5t82.5 -12.5h73v400h-73q-43 0 -82.5 -12.5t-69.5 -37.5t-48 -62.5t-18 -87.5z" />
    <glyph glyph-name="uni0425" unicode="&#x425;" horiz-adv-x="590" 
d="M296 277l-200 -277h-81l239 333l-239 331h79l200 -276l199 276h82l-240 -333l240 -331h-78z" />
    <glyph glyph-name="uni0426" unicode="&#x426;" horiz-adv-x="752" 
d="M626 664v-601h90v-210h-69v147h-558v664h69v-601h399v601h69z" />
    <glyph glyph-name="uni0427" unicode="&#x427;" horiz-adv-x="676" 
d="M126 664v-185q0 -81 44.5 -117t148.5 -36q42 0 93 4.5t106 17.5v316h69v-664h-69v286q-13 -4 -38 -8t-54 -7.5t-57.5 -5.5t-48.5 -2q-72 0 -122 13t-81.5 40t-45.5 68t-14 98v182h69z" />
    <glyph glyph-name="uni0428" unicode="&#x428;" horiz-adv-x="1001" 
d="M89 0v664h69v-601h308v601h69v-601h308v601h69v-664h-823z" />
    <glyph glyph-name="uni0429" unicode="&#x429;" horiz-adv-x="1039" 
d="M912 664v-601h90v-210h-69v147h-844v664h69v-601h308v601h69v-601h308v601h69z" />
    <glyph glyph-name="uni042A" unicode="&#x42a;" horiz-adv-x="743" 
d="M701 191q0 -39 -13 -73.5t-39.5 -61t-68 -41.5t-98.5 -15h-304v601h-163v63h232v-283h235q57 0 98.5 -15t68 -41t39.5 -60.5t13 -73.5zM632 191q0 64 -40 95.5t-107 31.5h-238v-255h238q67 0 107 31.5t40 96.5z" />
    <glyph glyph-name="uni042B" unicode="&#x42b;" horiz-adv-x="855" 
d="M766 0h-69v664h69v-664zM592 191q0 -39 -13 -73.5t-39.5 -61t-68 -41.5t-98.5 -15h-284v664h69v-283h215q57 0 98.5 -15t68 -41t39.5 -60.5t13 -73.5zM523 191q0 64 -40 95.5t-107 31.5h-218v-255h218q67 0 107 31.5t40 96.5z" />
    <glyph glyph-name="uni042C" unicode="&#x42c;" horiz-adv-x="654" 
d="M612 191q0 -39 -13 -73.5t-39.5 -61t-68 -41.5t-98.5 -15h-304v664h69v-283h235q57 0 98.5 -15t68 -41t39.5 -60.5t13 -73.5zM543 191q0 64 -40 95.5t-107 31.5h-238v-255h238q67 0 107 31.5t40 96.5z" />
    <glyph glyph-name="uni042D" unicode="&#x42d;" horiz-adv-x="704" 
d="M317 614q-71 0 -121 -29.5t-82 -76.5h-76q39 75 110 122t169 47q72 0 134 -26.5t108 -73t72 -109.5t26 -136t-26 -136t-72 -109.5t-108 -73t-134 -26.5q-98 0 -169 47t-110 122h76q32 -47 82 -76.5t121 -29.5q54 0 101 18.5t82.5 51.5t58 79t27.5 101h-381v63h381
q-5 55 -27 101t-57.5 79.5t-82.5 52t-102 18.5z" />
    <glyph glyph-name="uni042E" unicode="&#x42e;" horiz-adv-x="1020" 
d="M648 -13q-65 0 -122.5 23.5t-102 65t-72 99t-33.5 125.5h-160v-300h-69v664h69v-301h160q5 68 33 125.5t72 99.5t102 65.5t123 23.5q69 0 129 -26t105 -72t71 -109.5t26 -137.5t-26 -137.5t-71 -109.5t-105 -72t-129 -26zM648 614q-57 0 -105 -21t-83 -58.5t-54.5 -89.5
t-19.5 -113q0 -62 19.5 -113.5t54.5 -89t83 -58.5t105 -21t105 21t83 58.5t54.5 89t19.5 113.5q0 61 -19.5 113t-54.5 89.5t-83 58.5t-105 21z" />
    <glyph glyph-name="uni042F" unicode="&#x42f;" horiz-adv-x="648" 
d="M36.0742 473q0 -38 11.999 -71.5t36.9951 -59q24.9971 -25.5 63.9922 -41.5q38.9961 -16 91.9893 -18l-215.974 -283h86.9893l215.974 283h161.98v-283h68.9912v664h-304.963q-56.9932 0 -97.9873 -15q-40.9951 -15 -67.4922 -41.5t-39.4951 -61
q-12.999 -34.5 -12.999 -73.5zM105.066 473q0 65 40.4951 96.5t109.486 31.5h234.972v-255h-234.972q-68.9912 0 -109.486 31t-40.4951 96z" />
    <glyph glyph-name="uni0430" unicode="&#x430;" horiz-adv-x="542" 
d="M259 465q46 0 84.5 -11.5t66.5 -34t43.5 -55t15.5 -74.5v-290h-66v56q-28 -32 -68.5 -50.5t-94.5 -18.5q-39 0 -73.5 9t-59.5 27.5t-39.5 46t-14.5 64.5q0 39 15 67t41.5 45.5t61 26t73.5 8.5h159v9q0 31 -11 52.5t-30.5 35.5t-46.5 20.5t-58 6.5q-54 0 -90.5 -22
t-50.5 -54h-71q20 64 77 100t137 36zM403 221h-161q-57 0 -90 -21.5t-33 -65.5t34 -65.5t88 -21.5q39 0 69.5 11.5t51 31t31 44.5t10.5 52v35z" />
    <glyph glyph-name="uni0431" unicode="&#x431;" horiz-adv-x="583" 
d="M302 453q49 0 91 -19t73 -51t48 -74.5t17 -89.5q0 -48 -17.5 -90t-49 -73.5t-75 -50t-94.5 -18.5q-61 0 -104.5 22t-72 59.5t-42 87.5t-13.5 105q0 73 7.5 132t29 102t60.5 69.5t102 34.5l105 13q36 5 57 16.5t26 40.5h66q-3 -16 -8.5 -34t-19 -34t-37 -28.5t-60.5 -17.5
l-127 -17q-43 -6 -68.5 -24t-39 -42t-18 -50t-6.5 -47q23 29 65 53.5t105 24.5zM465 220q0 35 -12 66.5t-34 55t-52.5 37.5t-67.5 14q-38 0 -69 -14t-53.5 -37.5t-35 -55t-12.5 -66.5t12 -66.5t34 -55t52.5 -37.5t67.5 -14t68.5 14t54 37.5t35 55t12.5 66.5z" />
    <glyph glyph-name="uni0432" unicode="&#x432;" horiz-adv-x="548" 
d="M431 225q33 -14 48.5 -44t15.5 -64q0 -48 -34.5 -82.5t-105.5 -34.5h-271v452h268q36 0 62 -9t43.5 -25t26 -37.5t8.5 -46.5q0 -33 -14 -63t-47 -46zM348 256q36 0 57 17t21 51t-21 51t-57 17h-198v-136h198zM351 60q36 0 57 17t21 51t-21 51t-57 17h-201v-136h201z" />
    <glyph glyph-name="uni0433" unicode="&#x433;" horiz-adv-x="462" 
d="M431 452v-60h-281v-392h-66v452h347z" />
    <glyph glyph-name="uni0434" unicode="&#x434;" horiz-adv-x="595" 
d="M487 -126v126h-406v-126h-66v186h49q18 15 30.5 37.5t19.5 49.5t10 57t3 61v187h353v-392h73v-186h-66zM193 266q0 -26 -2 -53.5t-7 -55t-14 -52.5t-23 -45h267v332h-221v-126z" />
    <glyph glyph-name="uni0435" unicode="&#x435;" horiz-adv-x="548" 
d="M496 231v-14t-2 -15h-374q3 -33 17 -61t35.5 -49t50 -33t61.5 -12q51 0 84.5 19.5t53.5 54.5h68q-24 -64 -77.5 -99t-128.5 -35q-50 0 -92.5 17.5t-73.5 49.5t-48.5 76t-17.5 97q0 51 16.5 94.5t46.5 75.5t72 50t93 18q47 0 86.5 -18t68.5 -49.5t45 -74.5t16 -92z
M428 262q-4 30 -15.5 56t-30.5 45.5t-44.5 30.5t-57.5 11q-69 0 -110.5 -39.5t-49.5 -103.5h308z" />
    <glyph glyph-name="uni0436" unicode="&#x436;" horiz-adv-x="665" 
d="M365 452v-199l207 199h83l-234 -229l234 -223h-90l-200 191v-191h-66v191l-200 -191h-89l234 223l-234 229h82l207 -199v199h66z" />
    <glyph glyph-name="uni0437" unicode="&#x437;" horiz-adv-x="522" 
d="M409 225q24 -13 39 -36t15 -55q0 -30 -14.5 -57t-40 -47t-62 -31.5t-79.5 -11.5q-49 0 -86.5 12t-64.5 32t-43.5 44.5t-23.5 50.5h72q17 -38 50.5 -58.5t95.5 -20.5q23 0 46 5t42 15.5t30.5 26.5t11.5 37q0 28 -19 46.5t-58 18.5h-112v60h111q35 0 55.5 17t20.5 49
q0 19 -10.5 34.5t-28 26.5t-41 16.5t-49.5 5.5q-55 0 -91.5 -18.5t-52.5 -57.5h-71q7 25 23 49t42 43.5t63.5 31.5t87.5 12q35 0 69.5 -9t62.5 -26.5t45 -44.5t17 -63q0 -30 -11.5 -55t-40.5 -42z" />
    <glyph glyph-name="uni0438" unicode="&#x438;" horiz-adv-x="589" 
d="M84 0v452h66v-355l289 355h66v-452h-66v355l-289 -355h-66z" />
    <glyph glyph-name="uni0439" unicode="&#x439;" horiz-adv-x="589" 
d="M84 0v452h66v-355l289 355h66v-452h-66v355l-289 -355h-66zM179 674q3 -18 13.5 -34.5t26 -29t35 -19.5t40.5 -7t40.5 7t35 19.5t26 29t13.5 34.5h61q-3 -31 -18 -58.5t-38.5 -48t-54 -32.5t-65.5 -12t-65.5 12t-54 32.5t-38.5 48t-18 58.5h61z" />
    <glyph glyph-name="uni043A" unicode="&#x43a;" horiz-adv-x="479" 
d="M150 452v-209l234 209h85l-254 -226l255 -226h-86l-234 197v-197h-66v452h66z" />
    <glyph glyph-name="uni043B" unicode="&#x43b;" horiz-adv-x="556" 
d="M472 452v-452h-66v392h-216v-133q0 -43 -2.5 -89t-17 -83.5t-45 -62t-85.5 -24.5h-19v63h9q34 0 53 18t28 46t11 62.5t2 67.5v195h348z" />
    <glyph glyph-name="uni043C" unicode="&#x43c;" horiz-adv-x="703" 
d="M389 0h-75l-164 331v-331h-66v452h78l190 -383l190 383h77v-452h-66v331z" />
    <glyph glyph-name="uni043D" unicode="&#x43d;" horiz-adv-x="589" 
d="M505 452v-452h-66v197h-289v-197h-66v452h66v-195h289v195h66z" />
    <glyph glyph-name="uni043E" unicode="&#x43e;" horiz-adv-x="570" 
d="M517 226q0 -51 -17.5 -95t-48.5 -76t-73.5 -50t-92.5 -18t-93 18t-74 50t-48.5 76t-17.5 95t17.5 95t48.5 76t74 50t93 18t92.5 -18t73.5 -50t48.5 -76t17.5 -95zM451 226q0 37 -12 69.5t-33.5 57t-52.5 38.5t-68 14q-38 0 -68.5 -14t-52.5 -38.5t-34 -57t-12 -69.5
t12 -69.5t34 -57t52.5 -38.5t68.5 -14q37 0 68 14t52.5 38.5t33.5 57t12 69.5z" />
    <glyph glyph-name="uni043F" unicode="&#x43f;" horiz-adv-x="580" 
d="M496 452v-452h-66v392h-280v-392h-66v452h412z" />
    <glyph glyph-name="uni0440" unicode="&#x440;" horiz-adv-x="593" 
d="M541 226q0 -47 -14.5 -90t-43 -76t-71.5 -53t-99 -20q-57 0 -99 21.5t-64 48.5v-261h-66v656h66v-57q22 27 64 48.5t99 21.5q56 0 99 -20t71.5 -53t43 -76t14.5 -90zM475 226q0 36 -11.5 68.5t-33 57t-51.5 39t-66 14.5q-33 0 -62.5 -11t-52.5 -33.5t-36.5 -56
t-13.5 -78.5t13.5 -78.5t36.5 -56t52.5 -33.5t62.5 -11q36 0 66 14.5t51.5 39t33 57t11.5 68.5z" />
    <glyph glyph-name="uni0441" unicode="&#x441;" horiz-adv-x="541" 
d="M423 331q-19 32 -54.5 53t-82.5 21q-37 0 -68 -14t-53 -38.5t-34.5 -57t-12.5 -69.5t12.5 -69.5t34.5 -57t53 -38.5t68 -14q47 0 82.5 21t54.5 53h71q-24 -62 -78.5 -98t-129.5 -36q-50 0 -92.5 18t-74 50.5t-49.5 76t-18 94.5t18 94.5t49.5 76t74 50.5t92.5 18
q75 0 129.5 -36t78.5 -98h-71z" />
    <glyph glyph-name="uni0442" unicode="&#x442;" horiz-adv-x="464" 
d="M21 452h422v-60h-178v-392h-66v392h-178v60z" />
    <glyph glyph-name="uni0443" unicode="&#x443;" horiz-adv-x="500" 
d="M83 452l169 -374l169 374h69l-207 -455q-23 -49 -38.5 -86.5t-32.5 -63t-40.5 -38.5t-62.5 -13h-36v60h16q22 0 37 5t27 17t23 32t23 50l17 41l-206 451h73z" />
    <glyph glyph-name="uni0444" unicode="&#x444;" horiz-adv-x="746" 
d="M406 669v-217h48q52 0 96 -17t76 -47t49.5 -71t17.5 -90q0 -50 -16 -92t-46.5 -72t-75 -46.5t-101.5 -16.5h-48v-204h-66v204h-48q-57 0 -102 16.5t-75.5 46.5t-46.5 72t-16 92q0 49 18 90t49.5 71t75.5 47t96 17h49v217h66zM406 392v-332h44q45 0 78.5 12.5t55 35
t32.5 53t11 66.5t-12 66t-35 52t-56 34.5t-75 12.5h-43zM297 392q-42 0 -75 -12.5t-56.5 -34.5t-35.5 -52t-12 -66t11 -66.5t32.5 -53t55 -35t78.5 -12.5h45v332h-43z" />
    <glyph glyph-name="uni0445" unicode="&#x445;" horiz-adv-x="491" 
d="M286 228l188 -228h-82l-147 178l-146 -178h-79l186 226l-185 226h82l144 -176l144 176h79z" />
    <glyph glyph-name="uni0446" unicode="&#x446;" horiz-adv-x="613" 
d="M506 -126v126h-422v452h66v-392h283v392h66v-392h73v-186h-66z" />
    <glyph glyph-name="uni0447" unicode="&#x447;" horiz-adv-x="552" 
d="M57 452h66v-137q0 -47 27.5 -69.5t101.5 -22.5q32 0 69.5 3.5t80.5 10.5v215h66v-452h-66v178q-9 -3 -28 -5.5t-40 -4.5t-42 -3.5t-35 -1.5q-200 0 -200 148v141z" />
    <glyph glyph-name="uni0448" unicode="&#x448;" horiz-adv-x="798" 
d="M84 0v452h66v-392h216v392h66v-392h216v392h66v-452h-630z" />
    <glyph glyph-name="uni0449" unicode="&#x449;" horiz-adv-x="829" 
d="M714 452v-392h73v-186h-66v126h-637v452h66v-392h216v392h66v-392h216v392h66z" />
    <glyph glyph-name="uni044A" unicode="&#x44a;" horiz-adv-x="593" 
d="M397 293q42 0 73 -12t51.5 -32.5t30 -47t9.5 -55.5q0 -30 -9.5 -56.5t-30 -46.5t-51.5 -31.5t-73 -11.5h-238v392h-144v60h210v-159h172zM394 60q47 0 74 22t27 64q0 43 -27 65t-74 22h-169v-173h169z" />
    <glyph glyph-name="uni044B" unicode="&#x44b;" horiz-adv-x="690" 
d="M606 452v-452h-66v452h66zM297 293q42 0 73 -12t51.5 -32.5t30 -47t9.5 -55.5q0 -30 -9.5 -56.5t-30 -46.5t-51.5 -31.5t-73 -11.5h-213v452h66v-159h147zM294 60q47 0 74 22t27 64q0 43 -27 65t-74 22h-144v-173h144z" />
    <glyph glyph-name="uni044C" unicode="&#x44c;" horiz-adv-x="517" 
d="M322 293q42 0 73 -12t51.5 -32.5t30 -47t9.5 -55.5q0 -30 -9.5 -56.5t-30 -46.5t-51.5 -31.5t-73 -11.5h-238v452h66v-159h172zM319 60q47 0 74 22t27 64q0 43 -27 65t-74 22h-169v-173h169z" />
    <glyph glyph-name="uni044D" unicode="&#x44d;" horiz-adv-x="543" 
d="M48 331q24 62 78.5 98t129.5 36q49 0 92 -18t74.5 -50.5t49.5 -76t18 -94.5t-18 -94.5t-49.5 -76t-74.5 -50.5t-92 -18q-75 0 -129.5 36t-78.5 98h71q19 -32 54.5 -53t82.5 -21q33 0 61.5 11t50.5 31t35.5 47.5t18.5 60.5h-244v60h243q-5 32 -19 59t-35.5 47t-49.5 31
t-61 11q-47 0 -82.5 -21t-54.5 -53h-71z" />
    <glyph glyph-name="uni044E" unicode="&#x44e;" horiz-adv-x="755" 
d="M702 226q0 -51 -17.5 -95t-48 -76t-72.5 -50t-91 -18q-46 0 -85.5 15.5t-69.5 43.5t-49 66.5t-24 84.5h-95v-197h-66v452h66v-195h95q5 45 24.5 83.5t49.5 66t69.5 43t84.5 15.5q49 0 91 -18t72.5 -50t48 -76t17.5 -95zM636 226q0 37 -11.5 69.5t-33 57t-51.5 38.5
t-67 14t-67 -14t-51.5 -38.5t-33 -57t-11.5 -69.5t11.5 -69.5t33 -57t51.5 -38.5t67 -14t67 14t51.5 38.5t33 57t11.5 69.5z" />
    <glyph glyph-name="uni044F" unicode="&#x44f;" horiz-adv-x="520" 
d="M254 159l-137 -159h-84l139 162q-32 5 -55 18.5t-38 33t-22.5 43t-7.5 49.5q0 30 9.5 56.5t30 46.5t51.5 31.5t73 11.5h223v-452h-66v159h-116zM216 392q-47 0 -74 -22t-27 -64q0 -43 27 -65t74 -22h154v173h-154z" />
    <glyph glyph-name="uni0451" unicode="&#x451;" horiz-adv-x="548" 
d="M496 231v-14t-2 -15h-374q3 -33 17 -61t35.5 -49t50 -33t61.5 -12q51 0 84.5 19.5t53.5 54.5h68q-24 -64 -77.5 -99t-128.5 -35q-50 0 -92.5 17.5t-73.5 49.5t-48.5 76t-17.5 97q0 51 16.5 94.5t46.5 75.5t72 50t93 18q47 0 86.5 -18t68.5 -49.5t45 -74.5t16 -92z
M428 262q-4 30 -15.5 56t-30.5 45.5t-44.5 30.5t-57.5 11q-69 0 -110.5 -39.5t-49.5 -103.5h308zM317 657h80v-86h-80v86zM156 657h80v-86h-80v86z" />
    <glyph glyph-name="uni0452" unicode="&#x452;" horiz-adv-x="583" 
d="M510 -70q0 -67 -38 -100.5t-124 -33.5h-63v60h62q50 0 73.5 19.5t23.5 68.5v319q0 60 -31.5 101t-97.5 41q-30 0 -59 -11t-51.5 -32.5t-36 -52t-13.5 -69.5v-240h-66v534h-79v60h79v75h66v-75h152v-60h-152v-139q24 31 64 50.5t96 19.5q48 0 84 -15.5t61 -42.5t37.5 -64
t12.5 -80v-333v0z" />
    <glyph glyph-name="uni0453" unicode="&#x453;" horiz-adv-x="462" 
d="M412 696l-131 -171h-76l131 171h76zM431 452v-60h-281v-392h-66v452h347z" />
    <glyph glyph-name="uni0454" unicode="&#x454;" horiz-adv-x="541" 
d="M494.006 331q-23.9971 62 -78.4902 98t-129.484 36q-48.9941 0 -91.9883 -18q-42.9951 -18 -74.4912 -50.5t-49.4941 -76t-17.998 -94.5t17.998 -94.5t49.4941 -76t74.4912 -50.5q42.9941 -18 91.9883 -18q74.9912 0 129.484 36t78.4902 98h-70.9912
q-18.998 -32 -54.4932 -53q-35.4961 -21 -82.4902 -21q-32.9961 0 -61.4922 11q-28.4971 11 -50.4941 31t-35.4961 47.5q-13.498 27.5 -18.4971 60.5h243.97v60h-242.97q4.99902 32 18.9971 59t35.4961 47q21.4971 20 49.4941 31q27.9961 11 60.9922 11
q46.9941 0 82.4902 -21q35.4951 -21 54.4932 -53h70.9912z" />
    <glyph glyph-name="uni0455" unicode="&#x455;" horiz-adv-x="507" 
d="M397 327q-19 41 -56.5 59.5t-94.5 18.5q-54 0 -88.5 -21t-34.5 -58q0 -38 27 -50.5t78 -16.5l96 -7q69 -5 105 -36.5t36 -91.5q0 -27 -13.5 -52t-38.5 -44t-61 -30t-82 -11q-50 0 -88.5 12t-66.5 32t-45.5 44.5t-24.5 50.5h72q17 -38 56.5 -58.5t107.5 -20.5
q50 0 83.5 21t33.5 56q0 38 -27 51t-79 17l-97 8q-138 12 -138 125q0 28 13.5 53.5t38 44.5t59.5 30.5t78 11.5q51 0 89.5 -12t66 -31.5t44.5 -44.5t24 -50h-73z" />
    <glyph glyph-name="uni0456" unicode="&#x456;" horiz-adv-x="238" 
d="M152 452v-452h-66v452h66zM78 659h81v-88h-81v88z" />
    <glyph glyph-name="uni0457" unicode="&#x457;" horiz-adv-x="238" 
d="M161 657h80v-86h-80v86zM0 657h80v-86h-80v86zM152 452v-452h-66v452h66z" />
    <glyph glyph-name="uni0458" unicode="&#x458;" horiz-adv-x="254" 
d="M95 659h81v-88h-81v88zM169 452v-522q0 -67 -38 -100.5t-124 -33.5h-63v60h62q50 0 73.5 19.5t23.5 68.5v508h66z" />
    <glyph glyph-name="uni0459" unicode="&#x459;" horiz-adv-x="839" 
d="M472 452v-159h172q42 0 73 -12t51.5 -32.5t30 -47t9.5 -55.5q0 -30 -9.5 -56.5t-30 -46.5t-51.5 -31.5t-73 -11.5h-238v392h-216v-133q0 -43 -2.5 -89t-17 -83.5t-45 -62t-85.5 -24.5h-19v63h9q34 0 53 18t28 46t11 62.5t2 67.5v195h348zM641 60q47 0 74 22t27 64
q0 43 -27 65t-74 22h-169v-173h169z" />
    <glyph glyph-name="uni045A" unicode="&#x45a;" horiz-adv-x="872" 
d="M505 452v-159h172q42 0 73 -12t51.5 -32.5t30 -47t9.5 -55.5q0 -30 -9.5 -56.5t-30 -46.5t-51.5 -31.5t-73 -11.5h-238v197h-289v-197h-66v452h66v-195h289v195h66zM674 60q47 0 74 22t27 64q0 43 -27 65t-74 22h-169v-173h169z" />
    <glyph glyph-name="uni045B" unicode="&#x45b;" horiz-adv-x="583" 
d="M444 263q0 60 -31.5 101t-97.5 41q-30 0 -59 -11t-51.5 -32.5t-36 -52t-13.5 -69.5v-240h-66v534h-79v60h79v75h66v-75h152v-60h-152v-139q24 31 64 50.5t96 19.5q48 0 84 -15.5t61 -42.5t37.5 -64t12.5 -80v-263h-66v263v0z" />
    <glyph glyph-name="uni045C" unicode="&#x45c;" horiz-adv-x="479" 
d="M425 696l-131 -171h-76l131 171h76zM150 452v-209l234 209h85l-254 -226l255 -226h-86l-234 197v-197h-66v452h66z" />
    <glyph glyph-name="uni045E" unicode="&#x45e;" horiz-adv-x="500" 
d="M83 452l169 -374l169 374h69l-207 -455q-23 -49 -38.5 -86.5t-32.5 -63t-40.5 -38.5t-62.5 -13h-36v60h16q22 0 37 5t27 17t23 32t23 50l17 41l-206 451h73zM129 674q3 -18 13.5 -34.5t26 -29t35 -19.5t40.5 -7t40.5 7t35 19.5t26 29t13.5 34.5h61q-3 -31 -18 -58.5
t-38.5 -48t-54 -32.5t-65.5 -12t-65.5 12t-54 32.5t-38.5 48t-18 58.5h61z" />
    <glyph glyph-name="uni045F" unicode="&#x45f;" horiz-adv-x="583" 
d="M259 -126v126h-175v452h66v-392h283v392h66v-452h-174v-126h-66z" />
    <glyph glyph-name="uni0490" unicode="&#x490;" horiz-adv-x="572" 
d="M477 664v140h69v-203h-388v-601h-69v664h388z" />
    <glyph glyph-name="uni0491" unicode="&#x491;" horiz-adv-x="462" 
d="M431 568v-176h-281v-392h-66v452h281v116h66z" />
    <glyph glyph-name="uni0492" unicode="&#x492;" horiz-adv-x="610" 
d="M427 300h-231v-300h-69v300h-106v63h106v301h457v-63h-388v-238h231v-63z" />
    <glyph glyph-name="uni0493" unicode="&#x493;" horiz-adv-x="478" 
d="M99 247v205h347v-60h-281v-145h180v-60h-180v-187h-66v187h-78v60h78z" />
    <glyph glyph-name="uni049A" unicode="&#x49a;" 
d="M521 63h75v-210h-69v147h-29l-340 299v-299h-69v664h69v-296l336 296h98l-371 -332z" />
    <glyph glyph-name="uni049B" unicode="&#x49b;" horiz-adv-x="501" 
d="M404 -126v126h-20l-234 197v-197h-66v452h66v-209l234 209h85l-254 -226l188 -166h67v-186h-66z" />
    <glyph glyph-name="uni04A2" unicode="&#x4a2;" horiz-adv-x="775" 
d="M580 0v300h-422v-300h-69v664h69v-301h422v301h69v-601h90v-210h-69v147h-90z" />
    <glyph glyph-name="uni04A3" unicode="&#x4a3;" horiz-adv-x="619" 
d="M439 197h-289v-197h-66v452h66v-195h289v195h66v-392h73v-186h-66v126h-73v197z" />
    <glyph glyph-name="uni04AE" unicode="&#x4ae;" horiz-adv-x="560" 
d="M489 664h71l-246 -411v-253h-69v253l-245 411h74l207 -349z" />
    <glyph glyph-name="uni04AF" unicode="&#x4af;" horiz-adv-x="500" 
d="M283 -2v-202h-66v202l-207 454h73l169 -374l169 374h69z" />
    <glyph glyph-name="uni04B0" unicode="&#x4b0;" horiz-adv-x="560" 
d="M489 664h71l-223 -372h143v-63h-166v-229h-69v229h-161v63h138l-222 372h74l207 -349z" />
    <glyph glyph-name="uni04B1" unicode="&#x4b1;" horiz-adv-x="500" 
d="M304 45h144v-60h-165v-189h-66v189h-165v60h143l-185 407h73l169 -374l169 374h69z" />
    <glyph glyph-name="uni04BA" unicode="&#x4ba;" horiz-adv-x="676" 
d="M550.016 0.0810547v184.978q0 80.9902 -44.4951 116.985q-44.4941 35.9961 -148.481 35.9961q-41.9951 0 -92.9883 -4.5q-50.9941 -4.49902 -105.987 -17.4971v-315.962h-68.9922v663.919h68.9922v-285.965q12.998 3.99902 37.9951 7.99902
q24.9971 3.99902 53.9932 7.49902q28.9971 3.49902 57.4932 5.49902t48.4941 2q71.9912 0 121.985 -12.999q49.9932 -12.998 81.4902 -39.9941q31.4961 -26.9971 45.4941 -67.9922t13.998 -97.9883v-181.978h-68.9912z" />
    <glyph glyph-name="uni04BB" unicode="&#x4bb;" horiz-adv-x="578" 
d="M310 465q48 0 84 -15.5t61 -42.5t37.5 -64t12.5 -80v-263h-66v263q0 60 -31.5 101t-97.5 41q-30 0 -59 -11t-51.5 -32.5t-36 -52t-13.5 -69.5v-240h-66v669h66v-274q24 31 64 50.5t96 19.5z" />
    <glyph glyph-name="uni04D8" unicode="&#x4d8;" horiz-adv-x="750" 
d="M74 508q18 39 46.5 70.5t66 53t82 33.5t94.5 12q75 0 137 -27t107 -73.5t70 -109.5t25 -136t-25 -136t-69.5 -109t-105.5 -72.5t-133 -26.5q-73 0 -132.5 26.5t-102 73t-65.5 109t-23 134.5v29h586q-3 55 -26 102t-59.5 81t-84 53t-99.5 19q-68 0 -125 -28t-89 -78h-75z
M368 50q55 0 101 18.5t80 51.5t55 78t27 98h-515q5 -56 25 -101.5t52.5 -77.5t77 -49.5t97.5 -17.5z" />
    <glyph glyph-name="uni04D9" unicode="&#x4d9;" horiz-adv-x="548" 
d="M52 221v14t2 15h374q-3 33 -17 61t-36 49t-50 33t-61 12q-51 0 -84.5 -19.5t-53.5 -54.5h-68q24 64 77.5 99t128.5 35q50 0 92.5 -17.5t73.5 -49.5t48.5 -76t17.5 -97q0 -51 -16.5 -94.5t-46.5 -75.5t-72 -50t-93 -18q-47 0 -86.5 18t-68.5 49.5t-45 74.5t-16 92z
M120 190q4 -30 15.5 -56t30.5 -45.5t44.5 -30.5t57.5 -11q69 0 110.5 39.5t49.5 103.5h-308z" />
    <glyph glyph-name="uni04E8" unicode="&#x4e8;" horiz-adv-x="772" 
d="M386 677q70 0 132 -26t108 -72t72.5 -109.5t26.5 -137.5t-26.5 -137.5t-72.5 -109.5t-108 -72t-132 -26q-71 0 -132.5 26t-107.5 72t-72.5 109.5t-26.5 137.5t26.5 137.5t72.5 109.5t107.5 72t132.5 26zM386 614q-54 0 -101 -18.5t-82.5 -52t-58 -79.5t-27.5 -101h537
q-5 55 -27 101t-57.5 79.5t-82.5 52t-101 18.5zM386 50q54 0 100.5 18.5t82 51.5t58 79t27.5 101h-537q5 -55 27.5 -101t58 -79t82.5 -51.5t101 -18.5z" />
    <glyph glyph-name="uni04E9" unicode="&#x4e9;" horiz-adv-x="570" 
d="M517 226q0 -51 -17.5 -95t-48.5 -76t-73.5 -50t-92.5 -18t-93 18t-74 50t-48.5 76t-17.5 95t17.5 95t48.5 76t74 50t93 18t92.5 -18t73.5 -50t48.5 -76t17.5 -95zM285 47q34 0 62 11.5t49 31.5t34.5 47.5t18.5 59.5h-329q4 -32 18 -59.5t35.5 -47.5t49.5 -31.5t62 -11.5z
M285 405q-34 0 -62 -11.5t-49.5 -31.5t-35 -47t-18.5 -58h328q-5 31 -18.5 58t-34.5 47t-49 31.5t-61 11.5z" />
    <glyph glyph-name="uni1E02" unicode="&#x1e02;" horiz-adv-x="656" 
d="M506 332q31 -18 49.5 -37.5t28 -40t12 -41t2.5 -40.5q0 -36 -12.5 -67.5t-38 -55t-64.5 -37t-92 -13.5h-302v664h302q53 0 92 -13.5t64.5 -37.5t38 -55.5t12.5 -67.5q0 -20 -2.5 -40.5t-12 -40.5t-28 -39.5t-49.5 -37.5zM392 63q65 0 101 29t36 89t-36.5 89.5
t-100.5 29.5h-234v-237h234zM392 363q65 0 101 29.5t36 89.5t-36.5 89.5t-100.5 29.5h-234v-238h234zM288 838h75v-81h-75v81z" />
    <glyph glyph-name="uni1E03" unicode="&#x1e03;" horiz-adv-x="593" 
d="M541 226q0 -47 -14.5 -90t-43 -76t-71.5 -53t-99 -20q-57 0 -99 21.5t-64 48.5v-57h-66v669h66v-274q22 27 64 48.5t99 21.5q56 0 99 -20t71.5 -53t43 -76t14.5 -90zM475 226q0 36 -11.5 68.5t-33 57t-51.5 39t-66 14.5q-33 0 -62.5 -11t-52.5 -33.5t-36.5 -56
t-13.5 -78.5t13.5 -78.5t36.5 -56t52.5 -33.5t62.5 -11q36 0 66 14.5t51.5 39t33 57t11.5 68.5zM282 838h75v-81h-75v81z" />
    <glyph glyph-name="uni1E0A" unicode="&#x1e0a;" horiz-adv-x="720" 
d="M308 664q87 0 155 -26.5t114.5 -71.5t71 -105.5t24.5 -128.5t-24.5 -128.5t-71 -105.5t-114.5 -71.5t-155 -26.5h-219v664h219zM604 332q0 60 -20 109.5t-57.5 85t-91 55t-121.5 19.5h-156v-538h156q68 0 121.5 19.5t91 55t57.5 85t20 109.5zM312 838h75v-81h-75v81z" />
    <glyph glyph-name="uni1E0B" unicode="&#x1e0b;" horiz-adv-x="593" 
d="M52 226q0 47 14.5 90t43 76t71.5 53t99 20q57 0 99 -21.5t64 -48.5v274h66v-669h-66v57q-22 -27 -64 -48.5t-99 -21.5q-56 0 -99 20t-71.5 53t-43 76t-14.5 90zM118 226q0 -36 11.5 -68.5t33 -57t51.5 -39t66 -14.5q33 0 62.5 11t52.5 33.5t36.5 56t13.5 78.5t-13.5 78.5
t-36.5 56t-52.5 33.5t-62.5 11q-36 0 -66 -14.5t-51.5 -39t-33 -57t-11.5 -68.5zM250 838h75v-81h-75v81z" />
    <glyph glyph-name="uni1E1E" unicode="&#x1e1e;" horiz-adv-x="578" 
d="M158 601v-238h366v-63h-366v-300h-69v664h442v-63h-373zM280 838h75v-81h-75v81z" />
    <glyph glyph-name="uni1E1F" unicode="&#x1e1f;" horiz-adv-x="349" 
d="M109 0v392h-94v60h94v83q0 67 38 100.5t124 33.5h63v-60h-62q-50 0 -73.5 -19.5t-23.5 -68.5v-69h159v-60h-159v-392h-66zM160 838h75v-81h-75v81z" />
    <glyph glyph-name="uni1E40" unicode="&#x1e40;" horiz-adv-x="968" 
d="M488 69l295 595h96v-664h-69v565l-277 -565h-88l-287 565v-565h-69v664h96zM446 838h75v-81h-75v81z" />
    <glyph glyph-name="uni1E41" unicode="&#x1e41;" horiz-adv-x="924" 
d="M784 271q0 57 -31.5 95.5t-96.5 38.5q-29 0 -57 -10.5t-50 -31t-36 -50.5t-14 -70v-243h-66v271q0 57 -31.5 95.5t-96.5 38.5q-29 0 -56.5 -10.5t-49.5 -30.5t-35.5 -49t-13.5 -67v-248h-66v452h66v-54q23 29 60 48t94 19q61 0 104.5 -26t66.5 -66q32 42 76.5 67
t104.5 25q48 0 84 -15t60.5 -41.5t37 -62.5t12.5 -78v-268h-66v271zM420 659h81v-88h-81v88z" />
    <glyph glyph-name="uni1E56" unicode="&#x1e56;" horiz-adv-x="654" 
d="M612 473q0 -39 -13 -73.5t-39.5 -60.5t-67.5 -41t-98 -15h-236v-283h-69v664h305q57 0 98 -15t67.5 -41.5t39.5 -61t13 -73.5zM543 473q0 65 -40.5 96.5t-109.5 31.5h-235v-255h235q69 0 109.5 31t40.5 96zM292 838h75v-81h-75v81z" />
    <glyph glyph-name="uni1E57" unicode="&#x1e57;" horiz-adv-x="593" 
d="M541 226q0 -47 -14.5 -90t-43 -76t-71.5 -53t-99 -20q-57 0 -99 21.5t-64 48.5v-261h-66v656h66v-57q22 27 64 48.5t99 21.5q56 0 99 -20t71.5 -53t43 -76t14.5 -90zM475 226q0 36 -11.5 68.5t-33 57t-51.5 39t-66 14.5q-33 0 -62.5 -11t-52.5 -33.5t-36.5 -56
t-13.5 -78.5t13.5 -78.5t36.5 -56t52.5 -33.5t62.5 -11q36 0 66 14.5t51.5 39t33 57t11.5 68.5zM263 659h81v-88h-81v88z" />
    <glyph glyph-name="uni1E60" unicode="&#x1e60;" horiz-adv-x="605" 
d="M103 155q23 -44 77.5 -74.5t126.5 -30.5q42 0 76.5 9.5t60 27t39.5 40.5t14 50q0 54 -39 82t-117 37l-114 13q-94 11 -139 58.5t-45 115.5q0 43 17.5 79t50 61.5t79 39.5t105.5 14q61 0 107 -16.5t79 -41t54 -54.5t31 -57h-75q-22 45 -74.5 75.5t-124.5 30.5
q-42 0 -75.5 -10t-56.5 -27.5t-35 -40.5t-12 -49q0 -53 35.5 -80.5t101.5 -34.5l126 -14q90 -10 140 -57t50 -119q0 -36 -16.5 -71t-48.5 -62.5t-81 -44.5t-113 -17q-66 0 -113.5 16t-80.5 40.5t-53.5 54.5t-30.5 57h74zM263 838h75v-81h-75v81z" />
    <glyph glyph-name="uni1E61" unicode="&#x1e61;" horiz-adv-x="507" 
d="M397 327q-19 41 -56.5 59.5t-94.5 18.5q-54 0 -88.5 -21t-34.5 -58q0 -38 27 -50.5t78 -16.5l96 -7q69 -5 105 -36.5t36 -91.5q0 -27 -13.5 -52t-38.5 -44t-61 -30t-82 -11q-50 0 -88.5 12t-66.5 32t-45.5 44.5t-24.5 50.5h72q17 -38 56.5 -58.5t107.5 -20.5
q50 0 83.5 21t33.5 56q0 38 -27 51t-79 17l-97 8q-138 12 -138 125q0 28 13.5 53.5t38 44.5t59.5 30.5t78 11.5q51 0 89.5 -12t66 -31.5t44.5 -44.5t24 -50h-73zM216 659h81v-88h-81v88z" />
    <glyph glyph-name="uni1E6A" unicode="&#x1e6a;" horiz-adv-x="595" 
d="M569 664v-63h-237v-601h-69v601h-237v63h543zM260 838h75v-81h-75v81z" />
    <glyph glyph-name="uni1E6B" unicode="&#x1e6b;" horiz-adv-x="397" 
d="M191 588v-136h159v-60h-159v-244q0 -49 23.5 -68.5t73.5 -19.5h62v-60h-63q-86 0 -124 33.5t-38 100.5v258h-94v60h94v136h66zM117 780h81v-88h-81v88z" />
    <glyph glyph-name="Wgrave" unicode="&#x1e80;" horiz-adv-x="1061" 
d="M85 664l203 -582l198 582h88l204 -582l198 582h73l-228 -664h-88l-205 584l-197 -584h-88l-233 664h75zM435 869l131 -151h-76l-131 151h76z" />
    <glyph glyph-name="wgrave" unicode="&#x1e81;" horiz-adv-x="821" 
d="M452 452l141 -372l141 372h67l-171 -452h-76l-143 369l-143 -369h-76l-171 452h72l140 -372l143 372h76zM314 696l131 -171h-76l-131 171h76z" />
    <glyph glyph-name="Wacute" unicode="&#x1e82;" horiz-adv-x="1061" 
d="M85 664l203 -582l198 582h88l204 -582l198 582h73l-228 -664h-88l-205 584l-197 -584h-88l-233 664h75zM703 869l-131 -151h-76l131 151h76z" />
    <glyph glyph-name="wacute" unicode="&#x1e83;" horiz-adv-x="821" 
d="M452 452l141 -372l141 372h67l-171 -452h-76l-143 369l-143 -369h-76l-171 452h72l140 -372l143 372h76zM577 696l-131 -171h-76l131 171h76z" />
    <glyph glyph-name="Wdieresis" unicode="&#x1e84;" horiz-adv-x="1061" 
d="M85 664l203 -582l198 582h88l204 -582l198 582h73l-228 -664h-88l-205 584l-197 -584h-88l-233 664h75zM572 828h80v-86h-80v86zM411 828h80v-86h-80v86z" />
    <glyph glyph-name="wdieresis" unicode="&#x1e85;" horiz-adv-x="821" 
d="M452 452l141 -372l141 372h67l-171 -452h-76l-143 369l-143 -369h-76l-171 452h72l140 -372l143 372h76zM451 657h80v-86h-80v86zM290 657h80v-86h-80v86z" />
    <glyph glyph-name="uni1E9E" unicode="&#x1e9e;" horiz-adv-x="672" 
d="M255 63h144q67 0 106.5 30.5t39.5 94.5q0 63 -39.5 93t-106.5 30h-89v63l205 227h-236q-58 0 -89.5 -27t-31.5 -84v-490h-69v490q0 85 52.5 129.5t137.5 44.5h319v-63l-206 -227h7q56 0 96.5 -15t67 -40.5t39 -59t12.5 -71.5q0 -39 -12.5 -73t-39 -59.5t-67 -40.5
t-96.5 -15h-144v63z" />
    <glyph glyph-name="Ygrave" unicode="&#x1ef2;" horiz-adv-x="560" 
d="M489 664h71l-246 -411v-253h-69v253l-245 411h74l207 -349zM200 869l131 -151h-76l-131 151h76z" />
    <glyph glyph-name="ygrave" unicode="&#x1ef3;" horiz-adv-x="500" 
d="M83 452l169 -374l169 374h69l-207 -455q-23 -49 -38.5 -86.5t-32.5 -63t-40.5 -38.5t-62.5 -13h-36v60h16q22 0 37 5t27 17t23 32t23 50l17 41l-206 451h73zM173 696l131 -171h-76l-131 171h76z" />
    <glyph glyph-name="uni2011" unicode="&#x2011;" horiz-adv-x="403" 
d="M331 287v-63h-259v63h259z" />
    <glyph glyph-name="endash" unicode="&#x2013;" horiz-adv-x="586" 
d="M539 287v-63h-492v63h492z" />
    <glyph glyph-name="emdash" unicode="&#x2014;" horiz-adv-x="902" 
d="M855 287v-63h-808v63h808z" />
    <glyph glyph-name="quoteleft" unicode="&#x2018;" horiz-adv-x="217" 
d="M173.006 663.987l-63.9922 -106.987h44.9941v-91.9883h-91.9893v99.9873l59.9932 98.9883h50.9941z" />
    <glyph glyph-name="quoteright" unicode="&#x2019;" horiz-adv-x="217" 
d="M44 465l64 107h-45v92h92v-100l-60 -99h-51z" />
    <glyph glyph-name="quotesinglbase" unicode="&#x201a;" horiz-adv-x="217" 
d="M44 -107l64 107h-45v92h92v-100l-60 -99h-51z" />
    <glyph glyph-name="quotedblleft" unicode="&#x201c;" horiz-adv-x="400" 
d="M356.006 663.987l-63.9922 -106.987h44.9941v-91.9883h-91.9893v99.9873l59.9932 98.9883h50.9941zM173.006 663.987l-63.9922 -106.987h44.9941v-91.9883h-91.9893v99.9873l59.9932 98.9883h50.9941z" />
    <glyph glyph-name="quotedblright" unicode="&#x201d;" horiz-adv-x="400" 
d="M227 465l64 107h-45v92h92v-100l-60 -99h-51zM44 465l64 107h-45v92h92v-100l-60 -99h-51z" />
    <glyph glyph-name="quotedblbase" unicode="&#x201e;" horiz-adv-x="400" 
d="M227 -107l64 107h-45v92h92v-100l-60 -99h-51zM44 -107l64 107h-45v92h92v-100l-60 -99h-51z" />
    <glyph glyph-name="dagger" unicode="&#x2020;" horiz-adv-x="475" 
d="M204 452v212h66v-212h152v-60h-152v-545h-66v545h-152v60h152z" />
    <glyph glyph-name="daggerdbl" unicode="&#x2021;" horiz-adv-x="475" 
d="M204 452v212h66v-212h152v-60h-152v-274h152v-60h-152v-212h-66v212h-152v60h152v274h-152v60h152z" />
    <glyph glyph-name="bullet" unicode="&#x2022;" horiz-adv-x="553" 
d="M84 245q0 39 15 74t41.5 61.5t61.5 41.5t74 15q40 0 75 -15t61 -41.5t41.5 -61.5t15.5 -74q0 -40 -15.5 -75t-41.5 -61.5t-61 -41.5t-75 -15q-39 0 -74 15t-61.5 41.5t-41.5 61.5t-15 75z" />
    <glyph glyph-name="ellipsis" unicode="&#x2026;" horiz-adv-x="632" 
d="M477 92h92v-92h-92v92zM63 92h92v-92h-92v92zM270 92h92v-92h-92v92z" />
    <glyph glyph-name="perthousand" unicode="&#x2030;" horiz-adv-x="1231" 
d="M202 0l390 664h74l-390 -664h-74zM220 671q36 0 66.5 -13t53 -35.5t35.5 -52.5t13 -63t-13 -63t-35.5 -52.5t-53 -35.5t-66.5 -13t-67 13t-53.5 35.5t-35 52.5t-12.5 63t12.5 63t35 52.5t53.5 35.5t67 13zM322 507q0 21 -7.5 39.5t-21 33t-32.5 23t-41 8.5t-41 -8.5
t-32.5 -23t-21 -33t-7.5 -39.5t7.5 -39.5t21 -33t32.5 -23t41 -8.5t41 8.5t32.5 23t21 33t7.5 39.5zM645 321q36 0 66.5 -13t53 -35.5t35.5 -52.5t13 -63t-13 -63t-35.5 -52.5t-53 -35.5t-66.5 -13t-67 13t-53.5 35.5t-35 52.5t-12.5 63t12.5 63t35 52.5t53.5 35.5t67 13z
M747 157q0 21 -7.5 39.5t-21 33t-32.5 23t-41 8.5t-41 -8.5t-32.5 -23t-21 -33t-7.5 -39.5t7.5 -39.5t21 -33t32.5 -23t41 -8.5t41 8.5t32.5 23t21 33t7.5 39.5zM1011 321q36 0 66.5 -13t53 -35.5t35.5 -52.5t13 -63t-13 -63t-35.5 -52.5t-53 -35.5t-66.5 -13t-67 13
t-53.5 35.5t-35 52.5t-12.5 63t12.5 63t35 52.5t53.5 35.5t67 13zM1113 157q0 21 -7.5 39.5t-21 33t-32.5 23t-41 8.5t-41 -8.5t-32.5 -23t-21 -33t-7.5 -39.5t7.5 -39.5t21 -33t32.5 -23t41 -8.5t41 8.5t32.5 23t21 33t7.5 39.5z" />
    <glyph glyph-name="guilsinglleft" unicode="&#x2039;" horiz-adv-x="305" 
d="M269 409l-155 -182l155 -182h-86l-128 147v70l128 147h86z" />
    <glyph glyph-name="guilsinglright" unicode="&#x203a;" horiz-adv-x="305" 
d="M122 409l128 -147v-70l-128 -147h-86l155 182l-155 182h86z" />
    <glyph glyph-name="fraction" unicode="&#x2044;" horiz-adv-x="137" 
d="M226 664h68l-385 -664h-66z" />
    <glyph glyph-name="Euro" unicode="&#x20ac;" horiz-adv-x="654" 
d="M21 438h85q12 53 38 97t62.5 75.5t82 49t97.5 17.5q86 0 146.5 -47t94.5 -122h-73q-28 47 -67.5 76.5t-100.5 29.5q-80 0 -135 -47.5t-75 -128.5h267l-22 -63h-256q-2 -11 -2 -21.5v-21.5t0.5 -20.5t1.5 -18.5h237l-22 -63h-204q19 -83 74 -131.5t136 -48.5
q61 0 100.5 29.5t67.5 76.5h73q-34 -75 -94.5 -122t-146.5 -47q-53 0 -99 17.5t-82.5 49.5t-61.5 77t-37 99h-85v63h75q-1 10 -1.5 19t-0.5 20v21.5t2 21.5h-75v63z" />
    <glyph glyph-name="uni20B4" unicode="&#x20b4;" horiz-adv-x="666" 
d="M622 438v-63h-601v63h456q14 13 19.5 30t5.5 34q0 23 -11.5 43.5t-32 35.5t-49.5 24t-63 9q-69 0 -113.5 -33.5t-61.5 -82.5h-74q9 28 27 60t48 58t72.5 43.5t99.5 17.5q50 0 91.5 -12.5t71.5 -36t47 -56t17 -71.5q0 -17 -4.5 -35.5t-9.5 -27.5h65zM179 230
q-10 -19 -10 -52q0 -28 12.5 -51.5t34 -40.5t51.5 -26.5t66 -9.5q70 0 117 32t68 83h70q-9 -31 -27 -62.5t-48 -57t-74 -42t-106 -16.5q-58 0 -101.5 16.5t-73 43.5t-44 62t-14.5 72q0 11 1 25.5t5 23.5h-85v63h601v-63h-443z" />
    <glyph glyph-name="uni20B8" unicode="&#x20b8;" horiz-adv-x="535" 
d="M509 519v-63h-207v-456h-69v456h-207v63h483zM26 601v63h483v-63h-483z" />
    <glyph glyph-name="uni20BD" unicode="&#x20bd;" horiz-adv-x="625" 
d="M31 346h92v318h242q57 0 98 -15t67.5 -41.5t39.5 -61t13 -73.5t-13 -73.5t-39.5 -60.5t-67.5 -41t-98 -15h-173v-82h283v-63h-283v-138h-69v138h-92v63h92v82h-92v63zM514 473q0 65 -40.5 96.5t-109.5 31.5h-172v-255h172q69 0 109.5 31t40.5 96z" />
    <glyph glyph-name="uni2113" unicode="&#x2113;" horiz-adv-x="400" 
d="M139 148q0 -49 23.5 -68.5t73.5 -19.5h62v-60h-63q-86 0 -124 33.5t-38 100.5v388q0 75 39 115t104 40q61 0 95.5 -40.5t34.5 -101.5q0 -41 -18 -87.5t-47 -92.5t-66 -88t-76 -73v-46zM139 275q32 32 58 66.5t44.5 68t28.5 65t10 58.5q0 39 -18.5 61.5t-47.5 22.5
q-35 0 -55 -25.5t-20 -68.5v-248z" />
    <glyph glyph-name="uni2116" unicode="&#x2116;" horiz-adv-x="1146" 
d="M1089 283v-60h-327v60h327zM681 664v-664h-78l-445 569v-569h-69v664h78l445 -569v569h69zM926 671q36 0 66.5 -13t53 -35.5t35.5 -52.5t13 -63t-13 -63t-35.5 -52.5t-53 -35.5t-66.5 -13t-67 13t-53.5 35.5t-35 52.5t-12.5 63t12.5 63t35 52.5t53.5 35.5t67 13z
M1028 507q0 21 -7.5 39.5t-21 33t-32.5 23t-41 8.5t-41 -8.5t-32.5 -23t-21 -33t-7.5 -39.5t7.5 -39.5t21 -33t32.5 -23t41 -8.5t41 8.5t32.5 23t21 33t7.5 39.5z" />
    <glyph glyph-name="trademark" unicode="&#x2122;" horiz-adv-x="894" 
d="M333 664v-59h-121v-301h-62v301h-121v59h304zM651 302h-72l-119 256v-256h-61v362h75l141 -305l141 305h74v-362h-60v256z" />
    <glyph glyph-name="Omega" unicode="&#x2126;" horiz-adv-x="775" 
d="M388 614q-56 0 -104 -21.5t-83 -58.5t-55.5 -86t-20.5 -103q0 -72 21 -125.5t48 -90t52 -56t33 -24.5v-49h-223v63h109q-31 34 -55 78q-20 37 -37 89t-17 115q0 70 26 131t71 105.5t105.5 70t129.5 25.5t129.5 -25.5t105.5 -70t71 -105.5t26 -131q0 -63 -17.5 -115
t-37.5 -89q-24 -44 -54 -78h109v-63h-223v49q8 5 33 24.5t52 56t48 90t21 125.5q0 54 -20.5 103t-55.5 86t-83.5 58.5t-103.5 21.5z" />
    <glyph glyph-name="estimated" unicode="&#x212e;" horiz-adv-x="750" 
d="M676.009 156.062q-17.9971 -38.9961 -46.4941 -70.4922q-28.4961 -31.4961 -65.9922 -52.9932q-37.4951 -21.4971 -81.9893 -33.4961q-44.4951 -11.998 -94.4893 -11.998q-74.9902 0 -136.983 26.9961q-61.9922 26.9971 -106.986 73.4912t-69.9912 109.486
t-24.9971 135.983t24.9971 135.983t69.4912 108.987q44.4941 45.9941 105.487 72.4912q60.9922 26.4961 132.983 26.4961q72.9912 0 132.484 -26.4961q59.4922 -26.4971 101.987 -72.9912t65.4922 -108.987q22.9971 -62.4922 22.9971 -134.483v-28.9961h-585.929
q3 -54.9932 25.9971 -101.987t59.4922 -80.9902q36.4961 -33.9961 83.9902 -52.9941q47.4941 -18.9971 99.4873 -18.9971q67.9922 0 124.985 27.9961q56.9932 27.9971 88.9893 77.9912h74.9902zM382.045 614.006q-54.9932 0 -100.987 -18.4971
q-45.9951 -18.498 -79.9902 -51.4941q-33.9961 -32.9961 -54.9932 -77.9902q-20.998 -44.9951 -26.9971 -97.9883h514.937q-4.99902 55.9932 -24.9961 101.487q-19.998 45.4951 -52.4941 77.4912t-76.9902 49.4932q-44.4951 17.498 -97.4883 17.498z" />
    <glyph glyph-name="arrowleft" unicode="&#x2190;" horiz-adv-x="993" 
d="M157 328l188 -188h-89l-220 220l220 220h89l-188 -189h778v-63h-778z" />
    <glyph glyph-name="arrowup" unicode="&#x2191;" horiz-adv-x="535" 
d="M299 -118h-63v778l-189 -188v89l220 220l220 -220v-89l-188 188v-778z" />
    <glyph glyph-name="arrowright" unicode="&#x2192;" horiz-adv-x="993" 
d="M836.02 328l-187.978 -188h88.9893l219.973 220l-219.973 220h-88.9893l187.978 -189h-777.905v-63h777.905z" />
    <glyph glyph-name="arrowdown" unicode="&#x2193;" horiz-adv-x="535" 
d="M299 780.985h-63v-777.905l-189 187.978v-88.9893l220 -219.973l220 219.973v88.9893l-188 -187.978v777.905z" />
    <glyph glyph-name="uni2196" unicode="&#x2196;" horiz-adv-x="759" 
d="M110 554v-265l-63 64v311h311l62 -63h-265l555 -556l-45 -45z" />
    <glyph glyph-name="uni2197" unicode="&#x2197;" horiz-adv-x="759" 
d="M649.014 554v-265l62.9922 64v311h-310.962l-61.9932 -63h264.968l-554.932 -556l44.9941 -45z" />
    <glyph glyph-name="uni2198" unicode="&#x2198;" horiz-adv-x="759" 
d="M110 110.067v264.968l-63 -63.9922v-310.962h311l62 62.9922h-265l555 555.933l-45 44.9941z" />
    <glyph glyph-name="uni2199" unicode="&#x2199;" horiz-adv-x="759" 
d="M649.014 110.067v264.968l62.9922 -63.9922v-310.962h-310.962l-61.9932 62.9922h264.968l-554.932 555.933l44.9941 44.9941z" />
    <glyph glyph-name="partialdiff" unicode="&#x2202;" horiz-adv-x="562" 
d="M223 664l206 -259q41 -51 60.5 -97t19.5 -96q0 -47 -17 -87.5t-47.5 -71.5t-72.5 -48.5t-91 -17.5q-50 0 -91.5 18t-72.5 49t-48 72.5t-17 88.5q0 48 17 90t47 73.5t70.5 49.5t87.5 18q13 0 27 -1.5t26 -6.5l-183 226h79zM281 47q36 0 66 13.5t51.5 36t33 53t11.5 65.5
t-11.5 66t-33 54.5t-51.5 37t-66 13.5t-65.5 -13.5t-51.5 -37t-34 -54.5t-12 -66t12 -65.5t34 -53t51.5 -36t65.5 -13.5z" />
    <glyph glyph-name="Delta" unicode="&#x2206;" horiz-adv-x="594" 
d="M573 61v-61h-552v61l236 603h80zM501 63l-204 524l-205 -524h409z" />
    <glyph glyph-name="product" unicode="&#x220f;" horiz-adv-x="597" 
d="M566 664v-63h-107v-601h-69v601h-183v-601h-69v601h-107v63h535z" />
    <glyph glyph-name="summation" unicode="&#x2211;" horiz-adv-x="590" 
d="M410 303l-272 -240h412v-63h-510v62l304 270l-304 271v61h510v-63h-412l272 -241v-57z" />
    <glyph glyph-name="minus" unicode="&#x2212;" horiz-adv-x="535" 
d="M478 276v-63h-422v63h422z" />
    <glyph glyph-name="uni2215" unicode="&#x2215;" horiz-adv-x="451" 
d="M383 664h68l-385 -664h-66z" />
    <glyph glyph-name="radical" unicode="&#x221a;" horiz-adv-x="655" 
d="M636 664l-259 -664h-75l-164 389h-117v63h164l155 -369l225 581h71z" />
    <glyph glyph-name="infinity" unicode="&#x221e;" horiz-adv-x="784" 
d="M392 338q7 14 21.5 33t36 36t50.5 28.5t66 11.5t69 -12.5t56 -35.5t37.5 -55t13.5 -71t-13.5 -71t-37.5 -55t-56 -36t-69 -13t-66 12t-50.5 29t-36 36t-21.5 33q-7 -14 -21.5 -33t-36 -36t-50.5 -29t-66 -12t-69 13t-56 36t-37.5 55t-13.5 71t13.5 71t37.5 55t56 35.5
t69 12.5t66 -11.5t50.5 -28.5t36 -36t21.5 -33zM220 161q46 0 80.5 33t54.5 79q-20 45 -54.5 78t-80.5 33q-26 0 -46.5 -9t-35 -24t-22.5 -35t-8 -43t8 -43.5t22.5 -35.5t35 -24t46.5 -9zM564 161q25 0 46 9t35.5 24t22.5 35.5t8 43.5t-8 43t-22.5 35t-35.5 24t-46 9
q-46 0 -80.5 -33t-54.5 -78q20 -46 54.5 -79t80.5 -33z" />
    <glyph glyph-name="integral" unicode="&#x222b;" horiz-adv-x="396" 
d="M231 -65q0 -62 -42 -100.5t-127 -38.5h-46v60h46q49 0 76 24.5t27 63.5v586q0 62 42 100.5t127 38.5h46v-60h-46q-49 0 -76 -24.5t-27 -63.5v-586v0z" />
    <glyph glyph-name="approxequal" unicode="&#x2248;" horiz-adv-x="535" 
d="M359 165q28 0 40.5 17.5t12.5 65.5h66q0 -76 -33 -111t-84 -35q-30 0 -55.5 13t-48 28.5t-42.5 28.5t-40 13q-28 0 -40.5 -17.5t-12.5 -65.5h-66q0 75 32.5 110.5t84.5 35.5q30 0 56.5 -13t49.5 -28.5t42.5 -28.5t37.5 -13zM359 317q28 0 40.5 17.5t12.5 65.5h66
q0 -76 -33 -111t-84 -35q-30 0 -55.5 13t-48 28.5t-42.5 28.5t-40 13q-28 0 -40.5 -17.5t-12.5 -65.5h-66q0 75 32.5 110.5t84.5 35.5q30 0 56.5 -13t49.5 -28.5t42.5 -28.5t37.5 -13z" />
    <glyph glyph-name="notequal" unicode="&#x2260;" horiz-adv-x="535" 
d="M293 353l64 110h75l-64 -110h110v-63h-147l-53 -91h200v-63h-237l-64 -110h-75l64 110h-110v63h147l53 91h-200v63h237z" />
    <glyph glyph-name="lessequal" unicode="&#x2264;" horiz-adv-x="535" 
d="M478 63v-63h-422v63h422zM478 178v-69l-422 147v71l422 147v-69l-322 -114z" />
    <glyph glyph-name="greaterequal" unicode="&#x2265;" horiz-adv-x="535" 
d="M478 63v-63h-422v63h422zM378 291l-322 114v69l422 -147v-71l-422 -147v69z" />
    <glyph glyph-name="uni2460" unicode="&#x2460;" horiz-adv-x="837" 
d="M73 332q0 71 27 134t74 110t110 74t134 27t134 -27t110 -74t74 -110t27 -134t-27 -134t-74 -110t-110 -74t-134 -27t-134 27t-110 74t-74 110t-27 134zM133 332q0 -59 22.5 -111t61 -90.5t90.5 -61t111 -22.5t111 22.5t90.5 61t61 90.5t22.5 111t-22.5 111t-61 90.5
t-90.5 61t-111 22.5t-111 -22.5t-90.5 -61t-61 -90.5t-22.5 -111zM398 449l-76 -65v65l70 61h61v-337h-55v276z" />
    <glyph glyph-name="uni2461" unicode="&#x2461;" horiz-adv-x="837" 
d="M73 332q0 71 27 134t74 110t110 74t134 27t134 -27t110 -74t74 -110t27 -134t-27 -134t-74 -110t-110 -74t-134 -27t-134 27t-110 74t-74 110t-27 134zM133 332q0 -59 22.5 -111t61 -90.5t90.5 -61t111 -22.5t111 22.5t90.5 61t61 90.5t22.5 111t-22.5 111t-61 90.5
t-90.5 61t-111 22.5t-111 -22.5t-90.5 -61t-61 -90.5t-22.5 -111zM545 225v-52h-244v52l139 123q17 14 28 29.5t11 33.5q0 26 -18.5 40.5t-44.5 14.5q-25 0 -45 -12.5t-27 -39.5h-55q8 45 40.5 74t84.5 29q54 0 87 -28.5t33 -77.5q0 -23 -13 -48t-35 -44l-108 -94h167z" />
    <glyph glyph-name="uni2462" unicode="&#x2462;" horiz-adv-x="837" 
d="M73 332q0 71 27 134t74 110t110 74t134 27t134 -27t110 -74t74 -110t27 -134t-27 -134t-74 -110t-110 -74t-134 -27t-134 27t-110 74t-74 110t-27 134zM133 332q0 -59 22.5 -111t61 -90.5t90.5 -61t111 -22.5t111 22.5t90.5 61t61 90.5t22.5 111t-22.5 111t-61 90.5
t-90.5 61t-111 22.5t-111 -22.5t-90.5 -61t-61 -90.5t-22.5 -111zM341 267q7 -26 27 -38t48 -12q32 0 50.5 15t18.5 36q0 23 -16 36.5t-48 13.5h-43v51h41q32 0 49 12t17 35t-18 36.5t-51 13.5q-27 0 -47 -12t-27 -36h-56q10 48 46 73.5t83 25.5q59 0 92 -29.5t33 -71.5
q0 -20 -9.5 -39t-32.5 -33q23 -15 32.5 -34.5t9.5 -41.5q0 -20 -8.5 -38.5t-24.5 -32.5t-39 -22.5t-53 -8.5q-48 0 -84 25t-45 76h55z" />
    <glyph glyph-name="uni2463" unicode="&#x2463;" horiz-adv-x="837" 
d="M73 332q0 71 27 134t74 110t110 74t134 27t134 -27t110 -74t74 -110t27 -134t-27 -134t-74 -110t-110 -74t-134 -27t-134 27t-110 74t-74 110t-27 134zM133 332q0 -59 22.5 -111t61 -90.5t90.5 -61t111 -22.5t111 22.5t90.5 61t61 90.5t22.5 111t-22.5 111t-61 90.5
t-90.5 61t-111 22.5t-111 -22.5t-90.5 -61t-61 -90.5t-22.5 -111zM503 390v-92h59v-51h-59v-74h-55v74h-185v51l175 212h64l-174 -212h120v92h55z" />
    <glyph glyph-name="uni2464" unicode="&#x2464;" horiz-adv-x="837" 
d="M73 332q0 71 27 134t74 110t110 74t134 27t134 -27t110 -74t74 -110t27 -134t-27 -134t-74 -110t-110 -74t-134 -27t-134 27t-110 74t-74 110t-27 134zM133 332q0 -59 22.5 -111t61 -90.5t90.5 -61t111 -22.5t111 22.5t90.5 61t61 90.5t22.5 111t-22.5 111t-61 90.5
t-90.5 61t-111 22.5t-111 -22.5t-90.5 -61t-61 -90.5t-22.5 -111zM342 267q7 -26 27.5 -38t47.5 -12q33 0 54 18.5t21 46.5q0 26 -20.5 44.5t-54.5 18.5q-20 0 -37 -6t-28 -17h-51l19 188h213v-51h-169l-8 -78q11 7 32 10.5t36 3.5q23 0 45 -7t39.5 -21.5t28 -35.5t10.5 -49
q0 -23 -9 -44t-25.5 -37t-40.5 -25.5t-54 -9.5q-54 0 -89 28t-43 73h56z" />
    <glyph glyph-name="uni2465" unicode="&#x2465;" horiz-adv-x="837" 
d="M73 332q0 71 27 134t74 110t110 74t134 27t134 -27t110 -74t74 -110t27 -134t-27 -134t-74 -110t-110 -74t-134 -27t-134 27t-110 74t-74 110t-27 134zM133 332q0 -59 22.5 -111t61 -90.5t90.5 -61t111 -22.5t111 22.5t90.5 61t61 90.5t22.5 111t-22.5 111t-61 90.5
t-90.5 61t-111 22.5t-111 -22.5t-90.5 -61t-61 -90.5t-22.5 -111zM417 166q-30 0 -55 9.5t-43.5 30t-29 52.5t-10.5 77q0 35 7 67.5t23.5 58t43.5 41t66 15.5q43 0 76 -23t45 -68h-55q-8 18 -25 29t-40 11q-40 0 -61.5 -29t-24.5 -71q14 15 37 22.5t49 7.5t48.5 -9t39 -24
t26 -36t9.5 -45q0 -23 -9 -44t-25.5 -37t-40 -25.5t-51.5 -9.5zM416 345q-31 0 -52 -17.5t-21 -45.5q0 -29 21 -47t52 -18q30 0 51 18t21 47q0 28 -21 45.5t-51 17.5z" />
    <glyph glyph-name="uni2466" unicode="&#x2466;" horiz-adv-x="837" 
d="M73 332q0 71 27 134t74 110t110 74t134 27t134 -27t110 -74t74 -110t27 -134t-27 -134t-74 -110t-110 -74t-134 -27t-134 27t-110 74t-74 110t-27 134zM133 332q0 -59 22.5 -111t61 -90.5t90.5 -61t111 -22.5t111 22.5t90.5 61t61 90.5t22.5 111t-22.5 111t-61 90.5
t-90.5 61t-111 22.5t-111 -22.5t-90.5 -61t-61 -90.5t-22.5 -111zM299 459v51h248v-50l-167 -287h-63l167 286h-185z" />
    <glyph glyph-name="uni2467" unicode="&#x2467;" horiz-adv-x="837" 
d="M73 332q0 71 27 134t74 110t110 74t134 27t134 -27t110 -74t74 -110t27 -134t-27 -134t-74 -110t-110 -74t-134 -27t-134 27t-110 74t-74 110t-27 134zM133 332q0 -59 22.5 -111t61 -90.5t90.5 -61t111 -22.5t111 22.5t90.5 61t61 90.5t22.5 111t-22.5 111t-61 90.5
t-90.5 61t-111 22.5t-111 -22.5t-90.5 -61t-61 -90.5t-22.5 -111zM420 166q-60 0 -95 29.5t-35 71.5q0 21 10.5 41.5t34.5 35.5q-21 14 -31 33.5t-10 39.5q0 42 33.5 71t92.5 29t92.5 -29t33.5 -71q0 -20 -10 -39.5t-31 -33.5q24 -15 34.5 -35.5t10.5 -41.5q0 -42 -35 -71.5
t-95 -29.5zM345 268q0 -23 20.5 -37t54.5 -14t54.5 14t20.5 37t-20.5 37t-54.5 14t-54.5 -14t-20.5 -37zM350 418q0 -20 19 -34t51 -14t51 14t19 34t-19 34t-51 14t-51 -14t-19 -34z" />
    <glyph glyph-name="uni2468" unicode="&#x2468;" horiz-adv-x="837" 
d="M73 332q0 71 27 134t74 110t110 74t134 27t134 -27t110 -74t74 -110t27 -134t-27 -134t-74 -110t-110 -74t-134 -27t-134 27t-110 74t-74 110t-27 134zM133 332q0 -59 22.5 -111t61 -90.5t90.5 -61t111 -22.5t111 22.5t90.5 61t61 90.5t22.5 111t-22.5 111t-61 90.5
t-90.5 61t-111 22.5t-111 -22.5t-90.5 -61t-61 -90.5t-22.5 -111zM412 517q30 0 55 -9.5t43.5 -30t29 -52.5t10.5 -77q0 -35 -7 -67.5t-23 -58t-42 -41t-65 -15.5q-44 0 -76 24t-43 69h55q7 -18 24 -30t39 -12q39 0 58.5 29.5t23.5 71.5q-14 -15 -36.5 -23t-48.5 -8t-48.5 9
t-39 24t-26 36t-9.5 45q0 23 9 44t25.5 37t40 25.5t51.5 9.5zM413 338q31 0 52 17.5t21 45.5q0 29 -21 47t-52 18q-30 0 -51 -18t-21 -47q0 -28 21 -45.5t51 -17.5z" />
    <glyph glyph-name="lozenge" unicode="&#x25ca;" horiz-adv-x="551" 
d="M57 302v61l185 301h66l185 -301v-61l-185 -302h-66zM434 332l-159 262l-159 -262l159 -261z" />
    <glyph glyph-name="circle" unicode="&#x25cb;" horiz-adv-x="837" 
d="M73 332q0 71 27 134t74 110t110 74t134 27t134 -27t110 -74t74 -110t27 -134t-27 -134t-74 -110t-110 -74t-134 -27t-134 27t-110 74t-74 110t-27 134zM133 332q0 -59 22.5 -111t61 -90.5t90.5 -61t111 -22.5t111 22.5t90.5 61t61 90.5t22.5 111t-22.5 111t-61 90.5
t-90.5 61t-111 22.5t-111 -22.5t-90.5 -61t-61 -90.5t-22.5 -111z" />
    <glyph glyph-name="H18533" unicode="&#x25cf;" horiz-adv-x="837" 
d="M73 332q0 71 27 134t74 110t110 74t134 27t134 -27t110 -74t74 -110t27 -134t-27 -134t-74 -110t-110 -74t-134 -27t-134 27t-110 74t-74 110t-27 134z" />
    <glyph glyph-name="uni2776" unicode="&#x2776;" horiz-adv-x="837" 
d="M73 332q0 71 27 134t74 110t110 74t134 27t134 -27t110 -74t74 -110t27 -134t-27 -134t-74 -110t-110 -74t-134 -27t-134 27t-110 74t-74 110t-27 134zM398 172h55v337h-61l-70 -61v-65l76 65v-276z" />
    <glyph glyph-name="uni2777" unicode="&#x2777;" horiz-adv-x="837" 
d="M73 332q0 71 27 134t74 110t110 74t134 27t134 -27t110 -74t74 -110t27 -134t-27 -134t-74 -110t-110 -74t-134 -27t-134 27t-110 74t-74 110t-27 134zM378 224l108 94q22 19 35 44t13 48q0 49 -33 77.5t-87 28.5q-52 0 -84.5 -29t-40.5 -74h55q7 27 27 39.5t45 12.5
q26 0 44.5 -14.5t18.5 -40.5q0 -18 -11 -33.5t-28 -29.5l-139 -123v-52h244v52h-167z" />
    <glyph glyph-name="uni2778" unicode="&#x2778;" horiz-adv-x="837" 
d="M73 332q0 71 27 134t74 110t110 74t134 27t134 -27t110 -74t74 -110t27 -134t-27 -134t-74 -110t-110 -74t-134 -27t-134 27t-110 74t-74 110t-27 134zM286 266q9 -51 45 -76t84 -25q30 0 53 8.5t39 22.5t24.5 32.5t8.5 38.5q0 22 -9.5 41.5t-32.5 34.5q23 14 32.5 33
t9.5 39q0 42 -33 71.5t-92 29.5q-47 0 -83 -25.5t-46 -73.5h56q7 24 27 36t47 12q33 0 51 -13.5t18 -36.5t-17 -35t-49 -12h-41v-51h43q32 0 48 -13.5t16 -36.5q0 -21 -18.5 -36t-50.5 -15q-28 0 -48 12t-27 38h-55z" />
    <glyph glyph-name="uni2779" unicode="&#x2779;" horiz-adv-x="837" 
d="M73 332q0 71 27 134t74 110t110 74t134 27t134 -27t110 -74t74 -110t27 -134t-27 -134t-74 -110t-110 -74t-134 -27t-134 27t-110 74t-74 110t-27 134zM448 389v-92h-120l174 212h-64l-175 -212v-51h185v-74h55v74h59v51h-59v92h-55z" />
    <glyph glyph-name="uni277A" unicode="&#x277a;" horiz-adv-x="837" 
d="M73 332q0 71 27 134t74 110t110 74t134 27t134 -27t110 -74t74 -110t27 -134t-27 -134t-74 -110t-110 -74t-134 -27t-134 27t-110 74t-74 110t-27 134zM286 266q8 -45 43 -73t89 -28q30 0 54 9.5t40.5 25.5t25.5 37t9 44q0 28 -10.5 49t-28 35.5t-39.5 21.5t-45 7
q-15 0 -36 -3.5t-32 -10.5l8 78h169v51h-213l-19 -188h51q11 11 28 17t37 6q34 0 54.5 -18.5t20.5 -44.5q0 -28 -21 -46.5t-54 -18.5q-27 0 -47.5 12t-27.5 38h-56z" />
    <glyph glyph-name="uni277B" unicode="&#x277b;" horiz-adv-x="837" 
d="M73 332q0 71 27 134t74 110t110 74t134 27t134 -27t110 -74t74 -110t27 -134t-27 -134t-74 -110t-110 -74t-134 -27t-134 27t-110 74t-74 110t-27 134zM417 165q28 0 51.5 9.5t40 25.5t25.5 37t9 44q0 24 -9.5 45t-26 36t-39 24t-48.5 9t-49 -7.5t-37 -22.5q3 42 24.5 71
t61.5 29q23 0 40 -11t25 -29h55q-12 45 -45 68t-76 23q-39 0 -66 -15.5t-43.5 -41t-23.5 -58t-7 -67.5q0 -45 10.5 -77t29 -52.5t43.5 -30t55 -9.5zM416 344q30 0 51 -17.5t21 -45.5q0 -29 -21 -47t-51 -18q-31 0 -52 18t-21 47q0 28 21 45.5t52 17.5z" />
    <glyph glyph-name="uni277C" unicode="&#x277c;" horiz-adv-x="837" 
d="M73 332q0 71 27 134t74 110t110 74t134 27t134 -27t110 -74t74 -110t27 -134t-27 -134t-74 -110t-110 -74t-134 -27t-134 27t-110 74t-74 110t-27 134zM484 458l-167 -286h63l167 287v50h-248v-51h185z" />
    <glyph glyph-name="uni277D" unicode="&#x277d;" horiz-adv-x="837" 
d="M73 332q0 71 27 134t74 110t110 74t134 27t134 -27t110 -74t74 -110t27 -134t-27 -134t-74 -110t-110 -74t-134 -27t-134 27t-110 74t-74 110t-27 134zM420 165q60 0 95 29.5t35 71.5q0 21 -10.5 41.5t-34.5 35.5q21 14 31 33.5t10 39.5q0 42 -33.5 71t-92.5 29
t-92.5 -29t-33.5 -71q0 -20 10 -39.5t31 -33.5q-24 -15 -34.5 -35.5t-10.5 -41.5q0 -42 35 -71.5t95 -29.5zM345 267q0 23 20.5 37t54.5 14t54.5 -14t20.5 -37t-20.5 -37t-54.5 -14t-54.5 14t-20.5 37zM350 417q0 20 19 34t51 14t51 -14t19 -34t-19 -34t-51 -14t-51 14
t-19 34z" />
    <glyph glyph-name="uni277E" unicode="&#x277e;" horiz-adv-x="837" 
d="M73 332q0 71 27 134t74 110t110 74t134 27t134 -27t110 -74t74 -110t27 -134t-27 -134t-74 -110t-110 -74t-134 -27t-134 27t-110 74t-74 110t-27 134zM412 516q-28 0 -51.5 -9.5t-40 -25.5t-25.5 -37t-9 -44q0 -24 9.5 -45t26 -36t39 -24t48.5 -9t48.5 8t36.5 23
q-4 -42 -23.5 -71.5t-58.5 -29.5q-22 0 -39 12t-24 30h-55q11 -45 43 -69t76 -24q39 0 65 15.5t42 41t23 58t7 67.5q0 45 -10.5 77t-29 52.5t-43.5 30t-55 9.5zM413 337q-30 0 -51 17.5t-21 45.5q0 29 21 47t51 18q31 0 52 -18t21 -47q0 -28 -21 -45.5t-52 -17.5z" />
    <glyph glyph-name="Udotaccent" unicode="&#xf47e;" horiz-adv-x="740" 
d="M84 664h69v-390q0 -112 58 -168t159 -56t159 56t58 168v390h69v-391q0 -69 -20.5 -122.5t-58 -89.5t-90 -55t-117.5 -19t-117.5 19t-90 55t-58 89.5t-20.5 122.5v391zM333 838h75v-81h-75v81z" />
    <glyph glyph-name="udotaccent" unicode="&#xf47f;" horiz-adv-x="572" 
d="M265 -13q-47 0 -83 15.5t-60 42.5t-36.5 64t-12.5 80v263h66v-263q0 -30 7.5 -56t23 -45t39.5 -30t56 -11q30 0 58 11t50 32.5t35.5 52t13.5 69.5v240h66v-452h-66v57q-24 -31 -63 -50.5t-94 -19.5zM244 659h81v-88h-81v88z" />
    <glyph glyph-name="Germandbls" unicode="&#xf485;" horiz-adv-x="1204" 
d="M702 155q23 -44 77.5 -74.5t126.5 -30.5q42 0 76.5 9.5t60 27t39.5 40.5t14 50q0 54 -39 82t-117 37l-114 13q-94 11 -139 58.5t-45 115.5q0 43 17.5 79t50 61.5t79 39.5t105.5 14q61 0 107 -16.5t79 -41t54 -54.5t31 -57h-75q-22 45 -74.5 75.5t-124.5 30.5
q-42 0 -75.5 -10t-56.5 -27.5t-35 -40.5t-12 -49q0 -53 35.5 -80.5t101.5 -34.5l126 -14q90 -10 140 -57t50 -119q0 -36 -16.5 -71t-48.5 -62.5t-81 -44.5t-113 -17q-66 0 -113.5 16t-80.5 40.5t-53.5 54.5t-30.5 57h74zM103 155q23 -44 77.5 -74.5t126.5 -30.5
q42 0 76.5 9.5t60 27t39.5 40.5t14 50q0 54 -39 82t-117 37l-114 13q-94 11 -139 58.5t-45 115.5q0 43 17.5 79t50 61.5t79 39.5t105.5 14q61 0 107 -16.5t79 -41t54 -54.5t31 -57h-75q-22 45 -74.5 75.5t-124.5 30.5q-42 0 -75.5 -10t-56.5 -27.5t-35 -40.5t-12 -49
q0 -53 35.5 -80.5t101.5 -34.5l126 -14q90 -10 140 -57t50 -119q0 -36 -16.5 -71t-48.5 -62.5t-81 -44.5t-113 -17q-66 0 -113.5 16t-80.5 40.5t-53.5 54.5t-30.5 57h74z" />
    <glyph glyph-name="commaaccent" unicode="&#xf6c3;" horiz-adv-x="243" 
d="M84 -204l51 86h-47v82h92v-90l-47 -78h-49z" />
    <glyph glyph-name="cyrbreve" unicode="&#xf6d4;" horiz-adv-x="472" 
d="M121 674q3 -18 13.5 -34.5t26 -29t35 -19.5t40.5 -7t40.5 7t35 19.5t26 29t13.5 34.5h61q-3 -31 -18 -58.5t-38.5 -48t-54 -32.5t-65.5 -12t-65.5 12t-54 32.5t-38.5 48t-18 58.5h61z" />
    <glyph glyph-name="fi" unicode="&#xfb01;" horiz-adv-x="576" 
d="M109 0v392h-94v60h94v83q0 67 38 100.5t124 33.5h63v-60h-62q-50 0 -73.5 -19.5t-23.5 -68.5v-69h315v-452h-66v392h-249v-392h-66zM416 659h81v-88h-81v88z" />
    <glyph glyph-name="fl" unicode="&#xfb02;" horiz-adv-x="565" 
d="M109 0v392h-94v60h94v83q0 67 38 100.5t124 33.5h63v-60h-62q-50 0 -73.5 -19.5t-23.5 -68.5v-69h249v217h66v-669h-66v392h-249v-392h-66z" />
    <glyph glyph-name="one.sup" horiz-adv-x="257" 
d="M118 651l-76 -65v65l70 61h61v-337h-55v276z" />
    <glyph glyph-name="two.sup" horiz-adv-x="358" 
d="M306 427v-52h-244v52l139 123q17 14 28 29.5t11 33.5q0 26 -18.5 40.5t-44.5 14.5q-25 0 -45 -12.5t-27 -39.5h-55q8 45 40.5 74t84.5 29q54 0 87 -28.5t33 -77.5q0 -23 -13 -48t-35 -44l-108 -94h167z" />
    <glyph glyph-name="three.sup" horiz-adv-x="358" 
d="M106 469q7 -26 27 -38t48 -12q32 0 50.5 15t18.5 36q0 23 -16 36.5t-48 13.5h-43v51h41q32 0 49 12t17 35t-18 36.5t-51 13.5q-27 0 -47 -12t-27 -36h-56q10 48 46 73.5t83 25.5q59 0 92 -29.5t33 -71.5q0 -20 -9.5 -39t-32.5 -33q23 -15 32.5 -34.5t9.5 -41.5
q0 -20 -8.5 -38.5t-24.5 -32.5t-39 -22.5t-53 -8.5q-48 0 -84 25t-45 76h55z" />
    <glyph glyph-name="zero.sup" horiz-adv-x="383" 
d="M190 719q41 0 68 -17.5t42.5 -44t22 -57t6.5 -57.5q0 -26 -6.5 -57t-22 -57t-42.5 -43.5t-68 -17.5t-67.5 17.5t-42.5 43.5t-22 57t-6 57q0 27 6 57.5t22 57t42.5 44t67.5 17.5zM190 419q22 0 38 12t26.5 30.5t15 40t4.5 41.5t-4.5 42t-15 40.5t-26.5 30.5t-38 12
t-38 -12t-26 -30.5t-14.5 -40.5t-4.5 -42t4.5 -41.5t14.5 -40t26 -30.5t38 -12z" />
    <glyph glyph-name="four.sup" horiz-adv-x="403" 
d="M292 592v-92h59v-51h-59v-74h-55v74h-185v51l175 212h64l-174 -212h120v92h55z" />
    <glyph glyph-name="five.sup" horiz-adv-x="367" 
d="M109 469q7 -26 27.5 -38t47.5 -12q33 0 54 18.5t21 46.5q0 26 -20.5 44.5t-54.5 18.5q-20 0 -37 -6t-28 -17h-51l19 188h213v-51h-169l-8 -78q11 7 32 10.5t36 3.5q23 0 45 -7t39.5 -21.5t28 -35.5t10.5 -49q0 -23 -9 -44t-25.5 -37t-40.5 -25.5t-54 -9.5q-54 0 -89 28
t-43 73h56z" />
    <glyph glyph-name="six.sup" horiz-adv-x="368" 
d="M190 368q-30 0 -55 9.5t-43.5 30t-29 52.5t-10.5 77q0 35 7 67.5t23.5 58t43.5 41t66 15.5q43 0 76 -23t45 -68h-55q-8 18 -25 29t-40 11q-40 0 -61.5 -29t-24.5 -71q14 15 37 22.5t49 7.5t48.5 -9t39 -24t26 -36t9.5 -45q0 -23 -9 -44t-25.5 -37t-40 -25.5t-51.5 -9.5z
M189 547q-31 0 -52 -17.5t-21 -45.5q0 -29 21 -47t52 -18q30 0 51 18t21 47q0 28 -21 45.5t-51 17.5z" />
    <glyph glyph-name="seven.sup" horiz-adv-x="353" 
d="M52 661v51h248v-50l-167 -287h-63l167 286h-185z" />
    <glyph glyph-name="eight.sup" horiz-adv-x="368" 
d="M185 368q-60 0 -95 29.5t-35 71.5q0 21 10.5 41.5t34.5 35.5q-21 14 -31 33.5t-10 39.5q0 42 33.5 71t92.5 29t92.5 -29t33.5 -71q0 -20 -10 -39.5t-31 -33.5q24 -15 34.5 -35.5t10.5 -41.5q0 -42 -35 -71.5t-95 -29.5zM110 470q0 -23 20.5 -37t54.5 -14t54.5 14t20.5 37
t-20.5 37t-54.5 14t-54.5 -14t-20.5 -37zM115 620q0 -20 19 -34t51 -14t51 14t19 34t-19 34t-51 14t-51 -14t-19 -34z" />
    <glyph glyph-name="nine.sup" horiz-adv-x="368" 
d="M178 719q30 0 55 -9.5t43.5 -30t29 -52.5t10.5 -77q0 -35 -7 -67.5t-23 -58t-42 -41t-65 -15.5q-44 0 -76 24t-43 69h55q7 -18 24 -30t39 -12q39 0 58.5 29.5t23.5 71.5q-14 -15 -36.5 -23t-48.5 -8t-48.5 9t-39 24t-26 36t-9.5 45q0 23 9 44t25.5 37t40 25.5t51.5 9.5z
M179 540q31 0 52 17.5t21 45.5q0 29 -21 47t-52 18q-30 0 -51 -18t-21 -47q0 -28 21 -45.5t51 -17.5z" />
    <glyph glyph-name="zero.sub" horiz-adv-x="383" 
d="M190 310q41 0 68 -17.5t42.5 -44t22 -57t6.5 -57.5q0 -26 -6.5 -57t-22 -57t-42.5 -43.5t-68 -17.5t-67.5 17.5t-42.5 43.5t-22 57t-6 57q0 27 6 57.5t22 57t42.5 44t67.5 17.5zM190 10q22 0 38 12t26.5 30.5t15 40t4.5 41.5t-4.5 42t-15 40.5t-26.5 30.5t-38 12t-38 -12
t-26 -30.5t-14.5 -40.5t-4.5 -42t4.5 -41.5t14.5 -40t26 -30.5t38 -12z" />
    <glyph glyph-name="one.sub" horiz-adv-x="257" 
d="M118 242l-76 -65v65l70 61h61v-337h-55v276z" />
    <glyph glyph-name="two.sub" horiz-adv-x="358" 
d="M306 18v-52h-244v52l139 123q17 14 28 29.5t11 33.5q0 26 -18.5 40.5t-44.5 14.5q-25 0 -45 -12.5t-27 -39.5h-55q8 45 40.5 74t84.5 29q54 0 87 -28.5t33 -77.5q0 -23 -13 -48t-35 -44l-108 -94h167z" />
    <glyph glyph-name="three.sub" horiz-adv-x="358" 
d="M106 60q7 -26 27 -38t48 -12q32 0 50.5 15t18.5 36q0 23 -16 36.5t-48 13.5h-43v51h41q32 0 49 12t17 35t-18 36.5t-51 13.5q-27 0 -47 -12t-27 -36h-56q10 48 46 73.5t83 25.5q59 0 92 -29.5t33 -71.5q0 -20 -9.5 -39t-32.5 -33q23 -15 32.5 -34.5t9.5 -41.5
q0 -20 -8.5 -38.5t-24.5 -32.5t-39 -22.5t-53 -8.5q-48 0 -84 25t-45 76h55z" />
    <glyph glyph-name="four.sub" horiz-adv-x="403" 
d="M292 183v-92h59v-51h-59v-74h-55v74h-185v51l175 212h64l-174 -212h120v92h55z" />
    <glyph glyph-name="five.sub" horiz-adv-x="367" 
d="M109 60q7 -26 27.5 -38t47.5 -12q33 0 54 18.5t21 46.5q0 26 -20.5 44.5t-54.5 18.5q-20 0 -37 -6t-28 -17h-51l19 188h213v-51h-169l-8 -78q11 7 32 10.5t36 3.5q23 0 45 -7t39.5 -21.5t28 -35.5t10.5 -49q0 -23 -9 -44t-25.5 -37t-40.5 -25.5t-54 -9.5q-54 0 -89 28
t-43 73h56z" />
    <glyph glyph-name="six.sub" horiz-adv-x="368" 
d="M190 -41q-30 0 -55 9.5t-43.5 30t-29 52.5t-10.5 77q0 35 7 67.5t23.5 58t43.5 41t66 15.5q43 0 76 -23t45 -68h-55q-8 18 -25 29t-40 11q-40 0 -61.5 -29t-24.5 -71q14 15 37 22.5t49 7.5t48.5 -9t39 -24t26 -36t9.5 -45q0 -23 -9 -44t-25.5 -37t-40 -25.5t-51.5 -9.5z
M189 138q-31 0 -52 -17.5t-21 -45.5q0 -29 21 -47t52 -18q30 0 51 18t21 47q0 28 -21 45.5t-51 17.5z" />
    <glyph glyph-name="seven.sub" horiz-adv-x="353" 
d="M52 252v51h248v-50l-167 -287h-63l167 286h-185z" />
    <glyph glyph-name="eight.sub" horiz-adv-x="368" 
d="M185 -41q-60 0 -95 29.5t-35 71.5q0 21 10.5 41.5t34.5 35.5q-21 14 -31 33.5t-10 39.5q0 42 33.5 71t92.5 29t92.5 -29t33.5 -71q0 -20 -10 -39.5t-31 -33.5q24 -15 34.5 -35.5t10.5 -41.5q0 -42 -35 -71.5t-95 -29.5zM110 61q0 -23 20.5 -37t54.5 -14t54.5 14t20.5 37
t-20.5 37t-54.5 14t-54.5 -14t-20.5 -37zM115 211q0 -20 19 -34t51 -14t51 14t19 34t-19 34t-51 14t-51 -14t-19 -34z" />
    <glyph glyph-name="nine.sub" horiz-adv-x="368" 
d="M178 310q30 0 55 -9.5t43.5 -30t29 -52.5t10.5 -77q0 -35 -7 -67.5t-23 -58t-42 -41t-65 -15.5q-44 0 -76 24t-43 69h55q7 -18 24 -30t39 -12q39 0 58.5 29.5t23.5 71.5q-14 -15 -36.5 -23t-48.5 -8t-48.5 9t-39 24t-26 36t-9.5 45q0 23 9 44t25.5 37t40 25.5t51.5 9.5z
M179 131q31 0 52 17.5t21 45.5q0 29 -21 47t-52 18q-30 0 -51 -18t-21 -47q0 -28 21 -45.5t51 -17.5z" />
    <glyph glyph-name="Tcommaaccent" horiz-adv-x="595" 
d="M569 664v-63h-237v-601h-69v601h-237v63h543zM247 -204l51 86h-47v82h92v-90l-47 -78h-49z" />
    <glyph glyph-name="tcommaaccent" horiz-adv-x="397" 
d="M191 588v-136h159v-60h-159v-244q0 -49 23.5 -68.5t73.5 -19.5h62v-60h-63q-86 0 -124 33.5t-38 100.5v258h-94v60h94v136h66zM183 -204l51 86h-47v82h92v-90l-47 -78h-49z" />
    <glyph glyph-name="zero.numr" horiz-adv-x="383" 
d="M190 672q41 0 68 -17.5t42.5 -44t22 -57t6.5 -57.5q0 -26 -6.5 -57t-22 -57t-42.5 -43.5t-68 -17.5t-67.5 17.5t-42.5 43.5t-22 57t-6 57q0 27 6 57.5t22 57t42.5 44t67.5 17.5zM190 372q22 0 38 12t26.5 30.5t15 40t4.5 41.5t-4.5 42t-15 40.5t-26.5 30.5t-38 12
t-38 -12t-26 -30.5t-14.5 -40.5t-4.5 -42t4.5 -41.5t14.5 -40t26 -30.5t38 -12z" />
    <glyph glyph-name="one.numr" horiz-adv-x="257" 
d="M118 604l-76 -65v65l70 61h61v-337h-55v276z" />
    <glyph glyph-name="two.numr" horiz-adv-x="358" 
d="M306 380v-52h-244v52l139 123q17 14 28 29.5t11 33.5q0 26 -18.5 40.5t-44.5 14.5q-25 0 -45 -12.5t-27 -39.5h-55q8 45 40.5 74t84.5 29q54 0 87 -28.5t33 -77.5q0 -23 -13 -48t-35 -44l-108 -94h167z" />
    <glyph glyph-name="three.numr" horiz-adv-x="358" 
d="M106 422q7 -26 27 -38t48 -12q32 0 50.5 15t18.5 36q0 23 -16 36.5t-48 13.5h-43v51h41q32 0 49 12t17 35t-18 36.5t-51 13.5q-27 0 -47 -12t-27 -36h-56q10 48 46 73.5t83 25.5q59 0 92 -29.5t33 -71.5q0 -20 -9.5 -39t-32.5 -33q23 -15 32.5 -34.5t9.5 -41.5
q0 -20 -8.5 -38.5t-24.5 -32.5t-39 -22.5t-53 -8.5q-48 0 -84 25t-45 76h55z" />
    <glyph glyph-name="four.numr" horiz-adv-x="403" 
d="M292 545v-92h59v-51h-59v-74h-55v74h-185v51l175 212h64l-174 -212h120v92h55z" />
    <glyph glyph-name="five.numr" horiz-adv-x="367" 
d="M109 422q7 -26 27.5 -38t47.5 -12q33 0 54 18.5t21 46.5q0 26 -20.5 44.5t-54.5 18.5q-20 0 -37 -6t-28 -17h-51l19 188h213v-51h-169l-8 -78q11 7 32 10.5t36 3.5q23 0 45 -7t39.5 -21.5t28 -35.5t10.5 -49q0 -23 -9 -44t-25.5 -37t-40.5 -25.5t-54 -9.5q-54 0 -89 28
t-43 73h56z" />
    <glyph glyph-name="six.numr" horiz-adv-x="368" 
d="M190 321q-30 0 -55 9.5t-43.5 30t-29 52.5t-10.5 77q0 35 7 67.5t23.5 58t43.5 41t66 15.5q43 0 76 -23t45 -68h-55q-8 18 -25 29t-40 11q-40 0 -61.5 -29t-24.5 -71q14 15 37 22.5t49 7.5t48.5 -9t39 -24t26 -36t9.5 -45q0 -23 -9 -44t-25.5 -37t-40 -25.5t-51.5 -9.5z
M189 500q-31 0 -52 -17.5t-21 -45.5q0 -29 21 -47t52 -18q30 0 51 18t21 47q0 28 -21 45.5t-51 17.5z" />
    <glyph glyph-name="seven.numr" horiz-adv-x="353" 
d="M52 614v51h248v-50l-167 -287h-63l167 286h-185z" />
    <glyph glyph-name="eight.numr" horiz-adv-x="368" 
d="M185 321q-60 0 -95 29.5t-35 71.5q0 21 10.5 41.5t34.5 35.5q-21 14 -31 33.5t-10 39.5q0 42 33.5 71t92.5 29t92.5 -29t33.5 -71q0 -20 -10 -39.5t-31 -33.5q24 -15 34.5 -35.5t10.5 -41.5q0 -42 -35 -71.5t-95 -29.5zM110 423q0 -23 20.5 -37t54.5 -14t54.5 14t20.5 37
t-20.5 37t-54.5 14t-54.5 -14t-20.5 -37zM115 573q0 -20 19 -34t51 -14t51 14t19 34t-19 34t-51 14t-51 -14t-19 -34z" />
    <glyph glyph-name="nine.numr" horiz-adv-x="368" 
d="M178 672q30 0 55 -9.5t43.5 -30t29 -52.5t10.5 -77q0 -35 -7 -67.5t-23 -58t-42 -41t-65 -15.5q-44 0 -76 24t-43 69h55q7 -18 24 -30t39 -12q39 0 58.5 29.5t23.5 71.5q-14 -15 -36.5 -23t-48.5 -8t-48.5 9t-39 24t-26 36t-9.5 45q0 23 9 44t25.5 37t40 25.5t51.5 9.5z
M179 493q31 0 52 17.5t21 45.5q0 29 -21 47t-52 18q-30 0 -51 -18t-21 -47q0 -28 21 -45.5t51 -17.5z" />
    <glyph glyph-name="zero.dnom" horiz-adv-x="375" 
d="M205 345q41 0 68 -17.5t42.5 -44t22 -57t6.5 -57.5q0 -26 -6.5 -57t-22 -57t-42.5 -43.5t-68 -17.5t-67.5 17.5t-42.5 43.5t-22 57t-6 57q0 27 6 57.5t22 57t42.5 44t67.5 17.5zM205 45q22 0 38 12t26.5 30.5t15 40t4.5 41.5t-4.5 42t-15 40.5t-26.5 30.5t-38 12t-38 -12
t-26 -30.5t-14.5 -40.5t-4.5 -42t4.5 -41.5t14.5 -40t26 -30.5t38 -12z" />
    <glyph glyph-name="one.dnom" horiz-adv-x="257" 
d="M118 277l-76 -65v65l70 61h61v-337h-55v276z" />
    <glyph glyph-name="two.dnom" horiz-adv-x="358" 
d="M306 53v-52h-244v52l139 123q17 14 28 29.5t11 33.5q0 26 -18.5 40.5t-44.5 14.5q-25 0 -45 -12.5t-27 -39.5h-55q8 45 40.5 74t84.5 29q54 0 87 -28.5t33 -77.5q0 -23 -13 -48t-35 -44l-108 -94h167z" />
    <glyph glyph-name="three.dnom" horiz-adv-x="358" 
d="M106 95q7 -26 27 -38t48 -12q32 0 50.5 15t18.5 36q0 23 -16 36.5t-48 13.5h-43v51h41q32 0 49 12t17 35t-18 36.5t-51 13.5q-27 0 -47 -12t-27 -36h-56q10 48 46 73.5t83 25.5q59 0 92 -29.5t33 -71.5q0 -20 -9.5 -39t-32.5 -33q23 -15 32.5 -34.5t9.5 -41.5
q0 -20 -8.5 -38.5t-24.5 -32.5t-39 -22.5t-53 -8.5q-48 0 -84 25t-45 76h55z" />
    <glyph glyph-name="four.dnom" horiz-adv-x="403" 
d="M292 218v-92h59v-51h-59v-74h-55v74h-185v51l175 212h64l-174 -212h120v92h55z" />
    <glyph glyph-name="five.dnom" horiz-adv-x="367" 
d="M109 95q7 -26 27.5 -38t47.5 -12q33 0 54 18.5t21 46.5q0 26 -20.5 44.5t-54.5 18.5q-20 0 -37 -6t-28 -17h-51l19 188h213v-51h-169l-8 -78q11 7 32 10.5t36 3.5q23 0 45 -7t39.5 -21.5t28 -35.5t10.5 -49q0 -23 -9 -44t-25.5 -37t-40.5 -25.5t-54 -9.5q-54 0 -89 28
t-43 73h56z" />
    <glyph glyph-name="six.dnom" horiz-adv-x="368" 
d="M190 -6q-30 0 -55 9.5t-43.5 30t-29 52.5t-10.5 77q0 35 7 67.5t23.5 58t43.5 41t66 15.5q43 0 76 -23t45 -68h-55q-8 18 -25 29t-40 11q-40 0 -61.5 -29t-24.5 -71q14 15 37 22.5t49 7.5t48.5 -9t39 -24t26 -36t9.5 -45q0 -23 -9 -44t-25.5 -37t-40 -25.5t-51.5 -9.5z
M189 173q-31 0 -52 -17.5t-21 -45.5q0 -29 21 -47t52 -18q30 0 51 18t21 47q0 28 -21 45.5t-51 17.5z" />
    <glyph glyph-name="seven.dnom" horiz-adv-x="353" 
d="M52 287v51h248v-50l-167 -287h-63l167 286h-185z" />
    <glyph glyph-name="eight.dnom" horiz-adv-x="368" 
d="M185 -6q-60 0 -95 29.5t-35 71.5q0 21 10.5 41.5t34.5 35.5q-21 14 -31 33.5t-10 39.5q0 42 33.5 71t92.5 29t92.5 -29t33.5 -71q0 -20 -10 -39.5t-31 -33.5q24 -15 34.5 -35.5t10.5 -41.5q0 -42 -35 -71.5t-95 -29.5zM110 96q0 -23 20.5 -37t54.5 -14t54.5 14t20.5 37
t-20.5 37t-54.5 14t-54.5 -14t-20.5 -37zM115 246q0 -20 19 -34t51 -14t51 14t19 34t-19 34t-51 14t-51 -14t-19 -34z" />
    <glyph glyph-name="nine.dnom" horiz-adv-x="368" 
d="M178 345q30 0 55 -9.5t43.5 -30t29 -52.5t10.5 -77q0 -35 -7 -67.5t-23 -58t-42 -41t-65 -15.5q-44 0 -76 24t-43 69h55q7 -18 24 -30t39 -12q39 0 58.5 29.5t23.5 71.5q-14 -15 -36.5 -23t-48.5 -8t-48.5 9t-39 24t-26 36t-9.5 45q0 23 9 44t25.5 37t40 25.5t51.5 9.5z
M179 166q31 0 52 17.5t21 45.5q0 29 -21 47t-52 18q-30 0 -51 -18t-21 -47q0 -28 21 -45.5t51 -17.5z" />
    <glyph glyph-name="zero.tnum" 
d="M63 332q0 51 11.5 111t39.5 112t75.5 87t119.5 35t119.5 -35t75.5 -87t39.5 -112t11.5 -111t-11.5 -111t-39.5 -112t-75.5 -87t-119.5 -35t-119.5 35t-75.5 87t-39.5 112t-11.5 111zM132 332q0 -45 8 -95t28.5 -91.5t54.5 -68.5t86 -27t86 27t54.5 68.5t28.5 91.5t8 95
t-8 95t-28.5 91.5t-54.5 68.5t-86 27t-86 -27t-54.5 -68.5t-28.5 -91.5t-8 -95z" />
    <glyph glyph-name="one.tnum" 
d="M297 63v520l-145 -129v88l141 122h73v-601h157v-63h-394v63h168z" />
    <glyph glyph-name="two.tnum" 
d="M532 63v-63h-442v63l275 263q15 15 30.5 31t28 34t20.5 39t8 47q0 32 -12 57.5t-32 43t-47 27t-57 9.5q-54 0 -97.5 -29.5t-57.5 -89.5h-69q7 40 25 73.5t46 57.5t65 37.5t83 13.5q48 0 89 -14t70 -40t45.5 -62.5t16.5 -81.5q0 -57 -29 -102t-72 -86l-239 -228h352z" />
    <glyph glyph-name="three.tnum" 
d="M302 372q67 0 110.5 30.5t43.5 91.5q0 54 -41 87t-107 33q-53 0 -98 -24.5t-65 -81.5h-69q12 45 34.5 77t53.5 52.5t68 30t76 9.5q53 0 93.5 -15t68 -40.5t41.5 -58.5t14 -69q0 -39 -18.5 -78.5t-68.5 -73.5q27 -18 45 -38t28 -41t14 -42.5t4 -41.5q0 -39 -14.5 -74
t-43 -61t-70.5 -41.5t-97 -15.5q-40 0 -77.5 10t-68 30.5t-53.5 52t-34 75.5h69q24 -58 66.5 -81.5t99.5 -23.5q69 0 111.5 35t42.5 93q0 63 -44 97t-116 34h-71v63h73v0z" />
    <glyph glyph-name="four.tnum" 
d="M487 425v-219h118v-63h-118v-143h-69v143h-367v63l328 458h80l-328 -458h287v219h69z" />
    <glyph glyph-name="five.tnum" 
d="M148 145q19 -50 64 -72.5t98 -22.5q36 0 66.5 12t52 33.5t33.5 50.5t12 63q0 35 -12.5 64t-34.5 50t-52.5 33t-67.5 12q-38 0 -75.5 -16t-61.5 -39h-76l38 351h378v-63h-319l-23 -212q27 18 62.5 30t87.5 12q41 0 81.5 -15t72.5 -43.5t51.5 -70.5t19.5 -96
q0 -43 -17 -82.5t-47.5 -70t-73 -48.5t-94.5 -18q-45 0 -84 11.5t-70 32.5t-52 50t-30 64h73z" />
    <glyph glyph-name="six.tnum" 
d="M328 420q45 0 85.5 -16.5t71 -45.5t48.5 -69t18 -87q0 -42 -17.5 -81t-48 -68.5t-73 -47.5t-92.5 -18q-54 0 -100 18.5t-79.5 58.5t-52.5 102.5t-19 151.5q0 67 15 131.5t47.5 115t83.5 81.5t122 31q153 0 212 -145h-67q-21 43 -59 62.5t-86 19.5q-40 0 -76 -18t-63 -53
t-43.5 -87.5t-17.5 -121.5q26 35 75.5 60.5t115.5 25.5zM317 50q33 0 62.5 11.5t52.5 31.5t36.5 47.5t13.5 60.5q0 34 -13.5 62.5t-36.5 49.5t-52.5 32.5t-62.5 11.5q-34 0 -63.5 -11.5t-51.5 -32.5t-34.5 -49.5t-12.5 -62.5q0 -33 12.5 -60.5t34.5 -48t51.5 -31.5t63.5 -11
z" />
    <glyph glyph-name="seven.tnum" 
d="M100 601v63h438v-63l-320 -601h-78l324 601h-364z" />
    <glyph glyph-name="eight.tnum" 
d="M310 -13q-57 0 -101.5 16t-75 43t-46.5 61.5t-16 72.5q0 20 4 40.5t15 41t30 40.5t48 40q-54 37 -72 75t-18 77q0 35 15.5 68t45 58.5t72.5 41t99 15.5q55 0 98.5 -15.5t73 -41t45 -58.5t15.5 -68q0 -39 -18 -77t-72 -75q58 -39 77.5 -80.5t19.5 -81.5q0 -38 -16 -72.5
t-46.5 -61.5t-75 -43t-101.5 -16zM310 50q36 0 67 9.5t54 26.5t36 40t13 51q0 31 -12.5 55t-35 41t-54 26t-68.5 9t-68.5 -9t-54 -26t-35 -41t-12.5 -55q0 -28 13 -51t36 -40t54 -26.5t67 -9.5zM476 491q0 29 -12.5 52t-34.5 38.5t-52.5 24t-66.5 8.5t-66.5 -8.5t-52.5 -24
t-34.5 -38.5t-12.5 -52q0 -26 13 -48t35.5 -38t52.5 -25t65 -9t65 9t52.5 25t35.5 38t13 48z" />
    <glyph glyph-name="nine.tnum" 
d="M289.039 258.051q-44.9941 0 -85.4893 16.498t-70.9912 45.4951q-30.4961 28.9961 -48.4941 68.9912t-17.998 86.9893q0 41.9951 17.498 80.9902t47.9941 68.4922q30.4961 29.4961 72.9912 47.4941q42.4941 17.9971 92.4883 17.9971q53.9932 0 99.9883 -18.4971
q45.9941 -18.498 79.4902 -58.4932q33.4951 -39.9951 52.4932 -102.487t18.998 -151.481q0 -66.9922 -14.998 -131.484t-47.4941 -114.985q-32.4961 -50.4941 -83.4902 -81.4902t-121.985 -30.9961q-152.981 0 -211.974 144.981h66.9912q20.998 -42.9941 58.9932 -62.4922
q37.9951 -19.4971 85.9893 -19.4971q39.9951 0 75.9912 17.9971q35.9951 17.998 62.9922 52.9941q26.9961 34.9961 43.4941 87.4893t17.498 121.485q-25.9961 -34.9961 -75.4902 -60.4932t-115.486 -25.4971zM300.038 628.006q-32.9961 0 -62.4922 -11.498
q-29.4971 -11.499 -52.4941 -31.4961q-22.9971 -19.998 -36.4951 -47.4941q-13.499 -27.4971 -13.499 -60.4932q0 -33.9961 13.499 -62.4922q13.498 -28.4971 36.4951 -49.4941t52.4941 -32.4961q29.4961 -11.498 62.4922 -11.498q33.9951 0 63.4922 11.498
q29.4961 11.499 51.4932 32.4961q21.998 20.9971 34.4961 49.4941q12.498 28.4961 12.498 62.4922q0 32.9961 -12.498 60.4932q-12.498 27.4961 -34.4961 47.9941q-21.9971 20.4971 -51.4932 31.4961q-29.4971 10.998 -63.4922 10.998z" />
    <glyph glyph-name="dollar.tnum" 
d="M342 795v-120q49 -5 86 -22t63.5 -41t44 -51.5t26.5 -52.5h-74q-10 21 -27.5 40.5t-40.5 34t-51.5 23t-60.5 8.5q-41 0 -72 -10.5t-51 -28.5t-30 -41t-10 -48q0 -54 31 -79.5t90 -33.5l107 -15q89 -12 140.5 -56t51.5 -119q0 -35 -14 -68.5t-42 -61t-70 -45.5t-97 -21
v-119h-69v121q-49 7 -84.5 24.5t-60.5 40.5t-40.5 49.5t-24.5 51.5h75q21 -44 68 -74.5t116 -30.5q39 0 71 9.5t55 27t35.5 41t12.5 50.5q0 28 -9 47.5t-27.5 33t-46.5 22t-66 13.5l-99 14q-84 12 -128 56t-44 116q0 79 51.5 132t145.5 63v120h69z" />
    <glyph glyph-name="Euro.tnum" 
d="M19 438h80q12 54 36 98t58 75.5t77 48.5t92 17q82 0 140 -47t90 -122h-73q-26 46 -62.5 76t-94.5 30q-75 0 -125 -47.5t-68 -128.5h253l-22 -63h-241q-1 -11 -1.5 -21.5t-0.5 -21.5v-20t2 -19h222l-22 -63h-191q17 -84 67.5 -132t126.5 -48q58 0 94.5 29.5t62.5 76.5h73
q-32 -75 -90 -122t-140 -47q-50 0 -93 17.5t-77 49t-58 76.5t-35 100h-80v63h71q-2 11 -2 20v19q0 11 0.5 21.5t1.5 21.5h-71v63z" />
    <glyph glyph-name="sterling.tnum" 
d="M66 63q44 2 67.5 25t23.5 63v149h-93v63h93v119q0 40 12.5 75.5t37 62t62.5 42t89 15.5q41 0 73.5 -14t56 -36.5t39 -49.5t23.5 -54h-68q-15 42 -46.5 66.5t-81.5 24.5q-65 0 -96 -38t-31 -96v-117h200v-63h-200v-155q0 -30 -9 -52t-29 -30h364v-63h-487v63z" />
    <glyph glyph-name="yen.tnum" 
d="M519 664h71l-158 -263h106v-63h-143l-49 -82h192v-63h-194v-193h-69v193h-193v63h191l-49 82h-142v63h104l-156 263h74l207 -349z" />
    <glyph glyph-name="uni20BD.tnum" 
d="M42 346h92v318h224q57 0 98 -15t67.5 -41.5t39.5 -61t13 -73.5t-13 -73.5t-39.5 -60.5t-67.5 -41t-98 -15h-155v-82h265v-63h-265v-138h-69v138h-92v63h92v82h-92v63zM507 473q0 65 -40.5 96.5t-109.5 31.5h-154v-255h154q69 0 109.5 31t40.5 96z" />
    <glyph glyph-name="uni20B4.tnum" 
d="M595 438v-63h-578v63h437q13 13 18.5 30t5.5 34q0 23 -11 43.5t-30.5 35.5t-46.5 24t-60 9q-66 0 -109 -33.5t-59 -82.5h-73q8 28 26 60t47 58t70 43.5t96 17.5q48 0 88 -12.5t69.5 -36t45.5 -56t16 -71.5q0 -17 -4.5 -35.5t-9.5 -27.5h62zM172 230q-10 -19 -10 -52
q0 -28 11.5 -51.5t32 -40.5t49 -26.5t62.5 -9.5q67 0 112 32t65 83h69q-9 -31 -26 -62.5t-46 -57t-71.5 -42t-102.5 -16.5q-56 0 -98 16.5t-70 43.5t-42.5 62t-14.5 72q0 11 1 25.5t5 23.5h-81v63h578v-63h-423z" />
    <glyph glyph-name="uni20B8.tnum" 
d="M551 519v-63h-207v-456h-69v456h-207v63h483zM68 601v63h483v-63h-483z" />
    <glyph glyph-name="cent.tnum" 
d="M461 331q-19 32 -54.5 53t-82.5 21q-37 0 -68 -14t-53 -38.5t-34.5 -57t-12.5 -69.5t12.5 -69.5t34.5 -57t53 -38.5t68 -14q47 0 82.5 21t54.5 53h71q-23 -57 -70 -92t-113 -41v-108h-66v111q-42 7 -77.5 27.5t-61 51t-40 70.5t-14.5 86q0 45 14.5 85t40 71t61 51.5
t77.5 27.5v112h66v-109q66 -6 113 -41t70 -92h-71z" />
    <glyph glyph-name="circumflex.cap" horiz-adv-x="488" 
d="M208 869h72l145 -151h-75l-105 103l-105 -103h-77z" />
    <glyph glyph-name="dieresis.cap" horiz-adv-x="367" 
d="M224 828h80v-86h-80v86zM63 828h80v-86h-80v86z" />
    <glyph glyph-name="acute.cap" horiz-adv-x="333" 
d="M270 869l-131 -151h-76l131 151h76z" />
    <glyph glyph-name="grave.cap" horiz-adv-x="333" 
d="M139 869l131 -151h-76l-131 151h76z" />
    <glyph glyph-name="ring.cap" horiz-adv-x="381" 
d="M63 829q0 26 10 49.5t27.5 41t40.5 27.5t49 10t49.5 -10t41 -27.5t27.5 -41t10 -49.5t-10 -49t-27.5 -40.5t-41 -27.5t-49.5 -10t-49 10t-40.5 27.5t-27.5 40.5t-10 49zM121 829q0 -30 19.5 -50t49.5 -20q31 0 50.5 20t19.5 50t-19.5 50t-50.5 20q-30 0 -49.5 -20
t-19.5 -50z" />
    <glyph glyph-name="caron.cap" horiz-adv-x="488" 
d="M280 718h-72l-145 151h75l105 -103l105 103h77z" />
    <glyph glyph-name="dotaccent.cap" horiz-adv-x="201" 
d="M63 838h75v-81h-75v81z" />
    <glyph glyph-name="breve.cap" horiz-adv-x="468" 
d="M405 869q-3 -32 -16.5 -59.5t-36 -47.5t-53 -32t-65.5 -12q-36 0 -66 12t-52.5 32t-36 47.5t-16.5 59.5h60q5 -39 35.5 -64.5t75.5 -25.5t75 25.5t35 64.5h61z" />
    <glyph glyph-name="hungarumlaut.cap" horiz-adv-x="471" 
d="M408 869l-131 -151h-76l131 151h76zM270 869l-131 -151h-76l131 151h76z" />
    <glyph glyph-name="tilde.cap" horiz-adv-x="494" 
d="M324 779q47 0 47 90h60q0 -69 -28 -110t-79 -41q-24 0 -44.5 14t-39 31t-35.5 31t-35 14q-47 0 -47 -90h-60q0 68 28 109.5t79 41.5q25 0 46.5 -14t40 -31t35.5 -31t32 -14z" />
    <glyph glyph-name="macron.cap" horiz-adv-x="462" 
d="M399 800v-61h-336v61h336z" />
    <glyph glyph-name="cyrbreve.cap" horiz-adv-x="488" 
d="M122 872q3 -21 13.5 -40t27 -33t37.5 -22.5t44 -8.5t44 8.5t37.5 22.5t27 33t13.5 40h63q-3 -33 -18.5 -63t-40 -52.5t-57 -36t-69.5 -13.5t-69.5 13.5t-57 36t-40 52.5t-18.5 63h63z" />
    <glyph glyph-name="a.ss03" horiz-adv-x="593" 
d="M52 226q0 47 14.5 90t43 76t71.5 53t99 20q57 0 99 -21.5t64 -48.5v57h66v-452h-66v57q-22 -27 -64 -48.5t-99 -21.5q-56 0 -99 20t-71.5 53t-43 76t-14.5 90zM118 226q0 -36 11.5 -68.5t33 -57t51.5 -39t66 -14.5q33 0 62.5 11t52.5 33.5t36.5 56t13.5 78.5t-13.5 78.5
t-36.5 56t-52.5 33.5t-62.5 11q-36 0 -66 -14.5t-51.5 -39t-33 -57t-11.5 -68.5z" />
    <glyph glyph-name="aacute.ss03" horiz-adv-x="593" 
d="M460 696l-131 -171h-76l131 171h76zM52 226q0 47 14.5 90t43 76t71.5 53t99 20q57 0 99 -21.5t64 -48.5v57h66v-452h-66v57q-22 -27 -64 -48.5t-99 -21.5q-56 0 -99 20t-71.5 53t-43 76t-14.5 90zM118 226q0 -36 11.5 -68.5t33 -57t51.5 -39t66 -14.5q33 0 62.5 11
t52.5 33.5t36.5 56t13.5 78.5t-13.5 78.5t-36.5 56t-52.5 33.5t-62.5 11q-36 0 -66 -14.5t-51.5 -39t-33 -57t-11.5 -68.5z" />
    <glyph glyph-name="agrave.ss03" horiz-adv-x="593" 
d="M246 696l131 -171h-76l-131 171h76zM52 226q0 47 14.5 90t43 76t71.5 53t99 20q57 0 99 -21.5t64 -48.5v57h66v-452h-66v57q-22 -27 -64 -48.5t-99 -21.5q-56 0 -99 20t-71.5 53t-43 76t-14.5 90zM118 226q0 -36 11.5 -68.5t33 -57t51.5 -39t66 -14.5q33 0 62.5 11
t52.5 33.5t36.5 56t13.5 78.5t-13.5 78.5t-36.5 56t-52.5 33.5t-62.5 11q-36 0 -66 -14.5t-51.5 -39t-33 -57t-11.5 -68.5z" />
    <glyph glyph-name="acircumflex.ss03" horiz-adv-x="593" 
d="M52 226q0 47 14.5 90t43 76t71.5 53t99 20q57 0 99 -21.5t64 -48.5v57h66v-452h-66v57q-22 -27 -64 -48.5t-99 -21.5q-56 0 -99 20t-71.5 53t-43 76t-14.5 90zM118 226q0 -36 11.5 -68.5t33 -57t51.5 -39t66 -14.5q33 0 62.5 11t52.5 33.5t36.5 56t13.5 78.5t-13.5 78.5
t-36.5 56t-52.5 33.5t-62.5 11q-36 0 -66 -14.5t-51.5 -39t-33 -57t-11.5 -68.5zM260 696h74l144 -171h-73l-107 123l-107 -123h-75z" />
    <glyph glyph-name="adieresis.ss03" horiz-adv-x="593" 
d="M52 226q0 47 14.5 90t43 76t71.5 53t99 20q57 0 99 -21.5t64 -48.5v57h66v-452h-66v57q-22 -27 -64 -48.5t-99 -21.5q-56 0 -99 20t-71.5 53t-43 76t-14.5 90zM118 226q0 -36 11.5 -68.5t33 -57t51.5 -39t66 -14.5q33 0 62.5 11t52.5 33.5t36.5 56t13.5 78.5t-13.5 78.5
t-36.5 56t-52.5 33.5t-62.5 11q-36 0 -66 -14.5t-51.5 -39t-33 -57t-11.5 -68.5zM338 657h80v-86h-80v86zM177 657h80v-86h-80v86z" />
    <glyph glyph-name="atilde.ss03" horiz-adv-x="593" 
d="M374 590q47 0 47 90h60q0 -69 -28 -110t-79 -41q-24 0 -44.5 14t-39 31t-35.5 31t-35 14q-47 0 -47 -90h-60q0 68 28 109.5t79 41.5q25 0 46.5 -14t40 -31t35.5 -31t32 -14zM52 226q0 47 14.5 90t43 76t71.5 53t99 20q57 0 99 -21.5t64 -48.5v57h66v-452h-66v57
q-22 -27 -64 -48.5t-99 -21.5q-56 0 -99 20t-71.5 53t-43 76t-14.5 90zM118 226q0 -36 11.5 -68.5t33 -57t51.5 -39t66 -14.5q33 0 62.5 11t52.5 33.5t36.5 56t13.5 78.5t-13.5 78.5t-36.5 56t-52.5 33.5t-62.5 11q-36 0 -66 -14.5t-51.5 -39t-33 -57t-11.5 -68.5z" />
    <glyph glyph-name="aring.ss03" horiz-adv-x="593" 
d="M170 641q0 27 10 50t27.5 40.5t40.5 27.5t50 10t50 -10t40.5 -27.5t27.5 -40.5t10 -50t-10 -50t-27.5 -40.5t-40.5 -27.5t-50 -10t-50 10t-40.5 27.5t-27.5 40.5t-10 50zM228 641q0 -29 20.5 -49.5t49.5 -20.5t49.5 20.5t20.5 49.5t-20.5 49.5t-49.5 20.5t-49.5 -20.5
t-20.5 -49.5zM52 226q0 47 14.5 90t43 76t71.5 53t99 20q57 0 99 -21.5t64 -48.5v57h66v-452h-66v57q-22 -27 -64 -48.5t-99 -21.5q-56 0 -99 20t-71.5 53t-43 76t-14.5 90zM118 226q0 -36 11.5 -68.5t33 -57t51.5 -39t66 -14.5q33 0 62.5 11t52.5 33.5t36.5 56t13.5 78.5
t-13.5 78.5t-36.5 56t-52.5 33.5t-62.5 11q-36 0 -66 -14.5t-51.5 -39t-33 -57t-11.5 -68.5z" />
    <glyph glyph-name="amacron.ss03" horiz-adv-x="593" 
d="M52 226q0 47 14.5 90t43 76t71.5 53t99 20q57 0 99 -21.5t64 -48.5v57h66v-452h-66v57q-22 -27 -64 -48.5t-99 -21.5q-56 0 -99 20t-71.5 53t-43 76t-14.5 90zM118 226q0 -36 11.5 -68.5t33 -57t51.5 -39t66 -14.5q33 0 62.5 11t52.5 33.5t36.5 56t13.5 78.5t-13.5 78.5
t-36.5 56t-52.5 33.5t-62.5 11q-36 0 -66 -14.5t-51.5 -39t-33 -57t-11.5 -68.5zM465 632v-61h-336v61h336z" />
    <glyph glyph-name="abreve.ss03" horiz-adv-x="593" 
d="M470 696q-2 -33 -16 -63.5t-36.5 -54.5t-53.5 -38.5t-67 -14.5q-37 0 -67.5 14.5t-53.5 38.5t-36.5 54.5t-15.5 63.5h60q2 -21 11 -40.5t24 -35t34.5 -25t43.5 -9.5t43.5 9.5t34 25t23.5 35t11 40.5h61zM52 226q0 47 14.5 90t43 76t71.5 53t99 20q57 0 99 -21.5t64 -48.5
v57h66v-452h-66v57q-22 -27 -64 -48.5t-99 -21.5q-56 0 -99 20t-71.5 53t-43 76t-14.5 90zM118 226q0 -36 11.5 -68.5t33 -57t51.5 -39t66 -14.5q33 0 62.5 11t52.5 33.5t36.5 56t13.5 78.5t-13.5 78.5t-36.5 56t-52.5 33.5t-62.5 11q-36 0 -66 -14.5t-51.5 -39t-33 -57
t-11.5 -68.5z" />
    <glyph glyph-name="aogonek.ss03" horiz-adv-x="593" 
d="M509 452v-452q-11 -9 -26.5 -22t-30 -27.5t-25 -29t-10.5 -27.5q0 -34 51 -34h41v-64h-40q-58 0 -85.5 21.5t-27.5 61.5q0 32 25 62.5t62 58.5v57q-26 -31 -67.5 -50.5t-95.5 -19.5q-56 0 -99 20t-71.5 53t-43 76t-14.5 90t14.5 90.5t43 76.5t71.5 52.5t99 19.5
q54 0 95.5 -19t67.5 -50v56h66zM445 226q0 45 -13.5 78t-36.5 55t-53 33t-62 11q-36 0 -66 -14t-51 -38.5t-33 -56.5t-12 -68t12 -68t33 -56t51 -38.5t66 -14.5q32 0 62 11t53 33t36.5 55.5t13.5 77.5z" />
    <glyph glyph-name="uni0430.ss03" horiz-adv-x="593" 
d="M52 226q0 47 14.5 90t43 76t71.5 53t99 20q57 0 99 -21.5t64 -48.5v57h66v-452h-66v57q-22 -27 -64 -48.5t-99 -21.5q-56 0 -99 20t-71.5 53t-43 76t-14.5 90zM118 226q0 -36 11.5 -68.5t33 -57t51.5 -39t66 -14.5q33 0 62.5 11t52.5 33.5t36.5 56t13.5 78.5t-13.5 78.5
t-36.5 56t-52.5 33.5t-62.5 11q-36 0 -66 -14.5t-51.5 -39t-33 -57t-11.5 -68.5z" />
    <glyph glyph-name="slash.case" horiz-adv-x="344" 
d="M266 703h73l-262 -744h-72z" />
    <glyph glyph-name="at.case" horiz-adv-x="973" 
d="M652 529v-262q0 -34 18.5 -58t55.5 -24q48 0 78 48t30 144q0 69 -26.5 129t-72.5 103.5t-108.5 68.5t-135.5 25q-75 0 -139.5 -29t-112 -79.5t-74.5 -118t-27 -144.5q0 -78 27.5 -145.5t74.5 -117.5t111 -79t138 -29q37 0 67 5t55.5 14t48 22t44.5 29h87
q-27 -25 -58.5 -48.5t-68 -41.5t-80.5 -29t-97 -11q-87 0 -162.5 33.5t-132 92t-88.5 137t-32 168.5t32.5 169t89.5 137t133.5 91.5t164.5 33.5q85 0 159.5 -29t129.5 -80.5t87 -122t32 -153.5q0 -50 -11.5 -96t-34 -81t-57 -55.5t-79.5 -20.5q-42 0 -69 19.5t-46 49.5
q-17 -24 -53 -46.5t-90 -22.5q-36 0 -70.5 13.5t-60.5 39.5t-42 65t-16 90t16 90t42 65t60.5 39.5t70.5 13.5q26 0 47 -5.5t37 -13.5t26.5 -16t15.5 -14v37h66zM462 185q30 0 54 12t40.5 32t25.5 47t9 57t-9 57t-25.5 47t-40.5 32t-54 12t-53 -12t-39 -32.5t-24.5 -47
t-8.5 -56.5t8.5 -56.5t24.5 -47t39 -32.5t53 -12z" />
    <glyph glyph-name="backslash.case" horiz-adv-x="344" 
d="M78.0322 703h-72.9912l261.969 -744h71.9912z" />
    <glyph glyph-name="hyphen.case" horiz-adv-x="403" 
d="M331 364v-63h-259v63h259z" />
    <glyph glyph-name="endash.case" horiz-adv-x="586" 
d="M539 364v-63h-492v63h492z" />
    <glyph glyph-name="emdash.case" horiz-adv-x="902" 
d="M855 364v-63h-808v63h808z" />
    <glyph glyph-name="bracketleft.case" horiz-adv-x="377" 
d="M176 -18h171v-60h-237v817h237v-60h-171v-697z" />
    <glyph glyph-name="bracketright.case" horiz-adv-x="377" 
d="M201.021 -18h-170.979v-60h236.972v817h-236.972v-60h170.979v-697z" />
    <glyph glyph-name="braceleft.case" horiz-adv-x="361" 
d="M128 331q16 -8 31.5 -20t27.5 -27t19.5 -34t7.5 -41v-146q0 -43 22.5 -62t70.5 -19h34v-60h-43q-65 0 -107.5 34t-42.5 105v130q0 45 -30 73t-78 35v63q48 7 78 35t30 73v130q0 35 11 61t31 43.5t47.5 26t60.5 8.5h43v-60h-34q-48 0 -70.5 -19t-22.5 -62v-146
q0 -23 -7.5 -41.5t-19.5 -33.5t-27.5 -26.5t-31.5 -19.5z" />
    <glyph glyph-name="braceright.case" horiz-adv-x="361" 
d="M233.016 331q-15.998 -8 -31.4961 -20t-27.4971 -27q-11.998 -15 -19.4971 -34t-7.49902 -41v-146q0 -43 -22.4971 -62q-22.498 -19 -70.4922 -19h-33.9951v-60h42.9941q64.9922 0 107.487 34q42.4941 34 42.4941 105v130q0 45 29.9971 73q29.9961 28 77.9902 35v63
q-47.9941 7 -77.9902 35q-29.9971 28 -29.9971 73v130q0 35 -10.998 61q-10.999 26 -30.9961 43.5q-19.998 17.5 -47.4941 26q-27.4971 8.5 -60.4932 8.5h-42.9941v-60h33.9951q47.9941 0 70.4922 -19q22.4971 -19 22.4971 -62v-146q0 -23 7.49902 -41.5t19.4971 -33.5
q11.999 -15 27.4971 -26.5t31.4961 -19.5z" />
    <glyph glyph-name="parenleft.case" horiz-adv-x="315" 
d="M295 739q-27 -36 -53 -78t-46 -92t-32.5 -109t-12.5 -130t12.5 -130t32.5 -108.5t46 -91.5t53 -78h-73q-30 36 -55 80t-43 96t-28.5 110t-10.5 122t10.5 122.5t28.5 110t43 96t55 80.5h73z" />
    <glyph glyph-name="parenright.case" horiz-adv-x="315" 
d="M20.0361 739q26.9971 -36 52.9932 -78q25.9971 -42 45.9941 -92q19.998 -50 32.4961 -109q12.499 -59 12.499 -130t-12.499 -130q-12.498 -59 -32.4961 -108.5q-19.9971 -49.5 -45.9941 -91.5q-25.9961 -42 -52.9932 -78h72.9912q29.9961 36 54.9932 80t42.9951 96
q17.9971 52 28.4961 110t10.499 122t-10.499 122.5t-28.4961 110q-17.998 51.5 -42.9951 96t-54.9932 80.5h-72.9912z" />
    <glyph glyph-name="guillemotright.case" horiz-adv-x="515" 
d="M332 513l128 -147v-70l-128 -147h-86l155 182l-155 182h86zM122 513l128 -147v-70l-128 -147h-86l155 182l-155 182h86z" />
    <glyph glyph-name="guillemotleft.case" horiz-adv-x="515" 
d="M479 513l-155 -182l155 -182h-86l-128 147v70l128 147h86zM269 513l-155 -182l155 -182h-86l-128 147v70l128 147h86z" />
    <glyph glyph-name="guilsinglright.case" horiz-adv-x="305" 
d="M122 513l128 -147v-70l-128 -147h-86l155 182l-155 182h86z" />
    <glyph glyph-name="guilsinglleft.case" horiz-adv-x="305" 
d="M269 513l-155 -182l155 -182h-86l-128 147v70l128 147h86z" />
    <glyph glyph-name="exclamdown.case" horiz-adv-x="311" 
d="M115 664h81v-82h-81v82zM191 0h-71v467h71v-467z" />
    <glyph glyph-name="questiondown.case" horiz-adv-x="514" 
d="M310.025 583.01h-80.9902v80.9902h80.9902v-80.9902zM254.031 -12.917q-48.9932 0 -85.4893 13.498q-36.4951 13.498 -59.9922 35.9951q-23.4971 22.498 -34.9961 50.9941t-11.499 59.4932q0 31.9961 7 53.9932q6.99902 21.9971 19.4971 39.4951
q12.499 17.498 28.9971 32.4961t35.4951 30.9961q26.9971 21.9971 42.9951 35.9951q15.998 13.999 24.4971 26.4971q8.49902 12.499 11.498 26.9971q3 14.498 3 36.4951v37.9951h68.9912v-37.9951q0 -28.9961 -2.99902 -49.9932q-3 -20.998 -13.499 -39.4961
q-10.498 -18.4971 -29.9961 -36.9951t-52.4932 -42.4951q-31.9961 -22.9971 -50.9941 -47.9941q-18.998 -24.9961 -18.998 -61.9922q0 -49.9941 33.9961 -75.4902q33.9961 -25.4971 85.9893 -25.4971q59.9932 0 93.4893 27.9961q33.4951 27.9971 47.4941 72.9912h73.9912
q-7 -32.9961 -23.998 -62.4922q-16.9971 -29.4961 -43.9941 -51.9941q-26.9971 -22.4971 -63.9922 -35.9951t-83.9902 -13.498z" />
    <glyph glyph-name="bar.case" horiz-adv-x="210" 
d="M138 -75h-66v817h66v-817z" />
    <glyph glyph-name="brokenbar.case" horiz-adv-x="210" 
d="M138 -75h-66v343h66v-343zM138 398h-66v344h66v-344z" />
    <glyph glyph-name="bullet.case" horiz-adv-x="553" 
d="M84 332q0 39 15 74t41.5 61.5t61.5 41.5t74 15q40 0 75 -15t61 -41.5t41.5 -61.5t15.5 -74q0 -40 -15.5 -75t-41.5 -61.5t-61 -41.5t-75 -15q-39 0 -74 15t-61.5 41.5t-41.5 61.5t-15 75z" />
    <glyph glyph-name="periodcentered.case" horiz-adv-x="218" 
d="M63 378h92v-92h-92v92z" />
    <glyph glyph-name="emdash.ss02" horiz-adv-x="1290" 
d="M1243 289v-67h-1196v67h1196z" />
    <glyph glyph-name="emdash.ss02.case" horiz-adv-x="1290" 
d="M1243 366v-67h-1196v67h1196z" />
    <glyph glyph-name="plus.tnum" 
d="M277 274v178h66v-178h178v-63h-178v-178h-66v178h-178v63h178z" />
    <glyph glyph-name="comma.tnum" 
d="M245 -107l64 107h-45v92h92v-100l-60 -99h-51z" />
    <glyph glyph-name="period.tnum" 
d="M264 92h92v-92h-92v92z" />
    <glyph glyph-name="equal.tnum" 
d="M521 199v-63h-422v63h422zM521 353v-63h-422v63h422z" />
    <glyph glyph-name="florin.tnum" 
d="M345 353h150l-9 -60h-148l-51 -356q-10 -68 -55.5 -104.5t-133.5 -36.5h-46l8 60h46q50 0 80.5 25t35.5 66l48 346h-150l9 60h150l25 175q10 67 55.5 104t133.5 37h46l-9 -60h-46q-50 0 -80 -26t-35 -66z" />
    <glyph glyph-name="multiply.tnum" 
d="M456 49l-146 146l-146 -146l-46 47l145 145l-145 146l46 47l146 -146l146 146l46 -47l-145 -146l145 -145z" />
    <glyph glyph-name="divide.tnum" 
d="M260 439h100v-100h-100v100zM260 150h100v-100h-100v100zM521 276v-63h-422v63h422z" />
    <glyph glyph-name="minus.tnum" 
d="M521 276v-63h-422v63h422z" />
    <glyph glyph-name="aringacute.ss03" horiz-adv-x="593" 
d="M443 953l-99 -129h-76l99 129h76zM167 641q0 27 10 50t27.5 40.5t40.5 27.5t50 10t50 -10t40.5 -27.5t27.5 -40.5t10 -50t-10 -50t-27.5 -40.5t-40.5 -27.5t-50 -10t-50 10t-40.5 27.5t-27.5 40.5t-10 50zM225 641q0 -29 20.5 -49.5t49.5 -20.5t49.5 20.5t20.5 49.5
t-20.5 49.5t-49.5 20.5t-49.5 -20.5t-20.5 -49.5zM52 226q0 47 14.5 90t43 76t71.5 53t99 20q57 0 99 -21.5t64 -48.5v57h66v-452h-66v57q-22 -27 -64 -48.5t-99 -21.5q-56 0 -99 20t-71.5 53t-43 76t-14.5 90zM118 226q0 -36 11.5 -68.5t33 -57t51.5 -39t66 -14.5
q33 0 62.5 11t52.5 33.5t36.5 56t13.5 78.5t-13.5 78.5t-36.5 56t-52.5 33.5t-62.5 11q-36 0 -66 -14.5t-51.5 -39t-33 -57t-11.5 -68.5z" />
    </font>
</defs>
</svg>
